osu file format v14

[General]
AudioFilename: audio.mp3
AudioLeadIn: 0
PreviewTime: 85688
Countdown: 0
SampleSet: Normal
StackLeniency: 0.7
Mode: 1
LetterboxInBreaks: 0
WidescreenStoryboard: 1

[Editor]
Bookmarks: 2979,5479,8312
DistanceSpacing: 1
BeatDivisor: 4
GridSize: 32
TimelineZoom: 2

[Metadata]
Title:Finder(Extended Mix)
TitleUnicode:Finder(Extended Mix)
Artist:Asterisk
ArtistUnicode:Asterisk
Creator:EdamaMe411
Version:Inner Oni
Source:
Tags:tjbc komasy
BeatmapID:1356604
BeatmapSetID:639640

[Difficulty]
HPDrainRate:6
CircleSize:5
OverallDifficulty:6
ApproachRate:5
SliderMultiplier:1.4
SliderTickRate:2

[Events]
//Background and Video events
0,0,"Finder.png",0,-45
//Break Periods
//Storyboard Layer 0 (Background)
//Storyboard Layer 1 (Fail)
//Storyboard Layer 2 (Pass)
//Storyboard Layer 3 (Foreground)
//Storyboard Sound Samples

[TimingPoints]
355,333.333333333333,4,1,0,80,1,0
43521,-142.857142857143,4,1,0,30,0,0
44354,-133.333333333333,4,1,0,35,0,0
44938,-133.333333333333,4,1,0,40,0,0
45688,-125,4,1,0,50,0,0
46854,-125,4,1,0,60,0,0
48521,-117.647058823529,4,1,0,70,0,0
52188,-111.111111111111,4,1,0,80,0,0
52521,-107.52688172043,4,1,0,80,0,0
52854,-104.166666666667,4,1,0,80,0,0
53604,-100,4,1,0,80,0,0
64354,-100,4,1,0,90,0,1
84354,-100,4,1,0,90,0,0
86021,-90.9090909090909,4,1,0,90,0,1
107021,-90.9090909090909,4,1,0,90,0,0

[HitObjects]
256,192,355,5,4,0:0:0:0:
288,192,521,1,0,0:0:0:0:
288,192,688,1,8,0:0:0:0:
288,192,771,1,0,0:0:0:0:
288,192,938,1,8,0:0:0:0:
288,224,1021,1,0,0:0:0:0:
288,192,1188,1,8,0:0:0:0:
288,192,1354,1,0,0:0:0:0:
256,192,1438,1,0,0:0:0:0:
288,192,1521,1,8,0:0:0:0:
288,192,1604,1,8,0:0:0:0:
288,192,1688,1,0,0:0:0:0:
288,192,1854,1,8,0:0:0:0:
288,192,2021,1,8,0:0:0:0:
288,192,2104,1,8,0:0:0:0:
288,192,2188,1,8,0:0:0:0:
288,192,2271,1,8,0:0:0:0:
288,192,2354,1,0,0:0:0:0:
288,192,2438,1,8,0:0:0:0:
320,192,2604,1,8,0:0:0:0:
320,192,2688,1,0,0:0:0:0:
320,192,2854,1,8,0:0:0:0:
320,192,2938,1,8,0:0:0:0:
320,192,3021,1,0,0:0:0:0:
352,192,3354,1,0,0:0:0:0:
352,192,3688,1,0,0:0:0:0:
320,160,3938,1,8,0:0:0:0:
320,192,4021,1,0,0:0:0:0:
352,192,4104,1,8,0:0:0:0:
320,192,4188,1,8,0:0:0:0:
320,192,4354,1,0,0:0:0:0:
320,192,4438,1,0,0:0:0:0:
320,192,4521,1,0,0:0:0:0:
320,192,4688,1,8,0:0:0:0:
320,192,4854,1,0,0:0:0:0:
320,192,5021,1,0,0:0:0:0:
320,192,5188,1,8,0:0:0:0:
320,192,5354,1,0,0:0:0:0:
320,192,5688,1,0,0:0:0:0:
320,192,5854,1,8,0:0:0:0:
288,192,6021,1,0,0:0:0:0:
288,192,6104,1,8,0:0:0:0:
288,192,6271,1,8,0:0:0:0:
288,192,6354,1,0,0:0:0:0:
288,192,6521,1,8,0:0:0:0:
320,192,6688,1,0,0:0:0:0:
320,192,6771,1,0,0:0:0:0:
320,192,6854,1,0,0:0:0:0:
320,192,6938,1,8,0:0:0:0:
320,192,7021,1,0,0:0:0:0:
288,224,7188,1,8,0:0:0:0:
288,224,7354,1,0,0:0:0:0:
288,224,7438,1,0,0:0:0:0:
288,224,7521,1,8,0:0:0:0:
288,224,7604,1,8,0:0:0:0:
288,224,7688,1,0,0:0:0:0:
288,224,7771,1,8,0:0:0:0:
288,224,7938,1,8,0:0:0:0:
288,224,8021,1,0,0:0:0:0:
288,224,8188,1,8,0:0:0:0:
288,224,8271,1,8,0:0:0:0:
288,224,8354,1,0,0:0:0:0:
288,224,8688,1,0,0:0:0:0:
288,224,9021,1,0,0:0:0:0:
288,224,9271,1,8,0:0:0:0:
288,224,9354,1,0,0:0:0:0:
288,224,9438,1,0,0:0:0:0:
288,224,9521,1,8,0:0:0:0:
288,224,9688,1,0,0:0:0:0:
288,224,9771,1,0,0:0:0:0:
288,224,9854,1,0,0:0:0:0:
288,224,10021,1,8,0:0:0:0:
288,224,10188,1,0,0:0:0:0:
288,224,10355,1,8,0:0:0:0:
288,160,10438,1,8,0:0:0:0:
288,224,10521,1,0,0:0:0:0:
288,224,10605,1,0,0:0:0:0:
288,224,10688,1,8,0:0:0:0:
288,224,10771,1,0,0:0:0:0:
288,224,10855,1,0,0:0:0:0:
288,224,10938,1,0,0:0:0:0:
288,224,11021,1,8,0:0:0:0:
288,224,11188,1,4,0:0:0:0:
320,288,11354,1,0,0:0:0:0:
288,192,11438,1,0,0:0:0:0:
288,192,11521,1,8,0:0:0:0:
288,192,11604,1,8,0:0:0:0:
256,160,11687,1,0,0:0:0:0:
256,160,11854,1,8,0:0:0:0:
288,192,12021,1,0,0:0:0:0:
288,192,12104,1,8,0:0:0:0:
288,192,12188,1,8,0:0:0:0:
288,192,12271,1,0,0:0:0:0:
288,192,12354,1,0,0:0:0:0:
288,192,12521,1,8,0:0:0:0:
320,192,12688,1,0,0:0:0:0:
288,160,12770,1,0,0:0:0:0:
288,160,12854,1,8,0:0:0:0:
288,160,12937,1,0,0:0:0:0:
288,160,13020,1,0,0:0:0:0:
288,160,13104,1,8,0:0:0:0:
288,160,13271,1,8,0:0:0:0:
288,160,13354,1,0,0:0:0:0:
288,128,13521,1,8,0:0:0:0:
288,128,13604,1,8,0:0:0:0:
288,128,13688,1,0,0:0:0:0:
288,128,14021,1,0,0:0:0:0:
256,160,14354,1,0,0:0:0:0:
256,160,14604,1,0,0:0:0:0:
256,160,14688,1,0,0:0:0:0:
256,160,14771,1,8,0:0:0:0:
256,160,14854,1,0,0:0:0:0:
256,160,15021,1,0,0:0:0:0:
256,160,15104,1,0,0:0:0:0:
256,160,15188,1,8,0:0:0:0:
256,160,15354,1,8,0:0:0:0:
256,160,15521,1,0,0:0:0:0:
256,160,15688,1,0,0:0:0:0:
256,160,15854,1,8,0:0:0:0:
288,160,16021,1,8,0:0:0:0:
256,160,16104,1,8,0:0:0:0:
256,160,16188,1,0,0:0:0:0:
256,160,16354,1,4,0:0:0:0:
256,160,16521,1,8,0:0:0:0:
256,160,16688,1,0,0:0:0:0:
256,160,16771,1,8,0:0:0:0:
256,160,16938,1,8,0:0:0:0:
256,160,17021,1,0,0:0:0:0:
256,160,17188,1,8,0:0:0:0:
256,160,17354,1,0,0:0:0:0:
256,160,17437,1,0,0:0:0:0:
256,160,17520,1,8,0:0:0:0:
256,160,17688,1,0,0:0:0:0:
256,160,17854,1,8,0:0:0:0:
256,160,18021,1,0,0:0:0:0:
256,160,18104,1,0,0:0:0:0:
256,160,18188,1,8,0:0:0:0:
224,160,18270,1,8,0:0:0:0:
256,160,18354,1,0,0:0:0:0:
256,128,18521,1,0,0:0:0:0:
256,128,18687,1,8,0:0:0:0:
256,128,18771,1,8,0:0:0:0:
256,128,18854,1,0,0:0:0:0:
256,160,19021,1,4,0:0:0:0:
256,160,19188,1,8,0:0:0:0:
256,160,19354,1,0,0:0:0:0:
256,160,19437,1,0,0:0:0:0:
256,160,19521,1,8,0:0:0:0:
256,160,19688,1,0,0:0:0:0:
256,128,19854,1,8,0:0:0:0:
288,160,19938,1,8,0:0:0:0:
256,128,20021,1,0,0:0:0:0:
256,128,20104,1,0,0:0:0:0:
256,128,20188,1,0,0:0:0:0:
256,160,20354,1,8,0:0:0:0:
256,160,20438,1,8,0:0:0:0:
256,160,20521,1,8,0:0:0:0:
256,160,20604,1,8,0:0:0:0:
256,160,20688,1,8,0:0:0:0:
256,160,20771,1,8,0:0:0:0:
256,160,20854,1,8,0:0:0:0:
256,160,20938,1,8,0:0:0:0:
256,160,21021,1,8,0:0:0:0:
256,160,21104,1,8,0:0:0:0:
256,160,21188,1,8,0:0:0:0:
256,160,21271,1,8,0:0:0:0:
256,160,21354,1,0,0:0:0:0:
256,160,21688,1,4,0:0:0:0:
256,160,21854,1,8,0:0:0:0:
256,160,22021,1,0,0:0:0:0:
256,160,22104,1,8,0:0:0:0:
256,192,22271,1,0,0:0:0:0:
256,160,22354,1,0,0:0:0:0:
256,192,22521,1,8,0:0:0:0:
256,192,22688,1,0,0:0:0:0:
256,192,22771,1,0,0:0:0:0:
256,192,22854,1,8,0:0:0:0:
256,192,23021,1,0,0:0:0:0:
256,192,23188,1,8,0:0:0:0:
256,192,23354,1,0,0:0:0:0:
256,192,23437,1,8,0:0:0:0:
256,192,23520,1,8,0:0:0:0:
224,160,23687,1,0,0:0:0:0:
224,160,23771,1,0,0:0:0:0:
224,192,23938,1,8,0:0:0:0:
224,160,24021,1,0,0:0:0:0:
256,160,24188,1,8,0:0:0:0:
256,192,24354,1,0,0:0:0:0:
288,224,24688,1,0,0:0:0:0:
288,224,25021,1,0,0:0:0:0:
288,224,25188,1,0,0:0:0:0:
288,224,25271,1,8,0:0:0:0:
288,224,25354,1,0,0:0:0:0:
288,192,25521,1,8,0:0:0:0:
288,192,25688,1,0,0:0:0:0:
288,224,25771,1,0,0:0:0:0:
288,224,25938,1,0,0:0:0:0:
288,224,26021,1,0,0:0:0:0:
288,224,26188,1,8,0:0:0:0:
288,224,26354,1,0,0:0:0:0:
288,224,26521,1,8,0:0:0:0:
288,224,26604,1,8,0:0:0:0:
288,224,26688,1,0,0:0:0:0:
288,192,26854,1,8,0:0:0:0:
288,224,27021,1,4,0:0:0:0:
288,224,27188,1,8,0:0:0:0:
288,224,27354,1,0,0:0:0:0:
288,224,27438,1,8,0:0:0:0:
288,224,27604,1,0,0:0:0:0:
288,224,27687,1,0,0:0:0:0:
288,224,27854,1,8,0:0:0:0:
256,192,28021,1,0,0:0:0:0:
256,192,28104,1,0,0:0:0:0:
256,192,28188,1,8,0:0:0:0:
288,192,28354,1,0,0:0:0:0:
288,192,28521,1,8,0:0:0:0:
288,192,28688,1,0,0:0:0:0:
288,192,28771,1,8,0:0:0:0:
288,192,28854,1,8,0:0:0:0:
288,192,29020,1,0,0:0:0:0:
288,192,29104,1,0,0:0:0:0:
288,192,29271,1,8,0:0:0:0:
288,192,29354,1,0,0:0:0:0:
288,192,29521,1,8,0:0:0:0:
288,192,29688,1,0,0:0:0:0:
320,224,30021,1,0,0:0:0:0:
288,192,30354,1,0,0:0:0:0:
320,192,30521,1,0,0:0:0:0:
320,192,30604,1,8,0:0:0:0:
288,192,30688,1,0,0:0:0:0:
320,192,30854,1,8,0:0:0:0:
320,192,31021,1,4,0:0:0:0:
352,192,31188,1,8,0:0:0:0:
256,160,31270,1,8,0:0:0:0:
352,192,31354,1,0,0:0:0:0:
352,192,31521,1,8,0:0:0:0:
352,192,31688,1,0,0:0:0:0:
352,192,31771,1,0,0:0:0:0:
352,192,31854,1,8,0:0:0:0:
352,192,31938,1,0,0:0:0:0:
352,192,32021,1,8,0:0:0:0:
384,224,32104,1,8,0:0:0:0:
384,224,32188,1,0,0:0:0:0:
384,224,32521,1,8,0:0:0:0:
320,192,32563,1,8,0:0:0:0:
384,224,32688,1,4,0:0:0:0:
384,224,32854,1,8,0:0:0:0:
352,192,33021,1,0,0:0:0:0:
320,192,33188,1,8,0:0:0:0:
352,160,33354,1,0,0:0:0:0:
352,160,33521,1,8,0:0:0:0:
352,160,33604,1,8,0:0:0:0:
352,160,33688,1,0,0:0:0:0:
352,160,33854,1,8,0:0:0:0:
352,160,34021,1,0,0:0:0:0:
288,192,34104,1,0,0:0:0:0:
352,160,34188,1,8,0:0:0:0:
352,160,34354,1,0,0:0:0:0:
352,160,34438,1,0,0:0:0:0:
352,160,34604,1,8,0:0:0:0:
320,160,34688,1,0,0:0:0:0:
320,192,34854,1,8,0:0:0:0:
320,160,35021,1,0,0:0:0:0:
352,192,35188,1,8,0:0:0:0:
256,96,35271,1,8,0:0:0:0:
352,192,35354,1,0,0:0:0:0:
352,192,35521,1,8,0:0:0:0:
320,160,35688,1,0,0:0:0:0:
352,192,35771,1,0,0:0:0:0:
320,160,35854,1,8,0:0:0:0:
320,160,36021,1,0,0:0:0:0:
320,160,36188,1,8,0:0:0:0:
352,160,36354,1,0,0:0:0:0:
320,160,36520,1,8,0:0:0:0:
320,160,36604,1,8,0:0:0:0:
320,160,36687,1,0,0:0:0:0:
320,160,36854,1,8,0:0:0:0:
320,160,37020,1,0,0:0:0:0:
320,160,37104,1,0,0:0:0:0:
320,160,37187,1,0,0:0:0:0:
320,160,37270,1,0,0:0:0:0:
320,160,37354,1,8,0:0:0:0:
320,160,37687,1,4,0:0:0:0:
320,160,37854,1,0,0:0:0:0:
320,160,38020,1,8,0:0:0:0:
288,128,38187,1,8,0:0:0:0:
320,160,38270,1,8,0:0:0:0:
320,160,38354,1,0,0:0:0:0:
320,160,38520,1,0,0:0:0:0:
320,160,38687,1,8,0:0:0:0:
320,160,38854,1,8,0:0:0:0:
320,160,38937,1,8,0:0:0:0:
320,160,39020,1,0,0:0:0:0:
320,160,39187,1,0,0:0:0:0:
320,160,39354,1,8,0:0:0:0:
320,160,39520,1,0,0:0:0:0:
320,160,39604,1,0,0:0:0:0:
320,160,39687,1,8,0:0:0:0:
320,160,39770,1,8,0:0:0:0:
320,160,39854,1,0,0:0:0:0:
320,160,40020,1,8,0:0:0:0:
320,160,40187,1,8,0:0:0:0:
320,160,40354,1,0,0:0:0:0:
320,160,40437,1,0,0:0:0:0:
320,160,40520,1,0,0:0:0:0:
320,160,40604,1,0,0:0:0:0:
320,160,40687,1,8,0:0:0:0:
320,160,40770,1,8,0:0:0:0:
320,160,40854,1,8,0:0:0:0:
320,160,40937,1,8,0:0:0:0:
320,128,41020,1,0,0:0:0:0:
320,128,41104,1,0,0:0:0:0:
320,128,41187,1,8,0:0:0:0:
320,128,41270,1,8,0:0:0:0:
320,128,41354,1,0,0:0:0:0:
320,128,41437,1,8,0:0:0:0:
320,128,41520,1,0,0:0:0:0:
320,128,41604,1,0,0:0:0:0:
320,128,41687,1,8,0:0:0:0:
320,128,42020,1,8,0:0:0:0:
320,128,42354,1,8,0:0:0:0:
320,128,43020,1,4,0:0:0:0:
256,160,43688,1,8,0:0:0:0:
256,160,44521,1,0,0:0:0:0:
256,160,44854,1,0,0:0:0:0:
256,160,45021,1,8,0:0:0:0:
224,160,45354,1,0,0:0:0:0:
224,128,45854,1,8,0:0:0:0:
256,160,46188,1,8,0:0:0:0:
256,160,46354,1,0,0:0:0:0:
224,128,46521,1,0,0:0:0:0:
256,128,46688,1,8,0:0:0:0:
256,128,47021,1,0,0:0:0:0:
256,128,47354,1,8,0:0:0:0:
256,128,47521,1,0,0:0:0:0:
256,128,47688,1,0,0:0:0:0:
256,128,47854,1,0,0:0:0:0:
256,128,48021,1,8,0:0:0:0:
224,160,48104,1,8,0:0:0:0:
224,160,48188,1,8,0:0:0:0:
224,160,48271,1,8,0:0:0:0:
224,160,48354,1,0,0:0:0:0:
224,160,48688,1,8,0:0:0:0:
224,160,49354,1,8,0:0:0:0:
192,160,49688,1,0,0:0:0:0:
224,160,50021,1,8,0:0:0:0:
224,160,50688,1,8,0:0:0:0:
224,160,51021,1,0,0:0:0:0:
224,128,51354,1,0,0:0:0:0:
224,128,51688,1,0,0:0:0:0:
224,128,52021,1,0,0:0:0:0:
224,128,52354,1,4,0:0:0:0:
224,128,52688,1,0,0:0:0:0:
224,128,53021,1,0,0:0:0:0:
224,128,53688,1,4,0:0:0:0:
256,160,54021,1,8,0:0:0:0:
256,128,54354,1,0,0:0:0:0:
256,128,54521,1,0,0:0:0:0:
256,128,54688,1,8,0:0:0:0:
256,128,55021,1,0,0:0:0:0:
256,128,55354,1,8,0:0:0:0:
256,128,55521,1,8,0:0:0:0:
256,128,55688,1,0,0:0:0:0:
256,128,55854,1,0,0:0:0:0:
256,128,56021,1,8,0:0:0:0:
256,128,56188,1,8,0:0:0:0:
256,128,56271,1,8,0:0:0:0:
256,128,56354,1,0,0:0:0:0:
256,160,56688,1,8,0:0:0:0:
256,160,57021,1,0,0:0:0:0:
256,160,57188,1,0,0:0:0:0:
256,160,57354,1,8,0:0:0:0:
256,160,57521,1,0,0:0:0:0:
256,160,57604,1,0,0:0:0:0:
256,160,57688,1,0,0:0:0:0:
256,160,57854,1,8,0:0:0:0:
256,160,57938,1,8,0:0:0:0:
288,160,58021,1,0,0:0:0:0:
288,160,58188,1,8,0:0:0:0:
288,160,58354,1,0,0:0:0:0:
288,160,58521,1,0,0:0:0:0:
288,160,58688,1,8,0:0:0:0:
288,160,58771,1,8,0:0:0:0:
288,160,58854,1,8,0:0:0:0:
288,160,58938,1,8,0:0:0:0:
288,160,59021,1,0,0:0:0:0:
256,128,59354,1,8,0:0:0:0:
256,128,59688,1,0,0:0:0:0:
256,160,59854,1,0,0:0:0:0:
256,160,60021,1,8,0:0:0:0:
256,160,60188,1,8,0:0:0:0:
256,160,60271,1,8,0:0:0:0:
256,160,60354,1,0,0:0:0:0:
256,160,60521,1,0,0:0:0:0:
256,160,60688,1,8,0:0:0:0:
256,160,60854,1,8,0:0:0:0:
256,128,61021,1,0,0:0:0:0:
256,128,61104,1,0,0:0:0:0:
256,128,61188,1,0,0:0:0:0:
256,128,61271,1,0,0:0:0:0:
256,128,61354,1,8,0:0:0:0:
256,160,61521,1,8,0:0:0:0:
224,160,61688,1,0,0:0:0:0:
224,160,61771,1,0,0:0:0:0:
256,160,61854,1,8,0:0:0:0:
256,160,61938,1,0,0:0:0:0:
256,160,62021,1,0,0:0:0:0:
256,160,62104,1,8,0:0:0:0:
256,160,62188,1,0,0:0:0:0:
256,160,62271,1,0,0:0:0:0:
256,160,62354,1,8,0:0:0:0:
256,160,62438,1,8,0:0:0:0:
256,160,62521,1,0,0:0:0:0:
256,160,62604,1,8,0:0:0:0:
256,160,62688,1,0,0:0:0:0:
256,160,62771,1,0,0:0:0:0:
256,160,62854,1,8,0:0:0:0:
256,160,62938,1,8,0:0:0:0:
256,160,63021,1,0,0:0:0:0:
256,128,63354,1,0,0:0:0:0:
256,128,63688,1,0,0:0:0:0:
256,192,63854,1,0,0:0:0:0:
256,192,63938,1,0,0:0:0:0:
256,192,64021,1,8,0:0:0:0:
256,192,64354,1,4,0:0:0:0:
256,192,64688,1,0,0:0:0:0:
256,192,64854,1,8,0:0:0:0:
256,192,64938,1,8,0:0:0:0:
256,192,65021,1,0,0:0:0:0:
256,192,65188,1,8,0:0:0:0:
256,192,65354,1,0,0:0:0:0:
256,192,65521,1,8,0:0:0:0:
256,192,65688,1,0,0:0:0:0:
288,160,65854,1,0,0:0:0:0:
256,160,65938,1,8,0:0:0:0:
256,160,66021,1,0,0:0:0:0:
256,160,66188,1,8,0:0:0:0:
256,160,66271,1,8,0:0:0:0:
270,182,66354,1,0,0:0:0:0:
256,160,66521,1,8,0:0:0:0:
256,160,66688,1,0,0:0:0:0:
256,160,66854,1,8,0:0:0:0:
256,160,67021,1,0,0:0:0:0:
256,160,67104,1,0,0:0:0:0:
256,160,67188,1,0,0:0:0:0:
256,160,67271,1,0,0:0:0:0:
256,160,67354,1,8,0:0:0:0:
256,160,67521,1,8,0:0:0:0:
256,160,67688,1,0,0:0:0:0:
256,128,67854,1,0,0:0:0:0:
256,160,67938,1,8,0:0:0:0:
256,128,68021,1,8,0:0:0:0:
256,160,68188,1,8,0:0:0:0:
288,160,68354,1,0,0:0:0:0:
288,160,68521,1,8,0:0:0:0:
288,160,68688,1,0,0:0:0:0:
288,160,68771,1,0,0:0:0:0:
288,160,68938,1,8,0:0:0:0:
288,160,69021,1,0,0:0:0:0:
256,160,69188,1,8,0:0:0:0:
256,160,69271,1,8,0:0:0:0:
288,128,69354,1,0,0:0:0:0:
288,128,69521,1,8,0:0:0:0:
288,128,69688,1,4,0:0:0:0:
288,128,70021,1,0,0:0:0:0:
288,128,70188,1,8,0:0:0:0:
288,128,70271,1,8,0:0:0:0:
288,128,70354,1,0,0:0:0:0:
288,128,70521,1,8,0:0:0:0:
288,128,70688,1,0,0:0:0:0:
288,128,70854,1,8,0:0:0:0:
288,128,70938,1,8,0:0:0:0:
288,128,71021,1,0,0:0:0:0:
288,128,71188,1,8,0:0:0:0:
288,128,71354,1,0,0:0:0:0:
288,128,71521,1,8,0:0:0:0:
288,128,71604,1,0,0:0:0:0:
288,128,71688,1,0,0:0:0:0:
288,96,71854,1,8,0:0:0:0:
288,96,71938,1,8,0:0:0:0:
288,96,72021,1,0,0:0:0:0:
288,96,72188,1,0,0:0:0:0:
288,96,72354,1,8,0:0:0:0:
256,160,72438,1,8,0:0:0:0:
288,96,72521,1,0,0:0:0:0:
256,128,72604,1,0,0:0:0:0:
288,128,72688,1,0,0:0:0:0:
288,160,72854,1,0,0:0:0:0:
288,128,73021,1,8,0:0:0:0:
288,128,73104,1,0,0:0:0:0:
288,160,73271,1,0,0:0:0:0:
288,128,73354,1,8,0:0:0:0:
288,128,73521,1,0,0:0:0:0:
288,128,73688,1,4,0:0:0:0:
288,128,73854,1,8,0:0:0:0:
288,160,74188,1,8,0:0:0:0:
288,160,74354,1,0,0:0:0:0:
288,160,74521,1,8,0:0:0:0:
288,160,74688,1,0,0:0:0:0:
288,160,74771,1,0,0:0:0:0:
288,160,74854,1,0,0:0:0:0:
288,192,74938,1,0,0:0:0:0:
288,160,75021,1,8,0:0:0:0:
288,160,75188,1,0,0:0:0:0:
288,160,75354,1,8,0:0:0:0:
288,160,75438,1,8,0:0:0:0:
288,160,75521,1,0,0:0:0:0:
288,160,75688,1,8,0:0:0:0:
288,160,75854,1,0,0:0:0:0:
288,160,75938,1,0,0:0:0:0:
288,160,76021,1,8,0:0:0:0:
288,160,76104,1,8,0:0:0:0:
288,160,76188,1,0,0:0:0:0:
288,160,76354,1,8,0:0:0:0:
288,160,76521,1,0,0:0:0:0:
288,160,76604,1,0,0:0:0:0:
288,160,76688,1,8,0:0:0:0:
288,160,76771,1,0,0:0:0:0:
288,160,76938,1,0,0:0:0:0:
288,160,77021,1,8,0:0:0:0:
288,160,77188,1,8,0:0:0:0:
288,128,77271,1,8,0:0:0:0:
288,128,77354,1,0,0:0:0:0:
288,128,77521,1,8,0:0:0:0:
288,128,77688,1,4,0:0:0:0:
256,192,77854,1,0,0:0:0:0:
256,192,78021,1,8,0:0:0:0:
256,224,78104,1,0,0:0:0:0:
256,224,78188,1,8,0:0:0:0:
256,224,78354,1,0,0:0:0:0:
256,192,78521,1,8,0:0:0:0:
256,192,78604,1,8,0:0:0:0:
256,192,78688,1,0,0:0:0:0:
256,192,78854,1,8,0:0:0:0:
256,192,79021,1,0,0:0:0:0:
256,192,79188,1,8,0:0:0:0:
256,192,79354,1,8,0:0:0:0:
256,192,79438,1,0,0:0:0:0:
256,192,79521,1,0,0:0:0:0:
256,192,79604,1,8,0:0:0:0:
256,192,79688,1,0,0:0:0:0:
256,192,79771,1,0,0:0:0:0:
256,192,79854,1,8,0:0:0:0:
256,192,79938,1,8,0:0:0:0:
256,192,80021,1,0,0:0:0:0:
256,192,80188,1,8,0:0:0:0:
256,192,80354,1,4,0:0:0:0:
256,192,80521,1,0,0:0:0:0:
256,192,80688,1,8,0:0:0:0:
256,192,80743,1,8,0:0:0:0:
256,192,80799,1,8,0:0:0:0:
256,192,80854,1,8,0:0:0:0:
256,160,80910,1,8,0:0:0:0:
256,160,80966,1,8,0:0:0:0:
256,160,81021,1,0,0:0:0:0:
256,160,81188,1,0,0:0:0:0:
256,160,81354,1,8,0:0:0:0:
224,128,81410,1,8,0:0:0:0:
288,192,81466,1,8,0:0:0:0:
224,128,81521,1,0,0:0:0:0:
256,160,81604,1,0,0:0:0:0:
256,160,81688,1,8,0:0:0:0:
256,160,81854,1,8,0:0:0:0:
256,160,81938,1,0,0:0:0:0:
256,160,82104,1,8,0:0:0:0:
256,160,82188,1,0,0:0:0:0:
224,160,82354,1,8,0:0:0:0:
224,160,82438,1,0,0:0:0:0:
224,160,82521,1,0,0:0:0:0:
224,160,82604,1,8,0:0:0:0:
224,160,82688,1,0,0:0:0:0:
224,160,82743,1,0,0:0:0:0:
224,160,82799,1,0,0:0:0:0:
224,160,82854,1,0,0:0:0:0:
256,160,82910,1,8,0:0:0:0:
256,160,82966,1,8,0:0:0:0:
256,160,83021,1,0,0:0:0:0:
288,160,83188,1,0,0:0:0:0:
288,160,83354,1,0,0:0:0:0:
288,160,83521,1,0,0:0:0:0:
288,160,83688,1,0,0:0:0:0:
288,160,83771,1,0,0:0:0:0:
288,160,83854,1,0,0:0:0:0:
288,160,83938,1,0,0:0:0:0:
288,160,84021,1,8,0:0:0:0:
288,192,84104,1,8,0:0:0:0:
288,160,84188,1,0,0:0:0:0:
288,160,84271,1,0,0:0:0:0:
288,160,84354,1,8,0:0:0:0:
288,128,84688,1,0,0:0:0:0:
256,160,84854,1,8,0:0:0:0:
288,128,85021,1,8,0:0:0:0:
288,128,85104,1,0,0:0:0:0:
288,128,85188,1,0,0:0:0:0:
256,160,85271,1,0,0:0:0:0:
288,128,85354,1,8,0:0:0:0:
256,128,85521,1,0,0:0:0:0:
256,96,85604,1,8,0:0:0:0:
288,160,85688,1,0,0:0:0:0:
288,160,85854,1,0,0:0:0:0:
288,160,86021,1,12,0:0:0:0:
288,160,86354,1,8,0:0:0:0:
288,160,86521,1,0,0:0:0:0:
288,160,86688,1,8,0:0:0:0:
288,160,86854,1,8,0:0:0:0:
288,160,86938,1,8,0:0:0:0:
288,160,87021,1,0,0:0:0:0:
288,160,87188,1,0,0:0:0:0:
288,160,87271,1,0,0:0:0:0:
288,160,87354,1,8,0:0:0:0:
288,192,87521,1,0,0:0:0:0:
256,160,87688,1,8,0:0:0:0:
288,160,87771,1,0,0:0:0:0:
288,160,87854,1,0,0:0:0:0:
288,160,87938,1,0,0:0:0:0:
288,160,88021,1,8,0:0:0:0:
288,192,88188,1,8,0:0:0:0:
288,192,88354,1,0,0:0:0:0:
288,192,88521,1,0,0:0:0:0:
288,192,88604,1,0,0:0:0:0:
288,192,88688,1,8,0:0:0:0:
288,192,88854,1,0,0:0:0:0:
288,192,88938,1,8,0:0:0:0:
288,192,89021,1,0,0:0:0:0:
288,192,89188,1,8,0:0:0:0:
288,192,89271,1,0,0:0:0:0:
288,192,89354,1,8,0:0:0:0:
288,192,89521,1,0,0:0:0:0:
288,192,89604,1,0,0:0:0:0:
288,192,89688,1,8,0:0:0:0:
288,192,89771,1,0,0:0:0:0:
288,192,89854,1,0,0:0:0:0:
288,192,89938,1,8,0:0:0:0:
288,192,90021,1,0,0:0:0:0:
288,192,90188,1,0,0:0:0:0:
288,192,90271,1,8,0:0:0:0:
288,192,90354,1,0,0:0:0:0:
288,192,90521,1,0,0:0:0:0:
288,192,90688,1,8,0:0:0:0:
288,192,90771,1,8,0:0:0:0:
288,192,90854,1,8,0:0:0:0:
288,192,90938,1,8,0:0:0:0:
288,192,91021,1,0,0:0:0:0:
288,192,91354,1,8,0:0:0:0:
288,160,91521,1,0,0:0:0:0:
288,160,91688,1,0,0:0:0:0:
288,160,91854,1,0,0:0:0:0:
256,160,91938,1,8,0:0:0:0:
256,160,92021,1,0,0:0:0:0:
256,160,92188,1,8,0:0:0:0:
256,160,92354,1,0,0:0:0:0:
256,160,92521,1,0,0:0:0:0:
256,160,92604,1,0,0:0:0:0:
256,160,92688,1,8,0:0:0:0:
256,160,92854,1,0,0:0:0:0:
256,160,92938,1,0,0:0:0:0:
256,160,93021,1,8,0:0:0:0:
256,160,93104,1,0,0:0:0:0:
256,160,93188,1,8,0:0:0:0:
256,160,93271,1,8,0:0:0:0:
256,160,93354,1,0,0:0:0:0:
256,160,93521,1,8,0:0:0:0:
256,160,93688,1,4,0:0:0:0:
256,160,94021,1,4,0:0:0:0:
256,160,94354,1,4,0:0:0:0:
256,160,94688,1,4,0:0:0:0:
256,160,95021,1,4,0:0:0:0:
256,160,95188,1,8,0:0:0:0:
256,160,95271,1,8,0:0:0:0:
256,160,95354,1,0,0:0:0:0:
256,128,95521,1,8,0:0:0:0:
256,128,95688,1,0,0:0:0:0:
256,128,95938,1,8,0:0:0:0:
256,128,96021,1,0,0:0:0:0:
256,128,96188,1,8,0:0:0:0:
256,128,96354,1,4,0:0:0:0:
256,160,96688,1,8,0:0:0:0:
256,192,96854,1,0,0:0:0:0:
256,192,97021,1,0,0:0:0:0:
256,192,97188,1,0,0:0:0:0:
256,192,97271,1,0,0:0:0:0:
256,192,97354,1,8,0:0:0:0:
224,192,97521,1,8,0:0:0:0:
224,192,97604,1,8,0:0:0:0:
224,192,97688,1,0,0:0:0:0:
224,192,97854,1,0,0:0:0:0:
224,192,98021,1,8,0:0:0:0:
224,192,98188,1,0,0:0:0:0:
224,192,98271,1,0,0:0:0:0:
224,192,98354,1,0,0:0:0:0:
224,192,98438,1,8,0:0:0:0:
224,192,98521,1,0,0:0:0:0:
224,192,98688,1,8,0:0:0:0:
224,192,98854,1,0,0:0:0:0:
224,192,98938,1,8,0:0:0:0:
224,192,99021,1,0,0:0:0:0:
224,192,99188,1,0,0:0:0:0:
224,192,99354,1,8,0:0:0:0:
224,192,99521,1,8,0:0:0:0:
224,192,99604,1,8,0:0:0:0:
224,192,99688,1,0,0:0:0:0:
224,192,99854,1,0,0:0:0:0:
224,192,99938,1,0,0:0:0:0:
224,192,100021,1,8,0:0:0:0:
224,192,100188,1,8,0:0:0:0:
224,192,100354,1,0,0:0:0:0:
224,192,100521,1,8,0:0:0:0:
224,192,100604,1,8,0:0:0:0:
224,192,100688,1,0,0:0:0:0:
224,192,100771,1,8,0:0:0:0:
224,192,100938,1,8,0:0:0:0:
224,192,101021,1,0,0:0:0:0:
224,128,101188,1,8,0:0:0:0:
224,128,101271,1,0,0:0:0:0:
224,192,101354,1,0,0:0:0:0:
224,160,101521,1,8,0:0:0:0:
256,192,101688,1,4,0:0:0:0:
256,192,101854,1,0,0:0:0:0:
256,192,101938,1,0,0:0:0:0:
256,192,102021,1,8,0:0:0:0:
256,192,102188,1,8,0:0:0:0:
256,192,102354,1,0,0:0:0:0:
256,192,102521,1,0,0:0:0:0:
256,192,102604,1,0,0:0:0:0:
256,192,102688,1,8,0:0:0:0:
256,192,102854,1,8,0:0:0:0:
256,192,103021,1,0,0:0:0:0:
288,192,103104,1,0,0:0:0:0:
256,192,103188,1,0,0:0:0:0:
256,192,103271,1,0,0:0:0:0:
256,192,103354,1,8,0:0:0:0:
256,160,103521,1,8,0:0:0:0:
288,192,103688,1,0,0:0:0:0:
320,160,103771,1,0,0:0:0:0:
288,192,103854,1,0,0:0:0:0:
288,192,103938,1,0,0:0:0:0:
288,192,104021,1,8,0:0:0:0:
288,192,104188,1,8,0:0:0:0:
288,192,104354,1,0,0:0:0:0:
288,192,104438,1,8,0:0:0:0:
288,192,104521,1,0,0:0:0:0:
288,192,104604,1,0,0:0:0:0:
288,192,104688,1,8,0:0:0:0:
288,192,104771,1,0,0:0:0:0:
288,192,104854,1,8,0:0:0:0:
288,192,104938,1,8,0:0:0:0:
288,192,105021,1,0,0:0:0:0:
288,192,105104,1,8,0:0:0:0:
288,192,105188,1,0,0:0:0:0:
288,192,105271,1,0,0:0:0:0:
288,192,105354,1,8,0:0:0:0:
288,192,105438,1,8,0:0:0:0:
288,192,105521,1,8,0:0:0:0:
288,192,105604,1,8,0:0:0:0:
288,192,105688,1,0,0:0:0:0:
288,192,106021,1,4,0:0:0:0:
288,192,106354,1,4,0:0:0:0:
288,192,106604,1,8,0:0:0:0:
288,192,106687,1,8,0:0:0:0:
288,192,106770,1,8,0:0:0:0:
288,192,106854,1,8,0:0:0:0:
288,192,107021,1,4,0:0:0:0:
