osu file format v14

[General]
AudioFilename: audio.mp3
AudioLeadIn: 0
PreviewTime: 85688
Countdown: 0
SampleSet: Normal
StackLeniency: 0.7
Mode: 1
LetterboxInBreaks: 0
WidescreenStoryboard: 1

[Editor]
Bookmarks: 2979,5479,8312
DistanceSpacing: 1
BeatDivisor: 2
GridSize: 32
TimelineZoom: 0.6999999

[Metadata]
Title:Finder(Extended Mix)
TitleUnicode:Finder(Extended Mix)
Artist:Asterisk
ArtistUnicode:Asterisk
Creator:EdamaMe411
Version:Futsuu
Source:
Tags:tjbc komasy
BeatmapID:1379734
BeatmapSetID:639640

[Difficulty]
HPDrainRate:7
CircleSize:5
OverallDifficulty:4
ApproachRate:5
SliderMultiplier:1.4
SliderTickRate:2

[Events]
//Background and Video events
0,0,"Finder.png",0,-45
//Break Periods
//Storyboard Layer 0 (Background)
//Storyboard Layer 1 (Fail)
//Storyboard Layer 2 (Pass)
//Storyboard Layer 3 (Foreground)
//Storyboard Sound Samples

[TimingPoints]
355,333.333333333333,4,1,0,80,1,0
43188,-100,4,1,0,50,0,0
51021,-100,4,1,0,60,0,0
51688,-100,4,1,0,70,0,0
52354,-100,4,1,0,80,0,0
64354,-100,4,1,0,90,0,1
84354,-100,4,1,0,90,0,0
86021,-100,4,1,0,90,0,1
107021,-100,4,1,0,80,0,0

[HitObjects]
288,192,355,5,4,0:0:0:0:
416,224,688,1,8,0:0:0:0:
320,256,1354,1,8,0:0:0:0:
320,256,1688,1,0,0:0:0:0:
352,224,2021,1,8,0:0:0:0:
352,224,2688,1,8,0:0:0:0:
288,128,3021,1,0,0:0:0:0:
288,128,3688,1,0,0:0:0:0:
352,288,4354,1,8,0:0:0:0:
288,192,4688,1,8,0:0:0:0:
288,128,5021,1,0,0:0:0:0:
352,96,5688,1,0,0:0:0:0:
416,224,6021,1,8,0:0:0:0:
288,128,6687,1,8,0:0:0:0:
288,160,7021,1,0,0:0:0:0:
352,224,7354,1,8,0:0:0:0:
352,224,8021,1,8,0:0:0:0:
288,128,8354,1,0,0:0:0:0:
288,128,9021,1,0,0:0:0:0:
288,128,9687,1,0,0:0:0:0:
352,224,10021,1,0,0:0:0:0:
288,256,10354,1,8,0:0:0:0:
32,224,11021,5,8,0:0:0:0:
160,224,11354,1,4,0:0:0:0:
224,160,12021,1,8,0:0:0:0:
256,128,12354,1,0,0:0:0:0:
224,160,12688,1,8,0:0:0:0:
128,160,13021,1,0,0:0:0:0:
224,128,13188,1,0,0:0:0:0:
256,96,13354,1,8,0:0:0:0:
128,160,13688,1,4,0:0:0:0:
128,160,14354,1,0,0:0:0:0:
128,160,15021,1,0,0:0:0:0:
256,96,15354,1,0,0:0:0:0:
256,192,15521,1,0,0:0:0:0:
288,192,15688,1,8,0:0:0:0:
384,32,16354,1,4,0:0:0:0:
288,224,16688,1,8,0:0:0:0:
288,224,17188,1,0,0:0:0:0:
256,192,17354,1,8,0:0:0:0:
288,160,17688,1,4,0:0:0:0:
416,96,18021,1,8,0:0:0:0:
288,192,18521,1,0,0:0:0:0:
288,192,18688,1,8,0:0:0:0:
416,160,19021,1,4,0:0:0:0:
352,160,19354,1,8,0:0:0:0:
352,160,19688,1,8,0:0:0:0:
288,160,19854,1,8,0:0:0:0:
257,167,20021,1,8,0:0:0:0:
416,128,20354,1,0,0:0:0:0:
32,288,21354,1,8,0:0:0:0:
160,224,21688,1,4,0:0:0:0:
352,128,22354,1,8,0:0:0:0:
352,128,23021,1,0,0:0:0:0:
256,224,23354,1,8,0:0:0:0:
320,192,23688,1,0,0:0:0:0:
320,224,23854,1,0,0:0:0:0:
224,192,24021,1,8,0:0:0:0:
256,96,24354,1,0,0:0:0:0:
288,128,25021,1,8,0:0:0:0:
320,192,25354,1,8,0:0:0:0:
288,192,25688,1,0,0:0:0:0:
352,96,26354,1,0,0:0:0:0:
320,192,26688,1,8,0:0:0:0:
288,192,26854,1,8,0:0:0:0:
160,224,27021,1,0,0:0:0:0:
352,128,27688,1,8,0:0:0:0:
352,128,28354,1,0,0:0:0:0:
256,224,28688,1,8,0:0:0:0:
320,192,29021,1,0,0:0:0:0:
320,224,29188,1,0,0:0:0:0:
320,224,29354,1,8,0:0:0:0:
256,96,29687,1,0,0:0:0:0:
352,160,30354,1,8,0:0:0:0:
320,160,30688,1,8,0:0:0:0:
320,160,31021,1,4,0:0:0:0:
288,160,31688,1,0,0:0:0:0:
320,160,31854,1,0,0:0:0:0:
320,160,32021,1,8,0:0:0:0:
320,288,32688,1,12,0:0:0:0:
288,160,33354,1,8,0:0:0:0:
288,160,33688,1,0,0:0:0:0:
288,96,34021,1,8,0:0:0:0:
256,128,34354,1,0,0:0:0:0:
256,160,34521,1,0,0:0:0:0:
256,160,34688,1,8,0:0:0:0:
256,96,35021,1,4,0:0:0:0:
288,160,35688,1,8,0:0:0:0:
288,192,36021,1,8,0:0:0:0:
224,160,36354,1,0,0:0:0:0:
288,32,36688,1,8,0:0:0:0:
288,160,37021,1,0,0:0:0:0:
224,160,37188,1,0,0:0:0:0:
288,0,37354,1,8,0:0:0:0:
288,128,37688,1,4,0:0:0:0:
384,64,38021,1,8,0:0:0:0:
288,160,38521,1,0,0:0:0:0:
384,192,38688,1,8,0:0:0:0:
384,64,39021,1,4,0:0:0:0:
384,64,39354,1,8,0:0:0:0:
320,160,39854,1,0,0:0:0:0:
352,96,40021,1,8,0:0:0:0:
384,64,40354,1,4,0:0:0:0:
224,64,40688,1,8,0:0:0:0:
224,64,41021,1,4,0:0:0:0:
288,64,41354,1,0,0:0:0:0:
288,64,41521,1,0,0:0:0:0:
352,128,41688,1,8,0:0:0:0:
416,224,43021,5,4,0:0:0:0:
256,192,43188,12,8,47688,0:0:0:0:
352,128,48688,5,8,0:0:0:0:
384,128,49354,1,8,0:0:0:0:
352,224,50021,1,8,0:0:0:0:
352,160,50688,1,8,0:0:0:0:
288,128,51021,1,0,0:0:0:0:
256,192,51354,1,0,0:0:0:0:
288,128,51688,1,0,0:0:0:0:
320,160,52354,5,4,0:0:0:0:
288,160,53688,1,4,0:0:0:0:
384,64,54021,1,8,0:0:0:0:
320,96,54354,1,0,0:0:0:0:
320,96,55021,1,8,0:0:0:0:
352,64,55354,1,0,0:0:0:0:
352,64,55688,1,8,0:0:0:0:
352,64,56354,1,0,0:0:0:0:
384,96,56688,1,8,0:0:0:0:
384,96,57021,1,0,0:0:0:0:
256,160,57188,1,0,0:0:0:0:
384,96,57354,1,0,0:0:0:0:
384,128,57688,1,8,0:0:0:0:
352,128,58354,1,8,0:0:0:0:
283,190,58688,1,8,0:0:0:0:
283,190,58854,1,8,0:0:0:0:
320,192,59021,1,0,0:0:0:0:
320,160,59354,1,8,0:0:0:0:
320,128,59688,1,0,0:0:0:0:
320,160,60354,1,12,0:0:0:0:
416,224,60688,1,0,0:0:0:0:
384,192,61021,1,8,0:0:0:0:
358,195,61188,1,8,0:0:0:0:
358,195,61354,1,8,0:0:0:0:
416,192,61688,5,4,0:0:0:0:
416,128,62021,1,8,0:0:0:0:
416,192,62354,1,0,0:0:0:0:
320,192,62521,1,0,0:0:0:0:
352,192,62688,1,0,0:0:0:0:
352,160,63021,1,8,0:0:0:0:
352,192,64021,5,12,0:0:0:0:
288,160,64354,5,4,0:0:0:0:
160,192,64688,1,8,0:0:0:0:
288,192,65021,1,0,0:0:0:0:
352,192,65188,1,0,0:0:0:0:
416,192,65354,1,8,0:0:0:0:
384,160,65688,1,0,0:0:0:0:
384,160,66021,1,8,0:0:0:0:
448,192,66521,1,0,0:0:0:0:
384,160,66688,1,8,0:0:0:0:
416,192,67021,1,0,0:0:0:0:
416,160,67354,1,8,0:0:0:0:
256,160,67688,1,0,0:0:0:0:
416,128,68354,1,8,0:0:0:0:
416,128,68688,1,0,0:0:0:0:
288,192,69188,1,8,0:0:0:0:
416,128,69354,1,8,0:0:0:0:
288,160,69688,5,0,0:0:0:0:
160,192,70022,1,8,0:0:0:0:
288,192,70355,1,0,0:0:0:0:
352,192,70522,1,0,0:0:0:0:
416,192,70688,1,8,0:0:0:0:
384,160,71021,1,0,0:0:0:0:
384,160,71355,1,8,0:0:0:0:
448,192,71855,1,0,0:0:0:0:
384,160,72022,1,8,0:0:0:0:
416,192,72355,1,8,0:0:0:0:
448,64,72688,1,8,0:0:0:0:
320,128,73021,1,0,0:0:0:0:
352,128,73688,1,4,0:0:0:0:
352,96,75021,1,4,0:0:0:0:
320,96,75354,1,8,0:0:0:0:
288,160,75688,1,0,0:0:0:0:
352,96,75854,1,0,0:0:0:0:
352,96,76021,1,8,0:0:0:0:
352,96,76354,1,0,0:0:0:0:
352,96,76688,1,8,0:0:0:0:
352,96,77188,1,0,0:0:0:0:
352,160,77354,1,8,0:0:0:0:
352,160,77688,1,0,0:0:0:0:
352,160,78021,1,8,0:0:0:0:
352,96,78354,1,0,0:0:0:0:
352,192,78521,1,0,0:0:0:0:
352,32,78688,1,8,0:0:0:0:
352,96,79021,1,0,0:0:0:0:
352,160,79354,1,8,0:0:0:0:
352,128,79688,1,0,0:0:0:0:
352,128,80354,1,4,0:0:0:0:
256,224,80688,1,8,0:0:0:0:
448,32,81021,1,4,0:0:0:0:
288,128,81354,1,8,0:0:0:0:
256,192,81688,1,4,0:0:0:0:
256,128,82354,1,0,0:0:0:0:
288,128,82688,1,8,0:0:0:0:
288,96,83021,1,4,0:0:0:0:
288,96,83354,1,4,0:0:0:0:
288,128,83688,1,8,0:0:0:0:
288,128,83854,1,8,0:0:0:0:
320,128,84021,1,8,0:0:0:0:
352,64,84354,1,0,0:0:0:0:
320,224,85021,1,8,0:0:0:0:
352,96,85688,1,0,0:0:0:0:
384,128,85854,1,0,0:0:0:0:
416,192,86021,1,12,0:0:0:0:
352,160,86688,1,8,0:0:0:0:
352,160,87021,1,0,0:0:0:0:
352,160,87354,1,8,0:0:0:0:
352,160,87688,1,0,0:0:0:0:
352,160,87854,1,0,0:0:0:0:
352,160,88021,1,8,0:0:0:0:
320,96,88354,1,0,0:0:0:0:
224,128,88688,1,8,0:0:0:0:
224,96,89021,1,0,0:0:0:0:
224,96,89188,1,0,0:0:0:0:
256,96,89354,1,8,0:0:0:0:
320,96,89688,1,8,0:0:0:0:
320,96,90021,1,8,0:0:0:0:
320,96,90354,1,0,0:0:0:0:
320,96,91021,1,0,0:0:0:0:
352,256,91354,1,8,0:0:0:0:
320,192,91688,1,0,0:0:0:0:
416,192,91854,1,0,0:0:0:0:
416,192,92021,1,8,0:0:0:0:
416,192,92354,1,0,0:0:0:0:
416,192,92688,1,8,0:0:0:0:
384,192,93021,1,0,0:0:0:0:
416,192,93188,1,0,0:0:0:0:
416,192,93354,1,8,0:0:0:0:
416,192,93688,1,4,0:0:0:0:
288,128,94021,1,4,0:0:0:0:
160,128,94354,1,4,0:0:0:0:
448,192,95021,1,4,0:0:0:0:
192,64,95688,1,8,0:0:0:0:
352,96,96354,1,4,0:0:0:0:
416,192,96687,1,8,0:0:0:0:
288,128,97020,1,0,0:0:0:0:
352,160,97188,1,0,0:0:0:0:
352,160,97354,1,8,0:0:0:0:
352,160,97687,1,0,0:0:0:0:
352,160,98020,1,8,0:0:0:0:
320,160,98354,1,0,0:0:0:0:
352,160,98520,1,0,0:0:0:0:
352,160,98687,1,8,0:0:0:0:
320,96,99020,1,0,0:0:0:0:
224,128,99354,1,8,0:0:0:0:
224,96,99687,1,8,0:0:0:0:
224,160,99854,1,8,0:0:0:0:
224,96,100021,1,8,0:0:0:0:
256,192,100354,1,0,0:0:0:0:
256,192,100688,1,8,0:0:0:0:
320,96,101021,1,8,0:0:0:0:
320,192,101688,1,0,0:0:0:0:
352,256,102020,1,8,0:0:0:0:
352,192,102521,1,0,0:0:0:0:
416,192,102687,1,8,0:0:0:0:
416,192,103020,1,0,0:0:0:0:
416,192,103354,1,8,0:0:0:0:
416,192,103854,1,0,0:0:0:0:
416,160,104021,1,8,0:0:0:0:
416,192,104354,1,12,0:0:0:0:
320,192,104688,1,0,0:0:0:0:
352,192,105020,1,8,0:0:0:0:
416,160,105188,1,8,0:0:0:0:
320,192,105354,1,8,0:0:0:0:
352,224,105687,1,12,0:0:0:0:
224,128,106020,1,12,0:0:0:0:
192,64,106354,1,12,0:0:0:0:
352,128,107021,1,4,0:0:0:0:
