osu file format v14

[General]
AudioFilename: audio.mp3
AudioLeadIn: 0
PreviewTime: 134360
Countdown: 0
SampleSet: Soft
StackLeniency: 0.7
Mode: 3
LetterboxInBreaks: 0
SpecialStyle: 0
WidescreenStoryboard: 1

[Editor]
DistanceSpacing: 0.8
BeatDivisor: 4
GridSize: 32
TimelineZoom: 2.6

[Metadata]
Title:Lucid Dream
TitleUnicode:Lucid Dream
Artist:Asteria, Sondia
ArtistUnicode:Asteria, Sondia
Creator:onlymyaircraft
Version:7K NM "Aimed Shot"
Source:CLOSERS
Tags:CLOSERS, Tina, Lucid Dream
BeatmapID:1091516
BeatmapSetID:513220

[Difficulty]
HPDrainRate:8
CircleSize:7
OverallDifficulty:8
ApproachRate:5
SliderMultiplier:1.4
SliderTickRate:1

[Events]
//Background and Video events
Video,0,"videoplayback.flv"
0,0,"ff.png",0,0
//Break Periods
//Storyboard Layer 0 (Background)
//Storyboard Layer 1 (Fail)
//Storyboard Layer 2 (Pass)
//Storyboard Layer 3 (Foreground)
//Storyboard Sound Samples

[TimingPoints]
1000,416.666666666667,4,2,1,20,1,0
61005,416.666666666667,4,2,1,20,1,1
87671,-100,4,2,1,20,0,0
134338,-100,4,2,1,20,0,1
205536,-200,4,2,1,20,0,1
205588,-100,4,2,1,20,0,0

[HitObjects]
36,192,1000,5,0,0:0:0:70:nosound.wav
109,192,1208,5,0,0:0:0:20:C.wav
182,192,1416,1,0,0:0:0:20:C_up.wav
329,192,1833,1,0,0:0:0:20:G_up.wav
36,192,2250,1,0,0:0:0:20:C.wav
109,192,2458,1,0,0:0:0:20:C_up.wav
320,192,3083,1,0,0:0:0:20:C_up.wav
36,192,3291,1,0,0:0:0:70:nosound.wav
448,192,3500,1,0,0:0:0:20:G_up.wav
192,192,3916,1,0,0:0:0:20:C.wav
320,192,4125,1,0,0:0:0:20:C_up.wav
36,192,4333,1,0,0:0:0:70:nosound.wav
109,192,4541,1,0,0:0:0:20:C.wav
402,192,4750,1,0,0:0:0:20:C_up.wav
329,192,5166,1,0,0:0:0:20:G.wav
64,192,5583,1,0,0:0:0:20:C.wav
192,192,5791,1,0,0:0:0:20:C_up.wav
64,192,6208,1,0,0:0:0:20:C.wav
109,192,6416,1,0,0:0:0:20:C_up.wav
192,192,6833,1,0,0:0:0:20:G.wav
64,192,7250,1,0,0:0:0:20:C.wav
329,192,7875,1,0,0:0:0:20:C.wav
402,192,8083,1,0,0:0:0:20:C_up.wav
475,192,8500,1,0,0:0:0:20:G_up.wav
64,192,8916,1,0,0:0:0:20:C.wav
109,192,9125,1,0,0:0:0:20:C_up.wav
192,192,9750,1,0,0:0:0:20:C_up.wav
320,192,10166,1,0,0:0:0:20:G_up.wav
64,192,10583,1,0,0:0:0:20:C.wav
192,192,10791,1,0,0:0:0:20:C_up.wav
64,192,11208,1,0,0:0:0:20:C.wav
448,192,11416,1,0,0:0:0:20:C_up.wav
448,192,11833,1,0,0:0:0:20:G.wav
64,192,12250,1,0,0:0:0:20:C.wav
192,192,12458,1,0,0:0:0:20:C_up.wav
64,192,12875,1,0,0:0:0:20:C.wav
448,192,13083,1,0,0:0:0:20:C_up.wav
256,192,13500,1,0,0:0:0:30:D_up.wav
192,192,14333,1,8,0:0:0:8:
64,192,14541,1,8,0:0:0:8:
448,192,14750,128,8,14958:0:0:0:8:
182,192,14958,128,8,15166:0:0:0:8:
329,192,15166,128,0,15375:0:0:0:8:
36,192,15583,1,8,0:0:0:8:
109,192,15791,128,8,16000:0:0:0:8:
448,192,16000,128,0,16208:0:0:0:8:
329,192,16208,128,0,16416:0:0:0:8:
64,192,16416,1,8,0:0:0:8:
192,192,16625,128,8,17041:0:0:0:8:
109,192,17041,128,0,17458:0:0:0:8:
320,192,17250,1,8,0:0:0:8:
64,192,17458,128,0,18291:0:0:0:8:
448,192,17458,1,8,0:0:0:8:
192,192,17666,1,0,0:0:0:8:
192,192,18083,1,8,0:0:0:8:
320,192,18291,1,8,0:0:0:8:
64,192,18916,1,8,0:0:0:8:
192,192,19125,1,8,0:0:0:8:
329,192,19750,1,8,0:0:0:8:
448,192,19958,1,8,0:0:0:8:
402,192,20583,1,8,0:0:0:8:
448,192,20791,1,8,0:0:0:8:
402,192,21000,1,0,0:0:0:8:
192,192,21208,1,0,0:0:0:8:
329,192,21416,128,8,21625:0:0:0:8:
36,192,21625,128,8,21833:0:0:0:8:
329,192,21833,128,0,22041:0:0:0:8:
192,192,22458,128,0,22666:0:0:0:8:
320,192,22666,128,0,22875:0:0:0:8:
64,192,22875,128,0,23083:0:0:0:8:
402,192,23291,128,0,23604:0:0:0:8:
329,192,23708,128,0,24125:0:0:0:8:
64,192,23916,1,8,0:0:0:8:
256,192,24125,128,0,24750:0:0:0:8:
64,192,24541,1,0,0:0:0:8:
192,192,24750,128,8,25791:0:0:0:8:
320,192,24958,1,8,0:0:0:8:
64,192,25583,1,8,0:0:0:8:
320,192,25791,1,8,0:0:0:8:
192,192,26416,1,8,0:0:0:8:
320,192,26625,1,8,0:0:0:8:
402,192,27250,1,8,0:0:0:8:
448,192,27458,1,8,0:0:0:8:
64,192,27666,128,0,27875:0:0:0:8:
109,192,27875,128,0,28291:0:0:0:8:
182,192,28291,128,0,28604:0:0:0:8:
329,192,28604,128,0,28916:0:0:0:8:
256,192,28916,128,0,29541:0:0:0:8:
192,192,29750,1,8,0:0:0:8:
448,192,29958,1,8,0:0:0:8:
64,192,30583,1,8,0:0:0:8:
192,192,30791,1,8,0:0:0:8:
109,192,31000,128,0,31208:0:0:0:8:
320,192,31208,128,0,31625:0:0:0:8:
192,192,31625,128,0,31937:0:0:0:8:
320,192,32041,128,0,32145:0:0:0:8:
448,192,32250,128,0,33500:0:0:0:8:
64,192,33083,1,8,0:0:0:8:
192,192,33083,128,0,33500:0:0:0:8:
109,192,33291,1,8,0:0:0:8:
64,192,34333,5,8,0:0:0:0:
109,192,34541,1,8,0:0:0:0:
192,192,34750,1,8,0:0:0:0:
448,192,34958,1,8,0:0:0:0:
192,192,35166,1,0,0:0:0:0:
256,192,35166,1,2,0:0:0:0:
64,192,35375,1,8,0:0:0:0:
192,192,35583,1,8,0:0:0:0:
402,192,35791,1,0,0:0:0:0:
448,192,35791,1,2,0:0:0:0:
64,192,36000,1,8,0:0:0:0:
448,192,36208,1,8,0:0:0:0:
402,192,36416,1,8,0:0:0:0:
329,192,36625,1,8,0:0:0:0:
256,192,36833,1,2,0:0:0:0:
182,192,36833,1,0,0:0:0:0:
109,192,37041,1,8,0:0:0:0:
64,192,37250,1,8,0:0:0:0:
192,192,37458,1,8,0:0:0:0:
320,192,37666,1,8,0:0:0:0:
448,192,37875,1,8,0:0:0:0:
256,192,38083,1,8,0:0:0:0:
320,192,38291,1,8,0:0:0:0:
448,192,38500,128,0,41625:0:0:0:0:
402,192,38500,1,2,0:0:0:0:
64,192,38916,1,8,0:0:0:0:
320,192,39125,1,8,0:0:0:0:
109,192,39958,128,0,40166:0:0:0:8:
182,192,40166,128,0,40791:0:0:0:8:
182,192,41416,128,0,41625:0:0:0:0:
109,192,41625,128,0,41833:0:0:0:0:
182,192,41833,128,2,42250:0:0:0:0:
36,192,42458,128,2,42666:0:0:0:0:
402,192,42458,1,0,0:0:0:0:
448,192,42666,128,0,42875:0:0:0:0:
320,192,42875,128,0,43187:0:0:0:0:
448,192,43291,128,0,43500:0:0:0:0:
256,192,43500,1,0,0:0:0:0:
402,192,43708,128,0,44125:0:0:0:0:
320,192,44125,128,0,45375:0:0:0:0:
109,192,44750,1,8,0:0:0:0:
192,192,45166,1,2,0:0:0:0:
402,192,45791,1,8,0:0:0:0:
192,192,46000,1,8,0:0:0:0:
64,192,46208,1,0,0:0:0:0:
448,192,46208,1,2,0:0:0:0:
192,192,46416,1,8,0:0:0:0:
448,192,46625,1,8,0:0:0:0:
109,192,46833,1,2,0:0:0:0:
64,192,46833,1,0,0:0:0:0:
320,192,47041,128,0,47250:0:0:0:0:
256,192,47250,128,0,47458:0:0:0:0:
192,192,47458,128,0,47666:0:0:0:0:
64,192,47666,128,0,50375:0:0:0:0:
448,192,48083,128,0,48291:0:0:0:0:
402,192,48291,128,0,48500:0:0:0:0:
448,192,48500,128,0,48916:0:0:0:0:
182,192,48500,1,0,0:0:0:0:
192,192,49125,128,0,49333:0:0:0:0:
402,192,49125,1,0,0:0:0:0:
329,192,49333,128,0,49541:0:0:0:0:
109,192,49541,128,0,49958:0:0:0:0:
402,192,49958,128,0,50270:0:0:0:0:
182,192,50166,1,0,0:0:0:0:
329,192,50166,1,0,0:0:0:0:
448,192,50375,128,0,50791:0:0:0:0:
320,192,51000,128,0,53083:0:0:0:0:
256,192,51000,1,8,0:0:0:0:
109,192,51416,1,0,0:0:0:0:
192,192,51833,1,2,0:0:0:0:
109,192,51833,1,0,0:0:0:0:
192,192,52250,1,8,0:0:0:0:
448,192,52458,1,8,0:0:0:0:
64,192,52875,1,8,0:0:0:0:
109,192,53083,1,8,0:0:0:0:
64,192,53291,1,8,0:0:0:0:
256,192,53500,1,2,0:0:0:0:
402,192,53500,1,0,0:0:0:0:
36,192,53708,1,0,0:0:0:0:
182,192,53916,1,8,0:0:0:0:
320,192,54125,1,8,0:0:0:0:
256,192,54333,128,0,54541:0:0:0:0:
320,192,54541,128,0,54854:0:0:0:0:
64,192,54750,1,8,0:0:0:0:
402,192,54958,128,0,55270:0:0:0:0:
192,192,55166,1,2,0:0:0:0:
109,192,55166,1,0,0:0:0:0:
329,192,55375,128,0,55479:0:0:0:0:
448,192,55583,128,0,56625:0:0:0:0:
109,192,55791,1,0,0:0:0:0:
182,192,55791,1,0,0:0:0:0:
182,192,56833,1,0,0:0:0:0:
256,192,56833,1,0,0:0:0:0:
320,192,57041,1,0,0:0:0:0:
192,192,57250,1,0,0:0:0:0:
448,192,57458,1,0,0:0:0:0:
320,192,57666,128,0,58083:0:0:0:0:
64,192,57666,1,2,0:0:0:0:
256,192,58083,128,0,58291:0:0:0:0:
448,192,58291,1,2,0:0:0:0:
182,192,58291,128,0,58708:0:0:0:0:
402,192,58500,1,0,0:0:0:0:
475,192,58500,1,0,0:0:0:0:
256,192,58708,128,0,58916:0:0:0:0:
402,192,58708,1,8,0:0:0:0:
320,192,58916,1,2,0:0:0:0:
448,192,58916,128,0,59333:0:0:0:0:
182,192,61000,1,0,0:0:0:0:
329,192,61000,1,0,0:0:0:0:
256,192,61000,1,2,0:0:0:0:
402,192,61421,128,0,62255:0:0:0:0:
109,192,61630,1,8,0:0:0:0:
64,192,61838,1,2,0:0:0:0:
182,192,61838,1,0,0:0:0:0:
320,192,62255,128,0,62671:0:0:0:0:
64,192,62255,1,8,0:0:0:0:
192,192,62463,1,2,0:0:0:0:
256,192,62671,128,0,63088:0:0:0:0:
329,192,62880,1,0,0:0:0:0:
182,192,63088,128,0,63296:0:0:0:0:
256,192,63296,128,0,63713:0:0:0:0:
402,192,63505,1,2,0:0:0:0:
475,192,63505,1,0,0:0:0:0:
192,192,63921,128,0,64546:0:0:0:0:
320,192,64130,1,8,0:0:0:0:
448,192,64338,1,8,0:0:0:0:
402,192,64546,128,0,65588:0:0:0:0:
109,192,64755,1,8,0:0:0:0:
109,192,64963,1,8,0:0:0:0:
64,192,65171,1,2,0:0:0:0:
182,192,65171,1,2,0:0:0:0:
109,192,65588,1,0,0:0:0:0:
182,192,65796,1,8,0:0:0:0:
329,192,66213,1,2,0:0:0:0:
192,192,66213,1,0,0:0:0:0:
64,192,66421,1,8,0:0:0:0:
329,192,66838,128,0,67255:0:0:0:0:
448,192,66838,1,2,0:0:0:0:
64,192,67046,1,8,0:0:0:0:
448,192,67255,1,8,0:0:0:0:
402,192,67255,128,0,67671:0:0:0:0:
64,192,67463,1,8,0:0:0:0:
448,192,67671,128,0,68088:0:0:0:0:
192,192,67671,1,4,0:0:0:0:
109,192,67671,1,0,0:0:0:0:
402,192,68088,128,0,68505:0:0:0:0:
192,192,68296,1,8,0:0:0:0:
329,192,68505,128,0,68921:0:0:0:0:
109,192,68505,1,2,0:0:0:0:
192,192,68921,128,0,69130:0:0:0:0:
329,192,69130,128,0,69546:0:0:0:0:
256,192,69546,128,0,69963:0:0:0:0:
402,192,69755,1,8,0:0:0:0:
448,192,69963,1,8,0:0:0:0:
109,192,70171,1,2,0:0:0:0:
64,192,70171,1,0,0:0:0:0:
256,192,70588,128,0,70796:0:0:0:0:
320,192,70796,128,0,71005:0:0:0:0:
402,192,71005,128,4,71317:0:0:0:0:
109,192,71005,1,0,0:0:0:0:
182,192,71005,1,0,0:0:0:0:
64,192,71421,1,8,0:0:0:0:
329,192,71421,128,0,71734:0:0:0:0:
192,192,71630,1,8,0:0:0:0:
475,192,71838,128,0,72150:0:0:0:0:
64,192,71838,1,2,0:0:0:0:
402,192,72255,128,0,72359:0:0:0:0:
109,192,72463,1,0,0:0:0:0:
448,192,72463,128,0,72880:0:0:0:0:
192,192,72880,1,10,0:0:0:0:
256,192,73088,128,0,73192:0:0:0:0:
448,192,73088,1,8,0:0:0:0:
320,192,73296,128,0,73713:0:0:0:0:
64,192,73505,1,2,0:0:0:0:
256,192,73713,128,0,73921:0:0:0:0:
329,192,73921,1,8,0:0:0:0:
182,192,74025,1,8,0:0:0:0:
329,192,74130,1,8,0:0:0:0:
182,192,74234,1,8,0:0:0:0:
256,192,74338,1,12,0:0:0:0:
109,192,74338,1,0,0:0:0:0:
402,192,74338,1,0,0:0:0:0:
402,192,74755,128,0,75588:0:0:0:0:
182,192,74963,1,8,0:0:0:0:
182,192,75171,1,0,0:0:0:0:
109,192,75171,1,0,0:0:0:0:
329,192,75588,128,0,76005:0:0:0:0:
182,192,75796,1,0,0:0:0:0:
402,192,76005,128,0,76421:0:0:0:0:
109,192,76213,1,0,0:0:0:0:
109,192,76421,128,8,76630:0:0:0:0:
182,192,76630,128,0,77046:0:0:0:0:
256,192,76838,1,2,0:0:0:0:
329,192,76838,1,0,0:0:0:0:
448,192,77046,128,8,77463:0:0:0:0:
182,192,77463,128,8,78088:0:0:0:0:
329,192,77671,1,8,0:0:0:0:
109,192,78088,128,8,79755:0:0:0:0:
329,192,78296,1,8,0:0:0:0:
256,192,78505,1,0,0:0:0:0:
402,192,78505,1,2,0:0:0:0:
402,192,79130,1,0,0:0:0:0:
329,192,79546,1,0,0:0:0:0:
475,192,79546,1,2,0:0:0:0:
402,192,79755,1,8,0:0:0:0:
402,192,80171,1,0,0:0:0:0:
256,192,80171,1,2,0:0:0:0:
329,192,80380,1,8,0:0:0:0:
182,192,80588,1,8,0:0:0:0:
36,192,80796,1,8,0:0:0:0:
402,192,81005,128,4,81317:0:0:0:0:
256,192,81005,1,0,0:0:0:0:
448,192,81421,128,8,81838:0:0:0:0:
402,192,81630,1,8,0:0:0:0:
320,192,81838,128,0,82255:0:0:0:0:
192,192,81838,1,2,0:0:0:0:
256,192,82255,128,8,82463:0:0:0:0:
192,192,82463,128,8,82880:0:0:0:0:
64,192,82880,128,0,83400:0:0:0:0:
320,192,82880,1,8,0:0:0:0:
448,192,83088,1,8,0:0:0:0:
192,192,83296,1,8,0:0:0:0:
320,192,83505,1,2,0:0:0:0:
448,192,83505,1,0,0:0:0:0:
192,192,83713,1,8,0:0:0:0:
192,192,84130,1,8,0:0:0:0:
448,192,84338,128,0,84650:0:0:0:0:
64,192,84338,1,4,0:0:0:0:
256,192,84338,1,0,0:0:0:0:
402,192,84755,128,8,85171:0:0:0:0:
109,192,84963,1,8,0:0:0:0:
475,192,85171,128,0,85588:0:0:0:0:
64,192,85171,1,2,0:0:0:0:
402,192,85588,128,0,85796:0:0:0:0:
320,192,85796,128,0,86421:0:0:0:0:
448,192,85796,1,8,0:0:0:0:
64,192,86213,1,8,0:0:0:0:
192,192,86421,128,0,86630:0:0:0:0:
109,192,86630,128,0,87046:0:0:0:0:
320,192,86838,1,2,0:0:0:0:
402,192,86838,1,0,0:0:0:0:
192,192,87046,128,8,87671:0:0:0:0:
448,192,87255,1,8,0:0:0:0:
320,192,87463,1,8,0:0:0:0:
475,192,88088,128,0,88713:0:0:0:0:
402,192,88713,128,0,89338:0:0:0:0:
182,192,89338,128,0,89963:0:0:0:0:
109,192,89963,128,0,90588:0:0:0:0:
36,192,90588,128,0,90796:0:0:0:0:
109,192,90796,128,0,91005:0:0:0:0:
182,192,91005,128,0,91213:0:0:0:0:
329,192,91213,128,0,91630:0:0:0:0:
109,192,91630,128,0,92255:0:0:0:0:
36,192,92255,128,0,92463:0:0:0:0:
192,192,92463,128,0,93088:0:0:0:0:
109,192,93088,128,0,93296:0:0:0:0:
448,192,93296,1,0,0:0:0:0:
402,192,93505,1,0,0:0:0:0:
329,192,93713,1,0,0:0:0:0:
402,192,93921,1,0,0:0:0:0:
329,192,94130,1,0,0:0:0:0:
182,192,94338,1,0,0:0:0:0:
109,192,94546,1,0,0:0:0:0:
320,192,94755,128,0,95380:0:0:0:0:
256,192,95380,128,0,96005:0:0:0:0:
182,192,96005,128,0,96630:0:0:0:0:
109,192,96630,128,0,97255:0:0:0:0:
64,192,97255,128,0,97463:0:0:0:0:
109,192,97463,128,0,97984:0:0:0:0:
256,192,98088,128,0,98296:0:0:0:0:
320,192,98296,128,0,98921:0:0:0:0:
256,192,98921,128,0,99130:0:0:0:0:
320,192,99130,128,0,99755:0:0:0:0:
192,192,99755,128,0,99963:0:0:0:0:
320,192,99963,128,0,100171:0:0:0:0:
192,192,100171,128,0,101005:0:0:0:0:
109,192,101005,128,4,101630:0:0:0:0:
329,192,101005,1,8,0:0:0:0:
192,192,101630,128,8,102255:0:0:0:0:
329,192,101838,1,2,0:0:0:0:
402,192,101838,1,0,0:0:0:0:
256,192,102255,128,0,103505:0:0:0:0:
109,192,102880,1,8,0:0:0:0:
109,192,103296,1,8,0:0:0:0:
448,192,103505,128,2,103921:0:0:0:0:
36,192,103505,1,2,0:0:0:0:
402,192,103921,128,0,106213:0:0:0:0:
256,192,104130,1,8,0:0:0:0:
256,192,104338,1,8,0:0:0:0:
109,192,104963,1,8,0:0:0:0:
36,192,105171,1,2,0:0:0:0:
182,192,105171,1,0,0:0:0:0:
448,192,106213,128,8,106838:0:0:0:0:
329,192,106630,1,8,0:0:0:0:
402,192,106838,128,2,107255:0:0:0:0:
329,192,106838,1,2,0:0:0:0:
329,192,107255,128,0,107671:0:0:0:0:
109,192,107463,1,8,0:0:0:0:
402,192,107671,128,8,108296:0:0:0:0:
256,192,108296,128,8,108921:0:0:0:0:
475,192,108505,1,2,0:0:0:0:
36,192,108505,1,0,0:0:0:0:
109,192,108921,128,0,110380:0:0:0:0:
329,192,109546,1,8,0:0:0:0:
329,192,109963,1,8,0:0:0:0:
402,192,110171,1,2,0:0:0:0:
475,192,110171,1,0,0:0:0:0:
192,192,110380,128,0,110588:0:0:0:0:
256,192,110588,128,0,110796:0:0:0:0:
192,192,110796,128,0,111005:0:0:0:0:
320,192,111005,1,12,0:0:0:0:
475,192,111005,1,0,0:0:0:0:
182,192,111421,1,8,0:0:0:0:
64,192,111421,1,4,0:0:0:0:
192,192,111838,1,4,0:0:0:0:
320,192,111838,1,8,0:0:0:0:
320,192,112255,1,4,0:0:0:0:
448,192,112255,1,8,0:0:0:0:
256,192,112880,1,8,0:0:0:0:
64,192,113088,1,0,0:0:0:0:
320,192,113088,1,8,0:0:0:0:
192,192,113296,1,8,0:0:0:0:
320,192,113505,1,2,0:0:0:0:
448,192,113505,1,0,0:0:0:0:
64,192,113713,1,2,0:0:0:0:
448,192,113713,1,8,0:0:0:0:
192,192,113921,1,8,0:0:0:0:
320,192,113921,1,0,0:0:0:0:
448,192,114130,1,2,0:0:0:0:
182,192,114130,1,8,0:0:0:0:
320,192,114234,1,2,0:0:0:0:
36,192,114234,1,8,0:0:0:0:
256,192,114338,1,4,0:0:0:0:
402,192,114338,1,0,0:0:0:0:
182,192,114755,128,0,114963:0:0:0:0:
109,192,114963,128,0,115171:0:0:0:0:
182,192,115171,128,2,115484:0:0:0:0:
329,192,115171,1,2,0:0:0:0:
182,192,115796,128,0,115900:0:0:0:0:
329,192,115796,1,2,0:0:0:0:
256,192,116005,128,0,116213:0:0:0:0:
109,192,116213,128,8,116630:0:0:0:0:
320,192,116630,128,8,116942:0:0:0:0:
475,192,116838,1,2,0:0:0:0:
36,192,116838,1,0,0:0:0:0:
402,192,117046,128,0,117463:0:0:0:0:
192,192,117463,128,0,118296:0:0:0:0:
256,192,117671,1,8,0:0:0:0:
329,192,118296,1,8,0:0:0:0:
448,192,118505,1,0,0:0:0:0:
402,192,118505,1,2,0:0:0:0:
192,192,118921,1,0,0:0:0:0:
320,192,119546,1,8,0:0:0:0:
64,192,119963,1,0,0:0:0:0:
448,192,120171,1,0,0:0:0:0:
329,192,120171,1,2,0:0:0:0:
64,192,120380,1,0,0:0:0:0:
320,192,120588,1,0,0:0:0:0:
64,192,120796,1,8,0:0:0:0:
109,192,120796,1,0,0:0:0:0:
320,192,121005,1,8,0:0:0:0:
402,192,121005,1,0,0:0:0:0:
320,192,121421,128,0,121630:0:0:0:0:
256,192,121630,128,0,121838:0:0:0:0:
320,192,121838,128,2,122255:0:0:0:0:
475,192,121838,1,0,0:0:0:0:
192,192,122463,128,0,122671:0:0:0:0:
329,192,122671,128,0,122880:0:0:0:0:
192,192,122880,128,8,123296:0:0:0:0:
329,192,123296,128,8,123609:0:0:0:0:
109,192,123505,1,2,0:0:0:0:
475,192,123505,1,0,0:0:0:0:
402,192,123713,128,0,124130:0:0:0:0:
192,192,124130,128,8,125588:0:0:0:0:
448,192,124338,1,8,0:0:0:0:
448,192,124963,1,8,0:0:0:0:
402,192,125171,1,2,0:0:0:0:
448,192,125171,1,0,0:0:0:0:
448,192,126213,1,8,0:0:0:0:
64,192,126630,1,8,0:0:0:0:
192,192,126838,1,2,0:0:0:0:
448,192,126838,1,0,0:0:0:0:
36,192,127463,1,8,0:0:0:0:
64,192,127671,128,8,127775:0:0:0:0:
109,192,127880,128,0,128192:0:0:0:0:
192,192,128296,128,0,128713:0:0:0:0:
256,192,128505,1,2,0:0:0:0:
402,192,128505,1,0,0:0:0:0:
320,192,128713,128,0,128817:0:0:0:0:
402,192,128921,128,0,129963:0:0:0:0:
109,192,129546,1,8,0:0:0:0:
64,192,129963,1,8,0:0:0:0:
192,192,130171,1,2,0:0:0:0:
448,192,130171,1,0,0:0:0:0:
320,192,130380,1,8,0:0:0:0:
64,192,130588,1,8,0:0:0:0:
192,192,130796,1,8,0:0:0:0:
320,192,131005,1,8,0:0:0:0:
448,192,131005,128,8,131421:0:0:0:0:
402,192,131421,128,0,131525:0:0:0:0:
448,192,131630,128,8,132046:0:0:0:0:
329,192,131838,1,0,0:0:0:0:
182,192,131838,1,2,0:0:0:0:
109,192,132046,128,0,132150:0:0:0:0:
64,192,132255,128,0,133088:0:0:0:0:
448,192,133088,128,0,134338:0:0:0:0:
36,192,133505,128,0,133713:0:0:0:0:
109,192,133713,128,0,134130:0:0:0:0:
256,192,134338,1,12,0:0:0:0:
329,192,134338,1,0,0:0:0:0:
402,192,134338,1,0,0:0:0:0:
448,192,134755,128,0,135588:0:0:0:0:
402,192,134755,1,8,0:0:0:0:
64,192,134963,1,8,0:0:0:0:
402,192,135171,1,0,0:0:0:0:
256,192,135171,1,10,0:0:0:0:
402,192,135588,128,0,135900:0:0:0:0:
192,192,135796,1,8,0:0:0:0:
320,192,136005,128,0,136421:0:0:0:0:
64,192,136213,1,8,0:0:0:0:
256,192,136421,128,8,136525:0:0:0:0:
192,192,136630,128,0,137046:0:0:0:0:
256,192,136838,1,2,0:0:0:0:
448,192,137046,128,0,137255:0:0:0:0:
192,192,137255,128,0,137880:0:0:0:0:
448,192,137463,1,8,0:0:0:0:
402,192,137671,1,8,0:0:0:0:
320,192,137880,128,0,139546:0:0:0:0:
109,192,138088,1,8,0:0:0:0:
64,192,138296,1,8,0:0:0:0:
402,192,138505,1,0,0:0:0:0:
192,192,138505,1,2,0:0:0:0:
448,192,139130,1,8,0:0:0:0:
109,192,139546,1,2,0:0:0:0:
64,192,139546,1,0,0:0:0:0:
448,192,139755,1,8,0:0:0:0:
109,192,140171,128,0,140588:0:0:0:0:
256,192,140171,1,2,0:0:0:0:
64,192,140171,1,8,0:0:0:0:
320,192,140588,128,0,141005:0:0:0:0:
448,192,141005,128,0,141421:0:0:0:0:
64,192,141005,1,4,0:0:0:0:
402,192,141421,128,0,141838:0:0:0:0:
64,192,141630,1,8,0:0:0:0:
192,192,141838,128,2,142255:0:0:0:0:
109,192,142255,128,0,142463:0:0:0:0:
192,192,142463,128,0,142880:0:0:0:0:
64,192,142880,128,0,143296:0:0:0:0:
320,192,142880,1,8,0:0:0:0:
448,192,143088,1,8,0:0:0:0:
109,192,143505,1,0,0:0:0:0:
256,192,143505,1,10,0:0:0:0:
329,192,143921,128,0,144130:0:0:0:0:
402,192,144130,128,0,144338:0:0:0:0:
448,192,144338,128,0,144650:0:0:0:0:
182,192,144338,1,4,0:0:0:0:
109,192,144338,1,0,0:0:0:0:
402,192,144755,128,0,145171:0:0:0:0:
320,192,144963,1,8,0:0:0:0:
475,192,145171,128,0,145484:0:0:0:0:
192,192,145171,1,8,0:0:0:0:
402,192,145588,128,0,145692:0:0:0:0:
475,192,145796,128,0,146213:0:0:0:0:
192,192,145796,1,8,0:0:0:0:
192,192,146213,1,8,0:0:0:0:
64,192,146421,128,0,146630:0:0:0:0:
192,192,146421,1,8,0:0:0:0:
256,192,146630,128,0,147046:0:0:0:0:
109,192,146838,1,2,0:0:0:0:
192,192,147046,128,0,147255:0:0:0:0:
448,192,147255,1,2,0:0:0:0:
64,192,147359,1,2,0:0:0:0:
448,192,147463,1,2,0:0:0:0:
64,192,147567,1,2,0:0:0:0:
109,192,147671,1,4,0:0:0:0:
402,192,147671,1,2,0:0:0:0:
320,192,148088,128,0,148921:0:0:0:0:
109,192,148296,1,8,0:0:0:0:
256,192,148505,1,2,0:0:0:0:
182,192,148505,1,0,0:0:0:0:
192,192,148921,128,0,149338:0:0:0:0:
320,192,149338,128,0,149755:0:0:0:0:
64,192,149546,1,8,0:0:0:0:
192,192,149755,128,0,149963:0:0:0:0:
64,192,149755,1,8,0:0:0:0:
320,192,149963,128,0,150380:0:0:0:0:
448,192,150171,1,2,0:0:0:0:
64,192,150171,1,0,0:0:0:0:
448,192,150380,128,8,150796:0:0:0:0:
402,192,150796,128,0,151421:0:0:0:0:
192,192,151005,1,8,0:0:0:0:
256,192,151421,128,0,152880:0:0:0:0:
320,192,151630,1,8,0:0:0:0:
402,192,151838,1,2,0:0:0:0:
448,192,151838,1,0,0:0:0:0:
320,192,152255,1,0,0:0:0:0:
448,192,152463,1,8,0:0:0:0:
320,192,152671,1,0,0:0:0:0:
182,192,152880,1,2,0:0:0:0:
109,192,152880,1,0,0:0:0:0:
64,192,153088,1,8,0:0:0:0:
192,192,153296,1,8,0:0:0:0:
320,192,153505,1,2,0:0:0:0:
64,192,153505,1,0,0:0:0:0:
320,192,153713,1,8,0:0:0:0:
192,192,153921,1,8,0:0:0:0:
448,192,154130,1,0,0:0:0:0:
64,192,154130,1,8,0:0:0:0:
402,192,154338,128,0,154650:0:0:0:0:
192,192,154338,1,4,0:0:0:0:
256,192,154338,1,0,0:0:0:0:
448,192,154755,128,0,155067:0:0:0:0:
320,192,154963,1,8,0:0:0:0:
402,192,155171,128,0,155588:0:0:0:0:
192,192,155171,1,2,0:0:0:0:
320,192,155588,128,0,155692:0:0:0:0:
256,192,155796,128,0,156213:0:0:0:0:
192,192,156005,1,0,0:0:0:0:
192,192,156213,128,0,156734:0:0:0:0:
64,192,156213,1,8,0:0:0:0:
320,192,156421,1,8,0:0:0:0:
320,192,156630,1,8,0:0:0:0:
64,192,156838,1,0,0:0:0:0:
448,192,156838,1,2,0:0:0:0:
192,192,157046,1,8,0:0:0:0:
448,192,157255,128,0,157463:0:0:0:0:
402,192,157463,128,0,157671:0:0:0:0:
192,192,157671,1,4,0:0:0:0:
448,192,157671,128,0,157984:0:0:0:0:
109,192,157671,1,0,0:0:0:0:
36,192,158088,128,0,158400:0:0:0:0:
192,192,158296,1,8,0:0:0:0:
448,192,158505,128,0,158817:0:0:0:0:
256,192,158505,1,2,0:0:0:0:
36,192,158921,128,0,159338:0:0:0:0:
320,192,159338,128,0,159755:0:0:0:0:
192,192,159546,1,2,0:0:0:0:
256,192,159755,128,0,159963:0:0:0:0:
109,192,159963,128,0,160171:0:0:0:0:
448,192,160171,128,0,161005:0:0:0:0:
192,192,160171,128,0,160380:0:0:0:0:
320,192,160380,128,0,160796:0:0:0:0:
64,192,160588,1,8,0:0:0:0:
192,192,161005,128,0,162255:0:0:0:0:
256,192,162255,128,0,162463:0:0:0:0:
192,192,162463,128,0,163713:0:0:0:0:
256,192,163713,128,0,163921:0:0:0:0:
192,192,163921,128,0,164130:0:0:0:0:
402,192,164130,128,0,165275:0:0:0:0:
192,192,165380,128,0,165588:0:0:0:0:
64,192,165588,128,0,165796:0:0:0:0:
320,192,165796,128,0,167046:0:0:0:0:
64,192,166942,128,0,167567:0:0:0:0:
192,192,167671,128,0,168921:0:0:0:0:
256,192,168921,128,0,169130:0:0:0:0:
192,192,169130,128,0,170380:0:0:0:0:
448,192,170380,128,0,170588:0:0:0:0:
402,192,170588,128,0,170796:0:0:0:0:
448,192,170796,128,0,172880:0:0:0:0:
402,192,172880,128,0,173088:0:0:0:0:
329,192,173088,128,0,173296:0:0:0:0:
256,192,173296,128,0,173505:0:0:0:0:
182,192,173505,128,0,173713:0:0:0:0:
109,192,173713,128,0,173921:0:0:0:0:
64,192,173921,128,0,174130:0:0:0:0:
192,192,174130,128,0,174338:0:0:0:0:
448,192,174338,128,0,174755:0:0:0:0:
320,192,174755,128,0,175588:0:0:0:0:
192,192,175588,128,0,176213:0:0:0:0:
64,192,176213,128,0,176838:0:0:0:0:
320,192,177046,128,0,177255:0:0:0:0:
192,192,177255,128,0,177463:0:0:0:0:
448,192,177671,128,0,178088:0:0:0:0:
320,192,178088,128,0,178921:0:0:0:0:
192,192,178921,128,0,179546:0:0:0:0:
64,192,179755,128,0,180171:0:0:0:0:
448,192,180380,128,0,180588:0:0:0:0:
402,192,180588,128,0,181005:0:0:0:0:
448,192,181005,128,0,183505:0:0:0:0:
109,192,181421,128,0,182150:0:0:0:0:
64,192,181630,1,8,0:0:0:0:
192,192,181838,1,0,0:0:0:0:
256,192,181838,1,2,0:0:0:0:
402,192,182255,128,0,182671:0:0:0:0:
329,192,182463,1,8,0:0:0:0:
192,192,182671,128,8,183088:0:0:0:0:
329,192,182880,1,8,0:0:0:0:
64,192,183088,128,8,183296:0:0:0:0:
192,192,183296,128,0,183609:0:0:0:0:
329,192,183505,1,2,0:0:0:0:
402,192,183505,1,0,0:0:0:0:
109,192,183713,128,0,183921:0:0:0:0:
320,192,183921,128,0,184442:0:0:0:0:
182,192,184130,1,8,0:0:0:0:
192,192,184338,1,4,0:0:0:0:
109,192,184338,1,0,0:0:0:0:
402,192,184546,128,0,186213:0:0:0:0:
192,192,184963,1,8,0:0:0:0:
109,192,185171,1,2,0:0:0:0:
64,192,185171,1,0,0:0:0:0:
192,192,185796,1,8,0:0:0:0:
192,192,186213,5,2,0:0:0:0:
448,192,186421,1,8,0:0:0:0:
320,192,186838,5,10,0:0:0:0:
64,192,186838,128,0,187150:0:0:0:0:
192,192,187046,1,8,0:0:0:0:
109,192,187255,1,8,0:0:0:0:
448,192,187255,128,0,187671:0:0:0:0:
36,192,187463,1,8,0:0:0:0:
192,192,187671,1,4,0:0:0:0:
320,192,187671,128,0,188088:0:0:0:0:
192,192,188088,128,0,188400:0:0:0:0:
64,192,188296,1,8,0:0:0:0:
109,192,188505,128,0,188921:0:0:0:0:
320,192,188505,1,2,0:0:0:0:
64,192,188921,128,0,189130:0:0:0:0:
320,192,189130,128,0,189546:0:0:0:0:
109,192,189546,1,0,0:0:0:0:
64,192,189546,128,0,190171:0:0:0:0:
192,192,189755,1,0,0:0:0:0:
320,192,190171,1,2,0:0:0:0:
402,192,190171,1,0,0:0:0:0:
109,192,190588,128,0,190796:0:0:0:0:
192,192,190796,128,0,191005:0:0:0:0:
320,192,191005,128,0,191317:0:0:0:0:
448,192,191005,1,4,0:0:0:0:
402,192,191421,128,0,191734:0:0:0:0:
64,192,191630,1,8,0:0:0:0:
448,192,191838,1,14,0:0:0:0:
320,192,191838,128,0,192255:0:0:0:0:
448,192,192255,128,0,192463:0:0:0:0:
320,192,192463,128,8,192880:0:0:0:0:
109,192,192880,1,2,0:0:0:0:
402,192,193088,1,8,0:0:0:0:
256,192,193088,128,0,193296:0:0:0:0:
320,192,193296,128,0,193713:0:0:0:0:
64,192,193505,1,0,0:0:0:0:
192,192,193505,1,2,0:0:0:0:
109,192,193713,128,0,193921:0:0:0:0:
64,192,193921,5,2,0:0:0:0:
320,192,194025,1,2,0:0:0:0:
192,192,194130,1,2,0:0:0:0:
448,192,194234,1,2,0:0:0:0:
109,192,194338,1,4,0:0:0:0:
64,192,194338,1,8,0:0:0:0:
448,192,194755,128,0,195588:0:0:0:0:
320,192,194963,1,8,0:0:0:0:
64,192,195171,1,0,0:0:0:0:
109,192,195171,1,2,0:0:0:0:
329,192,195588,128,0,196005:0:0:0:0:
402,192,196005,128,0,196421:0:0:0:0:
329,192,196213,1,8,0:0:0:0:
64,192,196421,128,8,196630:0:0:0:0:
192,192,196630,128,0,197046:0:0:0:0:
320,192,196838,1,2,0:0:0:0:
448,192,196838,1,0,0:0:0:0:
448,192,197046,128,0,197463:0:0:0:0:
402,192,197463,128,0,198088:0:0:0:0:
64,192,197671,1,4,0:0:0:0:
256,192,198088,128,0,199546:0:0:0:0:
320,192,198296,1,8,0:0:0:0:
320,192,198505,1,2,0:0:0:0:
192,192,198505,1,0,0:0:0:0:
320,192,199130,1,8,0:0:0:0:
192,192,199546,5,2,0:0:0:0:
448,192,199546,1,0,0:0:0:0:
64,192,199755,1,8,0:0:0:0:
109,192,199963,1,8,0:0:0:0:
320,192,200171,1,10,0:0:0:0:
402,192,200171,1,0,0:0:0:0:
109,192,200380,1,8,0:0:0:0:
64,192,200588,1,8,0:0:0:0:
192,192,200796,1,8,0:0:0:0:
64,192,201005,1,12,0:0:0:0:
402,192,201005,128,0,201317:0:0:0:0:
64,192,201421,1,8,0:0:0:0:
448,192,201421,128,0,201734:0:0:0:0:
109,192,201630,1,8,0:0:0:0:
402,192,201838,128,0,202255:0:0:0:0:
320,192,201838,1,2,0:0:0:0:
320,192,202255,128,0,202463:0:0:0:0:
402,192,202463,1,8,0:0:0:0:
192,192,202463,128,0,202775:0:0:0:0:
109,192,202880,128,0,203088:0:0:0:0:
64,192,202880,1,8,0:0:0:0:
448,192,203088,1,8,0:0:0:0:
64,192,203296,1,8,0:0:0:0:
448,192,203505,1,0,0:0:0:0:
320,192,203505,1,2,0:0:0:0:
64,192,204130,1,0,0:0:0:0:
109,192,204130,1,2,0:0:0:0:
448,192,204130,1,0,0:0:0:0:
64,192,204338,128,0,204650:0:0:0:0:
192,192,204338,1,8,0:0:0:0:
320,192,204338,1,4,0:0:0:0:
448,192,204755,128,0,205067:0:0:0:0:
256,192,204755,1,4,0:0:0:0:
192,192,204755,1,8,0:0:0:0:
64,192,205171,128,0,205484:0:0:0:0:
256,192,205171,1,4,0:0:0:0:
192,192,205171,1,8,0:0:0:0:
256,192,205588,1,4,0:0:0:0:
320,192,205588,128,0,206005:0:0:0:0:
448,192,205588,1,8,0:0:0:0:
192,192,206005,128,0,206421:0:0:0:70:nosound.wav
109,192,206525,128,0,206838:0:0:0:70:nosound.wav
192,192,206838,128,0,207046:0:0:0:70:nosound.wav
320,192,207046,128,0,207671:0:0:0:70:nosound.wav
109,192,207671,5,0,0:0:0:70:nosound.wav
320,192,207880,1,0,0:0:0:20:C_6.wav
64,192,208088,128,0,208713:0:0:0:70:nosound.wav
402,192,208088,1,0,0:0:0:20:C_up_6.wav
448,192,208505,1,0,0:0:0:20:G_up_6.wav
182,192,208921,1,0,0:0:0:20:C_6.wav
320,192,209130,1,0,0:0:0:20:C_up_6.wav
64,192,209546,1,0,0:0:0:20:C_6.wav
320,192,209755,1,0,0:0:0:20:C_up_6.wav
109,192,209963,1,0,0:0:0:20:C_6.wav
448,192,210171,1,0,0:0:0:20:G_up_6.wav
182,192,210588,1,0,0:0:0:20:C_6.wav
329,192,210796,1,0,0:0:0:20:C_up_6.wav
109,192,211213,1,0,0:0:0:20:C_6.wav
192,192,211421,1,0,0:0:0:20:C_up_6.wav
448,192,211838,1,0,0:0:0:20:G_6.wav
64,192,212255,1,0,0:0:0:20:C_6.wav
320,192,212463,1,0,0:0:0:20:C_up_6.wav
64,192,212880,1,0,0:0:0:20:C_6.wav
192,192,213088,1,0,0:0:0:20:C_up_6.wav
109,192,213296,1,0,0:0:0:20:C_6.wav
448,192,213505,1,0,0:0:0:20:G_6.wav
64,192,213921,1,0,0:0:0:20:C_6.wav
192,192,214130,1,0,0:0:0:20:C_up_6.wav
109,192,214546,1,0,0:0:0:20:C_6.wav
320,192,214755,1,0,0:0:0:20:C_up_6.wav
109,192,214963,1,0,0:0:0:20:C_6.wav
448,192,215171,1,0,0:0:0:20:G_up_6.wav
64,192,215588,1,0,0:0:0:20:C_6.wav
448,192,215588,128,0,224338:0:0:0:70:nosound.wav
320,192,215796,1,0,0:0:0:20:C_up_6.wav
64,192,216213,1,0,0:0:0:20:C_6.wav
192,192,216421,1,0,0:0:0:20:C_up_6.wav
64,192,216630,1,0,0:0:0:20:C_6.wav
402,192,216838,1,0,0:0:0:20:G_up_6.wav
64,192,217255,1,0,0:0:0:20:C_6.wav
192,192,217463,1,0,0:0:0:20:C_up_6.wav
64,192,217880,1,0,0:0:0:20:C_6.wav
192,192,218088,5,0,0:0:0:20:C_up_6.wav
320,192,218505,1,0,0:0:0:20:G_6.wav
64,192,218921,1,0,0:0:0:20:C_6.wav
109,192,219130,1,0,0:0:0:20:C_up_6.wav
