osu file format v14

[General]
AudioFilename: audio.mp3
AudioLeadIn: 0
PreviewTime: 134338
Countdown: 0
SampleSet: Soft
StackLeniency: 0.7
Mode: 3
LetterboxInBreaks: 0
SpecialStyle: 0
WidescreenStoryboard: 1

[Editor]
DistanceSpacing: 0.8
BeatDivisor: 8
GridSize: 32
TimelineZoom: 3

[Metadata]
Title:Lucid Dream
TitleUnicode:Lucid Dream
Artist:Asteria, Sondia
ArtistUnicode:Asteria, Sondia
Creator:onlymyaircraft
Version:4K MX "Air strike"
Source:CLOSERS
Tags:CLOSERS, Tina, Lucid Dream
BeatmapID:1090563
BeatmapSetID:513220

[Difficulty]
HPDrainRate:9
CircleSize:4
OverallDifficulty:8
ApproachRate:5
SliderMultiplier:1.4
SliderTickRate:1

[Events]
//Background and Video events
Video,0,"videoplayback.flv"
0,0,"gg.png",0,0
//Break Periods
//Storyboard Layer 0 (Background)
//Storyboard Layer 1 (Fail)
//Storyboard Layer 2 (Pass)
//Storyboard Layer 3 (Foreground)
//Storyboard Sound Samples

[TimingPoints]
1000,416.666666666667,4,2,1,20,1,0
1104,-125,4,2,1,20,0,0
4333,-133.333333333333,4,2,1,20,0,0
4541,-142.857142857143,4,2,1,20,0,0
11000,-153.846153846154,4,2,1,20,0,0
11208,-166.666666666667,4,2,1,20,0,0
11312,-153.846153846154,4,2,1,20,0,0
14020,-142.857142857143,4,2,1,20,0,0
14125,-133.333333333333,4,2,1,20,0,0
14229,-125,4,2,1,20,0,0
14333,-100,4,2,1,20,0,0
34333,-100,4,2,1,20,0,0
61005,416.666666666667,4,2,1,20,1,1
61005,-100,4,2,1,20,0,1
87671,-100,4,2,1,20,0,0
88088,-100,4,2,1,20,0,0
101005,-100,4,2,1,20,0,0
111006,-66.6666666666667,4,2,1,20,0,0
111110,-80,4,2,1,20,0,0
111214,-100,4,2,1,20,0,0
111318,-133.333333333333,4,2,1,20,0,0
111370,-200,4,2,1,20,0,0
111422,-66.6666666666667,4,2,1,20,0,0
111527,-80,4,2,1,20,0,0
111631,-100,4,2,1,20,0,0
111735,-133.333333333333,4,2,1,20,0,0
111787,-200,4,2,1,20,0,0
111839,-66.6666666666667,4,2,1,20,0,0
111943,-80,4,2,1,20,0,0
112047,-100,4,2,1,20,0,0
112152,-133.333333333333,4,2,1,20,0,0
112204,-200,4,2,1,20,0,0
112255,-66.6666666666667,4,2,1,20,0,0
112359,-100,4,2,1,20,0,0
114130,-66.6666666666667,4,2,1,20,0,0
114156,-80,4,2,1,20,0,0
114182,-100,4,2,1,20,0,0
114208,-133.333333333333,4,2,1,20,0,0
114234,-66.6666666666667,4,2,1,20,0,0
114260,-80,4,2,1,20,0,0
114286,-100,4,2,1,20,0,0
114312,-133.333333333333,4,2,1,20,0,0
114338,-100,4,2,1,20,0,0
134338,-100,4,2,1,20,0,1
160850,-111.111111111111,4,2,1,20,0,1
160901,-125,4,2,1,20,0,1
161006,-133.333333333333,4,2,1,20,0,1
161839,-90.9090909090909,4,2,1,20,0,1
162047,-250,4,2,1,20,0,1
162256,-133.333333333333,4,2,1,20,0,1
162881,-90.9090909090909,4,2,1,20,0,1
162985,-250,4,2,1,20,0,1
163089,-90.9090909090909,4,2,1,20,0,1
163193,-250,4,2,1,20,0,1
163298,-90.9090909090909,4,2,1,20,0,1
163402,-250,4,2,1,20,0,1
163506,-133.333333333333,4,2,1,20,0,1
164339,-90.9090909090909,4,2,1,20,0,1
164547,-250,4,2,1,20,0,1
164756,-90.9090909090909,4,2,1,20,0,1
164860,-250,4,2,1,20,0,1
164964,-90.9090909090909,4,2,1,20,0,1
165068,-250,4,2,1,20,0,1
165172,-90.9090909090909,4,2,1,20,0,1
165276,-250,4,2,1,20,0,1
165380,-90.9090909090909,4,2,1,20,0,1
165485,-250,4,2,1,20,0,1
165589,-90.9090909090909,4,2,1,20,0,1
165693,-250,4,2,1,20,0,1
165797,-90.9090909090909,4,2,1,20,0,1
166006,-250,4,2,1,20,0,1
166214,-133.333333333333,4,2,1,20,0,1
166839,-90.9090909090909,4,2,1,20,0,1
166943,-250,4,2,1,20,0,1
167047,-90.9090909090909,4,2,1,20,0,1
167151,-250,4,2,1,20,0,1
167256,-90.9090909090909,4,2,1,20,0,1
167359,-250,4,2,1,20,0,1
167463,-90.9090909090909,4,2,1,20,0,1
167568,-250,4,2,1,20,0,1
167672,-90.9090909090909,4,2,1,20,0,1
167776,-250,4,2,1,20,0,1
167880,-90.9090909090909,4,2,1,20,0,1
167984,-250,4,2,1,20,0,1
168088,-90.9090909090909,4,2,1,20,0,1
168192,-250,4,2,1,20,0,1
168297,-90.9090909090909,4,2,1,20,0,1
168401,-250,4,2,1,20,0,1
168506,-90.9090909090909,4,2,1,20,0,1
168714,-250,4,2,1,20,0,1
168922,-90.9090909090909,4,2,1,20,0,1
169026,-250,4,2,1,20,0,1
169131,-90.9090909090909,4,2,1,20,0,1
169235,-250,4,2,1,20,0,1
169339,-133.333333333333,4,2,1,20,0,1
169964,-90.9090909090909,4,2,1,20,0,1
170068,-250,4,2,1,20,0,1
170172,-90.9090909090909,4,2,1,20,0,1
170381,-90.9090909090909,4,2,1,20,0,1
170485,-250,4,2,1,20,0,1
170589,-90.9090909090909,4,2,1,20,0,1
170693,-250,4,2,1,20,0,1
170797,-90.9090909090909,4,2,1,20,0,1
170901,-250,4,2,1,20,0,1
171005,-90.9090909090909,4,2,1,20,0,1
171214,-250,4,2,1,20,0,1
171422,-90.9090909090909,4,2,1,20,0,1
171526,-250,4,2,1,20,0,1
171631,-90.9090909090909,4,2,1,20,0,1
171735,-250,4,2,1,20,0,1
171839,-100,4,2,1,20,0,1
172517,-66.6666666666667,4,2,1,20,0,1
172621,-80,4,2,1,20,0,1
172725,-100,4,2,1,20,0,1
172829,-133.333333333333,4,2,1,20,0,1
172881,-200,4,2,1,20,0,1
172933,-100,4,2,1,20,0,1
173350,-66.6666666666667,4,2,1,20,0,1
173401,-100,4,2,1,20,0,1
173453,-133.333333333333,4,2,1,20,0,1
173506,-200,4,2,1,20,0,1
173558,-100,4,2,1,20,0,1
173740,-50,4,2,1,20,0,1
173766,-100,4,2,1,20,0,1
173792,-200,4,2,1,20,0,1
173818,-400,4,2,1,20,0,1
173844,-50,4,2,1,20,0,1
173870,-100,4,2,1,20,0,1
173896,-200,4,2,1,20,0,1
173922,-400,4,2,1,20,0,1
173949,-50,4,2,1,20,0,1
173975,-100,4,2,1,20,0,1
174001,-200,4,2,1,20,0,1
174027,-400,4,2,1,20,0,1
174053,-50,4,2,1,20,0,1
174079,-100,4,2,1,20,0,1
174105,-200,4,2,1,20,0,1
174131,-400,4,2,1,20,0,1
174157,-50,4,2,1,20,0,1
174183,-100,4,2,1,20,0,1
174209,-200,4,2,1,20,0,1
174235,-66.6666666666667,4,2,1,20,0,1
174339,-66.6666666666667,4,2,1,20,0,1
174365,-100,4,2,1,20,0,1
174443,-200,4,2,1,20,0,1
174547,-100,4,2,1,20,0,1
174756,-66.6666666666667,4,2,1,20,0,1
174860,-200,4,2,1,20,0,1
174964,-100,4,2,1,20,0,1
175172,-66.6666666666667,4,2,1,20,0,1
175276,-200,4,2,1,20,0,1
175381,-100,4,2,1,20,0,1
175589,-66.6666666666667,4,2,1,20,0,1
175693,-200,4,2,1,20,0,1
175797,-100,4,2,1,20,0,1
176005,-66.6666666666667,4,2,1,20,0,1
176110,-200,4,2,1,20,0,1
176214,-100,4,2,1,20,0,1
176422,-66.6666666666667,4,2,1,20,0,1
176526,-200,4,2,1,20,0,1
176630,-100,4,2,1,20,0,1
176839,-66.6666666666667,4,2,1,20,0,1
176943,-200,4,2,1,20,0,1
177047,-100,4,2,1,20,0,1
177255,-66.6666666666667,4,2,1,20,0,1
177359,-200,4,2,1,20,0,1
177463,-100,4,2,1,20,0,1
177672,-66.6666666666667,4,2,1,20,0,1
177776,-200,4,2,1,20,0,1
177880,-100,4,2,1,20,0,1
178088,-66.6666666666667,4,2,1,20,0,1
178193,-200,4,2,1,20,0,1
178297,-100,4,2,1,20,0,1
178505,-66.6666666666667,4,2,1,20,0,1
178609,-200,4,2,1,20,0,1
178713,-100,4,2,1,20,0,1
178922,-66.6666666666667,4,2,1,20,0,1
179026,-200,4,2,1,20,0,1
179130,-100,4,2,1,20,0,1
179339,-66.6666666666667,4,2,1,20,0,1
179443,-200,4,2,1,20,0,1
179547,-100,4,2,1,20,0,1
179652,-66.6666666666667,4,2,1,20,0,1
179704,-200,4,2,1,20,0,1
179756,-100,4,2,1,20,0,1
179860,-66.6666666666667,4,2,1,20,0,1
179912,-200,4,2,1,20,0,1
179964,-100,4,2,1,20,0,1
180068,-100,4,2,1,20,0,1
180120,-100,4,2,1,20,0,1
180172,-100,4,2,1,20,0,1
180224,-57.1428571428571,4,2,1,20,0,1
180250,-400,4,2,1,20,0,1
180276,-100,4,2,1,20,0,1
180329,-57.1428571428571,4,2,1,20,0,1
180355,-400,4,2,1,20,0,1
180381,-100,4,2,1,20,0,1
180433,-57.1428571428571,4,2,1,20,0,1
180459,-400,4,2,1,20,0,1
180485,-100,4,2,1,20,0,1
180537,-57.1428571428571,4,2,1,20,0,1
180563,-400,4,2,1,20,0,1
180589,-100,4,2,1,20,0,1
180641,-57.1428571428571,4,2,1,20,0,1
180667,-400,4,2,1,20,0,1
180693,-100,4,2,1,20,0,1
180745,-57.1428571428571,4,2,1,20,0,1
180771,-400,4,2,1,20,0,1
180797,-100,4,2,1,20,0,1
180849,-57.1428571428571,4,2,1,20,0,1
180875,-400,4,2,1,20,0,1
180901,-100,4,2,1,20,0,1
180953,-57.1428571428571,4,2,1,20,0,1
180979,-400,4,2,1,20,0,1
181006,-100,4,2,1,20,0,1
204339,-50,4,2,1,20,0,1
204443,-66.6666666666667,4,2,1,20,0,1
204548,-100,4,2,1,20,0,1
204652,-133.333333333333,4,2,1,20,0,1
204704,-200,4,2,1,20,0,1
204756,-50,4,2,1,20,0,1
204860,-66.6666666666667,4,2,1,20,0,1
204964,-100,4,2,1,20,0,1
205068,-133.333333333333,4,2,1,20,0,1
205120,-200,4,2,1,20,0,1
205172,-50,4,2,1,20,0,1
205277,-66.6666666666667,4,2,1,20,0,1
205381,-100,4,2,1,20,0,1
205485,-133.333333333333,4,2,1,20,0,1
205537,-200,4,2,1,20,0,1
205588,-100,4,2,1,20,0,0

[HitObjects]
64,192,999,5,0,0:0:0:8:nosound.wav
192,192,1208,5,0,0:0:0:20:C.wav
320,192,1416,1,0,0:0:0:20:C_up.wav
448,192,1833,1,0,0:0:0:20:G_up.wav
192,192,2250,1,0,0:0:0:20:C.wav
320,192,2458,1,0,0:0:0:20:C_up.wav
320,192,3083,1,0,0:0:0:20:C_up.wav
64,192,3291,1,0,0:0:0:8:nosound.wav
448,192,3500,1,0,0:0:0:20:G_up.wav
192,192,3916,128,0,4125:0:0:0:20:C.wav
320,192,4125,1,0,0:0:0:20:C_up.wav
320,192,4333,1,0,0:0:0:8:nosound.wav
64,192,4541,1,0,0:0:0:20:C.wav
448,192,4541,128,0,7666:0:0:0:70:nosound.wav
192,192,4750,1,0,0:0:0:20:C_up.wav
320,192,5166,1,0,0:0:0:20:G.wav
64,192,5583,1,0,0:0:0:20:C.wav
192,192,5791,1,0,0:0:0:20:C_up.wav
64,192,6208,1,0,0:0:0:20:C.wav
192,192,6416,1,0,0:0:0:20:C_up.wav
320,192,6833,1,0,0:0:0:20:G.wav
64,192,7250,1,0,0:0:0:20:C.wav
64,192,7875,1,0,0:0:0:20:C.wav
192,192,8083,1,0,0:0:0:20:C_up.wav
320,192,8500,1,0,0:0:0:20:G_up.wav
64,192,8916,1,0,0:0:0:20:C.wav
192,192,9125,1,0,0:0:0:20:C_up.wav
192,192,9750,1,0,0:0:0:20:C_up.wav
320,192,10166,1,0,0:0:0:20:G_up.wav
64,192,10583,1,0,0:0:0:20:C.wav
192,192,10791,1,0,0:0:0:20:C_up.wav
64,192,11208,1,0,0:0:0:20:C.wav
320,192,11208,128,0,14333:0:0:0:70:nosound.wav
192,192,11416,1,0,0:0:0:20:C_up.wav
448,192,11833,1,0,0:0:0:20:G.wav
64,192,12250,1,0,0:0:0:20:C.wav
192,192,12458,1,0,0:0:0:20:C_up.wav
64,192,12875,1,0,0:0:0:20:C.wav
192,192,13083,1,0,0:0:0:20:C_up.wav
64,192,13500,1,0,0:0:0:10:D_up.wav
448,192,13500,1,0,0:0:0:10:D_up.wav
64,192,14333,1,0,0:0:0:0:
192,192,14541,1,0,0:0:0:8:
448,192,14750,128,0,14958:0:0:0:8:
320,192,14750,1,0,0:0:0:8:
192,192,14958,128,0,15166:0:0:0:8:
320,192,15166,128,0,15583:0:0:0:8:
64,192,15583,1,0,0:0:0:8:
320,192,15791,128,0,16000:0:0:0:8:
192,192,15791,1,0,0:0:0:8:
448,192,16000,128,0,16208:0:0:0:8:
320,192,16208,128,0,16416:0:0:0:8:
64,192,16416,1,0,0:0:0:8:
192,192,16625,128,0,17041:0:0:0:8:
448,192,16625,1,0,0:0:0:8:
64,192,17041,1,0,0:0:0:8:
320,192,17041,128,0,17458:0:0:0:8:
192,192,17250,1,0,0:0:0:8:
64,192,17458,128,0,18291:0:0:0:8:
448,192,17458,1,0,0:0:0:8:
192,192,17666,1,0,0:0:0:8:
192,192,18083,1,0,0:0:0:8:
320,192,18291,128,0,18500:0:0:0:0:
64,192,18916,1,0,0:0:0:8:
192,192,19125,128,0,19333:0:0:0:0:
192,192,19541,1,0,0:0:0:70:nosound.wav
64,192,19750,1,0,0:0:0:8:
448,192,19958,128,0,20166:0:0:0:0:
192,192,20375,1,0,0:0:0:70:nosound.wav
64,192,20583,1,0,0:0:0:8:
192,192,20791,1,0,0:0:0:8:
320,192,21000,1,0,0:0:0:8:
192,192,21208,1,0,0:0:0:8:
448,192,21416,128,0,21625:0:0:0:8:
64,192,21416,1,0,0:0:0:8:
64,192,21625,128,0,21833:0:0:0:8:
192,192,21625,1,0,0:0:0:8:
320,192,21833,128,0,22250:0:0:0:8:
64,192,22250,1,0,0:0:0:8:
192,192,22458,128,0,22666:0:0:0:8:
448,192,22458,1,0,0:0:0:8:
320,192,22666,128,0,22875:0:0:0:8:
64,192,22666,1,0,0:0:0:8:
64,192,22875,128,0,23083:0:0:0:8:
192,192,22875,1,0,0:0:0:8:
192,192,23083,1,0,0:0:0:8:
448,192,23291,128,0,23604:0:0:0:8:
320,192,23291,1,0,0:0:0:8:
448,192,23708,128,0,24125:0:0:0:8:
64,192,23916,1,0,0:0:0:8:
192,192,24125,1,0,0:0:0:8:
320,192,24125,128,0,24750:0:0:0:8:
64,192,24541,1,0,0:0:0:8:
448,192,24541,1,0,0:0:0:8:
64,192,24750,1,0,0:0:0:8:
192,192,24750,128,0,25375:0:0:0:8:
320,192,24958,1,0,0:0:0:8:
64,192,25583,1,0,0:0:0:8:
320,192,25791,1,0,0:0:0:8:
64,192,26416,1,0,0:0:0:8:
192,192,26625,1,0,0:0:0:8:
192,192,27250,1,0,0:0:0:8:
320,192,27458,1,0,0:0:0:8:
192,192,27666,128,0,27770:0:0:0:8:
192,192,27875,128,0,28291:0:0:0:8:
320,192,28083,1,0,0:0:0:8:
320,192,28291,128,0,28604:0:0:0:8:
448,192,28291,1,0,0:0:0:8:
448,192,28604,128,0,28916:0:0:0:8:
320,192,28916,128,0,29541:0:0:0:8:
64,192,28916,1,0,0:0:0:8:
448,192,29125,1,0,0:0:0:8:
192,192,29750,1,0,0:0:0:8:
320,192,29958,1,0,0:0:0:8:
64,192,30583,1,0,0:0:0:8:
320,192,30791,1,0,0:0:0:8:
64,192,31000,1,0,0:0:0:8:
192,192,31000,128,0,31208:0:0:0:8:
320,192,31208,128,0,31625:0:0:0:8:
448,192,31625,128,0,31937:0:0:0:8:
192,192,31625,1,0,0:0:0:8:
448,192,32041,1,0,0:0:0:8:
448,192,32250,128,0,33500:0:0:0:8:
64,192,32250,1,0,0:0:0:8:
320,192,32458,1,0,0:0:0:8:
64,192,33083,1,0,0:0:0:8:
192,192,33083,128,0,33500:0:0:0:8:
320,192,33291,1,0,0:0:0:8:
64,192,34333,5,0,0:0:0:0:
320,192,34333,1,8,0:0:0:0:
192,192,34541,1,8,0:0:0:0:
448,192,34541,1,0,0:0:0:0:
320,192,34645,1,0,0:0:0:0:
192,192,34750,128,0,35166:0:0:0:70:nosound.wav
64,192,34750,1,0,0:0:0:0:
320,192,35166,1,0,0:0:0:0:
448,192,35166,1,2,0:0:0:0:
64,192,35166,1,0,0:0:0:0:
448,192,35375,1,0,0:0:0:0:
192,192,35375,1,8,0:0:0:0:
64,192,35479,1,0,0:0:0:0:
320,192,35479,1,8,0:0:0:0:
192,192,35583,1,8,0:0:0:0:
448,192,35791,1,0,0:0:0:0:
64,192,35791,1,0,0:0:0:0:
192,192,35791,1,2,0:0:0:0:
64,192,36000,1,0,0:0:0:0:
448,192,36000,1,8,0:0:0:0:
320,192,36104,1,8,0:0:0:0:
448,192,36208,1,0,0:0:0:0:
192,192,36208,1,8,0:0:0:0:
320,192,36416,1,0,0:0:0:0:
64,192,36416,1,0,0:0:0:0:
448,192,36625,1,8,0:0:0:0:
192,192,36625,1,0,0:0:0:0:
320,192,36729,1,8,0:0:0:0:
64,192,36729,1,0,0:0:0:0:
448,192,36833,1,8,0:0:0:0:
192,192,36833,1,2,0:0:0:0:
64,192,36833,1,0,0:0:0:0:
320,192,37041,1,8,0:0:0:0:
192,192,37041,1,0,0:0:0:0:
64,192,37250,1,0,0:0:0:0:
320,192,37250,1,10,0:0:0:0:
192,192,37458,1,0,0:0:0:0:
448,192,37458,1,8,0:0:0:0:
448,192,37666,1,0,0:0:0:0:
320,192,37666,1,8,0:0:0:0:
64,192,37770,1,0,0:0:0:0:
192,192,37770,1,8,0:0:0:0:
320,192,37875,1,8,0:0:0:0:
448,192,37875,1,0,0:0:0:0:
320,192,38083,1,10,0:0:0:0:
448,192,38291,1,0,0:0:0:0:
192,192,38291,1,8,0:0:0:0:
320,192,38395,1,8,0:0:0:0:
448,192,38500,128,0,41625:0:0:0:0:
192,192,38500,1,2,0:0:0:0:
64,192,38500,1,0,0:0:0:0:
64,192,38916,1,0,0:0:0:0:
192,192,38916,1,8,0:0:0:0:
192,192,39125,1,8,0:0:0:0:
320,192,39125,1,0,0:0:0:0:
320,192,39333,1,0,0:0:0:0:
64,192,39333,1,8,0:0:0:0:
192,192,39437,1,0,0:0:0:0:
320,192,39541,1,8,0:0:0:0:
64,192,39541,1,0,0:0:0:0:
320,192,39750,1,0,0:0:0:0:
192,192,39750,1,0,0:0:0:0:
64,192,39854,1,0,0:0:0:0:
320,192,39958,1,8,0:0:0:0:
192,192,39958,128,0,41000:0:0:0:0:
320,192,40166,1,0,0:0:0:0:
64,192,40166,1,8,0:0:0:0:
64,192,40583,1,8,0:0:0:0:
320,192,40687,1,0,0:0:0:0:
64,192,40791,1,8,0:0:0:0:
320,192,40895,1,0,0:0:0:0:
64,192,41000,128,0,44125:0:0:0:0:
320,192,41416,128,0,41625:0:0:0:0:
192,192,41625,128,0,41833:0:0:0:0:
320,192,41833,128,0,42250:0:0:0:0:
448,192,41833,1,10,0:0:0:0:
320,192,42458,128,0,42666:0:0:0:0:
192,192,42458,1,2,0:0:0:0:
448,192,42458,1,0,0:0:0:0:
448,192,42666,128,0,42875:0:0:0:0:
320,192,42875,128,0,43187:0:0:0:0:
192,192,42875,1,8,0:0:0:0:
448,192,43083,1,0,0:0:0:0:
448,192,43291,128,0,43500:0:0:0:0:
192,192,43500,1,8,0:0:0:0:
320,192,43500,1,0,0:0:0:0:
448,192,43708,128,0,44125:0:0:0:0:
320,192,43708,1,8,0:0:0:0:
192,192,43916,1,8,0:0:0:0:
320,192,44125,128,0,45375:0:0:0:0:
192,192,44333,1,0,0:0:0:0:
64,192,44750,1,8,0:0:0:0:
448,192,44750,1,0,0:0:0:0:
192,192,44958,1,8,0:0:0:0:
64,192,45166,1,0,0:0:0:0:
192,192,45166,1,2,0:0:0:0:
448,192,45166,1,0,0:0:0:0:
448,192,45583,1,0,0:0:0:0:
192,192,45583,1,0,0:0:0:70:nosound.wav
320,192,45791,1,8,0:0:0:70:nosound.wav
448,192,45791,1,0,0:0:0:0:
192,192,46000,1,0,0:0:0:0:
320,192,46104,1,0,0:0:0:0:
64,192,46208,1,0,0:0:0:0:
448,192,46208,1,2,0:0:0:0:
192,192,46416,1,0,0:0:0:0:
320,192,46520,1,0,0:0:0:0:
448,192,46625,1,0,0:0:0:0:
192,192,46729,1,0,0:0:0:0:
64,192,46833,1,0,0:0:0:0:
448,192,46833,1,2,0:0:0:0:
192,192,46937,1,0,0:0:0:0:
320,192,47041,128,0,47250:0:0:0:0:
448,192,47041,1,8,0:0:0:0:
64,192,47250,128,0,47458:0:0:0:0:
192,192,47250,1,8,0:0:0:0:
448,192,47250,1,0,0:0:0:0:
192,192,47458,128,0,47666:0:0:0:0:
448,192,47458,1,8,0:0:0:0:
64,192,47666,128,0,50375:0:0:0:0:
320,192,47666,1,8,0:0:0:0:
448,192,48083,128,0,48291:0:0:0:0:
320,192,48083,1,0,0:0:0:0:
320,192,48291,128,0,48500:0:0:0:0:
448,192,48500,128,0,48916:0:0:0:0:
192,192,48500,1,2,0:0:0:0:
192,192,49125,128,0,49333:0:0:0:0:
320,192,49125,1,2,0:0:0:0:
448,192,49125,1,0,0:0:0:0:
448,192,49333,128,0,49541:0:0:0:0:
192,192,49541,128,0,49958:0:0:0:0:
448,192,49750,1,8,0:0:0:0:
448,192,49958,128,0,50270:0:0:0:0:
320,192,49958,1,8,0:0:0:0:
192,192,50166,1,0,0:0:0:0:
320,192,50166,1,10,0:0:0:0:
448,192,50375,128,0,50791:0:0:0:0:
320,192,50375,1,8,0:0:0:0:
192,192,50583,1,8,0:0:0:0:
320,192,50791,1,8,0:0:0:0:
320,192,51000,128,0,53083:0:0:0:0:
448,192,51000,1,0,0:0:0:0:
64,192,51000,1,8,0:0:0:0:
448,192,51416,1,8,0:0:0:0:
192,192,51625,1,0,0:0:0:0:
64,192,51833,1,0,0:0:0:0:
192,192,51833,1,2,0:0:0:0:
192,192,52250,1,0,0:0:0:0:
448,192,52458,1,0,0:0:0:0:
64,192,52666,1,0,0:0:0:0:
192,192,52875,1,2,0:0:0:0:
64,192,52875,1,0,0:0:0:0:
448,192,52875,1,8,0:0:0:0:
64,192,53083,1,0,0:0:0:0:
448,192,53291,1,8,0:0:0:0:
192,192,53291,1,0,0:0:0:0:
64,192,53500,1,0,0:0:0:0:
320,192,53500,1,8,0:0:0:0:
448,192,53500,1,2,0:0:0:0:
64,192,53708,1,0,0:0:0:0:
192,192,53708,1,8,0:0:0:0:
192,192,53916,1,0,0:0:0:0:
320,192,53916,1,8,0:0:0:0:
320,192,54125,1,0,0:0:0:0:
448,192,54125,1,8,0:0:0:0:
192,192,54333,128,0,54541:0:0:0:0:
320,192,54333,1,8,0:0:0:0:
320,192,54541,128,0,54854:0:0:0:0:
64,192,54750,1,0,0:0:0:0:
448,192,54750,1,0,0:0:0:0:
320,192,54958,128,0,55270:0:0:0:0:
64,192,55166,1,0,0:0:0:0:
192,192,55166,1,8,0:0:0:0:
448,192,55166,1,2,0:0:0:0:
448,192,55375,128,0,55479:0:0:0:0:
448,192,55583,128,0,56625:0:0:0:0:
320,192,55583,1,0,0:0:0:0:
192,192,55791,1,0,0:0:0:0:
64,192,55791,1,0,0:0:0:0:
320,192,55791,1,0,0:0:0:0:
192,192,56000,1,0,0:0:0:0:
64,192,56208,1,0,0:0:0:0:
320,192,56416,1,0,0:0:0:0:
192,192,56625,1,8,0:0:0:0:
320,192,56833,1,0,0:0:0:0:
64,192,56833,1,2,0:0:0:0:
448,192,56833,1,0,0:0:0:0:
320,192,57041,1,0,0:0:0:0:
448,192,57041,1,8,0:0:0:0:
192,192,57250,1,0,0:0:0:0:
64,192,57250,1,8,0:0:0:0:
448,192,57458,1,0,0:0:0:0:
192,192,57458,1,8,0:0:0:0:
320,192,57666,128,0,58083:0:0:0:0:
64,192,57666,1,8,0:0:0:0:
192,192,58083,128,0,58291:0:0:0:0:
448,192,58083,1,0,0:0:0:0:
64,192,58291,128,0,58708:0:0:0:0:
320,192,58291,1,8,0:0:0:0:
192,192,58500,1,2,0:0:0:0:
448,192,58500,1,0,0:0:0:0:
192,192,58708,128,0,58916:0:0:0:0:
64,192,58916,1,0,0:0:0:0:
448,192,58916,128,0,59333:0:0:0:0:
320,192,58916,1,8,0:0:0:0:
192,192,59125,1,0,0:0:0:0:
64,192,61005,1,0,0:0:0:0:
320,192,61005,1,4,0:0:0:0:
448,192,61005,1,2,0:0:0:0:
192,192,61005,1,4,0:0:0:0:
192,192,61421,1,8,0:0:0:0:
448,192,61421,128,0,62255:0:0:0:0:
192,192,61630,1,8,0:0:0:0:
64,192,61838,1,0,0:0:0:0:
192,192,61838,1,0,0:0:0:0:
320,192,61838,1,2,0:0:0:0:
320,192,62255,128,0,62671:0:0:0:0:
64,192,62255,1,0,0:0:0:0:
448,192,62463,1,0,0:0:0:0:
192,192,62463,1,8,0:0:0:0:
192,192,62671,128,0,63088:0:0:0:0:
64,192,62671,1,8,0:0:0:0:
448,192,62880,1,0,0:0:0:0:
320,192,62880,1,8,0:0:0:0:
64,192,63088,128,0,63296:0:0:0:0:
320,192,63088,1,8,0:0:0:0:
448,192,63088,1,0,0:0:0:0:
320,192,63296,128,0,63713:0:0:0:0:
64,192,63505,1,0,0:0:0:0:
192,192,63505,1,0,0:0:0:0:
448,192,63505,1,2,0:0:0:0:
64,192,63713,1,8,0:0:0:0:
192,192,63921,128,0,64546:0:0:0:0:
448,192,63921,1,8,0:0:0:0:
320,192,64130,1,8,0:0:0:0:
64,192,64130,1,0,0:0:0:0:
64,192,64338,1,0,0:0:0:0:
320,192,64338,1,8,0:0:0:0:
448,192,64338,1,0,0:0:0:0:
320,192,64546,128,0,65588:0:0:0:0:
448,192,64755,1,8,0:0:0:0:
64,192,64963,1,8,0:0:0:0:
64,192,65171,1,0,0:0:0:0:
192,192,65171,1,2,0:0:0:0:
448,192,65171,1,0,0:0:0:0:
192,192,65588,1,0,0:0:0:0:
64,192,65796,1,0,0:0:0:0:
320,192,65796,1,8,0:0:0:0:
320,192,66005,1,0,0:0:0:0:
64,192,66213,1,0,0:0:0:0:
192,192,66213,1,2,0:0:0:0:
448,192,66213,1,0,0:0:0:0:
192,192,66421,1,8,0:0:0:0:
320,192,66421,1,0,0:0:0:0:
64,192,66630,1,0,0:0:0:0:
448,192,66838,1,2,0:0:0:0:
192,192,66838,128,0,67255:0:0:0:0:
320,192,66838,1,0,0:0:0:0:
64,192,67046,1,8,0:0:0:0:
448,192,67255,1,8,0:0:0:0:
320,192,67255,128,0,67671:0:0:0:0:
64,192,67463,1,8,0:0:0:0:
448,192,67463,1,0,0:0:0:0:
448,192,67671,128,0,68088:0:0:0:0:
64,192,67671,1,0,0:0:0:0:
192,192,67671,1,4,0:0:0:0:
320,192,68088,128,0,68505:0:0:0:0:
192,192,68088,1,8,0:0:0:0:
64,192,68296,1,8,0:0:0:0:
64,192,68505,128,0,68921:0:0:0:0:
192,192,68505,1,0,0:0:0:0:
448,192,68505,1,2,0:0:0:0:
192,192,68921,128,0,69130:0:0:0:0:
448,192,68921,1,0,0:0:0:0:
320,192,69130,1,8,0:0:0:0:
448,192,69130,128,0,69546:0:0:0:0:
192,192,69338,1,0,0:0:0:0:
64,192,69546,1,8,0:0:0:0:
320,192,69546,128,0,69963:0:0:0:0:
192,192,69755,1,8,0:0:0:0:
448,192,69755,1,0,0:0:0:0:
192,192,69963,1,8,0:0:0:0:
64,192,70171,1,0,0:0:0:0:
320,192,70171,1,2,0:0:0:0:
448,192,70171,1,0,0:0:0:0:
192,192,70380,1,8,0:0:0:0:
320,192,70380,1,0,0:0:0:0:
192,192,70588,128,0,70796:0:0:0:0:
320,192,70796,128,0,71005:0:0:0:0:
64,192,71005,1,4,0:0:0:0:
448,192,71005,128,0,71317:0:0:0:0:
192,192,71005,1,2,0:0:0:0:
448,192,71421,128,0,71734:0:0:0:0:
192,192,71421,1,8,0:0:0:0:
192,192,71630,1,8,0:0:0:0:
448,192,71838,128,0,72150:0:0:0:0:
64,192,71838,1,0,0:0:0:0:
192,192,71838,1,0,0:0:0:0:
320,192,71838,1,2,0:0:0:0:
448,192,72255,128,0,72359:0:0:0:0:
448,192,72463,128,0,72880:0:0:0:0:
320,192,72463,1,8,0:0:0:0:
192,192,72463,1,0,0:0:0:0:
64,192,72880,1,0,0:0:0:0:
192,192,72880,1,8,0:0:0:0:
320,192,72880,1,8,0:0:0:0:
320,192,73088,128,0,73192:0:0:0:0:
64,192,73088,1,0,0:0:0:0:
448,192,73088,1,8,0:0:0:0:
320,192,73296,128,0,73713:0:0:0:0:
64,192,73505,1,0,0:0:0:0:
192,192,73505,1,0,0:0:0:0:
448,192,73505,1,2,0:0:0:0:
192,192,73713,128,0,73921:0:0:0:0:
64,192,73713,1,8,0:0:0:0:
320,192,73921,5,8,0:0:0:0:
448,192,73921,1,0,0:0:0:0:
192,192,74025,1,8,0:0:0:0:
64,192,74025,1,0,0:0:0:0:
320,192,74130,1,8,0:0:0:0:
448,192,74130,1,0,0:0:0:0:
192,192,74234,1,8,0:0:0:0:
64,192,74234,1,0,0:0:0:0:
320,192,74338,1,0,0:0:0:0:
448,192,74338,1,4,0:0:0:0:
64,192,74338,1,0,0:0:0:0:
320,192,74755,128,0,75588:0:0:0:0:
192,192,74755,1,8,0:0:0:0:
192,192,74963,1,8,0:0:0:0:
64,192,75171,1,2,0:0:0:0:
192,192,75171,1,0,0:0:0:0:
448,192,75171,1,0,0:0:0:0:
64,192,75588,128,0,76005:0:0:0:0:
192,192,75588,1,0,0:0:0:0:
448,192,75796,1,8,0:0:0:0:
320,192,76005,128,0,76421:0:0:0:0:
192,192,76005,1,0,0:0:0:0:
448,192,76213,1,8,0:0:0:0:
192,192,76421,128,0,76630:0:0:0:0:
448,192,76421,1,8,0:0:0:0:
64,192,76421,1,0,0:0:0:0:
320,192,76630,128,0,77046:0:0:0:0:
64,192,76838,1,0,0:0:0:0:
192,192,76838,1,2,0:0:0:0:
448,192,76838,1,0,0:0:0:0:
448,192,77046,128,0,77463:0:0:0:0:
192,192,77046,1,0,0:0:0:0:
192,192,77255,1,0,0:0:0:0:
192,192,77463,128,0,78088:0:0:0:0:
320,192,77463,1,8,0:0:0:0:
64,192,77463,1,0,0:0:0:0:
448,192,77671,1,8,0:0:0:0:
64,192,77671,1,0,0:0:0:0:
64,192,78088,128,0,79755:0:0:0:0:
448,192,78296,1,8,0:0:0:0:
320,192,78296,1,0,0:0:0:0:
192,192,78505,1,0,0:0:0:0:
320,192,78505,1,2,0:0:0:0:
448,192,78505,1,0,0:0:0:0:
320,192,79130,1,0,0:0:0:0:
448,192,79130,1,8,0:0:0:0:
192,192,79546,1,0,0:0:0:0:
320,192,79546,1,2,0:0:0:0:
448,192,79546,1,0,0:0:0:0:
192,192,79755,1,0,0:0:0:0:
320,192,79755,1,8,0:0:0:0:
320,192,80171,1,2,0:0:0:0:
64,192,80171,1,0,0:0:0:0:
448,192,80171,1,0,0:0:0:0:
192,192,80380,1,8,0:0:0:0:
320,192,80380,1,0,0:0:0:0:
192,192,80588,1,8,0:0:0:0:
64,192,80588,1,0,0:0:0:0:
192,192,80796,1,0,0:0:0:0:
320,192,80796,1,8,0:0:0:0:
64,192,81005,1,0,0:0:0:0:
192,192,81005,1,8,0:0:0:0:
320,192,81005,1,4,0:0:0:0:
448,192,81005,128,0,81317:0:0:0:0:
448,192,81421,128,0,81838:0:0:0:0:
64,192,81421,1,8,0:0:0:0:
64,192,81630,1,8,0:0:0:0:
320,192,81838,128,0,82255:0:0:0:0:
64,192,81838,1,0,0:0:0:0:
192,192,81838,1,2,0:0:0:0:
64,192,82255,128,0,82463:0:0:0:0:
192,192,82255,1,0,0:0:0:0:
192,192,82463,128,0,82775:0:0:0:0:
448,192,82463,1,8,0:0:0:0:
320,192,82671,1,0,0:0:0:0:
64,192,82880,128,0,83400:0:0:0:0:
320,192,82880,1,8,0:0:0:0:
448,192,82880,1,8,0:0:0:0:
320,192,83088,1,8,0:0:0:0:
448,192,83088,1,8,0:0:0:0:
192,192,83296,1,8,0:0:0:0:
448,192,83296,1,0,0:0:0:0:
64,192,83505,1,0,0:0:0:0:
448,192,83505,1,0,0:0:0:0:
320,192,83505,1,2,0:0:0:0:
192,192,83713,1,0,0:0:0:0:
320,192,83713,1,0,0:0:0:0:
192,192,84130,1,0,0:0:0:0:
320,192,84130,1,8,0:0:0:0:
320,192,84338,128,0,84650:0:0:0:0:
64,192,84338,1,4,0:0:0:0:
192,192,84338,1,8,0:0:0:0:
448,192,84338,1,0,0:0:0:0:
320,192,84755,128,0,85171:0:0:0:0:
64,192,84963,1,8,0:0:0:0:
192,192,85171,128,0,85588:0:0:0:0:
64,192,85171,1,8,0:0:0:0:
448,192,85171,1,0,0:0:0:0:
64,192,85588,128,0,85796:0:0:0:0:
320,192,85588,1,0,0:0:0:0:
320,192,85796,128,0,86421:0:0:0:0:
448,192,85796,1,0,0:0:0:0:
64,192,86213,1,0,0:0:0:0:
192,192,86213,1,8,0:0:0:0:
448,192,86213,1,0,0:0:0:0:
192,192,86421,128,0,86630:0:0:0:0:
64,192,86421,1,0,0:0:0:0:
448,192,86421,1,8,0:0:0:0:
64,192,86630,128,0,87046:0:0:0:0:
320,192,86630,1,0,0:0:0:0:
192,192,86838,1,8,0:0:0:0:
448,192,86838,1,8,0:0:0:0:
320,192,86838,1,8,0:0:0:0:
320,192,87046,1,8,0:0:0:0:
448,192,87046,1,8,0:0:0:0:
192,192,87046,128,0,87671:0:0:0:0:
64,192,87255,1,0,0:0:0:0:
320,192,87255,1,8,0:0:0:0:
320,192,87463,1,8,0:0:0:0:
64,192,88088,128,0,88713:0:0:0:0:
448,192,88088,128,0,88192:0:0:0:0:
320,192,88296,1,0,0:0:0:0:
192,192,88505,1,0,0:0:0:0:
448,192,88505,1,0,0:0:0:0:
320,192,88505,1,0,0:0:0:0:
320,192,88713,128,0,88817:0:0:0:0:
192,192,88713,1,0,0:0:0:0:
64,192,88817,1,0,0:0:0:0:
192,192,88921,1,0,0:0:0:0:
64,192,89130,1,0,0:0:0:0:
192,192,89130,1,0,0:0:0:0:
192,192,89338,128,0,89442:0:0:0:0:
320,192,89442,1,0,0:0:0:0:
448,192,89546,1,0,0:0:0:0:
64,192,89755,1,0,0:0:0:0:
192,192,89755,1,0,0:0:0:0:
64,192,89963,128,0,90067:0:0:0:0:
192,192,90067,1,0,0:0:0:0:
448,192,90171,1,0,0:0:0:0:
320,192,90380,1,0,0:0:0:0:
448,192,90380,1,0,0:0:0:0:
64,192,90588,128,0,90692:0:0:0:0:
320,192,90692,1,0,0:0:0:0:
192,192,90796,128,0,90900:0:0:0:0:
448,192,90796,1,0,0:0:0:0:
64,192,91005,1,0,0:0:0:0:
192,192,91005,128,0,91213:0:0:0:0:
448,192,91213,128,0,91317:0:0:0:0:
320,192,91213,1,0,0:0:0:0:
192,192,91317,1,0,0:0:0:0:
320,192,91421,1,0,0:0:0:0:
448,192,91421,1,0,0:0:0:0:
64,192,91630,128,0,91734:0:0:0:0:
320,192,91734,1,0,0:0:0:0:
64,192,91838,1,0,0:0:0:0:
192,192,91838,1,0,0:0:0:0:
64,192,92046,1,0,0:0:0:0:
192,192,92150,1,0,0:0:0:0:
64,192,92255,1,0,0:0:0:0:
64,192,92463,1,0,0:0:0:0:
320,192,92463,128,0,92567:0:0:0:0:
448,192,92671,1,0,0:0:0:0:
320,192,92775,1,0,0:0:0:0:
448,192,92880,1,0,0:0:0:0:
320,192,93088,128,0,93192:0:0:0:0:
192,192,93192,1,0,0:0:0:0:
448,192,93296,128,0,93400:0:0:0:0:
192,192,93400,1,0,0:0:0:0:
448,192,93505,128,0,93609:0:0:0:0:
320,192,93505,1,0,0:0:0:0:
320,192,93713,128,0,93817:0:0:0:0:
192,192,93713,1,0,0:0:0:0:
64,192,93921,1,0,0:0:0:0:
192,192,93921,128,0,94025:0:0:0:0:
64,192,94130,128,0,94234:0:0:0:0:
192,192,94130,1,0,0:0:0:0:
64,192,94338,128,0,94755:0:0:0:0:
192,192,94338,1,0,0:0:0:0:
320,192,94546,128,0,94650:0:0:0:0:
192,192,94755,1,0,0:0:0:0:
448,192,94755,128,0,94859:0:0:0:0:
192,192,94963,1,0,0:0:0:0:
64,192,95171,1,0,0:0:0:0:
320,192,95171,1,0,0:0:0:0:
320,192,95380,128,0,95484:0:0:0:0:
448,192,95484,1,0,0:0:0:0:
320,192,95588,1,0,0:0:0:0:
64,192,95796,1,0,0:0:0:0:
192,192,95796,1,0,0:0:0:0:
64,192,96005,1,0,0:0:0:0:
192,192,96005,128,0,96109:0:0:0:0:
192,192,96213,1,0,0:0:0:0:
448,192,96213,1,0,0:0:0:0:
64,192,96421,1,0,0:0:0:0:
192,192,96525,1,0,0:0:0:0:
448,192,96630,1,0,0:0:0:0:
64,192,96630,128,0,96734:0:0:0:0:
320,192,96734,1,0,0:0:0:0:
320,192,96838,1,0,0:0:0:0:
448,192,96838,1,0,0:0:0:0:
192,192,97046,1,0,0:0:0:0:
64,192,97255,128,0,97359:0:0:0:0:
192,192,97463,128,0,97567:0:0:0:0:
320,192,97671,128,0,97775:0:0:0:0:
448,192,97880,128,0,97984:0:0:0:0:
192,192,97984,1,0,0:0:0:0:
320,192,98088,1,0,0:0:0:0:
64,192,98088,128,0,98192:0:0:0:0:
64,192,98296,1,0,0:0:0:0:
192,192,98296,128,0,98400:0:0:0:0:
320,192,98505,1,0,0:0:0:0:
448,192,98505,1,0,0:0:0:0:
192,192,98713,1,0,0:0:0:0:
320,192,98817,1,0,0:0:0:0:
192,192,98921,1,0,0:0:0:0:
64,192,98921,128,0,99025:0:0:0:0:
448,192,99130,1,0,0:0:0:0:
320,192,99130,128,0,99234:0:0:0:0:
192,192,99338,1,0,0:0:0:0:
64,192,99442,1,0,0:0:0:0:
192,192,99546,1,0,0:0:0:0:
64,192,99755,128,0,99859:0:0:0:0:
192,192,99859,1,0,0:0:0:0:
320,192,99963,128,0,100067:0:0:0:0:
192,192,100171,128,0,100588:0:0:0:0:
320,192,100275,1,0,0:0:0:0:
448,192,100380,1,0,0:0:0:0:
448,192,100588,1,0,0:0:0:0:
320,192,100588,1,0,0:0:0:0:
64,192,100692,1,0,0:0:0:0:
192,192,100692,1,0,0:0:0:0:
320,192,100796,1,0,0:0:0:0:
448,192,100796,1,0,0:0:0:0:
192,192,101005,1,4,0:0:0:0:
320,192,101005,1,8,0:0:0:0:
64,192,101005,128,0,101630:0:0:0:0:
192,192,101630,128,0,102255:0:0:0:0:
320,192,101630,1,8,0:0:0:0:
448,192,101630,1,0,0:0:0:0:
64,192,101838,1,0,0:0:0:0:
320,192,101838,1,2,0:0:0:0:
448,192,101838,1,0,0:0:0:0:
320,192,102046,1,0,0:0:0:0:
320,192,102255,128,0,103505:0:0:0:0:
448,192,102255,1,0,0:0:0:0:
64,192,102463,1,0,0:0:0:0:
192,192,102463,1,0,0:0:0:0:
192,192,102671,1,0,0:0:0:0:
448,192,102671,1,0,0:0:0:0:
64,192,102880,1,0,0:0:0:0:
448,192,102880,1,8,0:0:0:0:
192,192,103088,1,0,0:0:0:0:
64,192,103296,1,8,0:0:0:0:
448,192,103296,1,0,0:0:0:0:
192,192,103505,1,2,0:0:0:0:
448,192,103505,128,0,103921:0:0:0:0:
64,192,103505,1,0,0:0:0:0:
320,192,103713,1,0,0:0:0:0:
192,192,103921,128,0,106213:0:0:0:0:
64,192,104130,1,0,0:0:0:0:
448,192,104130,1,8,0:0:0:0:
64,192,104338,1,0,0:0:0:0:
320,192,104338,1,8,0:0:0:0:
448,192,104338,1,0,0:0:0:0:
320,192,104546,1,0,0:0:0:0:
64,192,104755,1,0,0:0:0:0:
320,192,104963,1,8,0:0:0:0:
448,192,104963,1,0,0:0:0:0:
64,192,105171,1,0,0:0:0:0:
320,192,105171,1,2,0:0:0:0:
448,192,105171,1,0,0:0:0:0:
320,192,105380,1,0,0:0:0:0:
64,192,105588,1,0,0:0:0:0:
448,192,105588,1,0,0:0:0:0:
320,192,105796,1,0,0:0:0:0:
64,192,106005,1,0,0:0:0:0:
448,192,106005,1,0,0:0:0:0:
448,192,106213,128,0,106838:0:0:0:0:
64,192,106213,1,0,0:0:0:0:
320,192,106213,1,8,0:0:0:0:
320,192,106630,1,8,0:0:0:0:
192,192,106630,1,0,0:0:0:0:
320,192,106838,128,0,107255:0:0:0:0:
64,192,106838,1,0,0:0:0:0:
192,192,106838,1,2,0:0:0:0:
448,192,107046,1,0,0:0:0:0:
192,192,107255,128,0,107671:0:0:0:0:
64,192,107255,1,0,0:0:0:0:
64,192,107463,1,0,0:0:0:0:
320,192,107463,1,8,0:0:0:0:
320,192,107671,128,0,108296:0:0:0:0:
64,192,107671,1,0,0:0:0:0:
448,192,107671,1,8,0:0:0:0:
192,192,108088,1,0,0:0:0:0:
448,192,108296,1,8,0:0:0:0:
192,192,108296,128,0,108921:0:0:0:0:
64,192,108296,1,0,0:0:0:0:
320,192,108505,1,2,0:0:0:0:
448,192,108505,1,0,0:0:0:0:
64,192,108505,1,0,0:0:0:0:
64,192,108921,128,0,110380:0:0:0:0:
448,192,109130,1,0,0:0:0:0:
320,192,109338,1,0,0:0:0:0:
192,192,109546,1,0,0:0:0:0:
320,192,109546,1,8,0:0:0:0:
448,192,109546,1,0,0:0:0:0:
192,192,109755,1,0,0:0:0:0:
320,192,109963,1,8,0:0:0:0:
448,192,109963,1,0,0:0:0:0:
192,192,110171,1,2,0:0:0:0:
320,192,110171,1,0,0:0:0:0:
448,192,110171,1,0,0:0:0:0:
192,192,110380,128,0,110588:0:0:0:0:
448,192,110380,1,0,0:0:0:0:
448,192,110588,128,0,110796:0:0:0:0:
320,192,110588,1,0,0:0:0:0:
192,192,110796,128,0,111005:0:0:0:0:
64,192,110796,1,0,0:0:0:0:
320,192,110796,1,8,0:0:0:0:
64,192,111005,5,0,0:0:0:0:
320,192,111005,1,0,0:0:0:0:
448,192,111005,1,4,0:0:0:0:
192,192,111421,1,4,0:0:0:0:
448,192,111421,1,0,0:0:0:0:
64,192,111421,1,0,0:0:0:0:
192,192,111838,1,0,0:0:0:0:
448,192,111838,1,0,0:0:0:0:
320,192,111838,1,4,0:0:0:0:
192,192,112046,1,0,0:0:0:0:
64,192,112255,1,0,0:0:0:0:
320,192,112255,1,4,0:0:0:0:
448,192,112255,1,2,0:0:0:0:
64,192,112671,1,8,0:0:0:0:
320,192,112880,1,8,0:0:0:0:
448,192,112880,1,0,0:0:0:0:
64,192,113088,1,2,0:0:0:0:
320,192,113088,1,0,0:0:0:0:
64,192,113296,1,0,0:0:0:0:
192,192,113296,1,8,0:0:0:0:
448,192,113296,1,0,0:0:0:0:
192,192,113505,1,0,0:0:0:0:
320,192,113505,1,2,0:0:0:0:
448,192,113505,1,0,0:0:0:0:
64,192,113713,1,0,0:0:0:0:
320,192,113713,1,2,0:0:0:0:
448,192,113713,1,0,0:0:0:0:
64,192,113921,1,0,0:0:0:0:
320,192,113921,1,0,0:0:0:0:
192,192,113921,1,2,0:0:0:0:
320,192,114130,1,8,0:0:0:0:
448,192,114130,1,4,0:0:0:0:
320,192,114234,1,8,0:0:0:0:
448,192,114234,1,4,0:0:0:0:
64,192,114338,1,4,0:0:0:0:
192,192,114338,1,0,0:0:0:0:
448,192,114338,1,0,0:0:0:0:
320,192,114755,128,0,114963:0:0:0:0:
64,192,114755,1,8,0:0:0:0:
64,192,114963,128,0,115171:0:0:0:0:
192,192,114963,1,8,0:0:0:0:
448,192,114963,1,0,0:0:0:0:
320,192,115171,128,0,115484:0:0:0:0:
192,192,115171,1,0,0:0:0:0:
448,192,115171,1,2,0:0:0:0:
192,192,115796,128,0,115900:0:0:0:0:
448,192,115796,1,0,0:0:0:0:
192,192,116005,128,0,116213:0:0:0:0:
448,192,116005,1,0,0:0:0:0:
64,192,116213,128,0,116630:0:0:0:0:
320,192,116213,1,0,0:0:0:0:
448,192,116213,1,8,0:0:0:0:
320,192,116630,128,0,116942:0:0:0:0:
192,192,116630,1,8,0:0:0:0:
448,192,116630,1,0,0:0:0:0:
64,192,116838,1,0,0:0:0:0:
192,192,116838,1,2,0:0:0:0:
448,192,116838,1,0,0:0:0:0:
320,192,117046,128,0,117463:0:0:0:0:
192,192,117046,1,0,0:0:0:0:
64,192,117255,1,0,0:0:0:0:
192,192,117463,128,0,118296:0:0:0:0:
64,192,117463,1,0,0:0:0:0:
448,192,117463,1,8,0:0:0:0:
64,192,117671,1,0,0:0:0:0:
320,192,117671,1,8,0:0:0:0:
448,192,117671,1,8,0:0:0:0:
320,192,118088,1,0,0:0:0:0:
64,192,118296,1,0,0:0:0:0:
448,192,118296,1,8,0:0:0:0:
64,192,118505,1,0,0:0:0:0:
448,192,118505,1,0,0:0:0:0:
320,192,118505,1,2,0:0:0:0:
192,192,118921,1,0,0:0:0:0:
448,192,118921,1,0,0:0:0:0:
64,192,119546,1,0,0:0:0:0:
320,192,119546,1,8,0:0:0:0:
448,192,119546,1,0,0:0:0:0:
192,192,119755,1,0,0:0:0:0:
320,192,119755,1,0,0:0:0:0:
64,192,119963,1,0,0:0:0:0:
192,192,119963,1,8,0:0:0:0:
448,192,119963,1,0,0:0:0:0:
320,192,120171,1,2,0:0:0:0:
448,192,120171,1,0,0:0:0:0:
64,192,120380,1,0,0:0:0:0:
320,192,120380,1,0,0:0:0:0:
192,192,120588,1,0,0:0:0:0:
448,192,120588,1,0,0:0:0:0:
320,192,120796,1,8,0:0:0:0:
64,192,120796,1,0,0:0:0:0:
64,192,121005,1,0,0:0:0:0:
192,192,121005,1,8,0:0:0:0:
448,192,121005,1,0,0:0:0:0:
320,192,121421,128,0,121630:0:0:0:0:
64,192,121630,128,0,121838:0:0:0:0:
192,192,121630,1,8,0:0:0:0:
320,192,121838,128,0,122255:0:0:0:0:
192,192,121838,1,2,0:0:0:0:
448,192,121838,1,0,0:0:0:0:
64,192,122255,1,0,0:0:0:0:
192,192,122463,128,0,122671:0:0:0:0:
320,192,122463,1,0,0:0:0:0:
448,192,122671,128,0,122880:0:0:0:0:
64,192,122671,1,0,0:0:0:0:
192,192,122880,128,0,123296:0:0:0:0:
64,192,122880,1,0,0:0:0:0:
320,192,122880,1,8,0:0:0:0:
448,192,123088,1,8,0:0:0:0:
320,192,123296,128,0,123609:0:0:0:0:
64,192,123296,1,0,0:0:0:0:
448,192,123296,1,10,0:0:0:0:
64,192,123505,1,0,0:0:0:0:
192,192,123505,1,2,0:0:0:0:
448,192,123505,1,0,0:0:0:0:
320,192,123713,128,0,124130:0:0:0:0:
64,192,123921,1,8,0:0:0:0:
64,192,124130,1,0,0:0:0:0:
448,192,124130,1,8,0:0:0:0:
192,192,124130,128,0,125588:0:0:0:0:
64,192,124338,1,0,0:0:0:0:
448,192,124338,1,0,0:0:0:0:
320,192,124338,1,8,0:0:0:0:
320,192,124755,1,0,0:0:0:0:
64,192,124963,1,0,0:0:0:0:
448,192,124963,1,8,0:0:0:0:
64,192,125171,1,0,0:0:0:0:
320,192,125171,1,2,0:0:0:0:
448,192,125171,1,0,0:0:0:0:
64,192,126005,1,0,0:0:0:0:
320,192,126005,1,0,0:0:0:0:
64,192,126213,1,0,0:0:0:0:
448,192,126213,1,8,0:0:0:0:
192,192,126421,1,0,0:0:0:0:
64,192,126630,1,0,0:0:0:0:
320,192,126630,1,8,0:0:0:0:
64,192,126838,1,0,0:0:0:0:
192,192,126838,1,2,0:0:0:0:
448,192,126838,1,0,0:0:0:0:
320,192,127046,1,0,0:0:0:0:
192,192,127255,1,0,0:0:0:0:
64,192,127463,1,0,0:0:0:0:
320,192,127463,1,8,0:0:0:0:
64,192,127671,1,0,0:0:0:0:
448,192,127671,1,8,0:0:0:0:
192,192,127671,128,0,127775:0:0:0:0:
192,192,127880,128,0,128192:0:0:0:0:
320,192,128088,1,0,0:0:0:0:
192,192,128296,128,0,128713:0:0:0:0:
64,192,128296,1,0,0:0:0:0:
448,192,128296,1,8,0:0:0:0:
64,192,128505,1,0,0:0:0:0:
320,192,128505,1,2,0:0:0:0:
448,192,128505,1,0,0:0:0:0:
320,192,128713,128,0,128817:0:0:0:0:
448,192,128713,1,0,0:0:0:0:
320,192,128921,128,0,129963:0:0:0:0:
64,192,128921,1,0,0:0:0:0:
448,192,129130,1,0,0:0:0:0:
64,192,129338,1,0,0:0:0:0:
192,192,129546,1,0,0:0:0:0:
448,192,129546,1,8,0:0:0:0:
64,192,129963,1,0,0:0:0:0:
448,192,129963,1,8,0:0:0:0:
64,192,130171,1,0,0:0:0:0:
192,192,130171,1,2,0:0:0:0:
448,192,130171,1,0,0:0:0:0:
320,192,130380,1,0,0:0:0:0:
64,192,130588,1,0,0:0:0:0:
320,192,130796,1,8,0:0:0:0:
192,192,130796,1,0,0:0:0:0:
64,192,131005,1,8,0:0:0:0:
320,192,131005,1,0,0:0:0:0:
448,192,131005,128,0,131421:0:0:0:0:
320,192,131421,128,0,131525:0:0:0:0:
192,192,131421,1,8,0:0:0:0:
320,192,131630,128,0,132046:0:0:0:0:
64,192,131630,1,0,0:0:0:0:
448,192,131630,1,8,0:0:0:0:
64,192,131838,1,0,0:0:0:0:
192,192,131838,1,2,0:0:0:0:
448,192,131838,1,0,0:0:0:0:
192,192,132046,128,0,132150:0:0:0:0:
192,192,132255,128,0,133088:0:0:0:0:
448,192,132255,1,0,0:0:0:0:
448,192,133088,5,0,0:0:0:0:
320,192,133157,1,0,0:0:0:0:
192,192,133227,1,0,0:0:0:0:
64,192,133296,1,0,0:0:0:0:
448,192,133366,1,0,0:0:0:0:
320,192,133435,1,0,0:0:0:0:
192,192,133505,1,0,0:0:0:0:
64,192,133574,1,0,0:0:0:0:
192,192,133643,1,0,0:0:0:0:
320,192,133713,1,0,0:0:0:0:
448,192,133782,1,0,0:0:0:0:
64,192,133852,1,0,0:0:0:0:
192,192,133921,1,0,0:0:0:0:
320,192,133991,1,0,0:0:0:0:
448,192,134060,1,0,0:0:0:0:
64,192,134130,1,0,0:0:0:0:
192,192,134199,1,0,0:0:0:0:
320,192,134268,1,0,0:0:0:0:
64,192,134338,1,0,0:0:0:0:
192,192,134338,1,0,0:0:0:0:
448,192,134338,1,4,0:0:0:0:
448,192,134755,128,0,135588:0:0:0:0:
192,192,134755,1,8,0:0:0:0:
64,192,134963,1,0,0:0:0:0:
320,192,134963,1,8,0:0:0:0:
64,192,135171,1,0,0:0:0:0:
192,192,135171,1,2,0:0:0:0:
320,192,135171,1,0,0:0:0:0:
320,192,135588,128,0,135900:0:0:0:0:
448,192,135796,1,0,0:0:0:0:
192,192,135796,1,8,0:0:0:0:
320,192,136005,128,0,136421:0:0:0:0:
64,192,136213,1,0,0:0:0:0:
448,192,136213,1,8,0:0:0:0:
64,192,136421,1,0,0:0:0:0:
448,192,136421,1,8,0:0:0:0:
192,192,136421,128,0,136525:0:0:0:0:
192,192,136630,128,0,137046:0:0:0:0:
64,192,136838,1,0,0:0:0:0:
320,192,136838,1,2,0:0:0:0:
448,192,136838,1,0,0:0:0:0:
448,192,137046,128,0,137255:0:0:0:0:
320,192,137046,1,8,0:0:0:0:
64,192,137046,1,0,0:0:0:0:
192,192,137255,128,0,137880:0:0:0:0:
64,192,137255,1,0,0:0:0:0:
320,192,137255,1,8,0:0:0:0:
64,192,137463,1,0,0:0:0:0:
448,192,137463,1,8,0:0:0:0:
64,192,137671,1,0,0:0:0:0:
448,192,137671,1,0,0:0:0:0:
320,192,137671,1,8,0:0:0:0:
320,192,137880,128,0,139546:0:0:0:0:
192,192,138088,1,0,0:0:0:0:
448,192,138088,1,8,0:0:0:0:
64,192,138296,1,8,0:0:0:0:
448,192,138296,1,0,0:0:0:0:
64,192,138505,1,0,0:0:0:0:
192,192,138505,1,2,0:0:0:0:
448,192,138505,1,0,0:0:0:0:
64,192,139130,1,0,0:0:0:0:
448,192,139130,1,8,0:0:0:0:
64,192,139546,1,0,0:0:0:0:
192,192,139546,1,2,0:0:0:0:
448,192,139546,1,0,0:0:0:0:
64,192,139755,1,0,0:0:0:0:
320,192,139755,1,8,0:0:0:0:
448,192,139755,1,0,0:0:0:0:
192,192,140171,128,0,140588:0:0:0:0:
448,192,140171,1,0,0:0:0:0:
320,192,140171,1,2,0:0:0:0:
320,192,140588,128,0,141005:0:0:0:0:
64,192,140588,1,0,0:0:0:0:
448,192,140588,1,8,0:0:0:0:
192,192,140796,1,0,0:0:0:0:
448,192,140796,1,8,0:0:0:0:
448,192,141005,128,0,141421:0:0:0:0:
64,192,141005,1,0,0:0:0:0:
192,192,141005,1,4,0:0:0:0:
320,192,141421,128,0,141838:0:0:0:0:
64,192,141630,1,0,0:0:0:0:
448,192,141630,1,8,0:0:0:0:
192,192,141838,128,0,142255:0:0:0:0:
64,192,141838,1,0,0:0:0:0:
448,192,141838,1,2,0:0:0:0:
64,192,142255,128,0,142463:0:0:0:0:
320,192,142255,1,8,0:0:0:0:
448,192,142255,1,0,0:0:0:0:
192,192,142463,128,0,142880:0:0:0:0:
320,192,142463,1,8,0:0:0:0:
448,192,142463,1,0,0:0:0:0:
64,192,142880,128,0,143296:0:0:0:0:
320,192,142880,1,8,0:0:0:0:
448,192,142880,1,0,0:0:0:0:
192,192,143088,1,0,0:0:0:0:
320,192,143088,1,8,0:0:0:0:
448,192,143088,1,0,0:0:0:0:
64,192,143505,1,0,0:0:0:0:
320,192,143505,1,2,0:0:0:0:
448,192,143505,1,0,0:0:0:0:
192,192,143921,128,0,144130:0:0:0:0:
320,192,144130,128,0,144338:0:0:0:0:
448,192,144338,128,0,144650:0:0:0:0:
64,192,144338,1,4,0:0:0:0:
192,192,144338,1,8,0:0:0:0:
448,192,144755,128,0,145171:0:0:0:0:
64,192,144963,1,0,0:0:0:0:
320,192,144963,1,8,0:0:0:0:
320,192,145171,128,0,145484:0:0:0:0:
64,192,145171,1,0,0:0:0:0:
192,192,145171,1,2,0:0:0:0:
320,192,145588,128,0,145692:0:0:0:0:
320,192,145796,128,0,146213:0:0:0:0:
64,192,145796,1,0,0:0:0:0:
192,192,145796,1,0,0:0:0:0:
448,192,145796,1,8,0:0:0:0:
192,192,146005,1,0,0:0:0:0:
64,192,146213,5,0,0:0:0:0:
192,192,146213,1,8,0:0:0:0:
448,192,146213,1,0,0:0:0:0:
64,192,146421,128,0,146630:0:0:0:0:
192,192,146421,1,8,0:0:0:0:
320,192,146421,1,0,0:0:0:0:
320,192,146630,128,0,147046:0:0:0:0:
64,192,146838,1,0,0:0:0:0:
192,192,146838,1,2,0:0:0:0:
448,192,146838,1,0,0:0:0:0:
192,192,147046,128,0,147255:0:0:0:0:
64,192,147046,1,0,0:0:0:0:
448,192,147046,1,0,0:0:0:0:
320,192,147255,1,8,0:0:0:0:
448,192,147255,1,0,0:0:0:0:
192,192,147359,1,8,0:0:0:0:
64,192,147359,1,0,0:0:0:0:
320,192,147463,1,8,0:0:0:0:
448,192,147463,1,0,0:0:0:0:
192,192,147567,1,8,0:0:0:0:
64,192,147567,1,0,0:0:0:0:
64,192,147671,1,0,0:0:0:0:
448,192,147671,1,2,0:0:0:0:
320,192,147671,1,0,0:0:0:0:
320,192,148088,128,0,148921:0:0:0:0:
192,192,148088,1,8,0:0:0:0:
64,192,148296,1,0,0:0:0:0:
448,192,148296,1,8,0:0:0:0:
64,192,148505,1,0,0:0:0:0:
192,192,148505,1,2,0:0:0:0:
448,192,148505,1,0,0:0:0:0:
192,192,148921,128,0,149338:0:0:0:0:
448,192,148921,1,0,0:0:0:0:
64,192,149130,1,0,0:0:0:0:
320,192,149338,128,0,149755:0:0:0:0:
448,192,149338,1,0,0:0:0:0:
64,192,149546,1,0,0:0:0:0:
448,192,149546,1,8,0:0:0:0:
192,192,149755,128,0,149963:0:0:0:0:
64,192,149755,1,8,0:0:0:0:
448,192,149755,1,0,0:0:0:0:
320,192,149963,128,0,150380:0:0:0:0:
64,192,150171,1,0,0:0:0:0:
192,192,150171,1,2,0:0:0:0:
448,192,150171,1,0,0:0:0:0:
448,192,150380,128,0,150796:0:0:0:0:
192,192,150380,1,8,0:0:0:0:
64,192,150588,1,0,0:0:0:0:
320,192,150796,128,0,151421:0:0:0:0:
64,192,150796,1,0,0:0:0:0:
64,192,151005,1,0,0:0:0:0:
448,192,151005,1,0,0:0:0:0:
192,192,151005,1,8,0:0:0:0:
448,192,151421,1,8,0:0:0:0:
192,192,151421,128,0,152880:0:0:0:0:
64,192,151630,1,0,0:0:0:0:
320,192,151630,1,8,0:0:0:0:
64,192,151838,1,0,0:0:0:0:
448,192,151838,1,2,0:0:0:0:
320,192,151838,1,0,0:0:0:0:
320,192,152255,1,0,0:0:0:0:
64,192,152463,1,0,0:0:0:0:
448,192,152463,1,0,0:0:0:0:
320,192,152671,1,0,0:0:0:0:
64,192,152880,1,0,0:0:0:0:
320,192,152880,1,0,0:0:0:0:
448,192,152880,1,2,0:0:0:0:
448,192,153088,1,8,0:0:0:0:
192,192,153088,1,0,0:0:0:0:
64,192,153088,1,0,0:0:0:0:
320,192,153505,1,2,0:0:0:0:
64,192,153505,1,0,0:0:0:0:
448,192,153505,1,0,0:0:0:0:
192,192,153713,1,8,0:0:0:0:
320,192,153713,1,0,0:0:0:0:
448,192,153713,1,0,0:0:0:0:
192,192,153921,1,8,0:0:0:0:
64,192,153921,1,0,0:0:0:0:
448,192,153921,1,0,0:0:0:0:
64,192,154130,1,0,0:0:0:0:
320,192,154130,1,8,0:0:0:0:
448,192,154130,1,0,0:0:0:0:
192,192,154338,1,4,0:0:0:0:
64,192,154338,1,0,0:0:0:0:
448,192,154338,128,0,154650:0:0:0:0:
320,192,154338,1,0,0:0:0:0:
448,192,154755,128,0,155067:0:0:0:0:
64,192,154963,1,0,0:0:0:0:
320,192,154963,1,8,0:0:0:0:
448,192,155171,128,0,155588:0:0:0:0:
64,192,155171,1,0,0:0:0:0:
192,192,155171,1,2,0:0:0:0:
320,192,155171,1,0,0:0:0:0:
320,192,155588,128,0,155692:0:0:0:0:
320,192,155796,128,0,156213:0:0:0:0:
448,192,155796,1,0,0:0:0:0:
64,192,155796,1,8,0:0:0:0:
192,192,156005,1,0,0:0:0:0:
192,192,156213,128,0,156734:0:0:0:0:
64,192,156213,1,0,0:0:0:0:
448,192,156213,1,8,0:0:0:0:
64,192,156421,1,0,0:0:0:0:
448,192,156421,1,0,0:0:0:0:
320,192,156421,1,8,0:0:0:0:
448,192,156630,1,0,0:0:0:0:
64,192,156838,1,0,0:0:0:0:
320,192,156838,1,2,0:0:0:0:
448,192,156838,1,0,0:0:0:0:
192,192,157046,1,0,0:0:0:0:
448,192,157255,128,0,157463:0:0:0:0:
64,192,157463,1,0,0:0:0:0:
320,192,157463,128,0,157671:0:0:0:0:
192,192,157463,1,0,0:0:0:0:
64,192,157671,1,4,0:0:0:0:
192,192,157671,1,0,0:0:0:0:
448,192,157671,128,0,157984:0:0:0:0:
448,192,158088,128,0,158400:0:0:0:0:
320,192,158088,1,8,0:0:0:0:
64,192,158296,1,0,0:0:0:0:
192,192,158296,1,8,0:0:0:0:
448,192,158505,128,0,158817:0:0:0:0:
192,192,158505,1,0,0:0:0:0:
320,192,158505,1,0,0:0:0:0:
448,192,158921,128,0,159338:0:0:0:0:
64,192,159130,1,0,0:0:0:0:
320,192,159130,1,0,0:0:0:0:
320,192,159338,128,0,159755:0:0:0:0:
192,192,159338,1,8,0:0:0:0:
64,192,159546,1,0,0:0:0:0:
192,192,159546,1,0,0:0:0:0:
448,192,159546,1,8,0:0:0:0:
192,192,159755,128,0,159963:0:0:0:0:
64,192,159755,1,0,0:0:0:0:
448,192,159963,1,0,0:0:0:0:
320,192,159963,1,8,0:0:0:0:
64,192,159963,128,0,160171:0:0:0:0:
320,192,160171,1,8,0:0:0:0:
448,192,160171,128,0,160380:0:0:0:0:
192,192,160171,1,0,0:0:0:0:
64,192,160380,1,8,0:0:0:0:
192,192,160380,128,0,160588:0:0:0:0:
320,192,160380,1,0,0:0:0:0:
320,192,160588,1,8,0:0:0:0:
448,192,160588,1,0,0:0:0:0:
64,192,160588,1,0,0:0:0:0:
320,192,160796,1,8,0:0:0:0:
448,192,160796,1,0,0:0:0:0:
64,192,160796,1,0,0:0:0:0:
192,192,161005,1,0,0:0:0:0:
448,192,161005,1,8,0:0:0:0:
320,192,161213,1,8,0:0:0:0:
64,192,161213,1,0,0:0:0:0:
448,192,161421,1,8,0:0:0:0:
192,192,161421,1,0,0:0:0:0:
64,192,161630,1,0,0:0:0:0:
320,192,161630,1,8,0:0:0:0:
64,192,161838,1,0,0:0:0:0:
448,192,161838,1,0,0:0:0:0:
192,192,161838,1,2,0:0:0:0:
448,192,162255,1,0,0:0:0:0:
320,192,162255,1,8,0:0:0:0:
192,192,162463,1,8,0:0:0:0:
64,192,162463,1,0,0:0:0:0:
64,192,162880,1,8,0:0:0:0:
448,192,162880,1,0,0:0:0:0:
320,192,163088,1,0,0:0:0:0:
192,192,163088,1,8,0:0:0:0:
64,192,163296,1,8,0:0:0:0:
448,192,163296,1,0,0:0:0:0:
320,192,163505,1,2,0:0:0:0:
192,192,163505,1,4,0:0:0:0:
64,192,163505,1,0,0:0:0:0:
448,192,163713,1,0,0:0:0:0:
320,192,163713,1,8,0:0:0:0:
320,192,163921,1,0,0:0:0:0:
192,192,163921,1,8,0:0:0:0:
192,192,164130,1,0,0:0:0:0:
64,192,164130,1,8,0:0:0:0:
192,192,164338,1,0,0:0:0:0:
320,192,164338,1,0,0:0:0:0:
448,192,164338,1,4,0:0:0:0:
448,192,164755,1,0,0:0:0:0:
320,192,164755,1,8,0:0:0:0:
192,192,164963,1,8,0:0:0:0:
320,192,164963,1,0,0:0:0:0:
64,192,165171,1,0,0:0:0:0:
192,192,165171,1,0,0:0:0:0:
448,192,165171,1,2,0:0:0:0:
448,192,165380,1,0,0:0:0:0:
320,192,165380,1,0,0:0:0:0:
64,192,165588,1,0,0:0:0:0:
192,192,165588,1,0,0:0:0:0:
320,192,165796,1,8,0:0:0:0:
192,192,165796,1,0,0:0:0:0:
64,192,166213,1,0,0:0:0:0:
320,192,166213,1,2,0:0:0:0:
448,192,166213,1,0,0:0:0:0:
192,192,166421,1,0,0:0:0:0:
320,192,166421,1,8,0:0:0:0:
192,192,166630,1,8,0:0:0:0:
64,192,166630,1,0,0:0:0:0:
320,192,166838,1,2,0:0:0:0:
192,192,166838,1,0,0:0:0:0:
448,192,166838,1,0,0:0:0:0:
64,192,167046,1,0,0:0:0:0:
192,192,167046,1,8,0:0:0:0:
320,192,167255,1,2,0:0:0:0:
448,192,167255,1,0,0:0:0:0:
64,192,167255,1,0,0:0:0:0:
192,192,167463,1,0,0:0:0:0:
320,192,167463,1,0,0:0:0:0:
448,192,167463,1,0,0:0:0:0:
64,192,167671,1,0,0:0:0:0:
192,192,167671,1,4,0:0:0:0:
448,192,167671,1,0,0:0:0:0:
320,192,167671,1,4,0:0:0:0:
64,192,167880,1,0,0:0:0:0:
320,192,167880,1,8,0:0:0:0:
192,192,168088,1,0,0:0:0:0:
448,192,168088,1,8,0:0:0:0:
320,192,168296,1,8,0:0:0:0:
64,192,168296,1,0,0:0:0:0:
192,192,168505,1,0,0:0:0:0:
320,192,168505,1,2,0:0:0:0:
448,192,168505,1,4,0:0:0:0:
64,192,168921,1,0,0:0:0:0:
192,192,168921,1,0,0:0:0:0:
320,192,169130,1,8,0:0:0:0:
448,192,169130,1,0,0:0:0:0:
64,192,169338,1,0,0:0:0:0:
320,192,169338,1,8,0:0:0:0:
192,192,169546,1,0,0:0:0:0:
448,192,169546,1,8,0:0:0:0:
64,192,169755,1,0,0:0:0:0:
320,192,169755,1,8,0:0:0:0:
192,192,169963,1,0,0:0:0:0:
448,192,169963,1,8,0:0:0:0:
64,192,170171,1,0,0:0:0:0:
320,192,170171,1,2,0:0:0:0:
448,192,170171,1,4,0:0:0:0:
192,192,170380,1,0,0:0:0:0:
320,192,170380,1,8,0:0:0:0:
64,192,170588,1,0,0:0:0:0:
192,192,170588,1,8,0:0:0:0:
320,192,170796,1,8,0:0:0:0:
192,192,170796,1,0,0:0:0:0:
64,192,171005,1,0,0:0:0:0:
320,192,171005,1,0,0:0:0:0:
448,192,171005,1,4,0:0:0:0:
64,192,171421,1,0,0:0:0:0:
192,192,171421,1,8,0:0:0:0:
320,192,171630,1,8,0:0:0:0:
192,192,171630,1,0,0:0:0:0:
64,192,171838,1,0,0:0:0:0:
448,192,171838,1,2,0:0:0:0:
320,192,171838,1,0,0:0:0:0:
64,192,172463,1,0,0:0:0:0:
192,192,172463,1,8,0:0:0:0:
64,192,172880,1,0,0:0:0:0:
320,192,172880,1,2,0:0:0:0:
448,192,172880,1,0,0:0:0:0:
320,192,173088,1,8,0:0:0:0:
192,192,173088,1,0,0:0:0:0:
64,192,173296,1,0,0:0:0:0:
192,192,173296,1,8,0:0:0:0:
192,192,173505,1,0,0:0:0:0:
320,192,173505,1,2,0:0:0:0:
448,192,173505,1,4,0:0:0:0:
64,192,173505,1,0,0:0:0:0:
64,192,173713,1,0,0:0:0:0:
192,192,173713,1,2,0:0:0:0:
320,192,173817,1,2,0:0:0:0:
448,192,173817,1,0,0:0:0:0:
64,192,173921,1,0,0:0:0:0:
192,192,173921,1,2,0:0:0:0:
320,192,174025,1,2,0:0:0:0:
448,192,174025,1,0,0:0:0:0:
192,192,174130,1,2,0:0:0:0:
64,192,174130,1,0,0:0:0:0:
320,192,174234,1,0,0:0:0:0:
448,192,174234,1,0,0:0:0:0:
192,192,174338,1,0,0:0:0:0:
64,192,174338,1,4,0:0:0:0:
320,192,174338,1,8,0:0:0:0:
192,192,174546,1,8,0:0:0:0:
448,192,174546,1,0,0:0:0:0:
64,192,174755,1,0,0:0:0:0:
320,192,174755,1,8,0:0:0:0:
448,192,174755,1,8,0:0:0:0:
320,192,174963,1,0,0:0:0:0:
192,192,174963,1,8,0:0:0:0:
64,192,175171,1,8,0:0:0:0:
192,192,175171,1,8,0:0:0:0:
448,192,175171,1,4,0:0:0:0:
64,192,175380,1,0,0:0:0:0:
320,192,175380,1,8,0:0:0:0:
192,192,175588,1,8,0:0:0:0:
320,192,175588,1,8,0:0:0:0:
448,192,175588,1,0,0:0:0:0:
64,192,175796,1,0,0:0:0:0:
192,192,175796,1,8,0:0:0:0:
64,192,176005,1,8,0:0:0:0:
320,192,176005,1,8,0:0:0:0:
448,192,176005,1,4,0:0:0:0:
192,192,176213,1,0,0:0:0:0:
320,192,176213,1,8,0:0:0:0:
64,192,176421,1,0,0:0:0:0:
192,192,176421,1,8,0:0:0:0:
448,192,176421,1,8,0:0:0:0:
320,192,176630,1,8,0:0:0:0:
448,192,176630,1,0,0:0:0:0:
64,192,176838,1,4,0:0:0:0:
320,192,176838,1,8,0:0:0:0:
192,192,176838,1,8,0:0:0:0:
64,192,177046,1,8,0:0:0:0:
448,192,177046,1,8,0:0:0:0:
192,192,177255,1,8,0:0:0:0:
320,192,177255,1,8,0:0:0:0:
448,192,177255,1,8,0:0:0:0:
64,192,177463,1,0,0:0:0:0:
192,192,177463,1,8,0:0:0:0:
64,192,177671,1,4,0:0:0:0:
320,192,177671,1,0,0:0:0:0:
448,192,177671,1,0,0:0:0:0:
192,192,177880,1,0,0:0:0:0:
320,192,177880,1,8,0:0:0:0:
64,192,178088,1,0,0:0:0:0:
192,192,178088,1,8,0:0:0:0:
448,192,178088,1,8,0:0:0:0:
320,192,178296,1,8,0:0:0:0:
64,192,178296,1,0,0:0:0:0:
448,192,178505,1,4,0:0:0:0:
320,192,178505,1,8,0:0:0:0:
192,192,178505,1,8,0:0:0:0:
192,192,178713,1,8,0:0:0:0:
64,192,178713,1,0,0:0:0:0:
64,192,178921,1,0,0:0:0:0:
448,192,178921,1,8,0:0:0:0:
320,192,178921,1,8,0:0:0:0:
192,192,179130,1,8,0:0:0:0:
448,192,179130,1,0,0:0:0:0:
320,192,179338,1,8,0:0:0:0:
192,192,179338,1,8,0:0:0:0:
64,192,179338,1,4,0:0:0:0:
448,192,179546,1,2,0:0:0:0:
192,192,179546,1,8,0:0:0:0:
320,192,179546,1,8,0:0:0:0:
64,192,179755,1,0,0:0:0:0:
192,192,179755,1,0,0:0:0:0:
448,192,179755,1,8,0:0:0:0:
64,192,179963,1,0,0:0:0:0:
320,192,179963,1,0,0:0:0:0:
192,192,179963,1,0,0:0:0:0:
448,192,180171,1,8,0:0:0:0:
64,192,180171,1,0,0:0:0:0:
320,192,180171,1,8,0:0:0:0:
64,192,180275,1,8,0:0:0:0:
192,192,180275,1,8,0:0:0:0:
448,192,180380,1,8,0:0:0:0:
320,192,180380,1,8,0:0:0:0:
64,192,180484,1,8,0:0:0:0:
192,192,180484,1,8,0:0:0:0:
448,192,180588,1,8,0:0:0:0:
192,192,180588,1,0,0:0:0:0:
64,192,180692,1,0,0:0:0:0:
320,192,180692,1,8,0:0:0:0:
448,192,180796,1,8,0:0:0:0:
192,192,180796,1,0,0:0:0:0:
64,192,180900,1,0,0:0:0:0:
320,192,180900,1,8,0:0:0:0:
448,192,181005,1,8,0:0:0:0:
192,192,181005,1,4,0:0:0:0:
64,192,181005,1,0,0:0:0:0:
448,192,181421,128,0,182255:0:0:0:0:
64,192,181630,1,0,0:0:0:0:
192,192,181630,1,8,0:0:0:0:
64,192,181838,1,0,0:0:0:0:
192,192,181838,1,0,0:0:0:0:
320,192,181838,1,2,0:0:0:0:
192,192,182255,1,0,0:0:0:0:
320,192,182255,128,0,182671:0:0:0:0:
64,192,182463,1,0,0:0:0:0:
192,192,182463,1,8,0:0:0:0:
192,192,182671,128,0,183088:0:0:0:0:
448,192,182671,1,0,0:0:0:0:
64,192,182880,1,8,0:0:0:0:
64,192,183088,128,0,183296:0:0:0:0:
320,192,183088,1,8,0:0:0:0:
448,192,183088,1,0,0:0:0:0:
192,192,183296,128,0,183609:0:0:0:0:
64,192,183505,1,0,0:0:0:0:
320,192,183505,1,2,0:0:0:0:
448,192,183505,1,0,0:0:0:0:
192,192,183713,128,0,183921:0:0:0:0:
320,192,183921,128,0,184442:0:0:0:0:
64,192,184130,1,0,0:0:0:0:
448,192,184130,1,8,0:0:0:0:
64,192,184338,1,0,0:0:0:0:
192,192,184338,1,8,0:0:0:0:
448,192,184338,1,4,0:0:0:0:
320,192,184546,128,0,186213:0:0:0:0:
192,192,184963,1,8,0:0:0:0:
64,192,185171,1,0,0:0:0:0:
192,192,185171,1,2,0:0:0:0:
448,192,185171,1,0,0:0:0:0:
64,192,185796,5,0,0:0:0:0:
192,192,185796,1,8,0:0:0:0:
448,192,186005,1,4,0:0:0:0:
192,192,186213,5,0,0:0:0:0:
64,192,186213,1,0,0:0:0:0:
448,192,186213,1,8,0:0:0:0:
64,192,186421,1,0,0:0:0:0:
320,192,186421,1,8,0:0:0:0:
448,192,186421,1,0,0:0:0:0:
320,192,186838,5,0,0:0:0:0:
448,192,186838,1,4,0:0:0:0:
64,192,186838,128,0,187150:0:0:0:0:
192,192,187046,1,0,0:0:0:0:
320,192,187046,1,8,0:0:0:0:
64,192,187255,1,0,0:0:0:0:
192,192,187255,1,8,0:0:0:0:
448,192,187255,128,0,187671:0:0:0:0:
64,192,187671,1,4,0:0:0:0:
192,192,187671,1,0,0:0:0:0:
320,192,187671,128,0,188088:0:0:0:0:
192,192,188088,128,0,188400:0:0:0:0:
64,192,188296,1,0,0:0:0:0:
320,192,188296,1,8,0:0:0:0:
192,192,188505,128,0,188921:0:0:0:0:
64,192,188505,1,0,0:0:0:0:
320,192,188505,1,0,0:0:0:0:
448,192,188505,1,2,0:0:0:0:
64,192,188921,128,0,189130:0:0:0:0:
320,192,188921,1,0,0:0:0:0:
448,192,188921,1,0,0:0:0:0:
320,192,189130,128,0,189546:0:0:0:0:
192,192,189130,1,0,0:0:0:0:
448,192,189130,1,8,0:0:0:0:
64,192,189546,128,0,190171:0:0:0:0:
192,192,189546,1,0,0:0:0:0:
448,192,189546,1,8,0:0:0:0:
192,192,189755,1,8,0:0:0:0:
448,192,189755,1,0,0:0:0:0:
192,192,190171,1,2,0:0:0:0:
320,192,190171,1,0,0:0:0:0:
448,192,190171,1,0,0:0:0:0:
192,192,190380,1,0,0:0:0:0:
320,192,190380,1,8,0:0:0:0:
64,192,190588,128,0,190796:0:0:0:0:
192,192,190588,1,8,0:0:0:0:
448,192,190588,1,0,0:0:0:0:
192,192,190796,128,0,191005:0:0:0:0:
320,192,191005,128,0,191317:0:0:0:0:
64,192,191005,1,4,0:0:0:0:
448,192,191005,1,8,0:0:0:0:
320,192,191421,128,0,191734:0:0:0:0:
64,192,191421,1,0,0:0:0:0:
192,192,191421,1,8,0:0:0:0:
64,192,191630,1,8,0:0:0:0:
448,192,191630,1,0,0:0:0:0:
320,192,191838,128,0,192255:0:0:0:0:
64,192,191838,1,0,0:0:0:0:
192,192,191838,1,2,0:0:0:0:
448,192,191838,1,0,0:0:0:0:
448,192,192255,128,0,192463:0:0:0:0:
320,192,192463,128,0,192880:0:0:0:0:
192,192,192463,1,8,0:0:0:0:
64,192,192463,1,0,0:0:0:0:
192,192,192671,1,0,0:0:0:0:
64,192,192880,5,8,0:0:0:0:
192,192,192880,1,8,0:0:0:0:
448,192,192880,1,0,0:0:0:0:
192,192,193088,128,0,193296:0:0:0:0:
64,192,193088,1,0,0:0:0:0:
320,192,193088,1,8,0:0:0:0:
448,192,193088,1,0,0:0:0:0:
320,192,193296,128,0,193713:0:0:0:0:
64,192,193505,1,0,0:0:0:0:
192,192,193505,1,2,0:0:0:0:
448,192,193505,1,0,0:0:0:0:
192,192,193713,128,0,193921:0:0:0:0:
64,192,193921,5,8,0:0:0:0:
448,192,193921,1,8,0:0:0:0:
192,192,194025,1,8,0:0:0:0:
320,192,194025,1,8,0:0:0:0:
64,192,194130,1,8,0:0:0:0:
448,192,194130,1,8,0:0:0:0:
320,192,194234,1,8,0:0:0:0:
192,192,194234,1,8,0:0:0:0:
64,192,194338,1,0,0:0:0:0:
192,192,194338,1,4,0:0:0:0:
448,192,194338,1,8,0:0:0:0:
448,192,194755,128,0,195588:0:0:0:0:
64,192,194963,1,0,0:0:0:0:
320,192,194963,1,8,0:0:0:0:
64,192,195171,1,0,0:0:0:0:
192,192,195171,1,0,0:0:0:0:
320,192,195171,1,2,0:0:0:0:
192,192,195588,128,0,196005:0:0:0:0:
64,192,195588,1,0,0:0:0:0:
320,192,195588,1,0,0:0:0:0:
448,192,195796,1,0,0:0:0:0:
320,192,195796,1,8,0:0:0:0:
320,192,196005,128,0,196421:0:0:0:0:
64,192,196005,1,0,0:0:0:0:
64,192,196213,1,0,0:0:0:0:
192,192,196213,1,8,0:0:0:0:
64,192,196421,128,0,196630:0:0:0:0:
192,192,196421,1,0,0:0:0:0:
448,192,196421,1,8,0:0:0:0:
192,192,196630,128,0,197046:0:0:0:0:
320,192,196630,1,0,0:0:0:0:
64,192,196838,1,0,0:0:0:0:
320,192,196838,1,2,0:0:0:0:
448,192,196838,1,4,0:0:0:0:
448,192,197046,128,0,197463:0:0:0:0:
64,192,197255,1,0,0:0:0:0:
320,192,197255,1,8,0:0:0:0:
320,192,197463,128,0,198088:0:0:0:0:
64,192,197463,1,0,0:0:0:0:
192,192,197463,1,8,0:0:0:0:
64,192,197671,1,0,0:0:0:0:
192,192,197671,1,8,0:0:0:0:
448,192,197671,1,4,0:0:0:0:
64,192,198088,128,0,199546:0:0:0:0:
192,192,198296,1,8,0:0:0:0:
448,192,198296,1,0,0:0:0:0:
192,192,198505,5,0,0:0:0:0:
320,192,198505,1,2,0:0:0:0:
448,192,198505,1,0,0:0:0:0:
192,192,199130,1,0,0:0:0:0:
320,192,199130,1,8,0:0:0:0:
448,192,199130,1,0,0:0:0:0:
320,192,199338,1,0,0:0:0:0:
192,192,199546,5,0,0:0:0:0:
320,192,199546,1,0,0:0:0:0:
448,192,199546,1,2,0:0:0:0:
64,192,199755,1,0,0:0:0:0:
192,192,199755,1,0,0:0:0:0:
448,192,199755,1,8,0:0:0:0:
64,192,199963,1,8,0:0:0:0:
192,192,199963,1,0,0:0:0:0:
320,192,199963,1,0,0:0:0:0:
64,192,200171,1,0,0:0:0:0:
320,192,200171,1,0,0:0:0:0:
448,192,200171,1,4,0:0:0:0:
64,192,200380,1,0,0:0:0:0:
192,192,200380,1,8,0:0:0:0:
320,192,200380,1,8,0:0:0:0:
64,192,200588,1,8,0:0:0:0:
448,192,200588,1,0,0:0:0:0:
192,192,200588,1,8,0:0:0:0:
192,192,200796,1,8,0:0:0:0:
320,192,200796,1,0,0:0:0:0:
448,192,200796,1,0,0:0:0:0:
64,192,201005,1,0,0:0:0:0:
192,192,201005,1,4,0:0:0:0:
448,192,201005,128,0,201317:0:0:0:0:
448,192,201421,128,0,201734:0:0:0:0:
192,192,201421,1,8,0:0:0:0:
64,192,201630,1,0,0:0:0:0:
320,192,201630,1,8,0:0:0:0:
448,192,201838,128,0,202255:0:0:0:0:
64,192,201838,1,0,0:0:0:0:
192,192,201838,1,0,0:0:0:0:
320,192,201838,1,2,0:0:0:0:
320,192,202255,128,0,202463:0:0:0:0:
192,192,202255,1,0,0:0:0:0:
192,192,202463,128,0,202775:0:0:0:0:
64,192,202463,1,0,0:0:0:0:
448,192,202463,1,8,0:0:0:0:
192,192,202880,128,0,203088:0:0:0:0:
448,192,202880,1,8,0:0:0:0:
64,192,202880,1,0,0:0:0:0:
320,192,203088,1,8,0:0:0:0:
448,192,203088,1,0,0:0:0:0:
64,192,203088,1,0,0:0:0:0:
64,192,203296,1,0,0:0:0:0:
192,192,203296,1,8,0:0:0:0:
448,192,203296,1,0,0:0:0:0:
448,192,203505,1,0,0:0:0:0:
320,192,203505,1,0,0:0:0:0:
192,192,203505,1,2,0:0:0:0:
64,192,204130,1,0,0:0:0:0:
192,192,204130,1,8,0:0:0:0:
448,192,204130,1,0,0:0:0:0:
448,192,204338,128,0,204650:0:0:0:0:
64,192,204338,1,0,0:0:0:0:
192,192,204338,1,4,0:0:0:0:
320,192,204338,1,0,0:0:0:0:
448,192,204755,128,0,205067:0:0:0:0:
64,192,204755,1,0,0:0:0:0:
192,192,204755,1,4,0:0:0:0:
320,192,204755,1,0,0:0:0:0:
448,192,205171,128,0,205484:0:0:0:0:
64,192,205171,1,0,0:0:0:0:
192,192,205171,1,0,0:0:0:0:
320,192,205171,1,4,0:0:0:0:
320,192,205588,128,0,206005:0:0:0:0:
64,192,205588,1,0,0:0:0:0:
192,192,205588,1,4,0:0:0:0:
448,192,205588,1,0,0:0:0:0:
192,192,206005,128,0,206421:0:0:0:70:nosound.wav
64,192,206421,128,0,206838:0:0:0:70:nosound.wav
192,192,206838,128,0,207046:0:0:0:70:nosound.wav
320,192,207046,128,0,207671:0:0:0:70:nosound.wav
64,192,207671,1,0,0:0:0:70:nosound.wav
192,192,207880,1,0,0:0:0:20:C_6.wav
64,192,208088,128,0,208713:0:0:0:70:nosound.wav
320,192,208088,1,0,0:0:0:20:C_up_6.wav
448,192,208505,1,0,0:0:0:20:G_up_6.wav
64,192,208921,1,0,0:0:0:20:C_6.wav
192,192,209130,1,0,0:0:0:20:C_up_6.wav
64,192,209546,1,0,0:0:0:20:C_6.wav
192,192,209755,1,0,0:0:0:20:C_up_6.wav
64,192,209963,1,0,0:0:0:20:C_6.wav
448,192,210171,1,0,0:0:0:20:G_up_6.wav
64,192,210588,1,0,0:0:0:20:C_6.wav
192,192,210796,1,0,0:0:0:20:C_up_6.wav
448,192,211005,1,0,0:0:0:70:nosound.wav
64,192,211213,1,0,0:0:0:20:C_6.wav
192,192,211421,1,0,0:0:0:20:C_up_6.wav
448,192,211838,1,0,0:0:0:20:G_6.wav
64,192,212255,1,0,0:0:0:20:C_6.wav
192,192,212463,1,0,0:0:0:20:C_up_6.wav
64,192,212880,1,0,0:0:0:20:C_6.wav
192,192,213088,1,0,0:0:0:20:C_up_6.wav
64,192,213296,1,0,0:0:0:20:C_6.wav
448,192,213505,1,0,0:0:0:20:G_6.wav
64,192,213921,1,0,0:0:0:20:C_6.wav
192,192,214130,1,0,0:0:0:20:C_up_6.wav
64,192,214546,1,0,0:0:0:20:C_6.wav
192,192,214755,1,0,0:0:0:20:C_up_6.wav
64,192,214963,1,0,0:0:0:20:C_6.wav
448,192,215171,1,0,0:0:0:20:G_up_6.wav
64,192,215588,1,0,0:0:0:20:C_6.wav
448,192,215588,128,0,224338:0:0:0:70:nosound.wav
192,192,215796,1,0,0:0:0:20:C_up_6.wav
64,192,216213,1,0,0:0:0:20:C_6.wav
192,192,216421,1,0,0:0:0:20:C_up_6.wav
64,192,216630,1,0,0:0:0:70:nosound.wav
320,192,216838,1,0,0:0:0:20:G_up_6.wav
64,192,217255,1,0,0:0:0:20:C_6.wav
192,192,217463,1,0,0:0:0:20:C_up_6.wav
64,192,217880,1,0,0:0:0:20:C_6.wav
192,192,218088,5,0,0:0:0:20:C_up_6.wav
320,192,218505,1,0,0:0:0:20:G_6.wav
64,192,218921,1,0,0:0:0:20:C_6.wav
192,192,219130,128,0,220588:0:0:0:20:C_up_6.wav
