osu file format v14

[General]
AudioFilename: audio.mp3
AudioLeadIn: 0
PreviewTime: 63426
Countdown: 0
SampleSet: Soft
StackLeniency: 0.3
Mode: 0
LetterboxInBreaks: 0
WidescreenStoryboard: 0

[Editor]
Bookmarks: 22136,112458,179555,189878
DistanceSpacing: 0.1
BeatDivisor: 4
GridSize: 32
TimelineZoom: 1.600003

[Metadata]
Title:Yukoku, Yume To Mimagau
TitleUnicode:夕刻、夢ト見紛ウ
Artist:Astel Leda x Kagura Nana
ArtistUnicode:アステル・レダ × カグラナナ
Creator:KennethBBG
Version:Cherry Blossom
Source:
Tags:Aurorance aundy sayumana pop jpop j-pop rock jrock j-rock japanese v-tuber vtuber virtual youtuber After the Rain はるっと ani haltto 三矢禅晃 清水"カルロス"宥人 Kei Nakamura 宇都圭輝 樋口幸佑
BeatmapID:4011000
BeatmapSetID:1939940

[Difficulty]
HPDrainRate:6
CircleSize:4
OverallDifficulty:8.5
ApproachRate:9.2
SliderMultiplier:1.8
SliderTickRate:1

[Events]
//Background and Video events
0,0,"EWwqXK6WoAEtTlv.jpg",0,0
Video,65,"BG .mp4"
//Break Periods
2,98465,100920
2,180200,188587
//Storyboard Layer 0 (Background)
//Storyboard Layer 1 (Fail)
//Storyboard Layer 2 (Pass)
//Storyboard Layer 3 (Foreground)
//Storyboard Layer 4 (Overlay)
//Storyboard Sound Samples

[TimingPoints]
1491,322.58064516129,4,2,1,26,1,0
22136,-166.666666666667,4,2,1,40,0,0
31409,-166.666666666667,4,2,1,5,0,0
31490,-166.666666666667,4,2,1,40,0,0
33749,-142.857142857143,4,2,1,40,0,0
33990,-142.857142857143,4,2,1,5,0,0
34071,-142.857142857143,4,2,1,40,0,0
39151,-142.857142857143,4,2,1,5,0,0
39232,-142.857142857143,4,2,1,40,0,0
40200,-142.857142857143,4,2,1,40,0,0
54635,-142.857142857143,4,2,1,5,0,0
54716,-142.857142857143,4,2,1,40,0,0
54878,-142.857142857143,4,2,1,41,0,0
55039,-142.857142857143,4,2,1,42,0,0
55361,-142.857142857143,4,2,1,43,0,0
55523,-142.857142857143,4,1,1,44,0,0
55684,-117.647058823529,4,2,1,50,0,0
58265,-117.647058823529,4,2,1,60,0,0
60845,-117.647058823529,4,2,1,65,0,0
62942,-285.714285714283,4,2,1,65,0,0
63345,-285.714285714283,4,2,1,65,0,0
63426,-100,4,2,1,80,0,1
70119,-100,4,2,1,5,0,1
70200,-100,4,2,1,80,0,1
79151,-100,4,2,1,5,0,1
79232,-100,4,2,1,80,0,1
79796,-100,4,2,1,5,0,1
79878,-100,4,2,1,80,0,1
80441,-100,4,2,1,5,0,1
80523,-100,4,2,1,80,0,1
81731,-100,4,2,1,5,0,1
81813,-100,4,2,1,80,0,1
82136,-100,4,2,1,85,0,1
84071,-117.647058823529,4,2,1,80,0,1
84312,-100,4,2,1,5,0,1
84394,-100,4,2,1,80,0,1
86893,-100,4,2,1,5,0,1
86974,-100,4,2,1,80,0,1
90764,-100,4,2,1,5,0,1
90845,-100,4,2,1,80,0,1
94394,-125,4,2,1,60,0,0
94474,-125,4,2,1,60,0,0
96974,-166.666666666667,4,2,1,60,0,0
98103,-166.666666666667,4,2,1,5,0,0
101490,-166.666666666667,4,2,1,70,0,0
102136,-117.647058823529,4,2,1,70,0,0
107215,-117.647058823529,4,2,1,5,0,0
107297,-117.647058823529,4,2,1,70,0,0
109796,-117.647058823529,4,2,1,5,0,0
109878,-117.647058823529,4,2,1,70,0,0
110764,-117.647058823529,4,2,1,5,0,0
110845,-117.647058823529,4,2,1,70,0,0
112458,-133.333333333333,4,2,1,60,0,0
133103,-181.818181818181,4,2,1,50,0,0
144716,-133.333333333333,4,2,1,50,0,0
145361,-133.333333333333,4,2,1,41,0,0
145523,-133.333333333333,4,2,1,42,0,0
145684,-133.333333333333,4,2,1,43,0,0
145845,-133.333333333333,4,2,1,44,0,0
146007,-117.647058823529,4,2,1,60,0,0
148587,-117.647058823529,4,2,1,65,0,0
151168,-117.647058823529,4,2,1,70,0,0
152297,-117.647058823529,4,2,1,30,0,0
153103,-117.647058823529,4,2,1,50,0,0
153749,-117.647058823529,4,2,1,60,0,0
164232,-117.647058823529,4,2,1,55,0,0
169232,-117.647058823529,4,2,1,55,0,0
170039,-117.647058823529,4,2,1,45,0,0
170200,-117.647058823529,4,2,1,55,0,0
170845,-117.647058823529,4,2,1,45,0,0
171813,-117.647058823529,4,2,1,55,0,0
173103,-117.647058823529,4,2,1,45,0,0
174394,-117.647058823529,4,2,1,55,0,0
175845,-117.647058823529,4,2,1,45,0,0
176974,-117.647058823529,4,2,1,55,0,0
177620,-117.647058823529,4,2,1,50,0,0
178265,-117.647058823529,4,2,1,45,0,0
178910,-117.647058823529,4,2,1,40,0,0
179555,-117.647058823529,4,2,1,35,0,0
188587,-117.647058823529,4,2,1,40,0,0
189797,-117.647058823529,4,2,1,40,0,0
193749,-117.647058823529,4,2,1,45,0,0
195039,-117.647058823529,4,2,1,50,0,0
195523,-117.647058823529,4,2,1,55,0,0
196007,-117.647058823529,4,2,1,43,0,0
196329,-117.647058823529,4,2,1,60,0,0
197620,-117.647058823529,4,2,1,50,0,0
198749,-117.647058823529,4,2,1,45,0,0
198910,-117.647058823529,4,2,1,60,0,0
199394,-117.647058823529,4,2,1,48,0,0
200200,-117.647058823529,4,2,1,60,0,0
200684,-117.647058823529,4,2,1,40,0,0
201490,-117.647058823529,4,2,1,65,0,0
202136,-117.647058823529,4,2,1,45,0,0
202781,-117.647058823529,4,2,1,70,0,0
203426,-117.647058823529,4,2,1,50,0,0
203749,-117.647058823529,4,2,1,65,0,0
204071,-117.647058823529,4,2,1,80,0,0
209232,-117.647058823529,4,2,1,60,0,0
210523,-181.818181818181,4,2,1,70,0,0
211813,-181.818181818181,4,2,1,35,0,0
213103,-181.818181818181,4,2,1,70,0,0
213426,-181.818181818181,4,2,1,40,0,0
214232,-100,4,2,1,70,0,0
214635,-100,4,2,1,70,0,0
214716,-100,4,2,1,70,0,0
215684,-100,4,2,1,80,0,1
217215,-100,4,2,1,5,0,1
217297,-100,4,2,1,80,0,1
226248,-100,4,2,1,5,0,1
226329,-100,4,2,1,80,0,1
226893,-100,4,2,1,5,0,1
226975,-100,4,2,1,80,0,1
227538,-100,4,2,1,5,0,1
227620,-100,4,2,1,80,0,1
228828,-100,4,2,1,5,0,1
228910,-100,4,2,1,80,0,1
229232,-100,4,2,1,85,0,1
231168,-117.647058823529,4,2,1,80,0,1
231409,-100,4,2,1,5,0,1
231491,-100,4,2,1,80,0,1
233990,-100,4,2,1,5,0,1
234071,-100,4,2,1,80,0,1
237861,-100,4,2,1,5,0,1
237942,-100,4,2,1,80,0,1
240200,-100,4,2,1,70,0,1
241490,-133.333333333333,4,2,1,60,0,0
242054,-133.333333333333,4,2,1,5,0,0
242136,-133.333333333333,4,2,1,60,0,0
242700,-133.333333333333,4,2,1,5,0,0
242781,-133.333333333333,4,2,1,60,0,0
243103,-117.647058823529,4,2,1,60,0,0

[Colours]
Combo1 : 252,201,185
Combo2 : 173,216,230

[HitObjects]
289,384,22136,6,0,P|339:348|398:362,1,107.999996704102,2|2,3:3|3:2,0:0:0:0:
500,282,22620,2,0,P|491:324|486:359,1,53.9999983520508,2|0,0:2|3:2,0:0:0:0:
395,197,22942,2,0,P|404:239|409:274,1,53.9999983520508,2|0,0:2|3:2,0:0:0:0:
487,168,23265,1,2,0:2:0:0:
305,239,23426,2,0,P|243:225|180:202,1,107.999996704102,2|2,3:2|3:2,0:0:0:0:
6,94,24071,6,0,P|15:52|20:17,1,53.9999983520508,2|0,3:2|0:0,0:0:0:0:
98,100,24393,2,0,P|103:131|110:161,1,53.9999983520508,2|0,3:2|0:0,0:0:0:0:
0,215,24716,2,0,B|68:221|35:250|101:257,1,107.999996704102,2|0,3:2|3:2,0:0:0:0:
276,154,25200,2,0,P|289:94|255:41,1,107.999996704102,2|0,0:2|0:0,0:0:0:0:
194,111,25684,1,0,3:2:0:0:
332,272,26007,6,0,P|394:258|457:235,1,107.999996704102,2|0,3:2|3:2,0:0:0:0:
413,43,26652,2,0,P|391:102|377:163,1,107.999996704102,2|2,3:2|3:2,0:0:0:0:
371,367,27297,6,0,P|311:380|261:345,1,107.999996704102,2|2,3:2|3:2,0:0:0:0:
158,310,27781,2,0,P|126:315|96:322,1,53.9999983520508,2|0,0:2|3:2,0:0:0:0:
214,216,28103,2,0,P|244:222|275:228,1,53.9999983520508,2|0,0:2|3:2,0:0:0:0:
139,132,28426,1,2,0:2:0:0:
307,96,28587,6,0,P|245:99|199:59,1,107.999996704102,0|2,3:2|3:2,0:0:0:0:
273,12,29071,1,0,0:0:0:0:
391,103,29232,2,0,P|396:71|403:41,1,53.9999983520508,2|0,3:2|0:0,0:0:0:0:
493,123,29555,1,2,3:2:0:0:
360,189,29716,1,2,0:2:0:0:
485,249,29878,6,0,B|420:254|450:285|375:293,2,107.999996704102,2|0|0,3:2|3:2|3:2,0:0:0:0:
373,381,30845,2,0,P|341:375|311:368,1,53.9999983520508,2|0,3:2|0:0,0:0:0:0:
285,178,31168,2,0,P|309:216|302:262,1,80.9999975280763,2|0,3:2|0:0,0:0:0:0:
266,280,31490,2,0,P|234:285|204:292,1,53.9999983520508,2|0,3:2|0:0,0:0:0:0:
117,176,31812,2,0,P|147:182|178:188,1,53.9999983520508,2|0,3:2|0:0,0:0:0:0:
167,79,32136,1,2,3:2:0:0:
22,215,32297,5,2,0:0:0:0:
22,215,32378,1,2,0:0:0:0:
22,215,32458,2,0,P|11:148|-2:90,2,107.999996704102,2|0|0,3:2|3:2|3:2,0:0:0:0:
128,348,33265,1,0,0:0:0:0:
0,311,33426,2,0,P|30:304|61:298,1,53.9999983520508,2|0,3:2|0:0,0:0:0:0:
228,231,33749,6,0,P|179:222|111:202,1,94.499997116089,2|0,3:2|0:0,0:0:0:0:
114,181,34071,2,0,P|110:147|139:107,1,62.9999980773926,2|0,3:2|0:0,0:0:0:0:
250,34,34394,2,0,P|240:76|235:116,1,62.9999980773926,2|0,3:2|0:0,0:0:0:0:
349,190,34716,2,0,P|342:154|333:119,1,62.9999980773926,2|0,3:2|0:0,0:0:0:0:
480,40,35039,6,0,B|408:12|408:12|390:30|364:44,1,125.999996154785,2|0,3:2|3:2,0:0:0:0:
335,128,35523,1,0,0:0:0:0:
448,192,35684,1,0,3:2:0:0:
448,192,36007,2,0,P|439:226|432:262,1,62.9999980773926,2|0,3:2|0:0,0:0:0:0:
322,384,36329,6,0,P|268:339|199:350,1,125.999996154785,2|0,3:2|3:2,0:0:0:0:
51,253,36813,1,2,0:2:0:0:
97,384,36974,2,0,P|103:348|112:313,1,62.9999980773926,0|0,3:2|0:0,0:0:0:0:
193,164,37297,2,0,P|201:198|208:234,1,62.9999980773926,2|0,3:2|0:0,0:0:0:0:
288,125,37620,6,0,P|264:82|205:62,2,94.499997116089,2|2|2,3:2|0:0|0:2,0:0:0:0:
370,230,38265,1,0,3:2:0:0:
370,230,38587,2,0,P|334:223|299:214,1,62.9999980773926,2|0,3:2|0:0,0:0:0:0:
156,334,38910,6,0,P|210:320|265:309,1,94.499997116089,2|0,3:2|0:0,0:0:0:0:
285,313,39232,2,0,P|293:347|300:383,1,62.9999980773926,2|0,3:2|0:0,0:0:0:0:
454,312,39555,2,0,P|460:276|469:241,1,62.9999980773926,2|0,3:2|0:0,0:0:0:0:
354,159,39878,2,0,P|362:193|369:229,1,62.9999980773926,2|0,3:2|0:0,0:0:0:0:
197,174,40200,6,0,P|130:175|90:215,2,125.999996154785,2|0|0,3:2|3:2|3:2,0:0:0:0:
281,218,41007,1,0,0:0:0:0:
155,325,41168,2,0,P|161:289|170:254,1,62.9999980773926,0|0,3:2|0:0,0:0:0:0:
315,366,41490,1,0,3:2:0:0:
315,366,41813,6,0,P|350:359|385:350,1,62.9999980773926,2|0,3:2|0:0,0:0:0:0:
510,290,42136,2,0,P|474:283|439:274,1,62.9999980773926,2|0,3:2|0:0,0:0:0:0:
420,269,42378,1,0,0:0:0:0:
420,269,42458,2,0,P|427:233|436:198,1,62.9999980773926,2|0,3:3|0:0,0:0:0:0:
286,83,42781,1,0,3:2:0:0:
286,83,43103,6,0,P|279:48|270:13,1,62.9999980773926,2|0,3:2|0:0,0:0:0:0:
390,102,43426,2,0,P|383:138|374:173,1,62.9999980773926,2|0,3:2|0:0,0:0:0:0:
365,201,43668,1,0,0:0:0:0:
365,201,43749,2,0,P|329:194|294:185,1,62.9999980773926,2|0,3:2|0:0,0:0:0:0:
193,72,44071,1,0,3:2:0:0:
193,72,44394,6,0,P|185:102|179:133,1,62.9999980773926,2|0,3:2|0:0,0:0:0:0:
74,215,44716,2,0,P|67:184|60:153,1,62.9999980773926,2|0,3:2|0:0,0:0:0:0:
168,233,45040,2,0,P|198:238|229:246,1,62.9999980773926,2|0,3:2|0:0,0:0:0:0:
335,383,45361,6,0,B|320:346|306:313|306:313|326:291|335:269,1,125.999996154785,2|2,3:2|3:2,0:0:0:0:
474,313,45845,2,0,P|443:320|412:326,1,62.9999980773926,2|0,0:2|3:2,0:0:0:0:
339,178,46168,2,0,P|369:183|400:191,1,62.9999980773926,2|0,0:2|3:2,0:0:0:0:
483,26,46490,1,2,0:2:0:0:
512,106,46652,6,0,P|428:99|399:63,1,125.999996154785,0|2,3:2|3:2,0:0:0:0:
304,16,47136,1,0,0:0:0:0:
228,88,47297,2,0,P|235:118|241:149,1,62.9999980773926,2|0,3:2|0:0,0:0:0:0:
325,239,47620,2,0,P|330:208|338:177,1,62.9999980773926,2|0,3:2|0:0,0:0:0:0:
231,314,47942,6,0,P|200:321|169:327,1,62.9999980773926,2|0,3:2|0:0,0:0:0:0:
88,174,48265,2,0,P|118:179|149:187,1,62.9999980773926,2|0,3:2|0:0,0:0:0:0:
236,325,48587,2,0,P|205:332|174:338,1,62.9999980773926,2|0,3:2|0:0,0:0:0:0:
325,239,48910,2,0,P|335:301|346:363,1,125.999996154785,2|0,3:2|3:2,0:0:0:0:
231,55,49555,6,0,P|200:62|169:68,1,62.9999980773926,2|0,3:2|0:0,0:0:0:0:
88,174,49877,2,0,P|118:180|149:187,1,62.9999980773926,2|0,3:2|0:0,0:0:0:0:
94,12,50201,2,0,P|86:42|80:73,1,62.9999980773926,2|0,3:2|0:0,0:0:0:0:
212,262,50523,6,0,P|250:214|246:152,1,125.999996154785,2|0,3:2|3:2,0:0:0:0:
371,2,51007,1,2,0:2:0:0:
231,55,51168,2,0,P|292:70|353:85,1,125.999996154785,0|0,3:2|3:2,0:0:0:0:
494,2,51652,1,0,0:0:0:0:
466,154,51813,2,0,P|460:123|452:93,1,62.9999980773926,0|0,3:2|0:0,0:0:0:0:
465,327,52136,6,0,P|434:319|403:313,1,62.9999980773926,2|0,3:2|0:0,0:0:0:0:
322,208,52458,2,0,P|352:201|383:194,1,62.9999980773926,2|0,3:2|0:0,0:0:0:0:
328,370,52782,2,0,P|320:339|314:308,1,62.9999980773926,2|0,3:2|0:0,0:0:0:0:
228,203,53103,1,4,3:2:0:0:
26,384,53426,6,0,P|33:353|39:322,1,62.9999980773926,2|0,3:2|0:0,0:0:0:0:
145,241,53748,2,0,P|151:271|158:302,1,62.9999980773926,2|0,3:2|0:0,0:0:0:0:
0,200,54072,2,0,P|30:194|61:186,1,62.9999980773926,2|0,3:2|0:0,0:0:0:0:
197,104,54394,2,0,P|147:95|85:78,1,94.499997116089,4|0,3:2|0:0,0:0:0:0:
65,78,54716,5,10,3:2:0:0:
65,78,54878,1,8,3:2:0:0:
167,0,55039,1,10,3:2:0:0:
167,0,55200,1,8,3:2:0:0:
283,147,55361,1,10,3:2:0:0:
283,147,55523,1,8,3:2:0:0:
390,12,55684,6,0,P|380:49|374:86,1,76.5000014591217,6|0,3:2|0:0,0:0:0:0:
499,208,56007,2,0,P|493:170|483:133,1,76.5000014591217,10|0,0:2|0:0,0:0:0:0:
333,242,56329,1,10,0:2:0:0:
494,357,56490,1,10,0:2:0:0:
494,357,56813,6,0,B|447:338|406:320|406:320|381:340|352:357,1,153.000002918243,6|2,3:2|3:2,0:0:0:0:
161,255,57297,2,0,P|198:245|235:239,1,76.5000014591217,12|0,0:2|3:2,0:0:0:0:
363,134,57620,1,8,0:2:0:0:
210,13,57781,1,8,0:2:0:0:
179,20,57861,1,8,0:2:0:0:
150,35,57942,1,0,1:2:0:0:
131,59,58022,1,0,1:2:0:0:
112,85,58103,1,2,1:2:0:0:
85,102,58184,1,0,1:2:0:0:
55,112,58265,6,0,P|64:149|70:186,1,76.5000014591217,6|2,3:2|0:2,0:0:0:0:
210,368,58587,1,10,0:2:0:0:
16,277,58749,1,2,0:2:0:0:
176,178,58910,2,0,P|166:215|160:252,1,76.5000014591217,2|0,3:2|3:2,0:0:0:0:
333,375,59232,1,10,3:2:0:0:
416,235,59394,6,0,B|369:253|328:271|328:271|303:251|274:234,1,153.000002918243,2|2,0:2|0:2,0:0:0:0:
326,81,59878,2,0,P|335:118|341:155,1,76.5000014591217,8|2,0:2|0:2,0:0:0:0:
497,299,60200,2,0,P|502:261|512:224,1,76.5000014591217,0|0,3:2|3:2,0:0:0:0:
341,155,60523,1,8,3:2:0:0:
487,64,60684,1,2,0:2:0:0:
231,142,60845,6,0,P|193:137|156:127,1,76.5000014591217,6|0,3:2|0:0,0:0:0:0:
265,253,61168,1,10,0:2:0:0:
134,361,61329,1,10,0:2:0:0:
231,142,61490,1,10,0:2:0:0:
358,289,61651,1,8,0:2:0:0:
328,107,61813,5,10,0:2:0:0:
111,194,61974,1,10,0:2:0:0:
401,384,62136,1,8,0:2:0:0:
438,374,62216,1,8,0:2:0:0:
475,365,62297,2,0,L|530:352,1,38.2500007295609,2|0,3:2|3:2,0:0:0:0:
512,152,62458,1,8,0:2:0:0:
475,142,62538,1,8,0:2:0:0:
438,133,62619,2,0,L|383:120,1,38.2500007295609,0|0,1:2|3:2,0:0:0:0:
111,194,62781,5,8,0:2:0:0:
198,288,62942,2,0,P|235:279|270:270,1,62.9999980773926,12|0,3:2|0:0,0:0:0:0:
183,11,63426,6,0,P|202:113|219:199,1,180,6|8,3:2|0:2,0:0:0:0:
369,279,63910,1,2,0:2:0:0:
461,121,64071,2,0,P|416:126|359:134,1,90,2|0,3:2|0:0,0:0:0:0:
183,11,64394,2,0,P|228:17|273:22,1,90,8|0,0:2|0:0,0:0:0:0:
369,278,64716,6,0,P|298:227|209:244,1,180,2|8,3:2|0:2,0:0:0:0:
11,203,65200,1,2,0:2:0:0:
123,384,65361,2,0,B|120:338|107:309|107:309|120:277|120:277|104:245|106:197,1,180,2|8,3:2|0:2,0:0:0:0:
276,340,65845,5,2,0:0:0:0:
276,340,65926,1,2,0:0:0:0:
276,340,66007,2,0,B|319:342|369:357|369:357|403:333|449:320,1,180,2|10,3:2|0:2,0:0:0:0:
369,80,66490,1,0,0:0:0:0:
511,214,66652,2,0,P|467:207|422:202,1,90,2|0,3:2|0:0,0:0:0:0:
276,340,66974,6,0,P|327:268|312:182,2,180,10|0|10,0:2|3:2|0:2,0:0:0:0:
66,174,67781,1,0,0:0:0:0:
173,343,67942,1,2,3:2:0:0:
312,182,68103,1,0,0:0:0:0:
146,236,68265,2,0,P|191:241|235:248,1,90,10|0,0:2|0:0,0:0:0:0:
503,61,68587,6,0,P|432:111|346:96,1,180,2|8,3:2|0:2,0:0:0:0:
136,19,69071,1,2,0:2:0:0:
189,224,69232,2,0,P|199:180|207:135,1,90,2|0,3:2|0:0,0:0:0:0:
0,24,69555,2,0,P|12:91|24:144,1,90,8|0,0:2|0:0,0:0:0:0:
132,312,69878,6,0,P|204:326|262:289,1,135,2|0,3:2|0:0,0:0:0:0:
337,352,70200,2,0,P|344:307|370:272,1,90,10|0,0:2|0:0,0:0:0:0:
450,139,70523,1,2,3:2:0:0:
257,211,70684,1,0,0:0:0:0:
473,287,70845,1,10,0:2:0:0:
416,66,71007,1,0,0:0:0:0:
242,309,71168,6,0,P|198:298|154:290,1,90,2|0,3:2|0:0,0:0:0:0:
281,130,71490,1,8,0:2:0:0:
382,299,71652,1,2,0:2:0:0:
170,179,71813,2,0,P|181:135|189:91,1,90,0|0,3:2|0:0,0:0:0:0:
364,32,72136,2,0,P|375:76|383:120,1,90,8|0,0:2|0:0,0:0:0:0:
504,280,72458,5,0,3:2:0:0:
504,280,72781,2,0,P|460:269|416:261,1,90,10|0,0:2|0:0,0:0:0:0:
286,134,73103,1,2,3:2:0:0:
449,1,73265,1,8,0:2:0:0:
449,1,73345,1,8,0:2:0:0:
449,1,73426,1,10,0:2:0:0:
484,28,73506,1,8,0:2:0:0:
496,71,73587,1,8,0:2:0:0:
481,112,73667,1,8,0:2:0:0:
451,136,73749,6,0,B|391:118|337:101|337:101|312:118|282:137,1,180,6|8,3:2|0:2,0:0:0:0:
226,323,74232,1,2,0:2:0:0:
91,227,74394,2,0,P|135:216|179:208,1,90,2|0,3:2|0:0,0:0:0:0:
17,61,74716,1,10,0:2:0:0:
278,68,74878,2,0,P|192:53|121:104,1,180,2|0,0:2|0:0,0:0:0:0:
257,315,75361,5,10,0:2:0:0:
398,205,75523,1,8,0:2:0:0:
278,68,75684,2,0,P|267:111|259:155,1,90,2|0,3:2|0:0,0:0:0:0:
386,384,76007,2,0,P|377:339|367:296,1,90,10|0,0:2|0:0,0:0:0:0:
0,322,76329,6,0,B|61:304|115:287|115:287|140:304|170:323,1,180,2|8,3:2|0:2,0:0:0:0:
345,196,76813,1,2,0:2:0:0:
290,383,76974,2,0,P|282:338|272:295,1,90,2|0,3:2|0:0,0:0:0:0:
135,141,77297,1,10,0:2:0:0:
359,331,77458,6,0,B|476:312|413:265|526:244,1,180,2|0,0:2|0:0,0:0:0:0:
364,109,77942,2,0,P|353:153|345:197,1,90,10|0,0:2|0:0,0:0:0:0:
176,380,78265,2,0,P|168:335|158:292,1,90,2|0,3:2|0:0,0:0:0:0:
215,20,78587,2,0,P|226:64|234:108,1,90,10|0,0:2|0:0,0:0:0:0:
37,218,78910,6,0,P|91:168|156:182,1,135,2|0,3:2|0:0,0:0:0:0:
239,222,79232,2,0,P|283:211|327:203,1,90,10|0,0:2|0:0,0:0:0:0:
511,44,79555,2,0,B|474:37|439:27|439:27|408:45|414:83,1,135,2|0,3:2|0:0,0:0:0:0:
432,182,79878,2,0,P|443:226|451:270,1,90,10|0,0:2|0:0,0:0:0:0:
99,377,80200,6,0,P|24:361|3:285,1,135,2|0,3:2|0:0,0:0:0:0:
81,281,80523,2,0,P|125:292|169:300,1,90,10|0,0:2|0:0,0:0:0:0:
353,355,80845,1,2,3:2:0:0:
239,222,81007,1,0,0:0:0:0:
340,160,81168,2,0,P|329:204|321:248,1,90,10|0,0:2|0:0,0:0:0:0:
469,384,81490,6,0,P|483:309|501:236,1,135,2|0,3:2|0:0,0:0:0:0:
512,160,81813,2,0,P|468:168|425:178,1,90,10|0,0:2|0:0,0:0:0:0:
143,82,82136,1,2,3:2:0:0:
262,276,82297,1,0,3:2:0:0:
390,80,82458,1,8,0:2:0:0:
406,384,82620,5,2,1:2:0:0:
406,384,82700,1,0,1:2:0:0:
406,384,82781,1,12,0:2:0:0:
192,208,82942,1,8,0:2:0:0:
465,135,83103,1,0,1:2:0:0:
284,384,83265,1,8,0:2:0:0:
263,378,83345,1,8,0:2:0:0:
241,373,83426,1,0,1:2:0:0:
37,119,83587,5,8,0:2:0:0:
81,113,83667,1,8,0:2:0:0:
126,107,83748,1,8,0:2:0:0:
170,102,83828,1,8,0:2:0:0:
198,129,83909,1,8,0:2:0:0:
207,169,83990,1,8,0:2:0:0:
192,208,84071,6,0,P|255:190|309:181,1,114.750002188683,2|0,3:2|0:0,0:0:0:0:
392,165,84394,1,12,0:2:0:0:
271,292,84555,1,2,0:2:0:0:
494,384,84716,2,0,P|502:341|515:288,1,90,2|0,3:2|3:2,0:0:0:0:
372,77,85039,2,0,P|383:120|391:164,1,90,8|0,0:2|0:0,0:0:0:0:
197,357,85361,6,0,B|97:353|130:300|26:289,1,180,2|8,3:2|0:2,0:0:0:0:
172,67,85845,1,2,0:2:0:0:
0,154,86007,2,0,P|45:161|189:202,1,180,2|8,3:2|0:2,0:0:0:0:
406,372,86490,5,2,0:0:0:0:
406,372,86571,1,2,0:0:0:0:
406,372,86652,2,0,P|386:308|373:242,1,135,2|0,3:2|0:0,0:0:0:0:
384,134,86974,2,0,P|339:136|305:164,1,90,10|0,0:2|0:0,0:0:0:0:
494,277,87297,2,0,P|505:233|513:189,1,90,2|0,3:2|3:2,0:0:0:0:
246,268,87620,6,0,P|195:196|210:110,2,180,10|0|10,0:2|3:2|0:2,0:0:0:0:
461,155,88427,1,0,0:0:0:0:
333,310,88588,1,2,3:2:0:0:
210,110,88749,1,0,3:2:0:0:
371,165,88911,2,0,P|326:170|282:177,1,90,10|0,0:2|0:0,0:0:0:0:
17,9,89232,6,0,B|77:27|131:44|131:44|156:27|186:8,1,180,2|8,3:2|0:2,0:0:0:0:
344,65,89716,1,2,0:2:0:0:
232,209,89877,2,0,P|222:166|214:121,1,90,2|0,3:2|3:2,0:0:0:0:
453,5,90200,2,0,P|445:50|435:93,1,90,8|0,0:2|0:0,0:0:0:0:
232,209,90523,6,0,P|166:195|102:176,1,135,2|0,3:2|0:0,0:0:0:0:
22,282,90845,2,0,P|33:326|41:370,1,90,10|0,0:2|0:0,0:0:0:0:
289,384,91168,1,2,3:2:0:0:
209,231,91329,1,0,3:2:0:0:
423,167,91490,1,10,0:2:0:0:
423,167,91813,6,0,P|467:178|511:186,1,90,2|0,3:2|0:0,0:0:0:0:
394,381,92135,1,8,0:2:0:0:
308,282,92297,2,0,P|353:274|396:264,1,90,2|0,0:2|3:2,0:0:0:0:
478,92,92619,1,0,3:2:0:0:
316,23,92781,2,0,P|327:67|335:111,1,90,8|0,0:2|0:0,0:0:0:0:
321,284,93103,5,2,3:2:0:0:
432,159,93265,1,2,3:2:0:0:
475,311,93426,1,10,0:2:0:0:
291,187,93587,1,2,0:2:0:0:
234,350,93749,6,0,P|226:305|216:262,1,90,14|0,0:2|3:2,0:0:0:0:
153,178,94070,1,2,1:2:0:0:
184,152,94151,1,0,1:2:0:0:
224,144,94231,1,0,1:2:0:0:
263,156,94312,1,0,1:2:0:0:
291,187,94394,6,0,P|377:171|460:153,1,144,6|2,3:2|0:0,0:0:0:0:
480,80,94878,1,0,0:0:0:0:
426,284,95039,5,14,0:2:0:0:
426,284,95361,2,0,P|381:276|338:266,1,72,2|0,0:0|0:0,0:0:0:0:
153,178,95684,6,0,P|145:133|168:95,1,72,6|8,3:2|0:2,0:0:0:0:
169,79,95926,1,2,0:0:0:0:
169,79,96007,1,2,3:2:0:0:
169,79,96329,5,2,1:2:0:0:
267,144,96490,1,0,0:0:0:0:
358,66,96652,1,2,3:2:0:0:
284,254,96974,5,6,3:2:0:0:
256,192,97055,12,0,98265,0:0:0:0:
395,252,101490,5,10,3:2:0:0:
229,74,101652,1,10,3:2:0:0:
229,74,102136,6,0,P|309:84|367:11,1,153.000002918243,6|10,3:2|0:2,0:0:0:0:
490,151,102620,1,0,0:0:0:0:
395,252,102781,2,0,P|391:210|384:164,1,76.5000014591217,0|0,3:2|3:2,0:0:0:0:
512,343,103103,1,8,0:2:0:0:
512,343,103426,6,0,P|432:333|374:406,1,153.000002918243,2|8,3:2|0:2,0:0:0:0:
200,245,103910,1,0,0:0:0:0:
273,383,104071,2,0,P|277:342|281:308,1,76.5000014591217,2|0,3:2|3:2,0:0:0:0:
55,376,104393,1,8,0:2:0:0:
55,376,104716,6,0,B|82:292|82:292|62:264|41:236,1,153.000002918243,6|8,3:2|0:2,0:0:0:0:
200,66,105200,1,2,0:0:0:0:
25,127,105361,2,0,P|63:130|100:135,1,76.5000014591217,2|0,3:2|3:2,0:0:0:0:
249,235,105684,2,0,P|210:238|173:243,1,76.5000014591217,8|0,0:2|0:0,0:0:0:0:
310,64,106007,5,0,3:2:0:0:
310,64,106087,1,8,0:0:0:0:
310,64,106168,1,0,3:2:0:0:
406,194,106329,1,8,0:2:0:0:
304,315,106490,1,2,3:2:0:0:
504,252,106652,2,0,P|509:214|512:176,1,76.5000014591217,2|2,3:2|3:2,0:0:0:0:
278,166,106974,2,0,P|285:225|296:284,1,114.750002188683,14|0,0:2|0:0,0:0:0:0:
388,335,107297,6,0,P|308:325|250:398,1,153.000002918243,6|8,3:2|0:2,0:0:0:0:
63,252,107781,1,0,0:0:0:0:
181,167,107942,2,0,P|177:209|170:255,1,76.5000014591217,2|0,3:2|3:2,0:0:0:0:
51,52,108264,1,8,0:2:0:0:
51,52,108587,6,0,B|135:79|135:79|163:59|191:38,1,153.000002918243,2|8,3:2|0:2,0:0:0:0:
332,13,109071,1,8,0:2:0:0:
332,13,109152,1,8,0:2:0:0:
332,13,109232,2,0,P|326:50|323:89,1,76.5000014591217,2|0,3:2|3:2,0:0:0:0:
444,246,109555,2,0,P|482:210|491:152,1,114.750002188683,14|0,0:2|0:0,0:0:0:0:
400,166,109878,6,0,B|311:179|360:219|266:235,1,153.000002918243,6|8,3:2|0:2,0:0:0:0:
120,165,110361,1,0,0:0:0:0:
151,356,110523,2,0,P|162:301|174:239,1,114.750002188683,4|0,3:2|0:0,0:0:0:0:
180,212,110845,1,12,0:2:0:0:
354,60,111007,1,0,0:0:0:0:
173,64,111168,5,8,0:2:0:0:
173,64,111249,1,0,1:2:0:0:
173,64,111329,2,0,P|210:70|247:80,1,76.5000014591217,0|0,3:2|3:2,0:0:0:0:
356,223,111652,1,8,0:2:0:0:
356,223,111733,1,0,1:2:0:0:
356,223,111813,2,0,P|318:229|281:239,1,76.5000014591217,0|0,3:2|3:2,0:0:0:0:
152,353,112136,1,8,0:2:0:0:
152,353,112216,1,0,1:2:0:0:
152,353,112297,1,0,3:2:0:0:
0,242,112458,6,0,P|75:246|119:210,1,135.000005149842,6|10,3:2|0:2,0:0:0:0:
163,92,112942,2,0,P|126:102|88:108,1,67.5000025749208,2|0,0:2|3:2,0:0:0:0:
215,254,113265,2,0,P|251:243|289:237,1,67.5000025749208,2|8,3:2|0:2,0:0:0:0:
289,6,113587,6,0,P|272:81|266:145,1,135.000005149842,2|0,0:2|3:2,0:0:0:0:
446,245,114071,2,0,P|435:208|429:170,1,67.5000025749208,10|0,0:2|0:0,0:0:0:0:
327,316,114394,2,0,P|363:326|401:332,1,67.5000025749208,2|0,0:2|3:2,0:0:0:0:
496,164,114716,2,0,P|459:174|421:180,1,67.5000025749208,10|0,0:2|0:0,0:0:0:0:
206,49,115039,6,0,P|258:1|343:11,1,135.000005149842,2|8,3:2|0:2,0:0:0:0:
430,179,115523,2,0,B|349:181|394:214|302:225,1,135.000005149842,2|0,0:2|3:2,0:0:0:0:
289,76,116007,1,8,0:2:0:0:
289,76,116329,6,0,P|299:112|305:150,1,67.5000025749208,0|0,3:2|3:2,0:0:0:0:
220,319,116652,2,0,B|180:306|142:292|142:292|118:300|91:306,1,135.000005149842,8|0,0:2|0:0,0:0:0:0:
175,210,117136,1,0,3:2:0:0:
312,300,117297,2,0,P|321:332|328:365,1,67.5000025749208,10|0,0:2|0:0,0:0:0:0:
507,242,117620,6,0,P|438:257|390:211,1,135.000005149842,2|10,3:2|0:2,0:0:0:0:
265,151,118103,2,0,P|298:144|330:135,1,67.5000025749208,2|0,0:2|3:2,0:0:0:0:
464,69,118426,2,0,P|430:62|398:53,1,67.5000025749208,2|8,3:2|0:2,0:0:0:0:
225,31,118749,6,0,P|264:84|264:150,1,135.000005149842,2|0,0:2|3:2,0:0:0:0:
200,297,119232,1,10,0:2:0:0:
200,297,119555,2,0,P|232:287|265:281,1,67.5000025749208,2|0,0:2|3:2,0:0:0:0:
426,161,119878,1,10,0:2:0:0:
470,249,120039,2,0,P|403:242|337:229,1,135.000005149842,2|0,0:2|0:0,0:0:0:0:
337,141,120523,1,8,0:2:0:0:
337,141,120845,1,0,3:2:0:0:
445,82,121006,1,0,3:2:0:0:
259,6,121168,2,0,P|268:38|274:71,1,67.5000025749208,10|0,0:2|0:0,0:0:0:0:
177,215,121490,6,0,P|183:181|192:149,1,67.5000025749208,2|0,3:2|3:2,0:0:0:0:
351,0,121813,2,0,P|360:32|366:65,1,67.5000025749208,10|0,0:2|0:0,0:0:0:0:
267,213,122136,1,2,3:2:0:0:
109,79,122297,1,2,3:2:0:0:
109,79,122378,1,2,0:2:0:0:
109,79,122458,2,0,P|142:72|174:63,1,67.5000025749208,10|0,0:2|0:0,0:0:0:0:
177,215,122781,6,0,P|109:232|49:254,2,135.000005149842,2|8|0,3:2|0:2|3:2,0:0:0:0:
268,115,123587,1,0,3:2:0:0:
373,288,123749,2,0,P|340:281|308:272,1,67.5000025749208,10|0,0:2|0:0,0:0:0:0:
161,369,124071,6,0,P|194:362|226:353,1,67.5000025749208,2|0,3:2|3:2,0:0:0:0:
268,115,124394,2,0,P|258:147|251:180,1,67.5000025749208,10|0,0:2|0:0,0:0:0:0:
388,353,124716,2,0,P|381:319|372:287,1,67.5000025749208,2|0,0:2|3:2,0:0:0:0:
189,253,125039,2,0,P|156:262|123:269,1,67.5000025749208,10|0,0:2|0:0,0:0:0:0:
273,384,125361,6,0,P|277:316|289:250,2,135.000005149842,2|8|0,3:2|0:2|3:2,0:0:0:0:
372,287,126168,1,0,3:2:0:0:
512,368,126329,2,0,P|478:375|446:384,1,67.5000025749208,10|0,0:2|0:0,0:0:0:0:
447,213,126652,6,0,P|456:245|463:278,1,67.5000025749208,2|0,3:2|3:2,0:0:0:0:
276,148,126974,1,10,0:2:0:0:
386,83,127136,2,0,P|369:156|345:244,1,135.000005149842,2|0,0:2|3:2,0:0:0:0:
302,26,127620,6,0,P|269:36|236:43,1,67.5000025749208,10|0,0:2|0:0,0:0:0:0:
141,172,127942,2,0,P|159:114|133:64,1,101.250003862381,2|2,3:2|0:0,0:0:0:0:
132,55,128265,1,8,0:2:0:0:
0,104,128426,2,0,P|33:114|66:121,1,67.5000025749208,2|0,0:2|3:2,0:0:0:0:
283,242,128910,6,0,P|250:251|217:258,1,67.5000025749208,10|0,0:2|0:0,0:0:0:0:
112,311,129232,2,0,P|134:242|152:164,1,135.000005149842,2|10,3:2|0:2,0:0:0:0:
48,250,129716,1,0,0:0:0:0:
186,376,129878,2,0,P|218:366|251:359,1,67.5000025749208,2|0,3:2|3:2,0:0:0:0:
416,311,130200,2,0,P|383:303|350:294,1,67.5000025749208,10|0,0:2|0:0,0:0:0:0:
468,236,130523,6,0,P|511:319|488:357,1,135.000005149842,0|8,3:2|0:2,0:0:0:0:
350,294,131007,2,0,P|354:258|359:222,1,67.5000025749208,0|0,0:0|3:2,0:0:0:0:
256,106,131329,2,0,P|260:141|264:177,1,67.5000025749208,8|0,0:2|3:2,0:0:0:0:
207,256,131652,1,0,3:2:0:0:
360,126,131813,6,0,P|395:132|436:142,1,67.5000025749208,8|0,0:2|3:2,0:0:0:0:
244,6,132136,2,0,P|208:15|173:21,1,67.5000025749208,12|0,0:2|1:2,0:0:0:0:
141,34,132378,1,0,1:2:0:0:
141,34,132458,2,0,P|130:98|170:151,1,135.000005149842,0|0,3:2|3:2,0:0:0:0:
249,227,132942,1,0,3:2:0:0:
183,379,133103,6,0,P|172:330|160:282,2,99.0000030212403,2|0|2,3:2|3:2|3:2,0:0:0:0:
363,255,134071,1,2,3:2:0:0:
271,130,134394,2,0,P|257:191|243:252,1,99.0000030212403,0|2,3:2|3:2,0:0:0:0:
324,341,134878,1,2,0:2:0:0:
324,341,135039,2,0,P|387:351|440:315,1,99.0000030212403,2|0,3:2|3:2,0:0:0:0:
512,147,135684,6,0,P|451:161|390:175,1,99.0000030212403,2|2,3:2|3:2,0:0:0:0:
321,38,136329,1,2,3:2:0:0:
170,149,136652,1,2,3:2:0:0:
257,190,136813,6,0,P|269:142|274:119,1,49.5000015106202,2|2,0:2|3:2,0:0:0:0:
0,224,137620,2,0,P|31:217|63:204,1,49.5000015106202,2|2,3:2|0:0,0:0:0:0:
181,138,137942,2,0,P|150:131|118:118,1,49.5000015106202,2|0,3:2|0:0,0:0:0:0:
159,327,138265,6,0,P|145:266|131:205,1,99.0000030212403,2|2,3:2|3:2,0:0:0:0:
307,384,138910,2,0,B|331:372|360:353|360:353|387:361|419:369,1,99.0000030212403,2|0,3:2|3:2,0:0:0:0:
373,260,139394,1,2,0:2:0:0:
512,288,139555,6,0,P|498:349|484:410,2,99.0000030212403,0|2|2,3:2|3:2|3:2,0:0:0:0:
446,96,140523,1,2,3:2:0:0:
492,184,140845,6,0,P|431:194|378:162,1,99.0000030212403,2|0,3:2|3:2,0:0:0:0:
333,116,141329,2,0,P|347:55|361:-6,1,99.0000030212403,2|0,0:2|0:0,0:0:0:0:
446,96,141813,1,0,3:2:0:0:
322,210,142136,6,0,P|261:196|200:182,1,99.0000030212403,0|0,3:2|3:2,0:0:0:0:
144,202,142620,1,0,0:0:0:0:
144,202,142781,2,0,P|146:153|174:112,1,99.0000030212403,0|0,3:2|3:2,0:0:0:0:
145,308,143426,6,0,B|110:296|80:286|80:286|60:298|31:315,1,99.0000030212403,2|0,3:2|3:2,0:0:0:0:
243,384,144071,2,0,P|251:348|266:284,1,99.0000030212403,2|0,3:2|3:2,0:0:0:0:
490,89,144716,6,0,P|512:151|471:211,1,135.000005149842,14|10,3:2|3:2,0:0:0:0:
359,257,145200,1,10,3:2:0:0:
411,143,145361,1,10,3:2:0:0:
512,285,145523,1,8,3:2:0:0:
490,89,145684,1,10,3:2:0:0:
312,165,145845,1,8,3:2:0:0:
270,0,146007,6,0,P|313:7|360:13,1,76.5000014591217,6|0,3:2|0:0,0:0:0:0:
173,176,146329,2,0,P|128:181|83:188,1,76.5000014591217,10|0,0:2|0:0,0:0:0:0:
186,63,146652,1,10,0:2:0:0:
312,165,146813,1,10,0:2:0:0:
53,324,147136,6,0,P|116:283|190:291,1,153.000002918243,4|2,3:2|3:2,0:0:0:0:
359,368,147620,2,0,P|321:372|283:379,1,76.5000014591217,12|0,0:2|3:2,0:0:0:0:
137,365,147942,1,8,0:2:0:0:
205,199,148103,1,8,0:2:0:0:
241,210,148183,1,8,0:2:0:0:
272,233,148264,1,0,1:2:0:0:
299,259,148344,1,0,1:2:0:0:
334,274,148426,2,0,L|383:266,1,38.2500007295609,2|0,1:2|1:2,0:0:0:0:
366,90,148587,6,0,P|353:136|345:183,1,76.5000014591217,6|2,3:2|0:2,0:0:0:0:
464,121,148910,1,10,0:2:0:0:
268,42,149071,1,2,0:2:0:0:
363,275,149232,2,0,P|448:255|537:240,1,153.000002918243,2|10,3:2|3:2,0:0:0:0:
302,384,149716,6,0,P|257:377|213:368,1,76.5000014591217,2|0,0:2|3:2,0:0:0:0:
76,259,150039,2,0,P|120:251|164:243,1,76.5000014591217,2|8,0:2|0:2,0:0:0:0:
288,90,150361,2,0,P|268:175|253:264,1,153.000002918243,2|0,0:2|3:2,0:0:0:0:
402,103,150845,1,8,3:2:0:0:
208,54,151007,1,2,0:2:0:0:
348,199,151168,6,0,P|355:237|363:275,1,76.5000014591217,6|2,3:2|0:2,0:0:0:0:
184,324,151490,1,10,0:2:0:0:
444,384,151652,1,10,0:2:0:0:
245,221,151813,1,10,0:2:0:0:
472,98,151974,1,10,0:2:0:0:
363,275,152136,1,10,0:2:0:0:
208,54,152297,1,10,0:2:0:0:
208,54,152620,1,2,0:2:0:0:
121,229,153103,5,8,0:2:0:0:
18,204,153265,1,8,0:2:0:0:
33,169,153345,1,8,0:2:0:0:
60,142,153426,1,8,0:2:0:0:
95,127,153506,1,8,0:2:0:0:
133,125,153587,2,0,L|194:141,1,38.2500007295609,8|8,0:2|0:2,0:0:0:0:
263,311,153749,6,0,B|248:268|229:223|229:223|250:201|271:172,1,153.000002918243,6|0,3:2|3:2,0:0:0:0:
386,330,154232,1,2,0:2:0:0:
495,206,154394,2,0,P|425:222|332:247,1,153.000002918243,2|0,3:2|3:2,0:0:0:0:
277,0,155039,6,0,B|286:85|324:39|336:148,1,153.000002918243,2|0,3:2|3:2,0:0:0:0:
409,53,155523,1,2,0:2:0:0:
229,130,155684,2,0,P|155:110|80:93,1,153.000002918243,2|0,3:2|3:2,0:0:0:0:
0,263,156329,6,0,P|69:286|134:232,2,153.000002918243,6|2|2,3:2|3:2|3:2,0:0:0:0:
221,373,157297,1,2,3:2:0:0:
207,275,157458,1,8,0:2:0:0:
421,285,157620,6,0,P|335:267|278:324,1,153.000002918243,0|2,3:2|3:2,0:0:0:0:
367,360,158103,1,0,1:2:0:0:
499,291,158265,2,0,P|504:253|511:215,1,76.5000014591217,2|0,3:2|0:0,0:0:0:0:
375,149,158587,2,0,P|381:193|387:238,1,76.5000014591217,2|0,3:2|0:0,0:0:0:0:
433,58,158910,6,0,P|348:41|287:98,1,153.000002918243,6|0,3:2|3:2,0:0:0:0:
192,215,159394,1,2,0:2:0:0:
99,151,159555,2,0,B|151:133|197:117|197:117|228:141|251:158,1,153.000002918243,2|0,3:2|3:2,0:0:0:0:
134,289,160039,1,8,0:2:0:0:
248,384,160200,5,2,3:2:0:0:
248,384,160361,1,0,1:0:0:0:
310,313,160523,2,0,B|298:240|298:240|333:213|334:172,1,153.000002918243,2|2,3:2|3:2,0:0:0:0:
512,297,161007,1,8,0:2:0:0:
416,384,161168,2,0,P|421:339|428:294,1,76.5000014591217,2|0,3:2|0:0,0:0:0:0:
394,95,161490,6,0,P|307:81|245:133,1,153.000002918243,6|0,3:2|3:2,0:0:0:0:
188,265,161974,1,10,0:2:0:0:
337,173,162136,1,0,3:2:0:0:
154,91,162297,2,0,P|161:133|167:181,1,76.5000014591217,4|0,3:2|3:2,0:0:0:0:
292,250,162620,1,8,0:2:0:0:
137,384,162781,6,0,B|85:366|39:350|39:350|8:374|-15:391,1,153.000002918243,4|0,3:2|3:2,0:0:0:0:
109,263,163265,1,0,0:0:0:0:
11,133,163426,2,0,P|18:175|24:223,1,91.8000017509461,2|0,3:2|0:0,0:0:0:0:
175,82,163749,1,6,3:2:0:0:
175,82,164071,6,0,P|188:177|201:257,1,153.000002918243,6|2,3:2|3:2,0:0:0:0:
361,290,164716,2,0,P|369:245|288:141,1,153.000002918243,2|2,3:2|3:2,0:0:0:0:
280,246,165200,1,8,0:2:0:0:
380,378,165361,6,0,B|466:359|422:327|513:309,1,153.000002918243,2|2,3:2|3:2,0:0:0:0:
504,208,165845,1,0,0:0:0:0:
359,290,166007,2,0,P|321:282|283:275,1,76.5000014591217,2|8,3:2|0:2,0:0:0:0:
204,154,166329,1,2,3:2:0:0:
204,154,166652,6,0,P|278:161|328:108,2,153.000002918243,2|8|2,3:2|0:2|3:2,0:0:0:0:
59,149,167458,2,0,P|67:186|74:224,1,76.5000014591217,8|0,0:2|3:2,0:0:0:0:
184,265,167781,1,0,0:0:0:0:
4,384,167942,6,0,B|101:351|101:351|152:387,1,153.000002918243,2|2,3:2|3:2,0:0:0:0:
375,336,168587,1,10,0:2:0:0:
285,204,168749,1,0,1:2:0:0:
202,311,168910,2,0,P|245:301|290:296,1,76.5000014591217,2|8,3:2|0:2,0:0:0:0:
323,116,169232,6,0,P|249:118|195:182,1,153.000002918243,6|0,3:2|0:0,0:0:0:0:
337,377,169716,2,0,B|365:360|380:318|380:318|397:355|435:372,1,153.000002918243,4|2,3:2|0:2,0:0:0:0:
434,221,170200,2,0,P|358:214|282:207,2,153.000002918243,6|0|2,3:2|0:0|0:2,0:0:0:0:
434,221,171168,1,2,3:3:0:0:
170,17,171813,6,0,B|179:42|184:80|184:80|209:98|209:98|212:129|226:159,1,153.000002918243,6|0,3:2|0:0,0:0:0:0:
42,293,172297,2,0,P|91:240|176:245,1,153.000002918243,4|0,3:2|0:0,0:0:0:0:
306,384,172781,2,0,P|242:361|141:335,1,153.000002918243,6|8,3:2|0:2,0:0:0:0:
192,254,173211,5,8,0:2:0:0:
229,253,173318,1,8,0:2:0:0:
259,271,173426,2,0,L|248:200,1,51.0000009727478,0|8,3:2|0:2,0:0:0:0:
154,134,173641,5,8,0:2:0:0:
154,134,173749,2,0,L|92:119,2,51.0000009727478,8|8|0,0:2|0:2|1:2,0:0:0:0:
235,61,174071,2,0,L|297:46,2,51.0000009727478,0|0|0,1:2|0:0|0:0,0:0:0:0:
361,189,174394,6,0,B|353:147|387:117|387:117|427:136|447:180,1,153.000002918243,6|0,3:2|0:0,0:0:0:0:
428,327,174878,2,0,B|342:339|374:376|280:385,1,153.000002918243,6|0,3:2|0:0,0:0:0:0:
219,204,175361,2,0,B|253:182|260:134|260:134|270:209|284:296,2,229.500004377365,6|4|0,3:2|3:2|0:0,0:0:0:0:
154,134,176490,1,0,1:2:0:0:
95,230,176652,1,0,3:2:0:0:
332,158,176974,5,6,3:2:0:0:
256,192,177055,12,2,179555,0:0:0:0:
46,55,189878,5,0,3:2:0:0:
87,42,190200,1,0,3:2:0:0:
128,29,190523,1,0,3:2:0:0:
169,16,190845,1,2,3:2:0:0:
297,162,191168,5,2,3:2:0:0:
255,149,191490,1,2,3:2:0:0:
214,136,191813,1,2,3:2:0:0:
173,123,192136,1,2,3:2:0:0:
42,279,192458,5,0,3:2:0:0:
83,266,192780,1,2,3:2:0:0:
124,253,193103,1,2,3:2:0:0:
164,241,193425,1,2,3:2:0:0:
271,368,193749,5,2,3:3:0:0:
164,241,194071,1,2,3:3:0:0:
341,144,194394,1,2,3:3:0:0:
264,260,194716,1,2,3:2:0:0:
79,280,195039,6,0,P|71:206|126:157,1,153.000002918243,6|0,3:2|0:0,0:0:0:0:
0,33,195523,1,8,0:2:0:0:
0,33,195684,2,0,P|8:65|21:121,1,76.5000014591217,8|8,0:2|0:2,0:0:0:0:
157,233,196007,1,10,0:2:0:0:
257,73,196168,1,10,0:2:0:0:
115,122,196329,6,0,P|179:139|271:171,1,153.000002918243,8|8,0:2|0:2,0:0:0:0:
395,67,196813,1,8,0:2:0:0:
395,67,196974,2,0,P|355:77|316:86,1,76.5000014591217,8|8,0:2|0:2,0:0:0:0:
361,256,197297,2,0,P|370:216|380:177,1,76.5000014591217,10|8,0:2|0:2,0:0:0:0:
284,0,197620,6,0,P|229:49|236:122,1,153.000002918243,14|8,0:2|0:2,0:0:0:0:
375,177,198103,1,8,0:2:0:0:
375,177,198265,2,0,P|415:168|454:159,1,76.5000014591217,8|8,0:2|0:2,0:0:0:0:
318,88,198587,1,10,0:2:0:0:
436,257,198749,1,10,0:2:0:0:
357,333,198910,6,0,P|284:308|210:287,1,153.000002918243,8|8,0:2|0:2,0:0:0:0:
58,226,199394,1,10,0:2:0:0:
99,384,199555,2,0,P|111:322|129:264,2,114.750002188683,10|2|10,0:2|0:0|0:2,0:0:0:0:
231,192,200200,6,0,P|221:153|212:114,1,76.5000014591217,14|8,0:2|0:2,0:0:0:0:
154,28,200523,1,8,0:2:0:0:
326,178,200684,2,0,P|375:130|480:137,1,153.000002918243,10|8,0:2|0:2,0:0:0:0:
500,241,201168,2,0,P|461:231|422:222,1,76.5000014591217,8|8,0:2|0:2,0:0:0:0:
335,267,201490,5,8,0:2:0:0:
335,267,201652,1,8,0:2:0:0:
418,371,201813,1,10,0:2:0:0:
418,371,201974,1,8,0:2:0:0:
224,384,202136,2,0,P|234:347|243:309,1,76.5000014591217,10|8,0:2|0:2,0:0:0:0:
335,267,202458,1,10,0:2:0:0:
335,267,202620,1,8,0:2:0:0:
143,307,202781,6,0,B|60:287|-11:266,2,153.000002918243,6|0|8,3:2|3:2|0:2,0:0:0:0:
221,185,203587,1,8,0:2:0:0:
221,185,203749,1,10,0:2:0:0:
84,128,203910,1,10,0:2:0:0:
84,128,204071,1,8,0:2:0:0:
200,12,204232,1,8,0:2:0:0:
200,12,204394,2,0,P|210:51|219:90,1,76.5000014591217,8|8,0:2|0:2,0:0:0:0:
130,217,204716,5,8,0:2:0:0:
130,217,204878,1,8,0:2:0:0:
305,82,205039,1,10,0:2:0:0:
256,192,205200,1,10,0:2:0:0:
256,192,205281,12,0,207458,0:0:0:0:
256,192,207620,12,0,209071,0:0:0:0:
2,207,209232,5,0,3:2:0:0:
29,181,209312,1,8,0:2:0:0:
66,169,209393,1,8,0:2:0:0:
103,173,209473,1,0,1:2:0:0:
146,199,209555,2,0,L|131:256,3,38.2500007295609,0|0|0|0,1:2|3:2|3:2|3:2,0:0:0:0:
135,342,209878,5,2,1:2:0:0:
172,333,209958,1,2,1:2:0:0:
204,312,210039,1,2,3:2:0:0:
222,279,210120,1,2,3:2:0:0:
248,251,210200,1,2,1:2:0:0:
283,236,210281,1,2,3:2:0:0:
320,227,210361,2,0,L|377:237,1,38.2500007295609,10|0,0:2|0:0,0:0:0:0:
512,112,210523,6,0,B|549:66|501:8|501:8|394:41|389:173|510:214,1,396.000012084961,6|2,3:2|0:2,0:0:0:0:
500,210,213103,5,12,3:2:0:0:
165,46,213265,1,12,3:2:0:0:
25,340,214232,6,0,B|132:333|88:397|210:379,1,180,6|0,0:2|0:0,0:0:0:0:
342,154,214716,2,0,P|334:202|330:244,1,90,10|0,0:2|0:0,0:0:0:0:
189,289,215039,1,10,0:2:0:0:
189,289,215120,1,2,0:0:0:0:
189,289,215200,2,0,L|180:225,1,45,2|2,0:0|0:0,0:0:0:0:
105,94,215361,5,10,0:2:0:0:
101,118,215441,1,8,0:2:0:0:
97,142,215522,1,8,0:2:0:0:
93,167,215602,1,8,0:2:0:0:
89,203,215684,6,0,P|155:159|271:182,1,180,6|8,3:2|0:2,0:0:0:0:
413,86,216168,1,2,0:2:0:0:
296,4,216329,2,0,P|306:47|314:92,1,90,2|0,3:2|0:0,0:0:0:0:
493,215,216652,2,0,P|501:170|511:127,1,90,8|0,0:2|0:0,0:0:0:0:
428,374,216974,6,0,P|362:360|298:341,1,135,2|0,3:2|0:0,0:0:0:0:
216,260,217297,2,0,P|224:215|234:172,1,90,10|0,0:2|0:0,0:0:0:0:
127,18,217620,1,2,3:2:0:0:
328,171,217781,1,0,0:0:0:0:
111,226,217942,1,10,0:2:0:0:
155,104,218104,1,0,0:0:0:0:
374,267,218265,6,0,P|418:256|462:248,1,90,2|0,3:2|0:0,0:0:0:0:
333,79,218587,1,8,0:2:0:0:
218,219,218749,1,2,0:2:0:0:
430,124,218910,2,0,P|438:79|448:36,1,90,0|0,3:2|0:0,0:0:0:0:
197,0,219233,2,0,P|208:44|216:88,1,90,8|0,0:2|0:0,0:0:0:0:
101,313,219555,5,0,3:2:0:0:
101,313,219878,2,0,P|145:324|189:332,1,90,10|0,0:2|0:0,0:0:0:0:
241,215,220200,1,2,3:2:0:0:
47,383,220362,1,8,0:2:0:0:
47,383,220442,1,8,0:2:0:0:
47,383,220523,1,10,0:2:0:0:
12,356,220603,1,8,0:2:0:0:
0,313,220684,1,8,0:2:0:0:
15,272,220764,1,8,0:2:0:0:
43,242,220845,6,0,B|61:182|78:128|78:128|61:103|42:73,1,180,6|8,3:2|0:2,0:0:0:0:
181,208,221329,1,2,0:2:0:0:
270,29,221491,2,0,P|226:40|182:48,1,90,2|0,3:2|0:0,0:0:0:0:
393,186,221813,1,10,0:2:0:0:
271,317,221974,2,0,P|288:212|307:131,1,180,2|0,0:2|0:0,0:0:0:0:
75,0,222458,6,0,P|85:43|93:87,1,90,10|8,0:2|0:2,0:0:0:0:
162,294,222781,2,0,P|170:249|180:206,1,90,2|0,3:2|0:0,0:0:0:0:
20,381,223104,2,0,P|11:336|1:292,1,90,10|0,0:2|0:0,0:0:0:0:
189,110,223426,6,0,B|297:120|237:173|369:191,1,180,2|8,3:2|0:2,0:0:0:0:
497,41,223910,1,2,0:2:0:0:
444,192,224071,2,0,P|436:147|426:104,1,90,2|0,3:2|0:0,0:0:0:0:
311,3,224394,1,10,0:2:0:0:
183,218,224555,6,0,P|103:253|22:219,1,180,2|0,0:2|0:0,0:0:0:0:
189,110,225039,2,0,P|233:118|276:128,1,90,10|0,0:2|0:0,0:0:0:0:
462,295,225361,2,0,P|450:338|442:383,1,90,2|0,3:2|0:0,0:0:0:0:
273,223,225684,2,0,P|283:266|292:311,1,90,10|0,0:2|0:0,0:0:0:0:
397,110,226007,6,0,P|343:60|278:74,1,135,2|0,3:2|0:0,0:0:0:0:
191,110,226329,2,0,P|147:99|103:91,1,90,10|0,0:2|0:0,0:0:0:0:
0,340,226652,2,0,B|37:347|72:357|72:357|103:339|97:301,1,135,2|0,3:2|0:0,0:0:0:0:
42,237,226975,2,0,P|31:193|23:149,1,90,10|0,0:2|0:0,0:0:0:0:
189,5,227297,6,0,P|264:21|285:97,1,135,2|0,3:2|0:0,0:0:0:0:
321,146,227620,2,0,P|277:157|233:165,1,90,10|0,0:2|0:0,0:0:0:0:
175,384,227942,1,2,3:2:0:0:
343,294,228104,1,0,0:0:0:0:
156,219,228265,2,0,P|145:263|137:307,1,90,10|0,0:2|0:0,0:0:0:0:
414,384,228587,6,0,P|428:309|446:236,1,135,2|0,3:2|0:0,0:0:0:0:
512,153,228910,2,0,P|468:161|403:172,1,90,10|0,0:2|0:0,0:0:0:0:
151,82,229233,1,2,3:2:0:0:
270,276,229394,1,0,0:0:0:0:
398,80,229555,1,8,0:2:0:0:
414,384,229717,5,2,1:2:0:0:
414,384,229797,1,0,1:2:0:0:
414,384,229878,1,8,0:2:0:0:
183,235,230039,1,8,0:2:0:0:
423,168,230200,1,0,1:2:0:0:
242,376,230362,1,8,0:2:0:0:
221,370,230442,1,8,0:2:0:0:
199,365,230523,1,0,1:2:0:0:
320,78,230684,5,8,0:2:0:0:
329,121,230764,1,8,0:2:0:0:
338,165,230845,1,8,0:2:0:0:
346,209,230925,1,8,0:2:0:0:
321,239,231006,1,8,0:2:0:0:
281,251,231087,1,8,0:2:0:0:
242,245,231168,6,0,P|179:227|125:219,1,114.750002188683,2|0,3:2|0:0,0:0:0:0:
36,192,231491,1,12,0:2:0:0:
207,98,231652,1,2,0:2:0:0:
0,0,231813,2,0,P|10:43|18:87,1,90,2|0,3:2|3:2,0:0:0:0:
111,307,232136,2,0,P|118:262|130:219,1,90,8|0,0:2|0:0,0:0:0:0:
217,0,232458,6,0,B|317:4|284:57|388:68,1,180,2|8,3:2|0:2,0:0:0:0:
264,231,232942,1,2,0:2:0:0:
461,196,233104,2,0,P|468:151|509:7,1,180,2|8,3:2|0:2,0:0:0:0:
231,101,233587,5,0,0:0:0:0:
231,101,233668,1,2,0:0:0:0:
231,101,233749,2,0,P|251:165|264:231,1,135,2|0,3:2|0:0,0:0:0:0:
343,314,234071,2,0,P|308:341|264:343,1,90,10|0,0:2|0:0,0:0:0:0:
36,185,234394,2,0,P|80:176|123:166,1,90,2|0,3:2|3:2,0:0:0:0:
423,36,234717,6,0,P|337:50|266:0,2,180,10|0|10,0:2|3:2|0:2,0:0:0:0:
478,269,235524,1,0,0:0:0:0:
316,153,235685,1,2,3:2:0:0:
512,34,235846,1,0,3:2:0:0:
405,165,236008,2,0,P|360:160|316:153,1,90,10|0,0:2|0:0,0:0:0:0:
119,384,236329,6,0,B|179:366|233:349|233:349|258:366|288:385,1,180,2|8,3:2|0:2,0:0:0:0:
426,284,236813,1,2,0:2:0:0:
315,152,236974,2,0,P|305:195|297:240,1,90,2|0,3:2|3:2,0:0:0:0:
119,384,237297,2,0,P|111:339|101:296,1,90,8|0,0:2|0:0,0:0:0:0:
257,4,237620,6,0,P|237:68|223:134,1,135,2|0,3:2|0:0,0:0:0:0:
144,203,237942,2,0,P|100:192|56:184,1,90,10|0,0:2|0:0,0:0:0:0:
267,95,238265,1,2,3:2:0:0:
155,288,238426,1,0,3:2:0:0:
326,383,238587,1,10,0:2:0:0:
236,223,238749,1,0,0:0:0:0:
391,110,238910,6,0,P|435:121|479:129,1,90,2|0,3:2|0:0,0:0:0:0:
313,290,239232,1,8,0:2:0:0:
495,378,239394,2,0,P|487:333|477:290,1,90,2|0,0:2|3:2,0:0:0:0:
236,223,239716,1,0,3:2:0:0:
391,110,239878,2,0,P|380:154|372:198,1,90,8|0,0:2|0:0,0:0:0:0:
217,308,240200,5,2,3:2:0:0:
217,308,240308,2,0,L|148:293,1,60,8|8,0:2|0:2,0:0:0:0:
0,159,240523,5,8,0:2:0:0:
0,159,240630,2,0,L|69:144,1,60,8|8,0:2|0:2,0:0:0:0:
37,339,240845,5,0,1:2:0:0:
37,339,240953,2,0,P|24:312|26:282,1,60,0|0,1:2|1:2,0:0:0:0:
184,122,241168,5,0,3:2:0:0:
184,122,241276,2,0,P|185:151|172:178,1,60,0|0,3:2|3:2,0:0:0:0:
280,305,241490,6,0,B|338:273|350:211|350:211|377:262|432:288,1,236.250009012223,6|0,3:2|0:0,0:0:0:0:
377,384,242136,6,0,P|360:262|338:132,1,236.250009012223,14|0,0:2|0:0,0:0:0:0:
324,72,242781,5,6,3:2:0:0:
256,192,242942,1,8,0:2:0:0:
439,215,243103,2,0,P|484:199|519:189,1,76.5000014591217,2|0,0:2|0:0,0:0:0:0:
456,40,243426,2,0,P|440:85|430:120,1,76.5000014591217,0|0,1:2|0:0,0:0:0:0:
345,220,243749,1,0,1:2:0:0:
405,314,243910,1,0,1:2:0:0:
256,192,244071,5,4,3:2:0:0:
256,192,244152,12,2,246652,0:0:0:0:
