osu file format v14

[General]
AudioFilename: Taking Wing.mp3
AudioLeadIn: 0
PreviewTime: 68691
Countdown: 0
SampleSet: Normal
StackLeniency: 0.4
Mode: 1
LetterboxInBreaks: 0
WidescreenStoryboard: 1

[Editor]
Bookmarks: 9720,24805,46748,57720,68691,90634,112577,134520,156462,178405,200348
DistanceSpacing: 0.1
BeatDivisor: 4
GridSize: 32
TimelineZoom: 2

[Metadata]
Title:Taking Wing
TitleUnicode:Taking Wing
Artist:Assertive Fluttershy
ArtistUnicode:Assertive Fluttershy
Creator:Firmatorenio
Version:Inner Poni
Source:
Tags:mlp pony rainbow dash
BeatmapID:1405657
BeatmapSetID:664153

[Difficulty]
HPDrainRate:5.4
CircleSize:4
OverallDifficulty:5.4
ApproachRate:9
SliderMultiplier:1.4
SliderTickRate:2

[Events]
//Background and Video events
0,0,"1900x1080_by_mmad04-d4gmiw9.png",0,0
//Break Periods
//Storyboard Layer 0 (Background)
//Storyboard Layer 1 (Fail)
//Storyboard Layer 2 (Pass)
//Storyboard Layer 3 (Foreground)
//Storyboard Sound Samples

[TimingPoints]
120,342.857142857143,4,1,0,70,1,0
20691,-83.3333333333333,4,1,0,70,0,0
22234,-100,4,1,0,20,0,0
24805,-133.333333333333,4,1,0,48,0,0
35777,-113.636363636364,4,1,0,48,0,0
46748,-100,4,1,0,55,0,0
57720,-96.1538461538461,4,1,0,55,0,0
60462,-92.5925925925926,4,1,0,55,0,0
63205,-89.2857142857143,4,1,0,55,0,0
64577,-86.2068965517241,4,1,0,55,0,0
65948,-83.3333333333333,4,1,0,55,0,0
66634,-80.6451612903226,4,1,0,70,0,0
67491,-66.6666666666667,4,1,0,70,0,0
68691,-80,4,1,0,80,0,1
78462,-66.6666666666667,4,1,0,80,0,1
79662,-80,4,1,0,80,0,1
89262,-80,4,1,0,70,0,0
89777,-85.4700854700855,4,1,0,70,0,0
90120,-91.743119266055,4,1,0,70,0,0
90462,-96.1538461538461,4,1,0,70,0,0
90634,-100,4,1,0,70,0,0
100234,-83.3333333333333,4,1,0,70,0,0
101605,-100,4,1,0,70,0,0
111377,-83.3333333333333,4,1,0,70,0,0
113091,-133.333333333333,4,1,0,48,0,0
134520,-100,4,1,0,55,0,0
145491,-96.1538461538461,4,1,0,55,0,0
148234,-92.5925925925926,4,1,0,55,0,0
150977,-89.2857142857143,4,1,0,55,0,0
152348,-86.2068965517241,4,1,0,55,0,0
153720,-83.3333333333333,4,1,0,55,0,0
154920,-80,4,1,0,55,0,0
155005,-76.9230769230769,4,1,0,55,0,0
155091,-74.0740740740741,4,1,0,55,0,0
155177,-71.4285714285714,4,1,0,55,0,0
155262,-68.9655172413793,4,1,0,55,0,0
155605,-66.6666666666667,4,1,0,55,0,0
156462,-80,4,1,0,80,0,1
166577,-66.6666666666667,4,1,0,80,0,1
167434,-80,4,1,0,80,0,1
177034,-80,4,1,0,70,0,0
178405,-100,4,1,0,70,0,0
188005,-83.3333333333333,4,1,0,70,0,0
189377,-100,4,1,0,70,0,0
197605,-83.3333333333333,4,1,0,70,0,0

[HitObjects]
256,192,120,5,4,0:0:0:0:
256,192,291,1,2,0:0:0:0:
256,192,634,1,2,0:0:0:0:
256,192,977,1,2,0:0:0:0:
256,192,1320,1,2,0:0:0:0:
256,192,1491,1,0,0:0:0:0:
256,192,1662,1,2,0:0:0:0:
256,192,2005,1,2,0:0:0:0:
256,192,2348,1,2,0:0:0:0:
256,192,2434,1,0,0:0:0:0:
256,192,2691,1,2,0:0:0:0:
256,192,2862,1,0,0:0:0:0:
256,192,3034,1,0,0:0:0:0:
256,192,3377,1,2,0:0:0:0:
256,192,3720,1,0,0:0:0:0:
256,192,4062,1,0,0:0:0:0:
256,192,4148,1,2,0:0:0:0:
256,192,4234,1,0,0:0:0:0:
256,192,4405,1,2,0:0:0:0:
256,192,4748,1,2,0:0:0:0:
256,192,5091,1,0,0:0:0:0:
256,192,5434,1,2,0:0:0:0:
256,192,5605,1,0,0:0:0:0:
256,192,5777,1,0,0:0:0:0:
256,192,6120,1,2,0:0:0:0:
256,192,6462,1,0,0:0:0:0:
256,192,6548,1,0,0:0:0:0:
256,192,6805,1,0,0:0:0:0:
256,192,6891,1,2,0:0:0:0:
256,192,6977,1,0,0:0:0:0:
256,192,7148,1,2,0:0:0:0:
256,192,7491,1,2,0:0:0:0:
256,192,7577,1,2,0:0:0:0:
256,192,7834,1,0,0:0:0:0:
256,192,8177,1,2,0:0:0:0:
256,192,8348,1,0,0:0:0:0:
256,192,8520,1,0,0:0:0:0:
256,192,8862,1,0,0:0:0:0:
256,192,9205,1,2,0:0:0:0:
256,192,9548,1,2,0:0:0:0:
256,192,9634,1,2,0:0:0:0:
256,192,9720,1,0,0:0:0:0:
256,192,9891,1,2,0:0:0:0:
256,192,10234,1,2,0:0:0:0:
256,192,10577,1,0,0:0:0:0:
256,192,10920,1,2,0:0:0:0:
256,192,11091,1,4,0:0:0:0:
256,192,11262,1,0,0:0:0:0:
256,192,11348,1,0,0:0:0:0:
256,192,11434,1,2,0:0:0:0:
256,192,11605,1,0,0:0:0:0:
256,192,11777,1,0,0:0:0:0:
256,192,11948,1,2,0:0:0:0:
256,192,12120,1,0,0:0:0:0:
256,192,12291,1,0,0:0:0:0:
256,192,12377,1,2,0:0:0:0:
256,192,12462,1,0,0:0:0:0:
256,192,12634,1,0,0:0:0:0:
256,192,12805,1,2,0:0:0:0:
256,192,12977,1,0,0:0:0:0:
256,192,13062,1,2,0:0:0:0:
256,192,13148,1,0,0:0:0:0:
256,192,13320,1,2,0:0:0:0:
256,192,13491,1,0,0:0:0:0:
256,192,13662,1,0,0:0:0:0:
256,192,13834,1,0,0:0:0:0:
256,192,14005,1,0,0:0:0:0:
256,192,14091,1,0,0:0:0:0:
256,192,14177,1,2,0:0:0:0:
256,192,14348,1,0,0:0:0:0:
256,192,14520,1,0,0:0:0:0:
256,192,14691,1,2,0:0:0:0:
256,192,14777,1,0,0:0:0:0:
256,192,14862,1,2,0:0:0:0:
256,192,15034,1,0,0:0:0:0:
256,192,15205,1,0,0:0:0:0:
256,192,15377,1,2,0:0:0:0:
256,192,15548,1,2,0:0:0:0:
256,192,15720,1,0,0:0:0:0:
256,192,15891,1,0,0:0:0:0:
256,192,16062,1,2,0:0:0:0:
256,192,16234,1,0,0:0:0:0:
256,192,16577,1,0,0:0:0:0:
256,192,16748,1,0,0:0:0:0:
256,192,16834,1,0,0:0:0:0:
256,192,16920,1,2,0:0:0:0:
256,192,17091,1,2,0:0:0:0:
256,192,17262,1,0,0:0:0:0:
256,192,17434,1,2,0:0:0:0:
256,192,17605,1,0,0:0:0:0:
256,192,17777,1,0,0:0:0:0:
256,192,17948,1,0,0:0:0:0:
256,192,18120,1,2,0:0:0:0:
256,192,18205,1,0,0:0:0:0:
256,192,18291,1,2,0:0:0:0:
256,192,18462,1,2,0:0:0:0:
256,192,18720,1,0,0:0:0:0:
256,192,18805,1,2,0:0:0:0:
256,192,18977,1,0,0:0:0:0:
256,192,19148,1,2,0:0:0:0:
256,192,19320,1,0,0:0:0:0:
256,192,19491,1,0,0:0:0:0:
256,192,19577,1,0,0:0:0:0:
256,192,19662,1,2,0:0:0:0:
256,192,19834,1,0,0:0:0:0:
256,192,20005,1,0,0:0:0:0:
256,192,20177,1,2,0:0:0:0:
256,192,20262,1,0,0:0:0:0:
256,192,20348,1,0,0:0:0:0:
256,192,20520,1,0,0:0:0:0:
256,192,20691,1,4,0:0:0:0:
256,192,20862,1,0,0:0:0:0:
256,192,21034,1,2,0:0:0:0:
256,192,21205,1,0,0:0:0:0:
256,192,21548,1,0,0:0:0:0:
256,192,21891,1,0,0:0:0:0:
256,192,22062,1,4,0:0:0:0:
256,192,22234,12,0,24462,0:0:0:0:
256,192,24805,5,4,0:0:0:0:
256,192,24977,1,0,0:0:0:0:
256,192,25148,1,2,0:0:0:0:
256,192,25320,1,2,0:0:0:0:
256,192,26177,1,0,0:0:0:0:
256,192,26348,1,2,0:0:0:0:
256,192,26520,1,0,0:0:0:0:
256,192,26691,1,0,0:0:0:0:
256,192,27548,1,0,0:0:0:0:
256,192,27720,1,2,0:0:0:0:
256,192,27891,1,0,0:0:0:0:
256,192,28062,1,2,0:0:0:0:
256,192,28405,1,2,0:0:0:0:
256,192,28748,1,2,0:0:0:0:
256,192,28920,1,2,0:0:0:0:
256,192,29091,1,0,0:0:0:0:
256,192,29262,1,2,0:0:0:0:
256,192,29434,1,0,0:0:0:0:
256,192,30291,1,0,0:0:0:0:
256,192,30462,1,0,0:0:0:0:
256,192,30634,1,2,0:0:0:0:
256,192,30805,1,0,0:0:0:0:
256,192,31148,1,2,0:0:0:0:
256,192,31491,1,2,0:0:0:0:
256,192,31662,1,2,0:0:0:0:
256,192,31834,1,0,0:0:0:0:
256,192,32005,1,2,0:0:0:0:
256,192,32177,1,0,0:0:0:0:
256,192,32862,1,0,0:0:0:0:
256,192,33034,1,2,0:0:0:0:
256,192,33205,1,2,0:0:0:0:
256,192,33377,1,2,0:0:0:0:
256,192,33548,1,0,0:0:0:0:
256,192,33891,1,2,0:0:0:0:
256,192,34234,1,2,0:0:0:0:
256,192,34405,1,2,0:0:0:0:
256,192,34577,1,0,0:0:0:0:
256,192,34748,1,2,0:0:0:0:
256,192,34920,1,0,0:0:0:0:
256,192,35262,1,2,0:0:0:0:
256,192,35605,1,2,0:0:0:0:
256,192,35777,1,0,0:0:0:0:
256,192,35948,1,2,0:0:0:0:
256,192,36120,1,2,0:0:0:0:
256,192,36291,1,2,0:0:0:0:
256,192,37148,1,0,0:0:0:0:
256,192,37320,1,2,0:0:0:0:
256,192,37491,1,2,0:0:0:0:
256,192,37662,1,0,0:0:0:0:
256,192,38520,1,0,0:0:0:0:
256,192,38691,1,0,0:0:0:0:
256,192,38862,1,2,0:0:0:0:
256,192,39034,1,2,0:0:0:0:
256,192,39377,1,2,0:0:0:0:
256,192,39720,1,0,0:0:0:0:
256,192,39891,1,2,0:0:0:0:
256,192,40062,1,0,0:0:0:0:
256,192,40234,1,2,0:0:0:0:
256,192,40405,1,2,0:0:0:0:
256,192,41262,1,0,0:0:0:0:
256,192,41434,1,2,0:0:0:0:
256,192,41605,1,0,0:0:0:0:
256,192,41777,1,2,0:0:0:0:
256,192,42120,1,0,0:0:0:0:
256,192,42462,1,0,0:0:0:0:
256,192,42634,1,2,0:0:0:0:
256,192,42805,1,2,0:0:0:0:
256,192,42977,1,0,0:0:0:0:
256,192,43148,1,2,0:0:0:0:
256,192,43834,1,2,0:0:0:0:
256,192,44005,1,0,0:0:0:0:
256,192,44177,1,2,0:0:0:0:
256,192,44348,1,2,0:0:0:0:
256,192,44520,1,0,0:0:0:0:
256,192,44862,1,0,0:0:0:0:
256,192,45205,1,0,0:0:0:0:
256,192,45377,1,2,0:0:0:0:
256,192,45548,1,0,0:0:0:0:
256,192,45720,1,0,0:0:0:0:
256,192,45805,1,2,0:0:0:0:
256,192,45891,1,2,0:0:0:0:
256,192,46234,1,2,0:0:0:0:
256,192,46577,1,2,0:0:0:0:
256,192,46748,1,4,0:0:0:0:
256,192,46920,1,2,0:0:0:0:
256,192,47091,1,0,0:0:0:0:
256,192,47262,1,2,0:0:0:0:
256,192,47605,1,2,0:0:0:0:
256,192,47948,1,2,0:0:0:0:
256,192,48120,1,0,0:0:0:0:
256,192,48291,1,2,0:0:0:0:
256,192,48377,1,2,0:0:0:0:
256,192,48462,1,0,0:0:0:0:
256,192,48634,1,0,0:0:0:0:
256,192,48977,1,0,0:0:0:0:
256,192,49320,1,0,0:0:0:0:
256,192,49491,1,0,0:0:0:0:
256,192,49577,1,0,0:0:0:0:
256,192,49662,1,0,0:0:0:0:
256,192,49834,1,2,0:0:0:0:
256,192,50005,1,2,0:0:0:0:
256,192,50348,1,2,0:0:0:0:
256,192,50691,1,2,0:0:0:0:
256,192,50862,1,0,0:0:0:0:
256,192,50948,1,2,0:0:0:0:
256,192,51034,1,0,0:0:0:0:
256,192,51205,1,2,0:0:0:0:
256,192,51377,1,0,0:0:0:0:
256,192,51720,1,0,0:0:0:0:
256,192,52062,1,0,0:0:0:0:
256,192,52234,1,0,0:0:0:0:
256,192,52405,1,0,0:0:0:0:
256,192,52577,1,2,0:0:0:0:
256,192,52662,1,2,0:0:0:0:
256,192,52748,1,0,0:0:0:0:
256,192,53091,1,2,0:0:0:0:
256,192,53434,1,2,0:0:0:0:
256,192,53605,1,2,0:0:0:0:
256,192,53691,1,2,0:0:0:0:
256,192,53777,1,0,0:0:0:0:
256,192,53948,1,2,0:0:0:0:
256,192,54120,1,0,0:0:0:0:
256,192,54462,1,0,0:0:0:0:
256,192,54805,1,0,0:0:0:0:
256,192,54977,1,2,0:0:0:0:
256,192,55148,1,2,0:0:0:0:
256,192,55320,1,0,0:0:0:0:
256,192,55405,1,2,0:0:0:0:
256,192,55491,1,0,0:0:0:0:
256,192,55834,1,2,0:0:0:0:
256,192,56177,1,2,0:0:0:0:
256,192,56348,1,2,0:0:0:0:
256,192,56434,1,2,0:0:0:0:
256,192,56520,1,0,0:0:0:0:
256,192,56691,1,2,0:0:0:0:
256,192,56777,1,2,0:0:0:0:
256,192,56862,1,0,0:0:0:0:
256,192,57205,1,0,0:0:0:0:
256,192,57548,1,2,0:0:0:0:
256,192,57720,1,4,0:0:0:0:
256,192,57891,1,0,0:0:0:0:
256,192,58062,1,2,0:0:0:0:
256,192,58405,1,2,0:0:0:0:
256,192,58577,1,0,0:0:0:0:
256,192,58748,1,0,0:0:0:0:
256,192,58920,1,0,0:0:0:0:
256,192,59005,1,0,0:0:0:0:
256,192,59091,1,2,0:0:0:0:
256,192,59262,1,0,0:0:0:0:
256,192,59434,1,0,0:0:0:0:
256,192,59777,1,2,0:0:0:0:
256,192,59948,1,0,0:0:0:0:
256,192,60120,1,0,0:0:0:0:
256,192,60291,1,0,0:0:0:0:
256,192,60377,1,2,0:0:0:0:
256,192,60462,1,2,0:0:0:0:
256,192,60634,1,0,0:0:0:0:
256,192,60805,1,2,0:0:0:0:
256,192,61148,1,2,0:0:0:0:
256,192,61320,1,0,0:0:0:0:
256,192,61491,1,2,0:0:0:0:
256,192,61662,1,0,0:0:0:0:
256,192,61748,1,0,0:0:0:0:
256,192,61834,1,2,0:0:0:0:
256,192,62005,1,0,0:0:0:0:
256,192,62177,1,0,0:0:0:0:
256,192,62520,1,2,0:0:0:0:
256,192,62691,1,0,0:0:0:0:
256,192,62862,1,0,0:0:0:0:
256,192,63034,1,2,0:0:0:0:
256,192,63120,1,2,0:0:0:0:
256,192,63205,1,0,0:0:0:0:
256,192,63377,1,2,0:0:0:0:
256,192,63548,1,0,0:0:0:0:
256,192,63720,1,2,0:0:0:0:
256,192,64062,1,0,0:0:0:0:
256,192,64405,1,0,0:0:0:0:
256,192,64491,1,0,0:0:0:0:
256,192,64577,1,2,0:0:0:0:
256,192,64748,1,2,0:0:0:0:
256,192,64920,1,2,0:0:0:0:
256,192,65091,1,0,0:0:0:0:
256,192,65262,1,2,0:0:0:0:
256,192,65434,1,0,0:0:0:0:
256,192,65605,1,0,0:0:0:0:
256,192,65777,1,2,0:0:0:0:
256,192,65862,1,2,0:0:0:0:
256,192,65948,1,0,0:0:0:0:
256,192,66120,1,0,0:0:0:0:
256,192,66291,1,2,0:0:0:0:
256,192,66377,1,0,0:0:0:0:
256,192,66462,1,2,0:0:0:0:
256,192,66634,1,0,0:0:0:0:
256,192,66805,1,0,0:0:0:0:
256,192,66977,1,2,0:0:0:0:
256,192,67062,1,0,0:0:0:0:
256,192,67148,1,2,0:0:0:0:
256,192,67234,1,0,0:0:0:0:
256,192,67320,1,2,0:0:0:0:
256,192,67491,1,0,0:0:0:0:
256,192,67834,1,2,0:0:0:0:
256,192,68177,1,2,0:0:0:0:
256,192,68520,1,2,0:0:0:0:
256,192,68691,1,4,0:0:0:0:
256,192,68862,1,0,0:0:0:0:
256,192,69034,1,0,0:0:0:0:
256,192,69205,1,2,0:0:0:0:
256,192,69377,1,2,0:0:0:0:
256,192,69548,1,0,0:0:0:0:
256,192,69720,1,0,0:0:0:0:
256,192,69891,1,0,0:0:0:0:
256,192,69977,1,0,0:0:0:0:
256,192,70062,1,2,0:0:0:0:
256,192,70234,1,0,0:0:0:0:
256,192,70405,1,0,0:0:0:0:
256,192,70577,1,2,0:0:0:0:
256,192,70748,1,2,0:0:0:0:
256,192,70920,1,0,0:0:0:0:
256,192,71091,1,0,0:0:0:0:
256,192,71262,1,0,0:0:0:0:
256,192,71348,1,2,0:0:0:0:
256,192,71434,1,0,0:0:0:0:
256,192,71605,1,0,0:0:0:0:
256,192,71777,1,0,0:0:0:0:
256,192,71948,1,2,0:0:0:0:
256,192,72120,1,2,0:0:0:0:
256,192,72291,1,0,0:0:0:0:
256,192,72462,1,0,0:0:0:0:
256,192,72634,1,0,0:0:0:0:
256,192,72720,1,2,0:0:0:0:
256,192,72805,1,2,0:0:0:0:
256,192,72977,1,0,0:0:0:0:
256,192,73148,1,0,0:0:0:0:
256,192,73320,1,2,0:0:0:0:
256,192,73491,1,2,0:0:0:0:
256,192,73662,1,0,0:0:0:0:
256,192,73834,1,0,0:0:0:0:
256,192,74005,1,2,0:0:0:0:
256,192,74091,1,2,0:0:0:0:
256,192,74177,1,0,0:0:0:0:
256,192,74348,1,0,0:0:0:0:
256,192,74520,1,0,0:0:0:0:
256,192,74691,1,2,0:0:0:0:
256,192,74862,1,2,0:0:0:0:
256,192,75034,1,0,0:0:0:0:
256,192,75205,1,0,0:0:0:0:
256,192,75377,1,2,0:0:0:0:
256,192,75462,1,0,0:0:0:0:
256,192,75548,1,2,0:0:0:0:
256,192,75720,1,0,0:0:0:0:
256,192,75891,1,0,0:0:0:0:
256,192,76062,1,2,0:0:0:0:
256,192,76234,1,2,0:0:0:0:
256,192,76405,1,0,0:0:0:0:
256,192,76577,1,0,0:0:0:0:
256,192,76748,1,0,0:0:0:0:
256,192,76834,1,2,0:0:0:0:
256,192,76920,1,0,0:0:0:0:
256,192,77091,1,0,0:0:0:0:
256,192,77262,1,0,0:0:0:0:
256,192,77434,1,2,0:0:0:0:
256,192,77605,1,2,0:0:0:0:
256,192,77777,1,0,0:0:0:0:
256,192,77948,1,0,0:0:0:0:
256,192,78120,1,0,0:0:0:0:
256,192,78205,1,0,0:0:0:0:
256,192,78291,1,2,0:0:0:0:
256,192,78462,1,0,0:0:0:0:
256,192,78805,1,2,0:0:0:0:
256,192,79148,1,2,0:0:0:0:
256,192,79491,1,2,0:0:0:0:
256,192,79662,1,4,0:0:0:0:
256,192,79834,1,2,0:0:0:0:
256,192,80005,1,0,0:0:0:0:
256,192,80177,1,2,0:0:0:0:
256,192,80348,1,2,0:0:0:0:
256,192,80520,1,2,0:0:0:0:
256,192,80691,1,0,0:0:0:0:
256,192,80862,1,0,0:0:0:0:
256,192,80948,1,0,0:0:0:0:
256,192,81034,1,2,0:0:0:0:
256,192,81120,1,0,0:0:0:0:
256,192,81205,1,2,0:0:0:0:
256,192,81377,1,0,0:0:0:0:
256,192,81548,1,2,0:0:0:0:
256,192,81634,1,0,0:0:0:0:
256,192,81720,1,2,0:0:0:0:
256,192,81891,1,0,0:0:0:0:
256,192,82062,1,2,0:0:0:0:
256,192,82234,1,0,0:0:0:0:
256,192,82320,1,2,0:0:0:0:
256,192,82405,1,2,0:0:0:0:
256,192,82577,1,0,0:0:0:0:
256,192,82748,1,2,0:0:0:0:
256,192,82920,1,0,0:0:0:0:
256,192,83005,1,2,0:0:0:0:
256,192,83091,1,2,0:0:0:0:
256,192,83262,1,0,0:0:0:0:
256,192,83434,1,2,0:0:0:0:
256,192,83605,1,0,0:0:0:0:
256,192,83691,1,0,0:0:0:0:
256,192,83777,1,2,0:0:0:0:
256,192,83862,1,2,0:0:0:0:
256,192,83948,1,0,0:0:0:0:
256,192,84120,1,0,0:0:0:0:
256,192,84205,1,0,0:0:0:0:
256,192,84291,1,2,0:0:0:0:
256,192,84377,1,0,0:0:0:0:
256,192,84462,1,2,0:0:0:0:
256,192,84634,1,0,0:0:0:0:
256,192,84720,1,0,0:0:0:0:
256,192,84805,1,2,0:0:0:0:
256,192,84891,1,0,0:0:0:0:
256,192,84977,1,2,0:0:0:0:
256,192,85062,1,2,0:0:0:0:
256,192,85148,1,0,0:0:0:0:
256,192,85320,1,0,0:0:0:0:
256,192,85491,1,2,0:0:0:0:
256,192,85662,1,2,0:0:0:0:
256,192,85748,1,2,0:0:0:0:
256,192,85834,1,0,0:0:0:0:
256,192,86005,1,0,0:0:0:0:
256,192,86177,1,2,0:0:0:0:
256,192,86348,1,0,0:0:0:0:
256,192,86434,1,0,0:0:0:0:
256,192,86520,1,2,0:0:0:0:
256,192,86691,1,0,0:0:0:0:
256,192,86862,1,2,0:0:0:0:
256,192,87034,1,2,0:0:0:0:
256,192,87120,1,0,0:0:0:0:
256,192,87205,1,2,0:0:0:0:
256,192,87377,1,0,0:0:0:0:
256,192,87548,1,2,0:0:0:0:
256,192,87720,1,2,0:0:0:0:
256,192,87805,1,0,0:0:0:0:
256,192,87891,1,2,0:0:0:0:
256,192,87977,1,2,0:0:0:0:
256,192,88062,1,0,0:0:0:0:
256,192,88234,1,0,0:0:0:0:
256,192,88405,1,2,0:0:0:0:
256,192,88491,1,2,0:0:0:0:
256,192,88577,1,2,0:0:0:0:
256,192,88748,1,0,0:0:0:0:
256,192,88920,1,2,0:0:0:0:
256,192,89091,1,0,0:0:0:0:
256,192,89177,1,0,0:0:0:0:
256,192,89262,1,2,0:0:0:0:
256,192,89348,1,2,0:0:0:0:
256,192,89434,1,0,0:0:0:0:
256,192,89777,1,2,0:0:0:0:
256,192,90120,1,0,0:0:0:0:
256,192,90462,1,0,0:0:0:0:
256,192,90634,1,6,0:0:0:0:
256,192,90805,1,0,0:0:0:0:
256,192,90977,1,2,0:0:0:0:
256,192,91148,1,0,0:0:0:0:
256,192,91320,1,0,0:0:0:0:
256,192,91491,1,2,0:0:0:0:
256,192,91662,1,0,0:0:0:0:
256,192,91834,1,0,0:0:0:0:
256,192,92005,1,0,0:0:0:0:
256,192,92177,1,2,0:0:0:0:
256,192,92348,1,2,0:0:0:0:
256,192,92520,1,0,0:0:0:0:
256,192,92691,1,2,0:0:0:0:
256,192,92862,1,0,0:0:0:0:
256,192,93034,1,2,0:0:0:0:
256,192,93205,1,2,0:0:0:0:
256,192,93377,1,2,0:0:0:0:
256,192,93548,1,0,0:0:0:0:
256,192,93720,1,2,0:0:0:0:
256,192,93891,1,2,0:0:0:0:
256,192,94062,1,2,0:0:0:0:
256,192,94234,1,0,0:0:0:0:
256,192,94405,1,2,0:0:0:0:
256,192,94577,1,0,0:0:0:0:
256,192,94748,1,2,0:0:0:0:
256,192,94920,1,0,0:0:0:0:
256,192,95091,1,2,0:0:0:0:
256,192,95262,1,2,0:0:0:0:
256,192,95434,1,0,0:0:0:0:
256,192,95605,1,0,0:0:0:0:
256,192,95777,1,2,0:0:0:0:
256,192,95948,1,0,0:0:0:0:
256,192,96120,1,0,0:0:0:0:
256,192,96291,1,0,0:0:0:0:
256,192,96462,1,2,0:0:0:0:
256,192,96634,1,0,0:0:0:0:
256,192,96805,1,0,0:0:0:0:
256,192,96977,1,0,0:0:0:0:
256,192,97062,1,0,0:0:0:0:
256,192,97148,1,2,0:0:0:0:
256,192,97320,1,2,0:0:0:0:
256,192,97491,1,0,0:0:0:0:
256,192,97662,1,0,0:0:0:0:
256,192,97834,1,2,0:0:0:0:
256,192,98005,1,0,0:0:0:0:
256,192,98177,1,2,0:0:0:0:
256,192,98348,1,0,0:0:0:0:
256,192,98434,1,0,0:0:0:0:
256,192,98520,1,2,0:0:0:0:
256,192,98691,1,0,0:0:0:0:
256,192,98862,1,2,0:0:0:0:
256,192,99034,1,0,0:0:0:0:
256,192,99120,1,2,0:0:0:0:
256,192,99205,1,0,0:0:0:0:
256,192,99377,1,2,0:0:0:0:
256,192,99548,1,0,0:0:0:0:
256,192,99720,1,0,0:0:0:0:
256,192,99805,1,0,0:0:0:0:
256,192,99891,1,2,0:0:0:0:
256,192,100062,1,0,0:0:0:0:
256,192,100234,1,6,0:0:0:0:
256,192,100405,1,2,0:0:0:0:
256,192,100748,1,2,0:0:0:0:
256,192,100920,1,6,0:0:0:0:
256,192,101091,1,2,0:0:0:0:
256,192,101434,1,2,0:0:0:0:
256,192,101605,1,6,0:0:0:0:
256,192,101777,1,0,0:0:0:0:
256,192,101948,1,2,0:0:0:0:
256,192,102120,1,0,0:0:0:0:
256,192,102291,1,0,0:0:0:0:
256,192,102462,1,0,0:0:0:0:
256,192,102548,1,0,0:0:0:0:
256,192,102634,1,2,0:0:0:0:
256,192,102805,1,2,0:0:0:0:
256,192,102977,1,0,0:0:0:0:
256,192,103148,1,0,0:0:0:0:
256,192,103320,1,2,0:0:0:0:
256,192,103491,1,0,0:0:0:0:
256,192,103577,1,0,0:0:0:0:
256,192,103662,1,2,0:0:0:0:
256,192,103834,1,0,0:0:0:0:
256,192,103920,1,0,0:0:0:0:
256,192,104005,1,2,0:0:0:0:
256,192,104177,1,2,0:0:0:0:
256,192,104348,1,2,0:0:0:0:
256,192,104520,1,2,0:0:0:0:
256,192,104605,1,2,0:0:0:0:
256,192,104691,1,0,0:0:0:0:
256,192,104862,1,2,0:0:0:0:
256,192,105034,1,0,0:0:0:0:
256,192,105205,1,2,0:0:0:0:
256,192,105291,1,0,0:0:0:0:
256,192,105377,1,0,0:0:0:0:
256,192,105548,1,0,0:0:0:0:
256,192,105634,1,0,0:0:0:0:
256,192,105720,1,2,0:0:0:0:
256,192,105891,1,0,0:0:0:0:
256,192,106062,1,2,0:0:0:0:
256,192,106234,1,2,0:0:0:0:
256,192,106320,1,2,0:0:0:0:
256,192,106405,1,0,0:0:0:0:
256,192,106577,1,2,0:0:0:0:
256,192,106662,1,0,0:0:0:0:
256,192,106748,1,2,0:0:0:0:
256,192,106920,1,0,0:0:0:0:
256,192,107091,1,0,0:0:0:0:
256,192,107262,1,0,0:0:0:0:
256,192,107348,1,0,0:0:0:0:
256,192,107434,1,2,0:0:0:0:
256,192,107605,1,2,0:0:0:0:
256,192,107777,1,0,0:0:0:0:
256,192,107948,1,0,0:0:0:0:
256,192,108120,1,2,0:0:0:0:
256,192,108291,1,2,0:0:0:0:
256,192,108377,1,2,0:0:0:0:
256,192,108462,1,0,0:0:0:0:
256,192,108634,1,0,0:0:0:0:
256,192,108720,1,0,0:0:0:0:
256,192,108805,1,2,0:0:0:0:
256,192,108977,1,0,0:0:0:0:
256,192,109148,1,2,0:0:0:0:
256,192,109320,1,0,0:0:0:0:
256,192,109491,1,2,0:0:0:0:
256,192,109662,1,0,0:0:0:0:
256,192,109748,1,0,0:0:0:0:
256,192,109834,1,2,0:0:0:0:
256,192,110005,1,0,0:0:0:0:
256,192,110177,1,2,0:0:0:0:
256,192,110348,1,2,0:0:0:0:
256,192,110520,1,0,0:0:0:0:
256,192,110691,1,0,0:0:0:0:
256,192,110777,1,0,0:0:0:0:
256,192,110862,1,2,0:0:0:0:
256,192,111034,1,0,0:0:0:0:
256,192,111205,1,6,0:0:0:0:
256,192,111377,1,2,0:0:0:0:
256,192,111720,1,2,0:0:0:0:
256,192,112062,1,2,0:0:0:0:
256,192,112405,1,2,0:0:0:0:
256,192,112577,1,6,0:0:0:0:
256,192,113091,1,2,0:0:0:0:
256,192,113605,1,0,0:0:0:0:
256,192,115320,1,2,0:0:0:0:
256,192,115834,1,0,0:0:0:0:
256,192,116348,1,2,0:0:0:0:
256,192,118062,1,2,0:0:0:0:
256,192,118577,1,2,0:0:0:0:
256,192,119091,1,0,0:0:0:0:
256,192,119605,1,2,0:0:0:0:
256,192,119948,1,2,0:0:0:0:
256,192,120291,1,2,0:0:0:0:
256,192,120634,1,2,0:0:0:0:
256,192,120805,1,0,0:0:0:0:
256,192,121320,1,2,0:0:0:0:
256,192,121834,1,0,0:0:0:0:
256,192,122348,1,2,0:0:0:0:
256,192,122691,1,2,0:0:0:0:
256,192,123034,1,2,0:0:0:0:
256,192,123120,1,0,0:0:0:0:
256,192,123377,1,2,0:0:0:0:
256,192,123548,1,2,0:0:0:0:
256,192,124062,1,0,0:0:0:0:
256,192,124577,1,0,0:0:0:0:
256,192,125091,1,2,0:0:0:0:
256,192,125434,1,2,0:0:0:0:
256,192,125777,1,0,0:0:0:0:
256,192,125862,1,2,0:0:0:0:
256,192,126120,1,2,0:0:0:0:
256,192,126291,1,2,0:0:0:0:
256,192,126805,1,0,0:0:0:0:
256,192,127320,1,2,0:0:0:0:
256,192,127834,1,2,0:0:0:0:
256,192,128177,1,2,0:0:0:0:
256,192,128262,1,0,0:0:0:0:
256,192,128520,1,2,0:0:0:0:
256,192,128862,1,2,0:0:0:0:
256,192,128948,1,2,0:0:0:0:
256,192,129034,1,0,0:0:0:0:
256,192,129548,1,2,0:0:0:0:
256,192,130062,1,0,0:0:0:0:
256,192,130577,1,2,0:0:0:0:
256,192,130920,1,2,0:0:0:0:
256,192,131005,1,2,0:0:0:0:
256,192,131262,1,0,0:0:0:0:
256,192,131348,1,2,0:0:0:0:
256,192,131605,1,2,0:0:0:0:
256,192,131691,1,2,0:0:0:0:
256,192,131777,1,0,0:0:0:0:
256,192,132291,1,2,0:0:0:0:
256,192,132805,1,0,0:0:0:0:
256,192,133148,1,0,0:0:0:0:
256,192,133491,1,2,0:0:0:0:
256,192,133662,1,0,0:0:0:0:
256,192,133748,1,2,0:0:0:0:
256,192,133834,1,0,0:0:0:0:
256,192,134005,1,0,0:0:0:0:
256,192,134177,1,2,0:0:0:0:
256,192,134520,1,6,0:0:0:0:
256,192,134691,1,0,0:0:0:0:
256,192,134862,1,2,0:0:0:0:
256,192,135034,1,0,0:0:0:0:
256,192,135377,1,2,0:0:0:0:
256,192,135548,1,0,0:0:0:0:
256,192,135891,1,0,0:0:0:0:
256,192,136234,1,2,0:0:0:0:
256,192,136577,1,0,0:0:0:0:
256,192,136662,1,2,0:0:0:0:
256,192,136748,1,2,0:0:0:0:
256,192,136920,1,0,0:0:0:0:
256,192,137262,1,2,0:0:0:0:
256,192,137434,1,0,0:0:0:0:
256,192,137605,1,2,0:0:0:0:
256,192,137777,1,0,0:0:0:0:
256,192,138120,1,0,0:0:0:0:
256,192,138291,1,2,0:0:0:0:
256,192,138634,1,0,0:0:0:0:
256,192,138977,1,2,0:0:0:0:
256,192,139320,1,0,0:0:0:0:
256,192,139491,1,2,0:0:0:0:
256,192,139662,1,0,0:0:0:0:
256,192,140005,1,2,0:0:0:0:
256,192,140177,1,2,0:0:0:0:
256,192,140348,1,2,0:0:0:0:
256,192,140520,1,0,0:0:0:0:
256,192,140862,1,2,0:0:0:0:
256,192,141034,1,0,0:0:0:0:
256,192,141377,1,0,0:0:0:0:
256,192,141720,1,2,0:0:0:0:
256,192,142062,1,0,0:0:0:0:
256,192,142148,1,2,0:0:0:0:
256,192,142234,1,0,0:0:0:0:
256,192,142320,1,0,0:0:0:0:
256,192,142405,1,2,0:0:0:0:
256,192,142748,1,2,0:0:0:0:
256,192,142920,1,0,0:0:0:0:
256,192,143091,1,0,0:0:0:0:
256,192,143262,1,2,0:0:0:0:
256,192,143605,1,2,0:0:0:0:
256,192,143777,1,0,0:0:0:0:
256,192,144120,1,2,0:0:0:0:
256,192,144291,1,0,0:0:0:0:
256,192,144462,1,2,0:0:0:0:
256,192,144805,1,0,0:0:0:0:
256,192,144891,1,2,0:0:0:0:
256,192,144977,1,2,0:0:0:0:
256,192,145062,1,2,0:0:0:0:
256,192,145148,1,0,0:0:0:0:
256,192,145491,1,4,0:0:0:0:
256,192,145662,1,0,0:0:0:0:
256,192,145834,1,2,0:0:0:0:
256,192,146005,1,0,0:0:0:0:
256,192,146177,1,2,0:0:0:0:
256,192,146348,1,0,0:0:0:0:
256,192,146520,1,0,0:0:0:0:
256,192,146691,1,2,0:0:0:0:
256,192,146862,1,0,0:0:0:0:
256,192,147034,1,2,0:0:0:0:
256,192,147205,1,0,0:0:0:0:
256,192,147377,1,2,0:0:0:0:
256,192,147548,1,0,0:0:0:0:
256,192,147720,1,0,0:0:0:0:
256,192,147891,1,2,0:0:0:0:
256,192,147977,1,2,0:0:0:0:
256,192,148062,1,0,0:0:0:0:
256,192,148234,1,6,0:0:0:0:
256,192,148405,1,0,0:0:0:0:
256,192,148577,1,2,0:0:0:0:
256,192,148748,1,0,0:0:0:0:
256,192,148920,1,2,0:0:0:0:
256,192,149091,1,0,0:0:0:0:
256,192,149262,1,0,0:0:0:0:
256,192,149434,1,0,0:0:0:0:
256,192,149605,1,2,0:0:0:0:
256,192,149777,1,0,0:0:0:0:
256,192,149948,1,2,0:0:0:0:
256,192,150120,1,0,0:0:0:0:
256,192,150291,1,2,0:0:0:0:
256,192,150462,1,2,0:0:0:0:
256,192,150634,1,2,0:0:0:0:
256,192,150720,1,2,0:0:0:0:
256,192,150805,1,0,0:0:0:0:
256,192,150977,1,6,0:0:0:0:
256,192,151148,1,0,0:0:0:0:
256,192,151320,1,2,0:0:0:0:
256,192,151491,1,0,0:0:0:0:
256,192,151662,1,2,0:0:0:0:
256,192,151834,1,2,0:0:0:0:
256,192,152005,1,0,0:0:0:0:
256,192,152177,1,2,0:0:0:0:
256,192,152348,1,4,0:0:0:0:
256,192,152520,1,0,0:0:0:0:
256,192,152691,1,2,0:0:0:0:
256,192,152862,1,0,0:0:0:0:
256,192,153034,1,0,0:0:0:0:
256,192,153120,1,2,0:0:0:0:
256,192,153205,1,0,0:0:0:0:
256,192,153291,1,0,0:0:0:0:
256,192,153377,1,2,0:0:0:0:
256,192,153548,1,0,0:0:0:0:
256,192,153720,1,6,0:0:0:0:
256,192,153891,1,0,0:0:0:0:
256,192,154062,1,2,0:0:0:0:
256,192,154234,1,2,0:0:0:0:
256,192,154320,1,0,0:0:0:0:
256,192,154405,1,2,0:0:0:0:
256,192,154491,1,2,0:0:0:0:
256,192,154577,1,0,0:0:0:0:
256,192,154748,1,2,0:0:0:0:
256,192,154920,1,2,0:0:0:0:
256,192,155005,1,0,0:0:0:0:
256,192,155091,1,2,0:0:0:0:
256,192,155177,1,2,0:0:0:0:
256,192,155262,1,0,0:0:0:0:
256,192,155605,1,2,0:0:0:0:
256,192,155948,1,2,0:0:0:0:
256,192,156291,1,2,0:0:0:0:
256,192,156462,1,4,0:0:0:0:
256,192,156634,1,0,0:0:0:0:
256,192,156805,1,2,0:0:0:0:
256,192,156977,1,2,0:0:0:0:
256,192,157148,1,2,0:0:0:0:
256,192,157234,1,2,0:0:0:0:
256,192,157320,1,0,0:0:0:0:
256,192,157405,1,0,0:0:0:0:
256,192,157491,1,2,0:0:0:0:
256,192,157577,1,2,0:0:0:0:
256,192,157662,1,0,0:0:0:0:
256,192,157834,1,2,0:0:0:0:
256,192,158005,1,2,0:0:0:0:
256,192,158177,1,0,0:0:0:0:
256,192,158348,1,2,0:0:0:0:
256,192,158520,1,0,0:0:0:0:
256,192,158691,1,2,0:0:0:0:
256,192,158862,1,2,0:0:0:0:
256,192,158948,1,2,0:0:0:0:
256,192,159034,1,0,0:0:0:0:
256,192,159205,1,0,0:0:0:0:
256,192,159377,1,0,0:0:0:0:
256,192,159462,1,0,0:0:0:0:
256,192,159548,1,2,0:0:0:0:
256,192,159720,1,0,0:0:0:0:
256,192,159805,1,2,0:0:0:0:
256,192,159891,1,2,0:0:0:0:
256,192,160062,1,0,0:0:0:0:
256,192,160234,1,2,0:0:0:0:
256,192,160405,1,0,0:0:0:0:
256,192,160577,1,2,0:0:0:0:
256,192,160748,1,0,0:0:0:0:
256,192,160834,1,2,0:0:0:0:
256,192,160920,1,0,0:0:0:0:
256,192,161091,1,2,0:0:0:0:
256,192,161177,1,0,0:0:0:0:
256,192,161262,1,2,0:0:0:0:
256,192,161434,1,2,0:0:0:0:
256,192,161605,1,2,0:0:0:0:
256,192,161691,1,2,0:0:0:0:
256,192,161777,1,0,0:0:0:0:
256,192,161948,1,2,0:0:0:0:
256,192,162120,1,0,0:0:0:0:
256,192,162291,1,2,0:0:0:0:
256,192,162462,1,0,0:0:0:0:
256,192,162548,1,0,0:0:0:0:
256,192,162634,1,2,0:0:0:0:
256,192,162805,1,2,0:0:0:0:
256,192,162891,1,2,0:0:0:0:
256,192,162977,1,0,0:0:0:0:
256,192,163148,1,2,0:0:0:0:
256,192,163320,1,0,0:0:0:0:
256,192,163491,1,0,0:0:0:0:
256,192,163662,1,2,0:0:0:0:
256,192,163834,1,0,0:0:0:0:
256,192,164005,1,0,0:0:0:0:
256,192,164091,1,2,0:0:0:0:
256,192,164177,1,0,0:0:0:0:
256,192,164262,1,0,0:0:0:0:
256,192,164348,1,2,0:0:0:0:
256,192,164520,1,0,0:0:0:0:
256,192,164691,1,2,0:0:0:0:
256,192,164862,1,0,0:0:0:0:
256,192,164948,1,2,0:0:0:0:
256,192,165034,1,0,0:0:0:0:
256,192,165205,1,2,0:0:0:0:
256,192,165291,1,0,0:0:0:0:
256,192,165377,1,2,0:0:0:0:
256,192,165462,1,2,0:0:0:0:
256,192,165548,1,0,0:0:0:0:
256,192,165634,1,2,0:0:0:0:
256,192,165720,1,0,0:0:0:0:
256,192,165891,1,2,0:0:0:0:
256,192,165977,1,0,0:0:0:0:
256,192,166062,1,2,0:0:0:0:
256,192,166148,1,2,0:0:0:0:
256,192,166234,1,0,0:0:0:0:
256,192,166577,1,2,0:0:0:0:
256,192,166920,1,2,0:0:0:0:
256,192,167262,1,2,0:0:0:0:
256,192,167434,1,4,0:0:0:0:
256,192,167605,1,0,0:0:0:0:
256,192,167691,1,0,0:0:0:0:
256,192,167777,1,2,0:0:0:0:
256,192,167948,1,0,0:0:0:0:
256,192,168120,1,2,0:0:0:0:
256,192,168205,1,2,0:0:0:0:
256,192,168291,1,0,0:0:0:0:
256,192,168377,1,0,0:0:0:0:
256,192,168462,1,2,0:0:0:0:
256,192,168548,1,2,0:0:0:0:
256,192,168634,1,0,0:0:0:0:
256,192,168805,1,0,0:0:0:0:
256,192,168977,1,2,0:0:0:0:
256,192,169148,1,0,0:0:0:0:
256,192,169234,1,0,0:0:0:0:
256,192,169320,1,2,0:0:0:0:
256,192,169491,1,0,0:0:0:0:
256,192,169662,1,2,0:0:0:0:
256,192,169834,1,2,0:0:0:0:
256,192,169920,1,2,0:0:0:0:
256,192,170005,1,0,0:0:0:0:
256,192,170177,1,0,0:0:0:0:
256,192,170348,1,0,0:0:0:0:
256,192,170520,1,2,0:0:0:0:
256,192,170691,1,0,0:0:0:0:
256,192,170777,1,0,0:0:0:0:
256,192,170862,1,2,0:0:0:0:
256,192,171034,1,0,0:0:0:0:
256,192,171205,1,2,0:0:0:0:
256,192,171377,1,0,0:0:0:0:
256,192,171462,1,0,0:0:0:0:
256,192,171548,1,2,0:0:0:0:
256,192,171720,1,0,0:0:0:0:
256,192,171805,1,2,0:0:0:0:
256,192,171891,1,0,0:0:0:0:
256,192,172062,1,2,0:0:0:0:
256,192,172148,1,0,0:0:0:0:
256,192,172234,1,2,0:0:0:0:
256,192,172405,1,2,0:0:0:0:
256,192,172577,1,2,0:0:0:0:
256,192,172662,1,0,0:0:0:0:
256,192,172748,1,0,0:0:0:0:
256,192,172920,1,0,0:0:0:0:
256,192,173091,1,0,0:0:0:0:
256,192,173177,1,0,0:0:0:0:
256,192,173262,1,2,0:0:0:0:
256,192,173434,1,0,0:0:0:0:
256,192,173520,1,2,0:0:0:0:
256,192,173605,1,2,0:0:0:0:
256,192,173777,1,2,0:0:0:0:
256,192,173862,1,2,0:0:0:0:
256,192,173948,1,0,0:0:0:0:
256,192,174120,1,2,0:0:0:0:
256,192,174291,1,0,0:0:0:0:
256,192,174462,1,0,0:0:0:0:
256,192,174634,1,2,0:0:0:0:
256,192,174805,1,0,0:0:0:0:
256,192,174977,1,0,0:0:0:0:
256,192,175062,1,2,0:0:0:0:
256,192,175148,1,0,0:0:0:0:
256,192,175234,1,0,0:0:0:0:
256,192,175320,1,2,0:0:0:0:
256,192,175491,1,0,0:0:0:0:
256,192,175662,1,2,0:0:0:0:
256,192,175834,1,0,0:0:0:0:
256,192,175920,1,0,0:0:0:0:
256,192,176005,1,2,0:0:0:0:
256,192,176177,1,2,0:0:0:0:
256,192,176262,1,0,0:0:0:0:
256,192,176348,1,2,0:0:0:0:
256,192,176434,1,2,0:0:0:0:
256,192,176520,1,0,0:0:0:0:
256,192,176605,1,2,0:0:0:0:
256,192,176691,1,0,0:0:0:0:
256,192,176862,1,2,0:0:0:0:
256,192,176948,1,0,0:0:0:0:
256,192,177034,1,2,0:0:0:0:
256,192,177120,1,2,0:0:0:0:
256,192,177205,1,0,0:0:0:0:
256,192,177291,1,0,0:0:0:0:
256,192,177377,1,2,0:0:0:0:
256,192,177548,1,2,0:0:0:0:
256,192,177634,1,2,0:0:0:0:
256,192,177720,1,2,0:0:0:0:
256,192,177805,1,2,0:0:0:0:
256,192,177891,1,0,0:0:0:0:
256,192,177977,1,0,0:0:0:0:
256,192,178062,1,2,0:0:0:0:
256,192,178405,1,6,0:0:0:0:
256,192,178577,1,2,0:0:0:0:
256,192,178748,1,0,0:0:0:0:
256,192,178920,1,2,0:0:0:0:
256,192,179091,1,0,0:0:0:0:
256,192,179262,1,0,0:0:0:0:
256,192,179434,1,2,0:0:0:0:
256,192,179605,1,2,0:0:0:0:
256,192,179777,1,0,0:0:0:0:
256,192,179948,1,2,0:0:0:0:
256,192,180120,1,0,0:0:0:0:
256,192,180291,1,2,0:0:0:0:
256,192,180462,1,0,0:0:0:0:
256,192,180634,1,0,0:0:0:0:
256,192,180805,1,2,0:0:0:0:
256,192,180977,1,0,0:0:0:0:
256,192,181148,1,2,0:0:0:0:
256,192,181320,1,2,0:0:0:0:
256,192,181491,1,0,0:0:0:0:
256,192,181662,1,2,0:0:0:0:
256,192,181834,1,0,0:0:0:0:
256,192,182005,1,0,0:0:0:0:
256,192,182177,1,2,0:0:0:0:
256,192,182348,1,0,0:0:0:0:
256,192,182520,1,2,0:0:0:0:
256,192,182691,1,0,0:0:0:0:
256,192,182862,1,2,0:0:0:0:
256,192,183034,1,2,0:0:0:0:
256,192,183205,1,0,0:0:0:0:
256,192,183377,1,2,0:0:0:0:
256,192,183548,1,0,0:0:0:0:
256,192,183891,1,2,0:0:0:0:
256,192,184062,1,0,0:0:0:0:
256,192,184234,1,2,0:0:0:0:
256,192,184405,1,0,0:0:0:0:
256,192,184577,1,0,0:0:0:0:
256,192,184748,1,2,0:0:0:0:
256,192,184920,1,0,0:0:0:0:
256,192,185091,1,2,0:0:0:0:
256,192,185262,1,0,0:0:0:0:
256,192,185434,1,0,0:0:0:0:
256,192,185520,1,0,0:0:0:0:
256,192,185605,1,2,0:0:0:0:
256,192,185777,1,0,0:0:0:0:
256,192,185948,1,2,0:0:0:0:
256,192,186120,1,0,0:0:0:0:
256,192,186291,1,2,0:0:0:0:
256,192,186462,1,2,0:0:0:0:
256,192,186634,1,0,0:0:0:0:
256,192,186805,1,0,0:0:0:0:
256,192,186977,1,2,0:0:0:0:
256,192,187148,1,2,0:0:0:0:
256,192,187320,1,0,0:0:0:0:
256,192,187491,1,2,0:0:0:0:
256,192,187662,1,0,0:0:0:0:
256,192,187834,1,2,0:0:0:0:
256,192,188005,1,6,0:0:0:0:
256,192,188691,1,6,0:0:0:0:
256,192,189377,1,6,0:0:0:0:
256,192,189548,1,0,0:0:0:0:
256,192,189634,1,0,0:0:0:0:
256,192,189720,1,2,0:0:0:0:
256,192,189891,1,2,0:0:0:0:
256,192,190062,1,0,0:0:0:0:
256,192,190234,1,2,0:0:0:0:
256,192,190405,1,0,0:0:0:0:
256,192,190577,1,0,0:0:0:0:
256,192,190748,1,2,0:0:0:0:
256,192,190920,1,2,0:0:0:0:
256,192,191091,1,0,0:0:0:0:
256,192,191177,1,0,0:0:0:0:
256,192,191262,1,2,0:0:0:0:
256,192,191434,1,2,0:0:0:0:
256,192,191605,1,0,0:0:0:0:
256,192,191777,1,2,0:0:0:0:
256,192,191948,1,0,0:0:0:0:
256,192,192120,1,2,0:0:0:0:
256,192,192291,1,0,0:0:0:0:
256,192,192377,1,0,0:0:0:0:
256,192,192462,1,2,0:0:0:0:
256,192,192634,1,0,0:0:0:0:
256,192,192805,1,2,0:0:0:0:
256,192,192977,1,0,0:0:0:0:
256,192,193148,1,2,0:0:0:0:
256,192,193320,1,2,0:0:0:0:
256,192,193405,1,2,0:0:0:0:
256,192,193491,1,0,0:0:0:0:
256,192,193662,1,0,0:0:0:0:
256,192,193748,1,0,0:0:0:0:
256,192,193834,1,2,0:0:0:0:
256,192,194005,1,2,0:0:0:0:
256,192,194177,1,0,0:0:0:0:
256,192,194348,1,0,0:0:0:0:
256,192,194520,1,2,0:0:0:0:
256,192,194862,1,2,0:0:0:0:
256,192,195034,1,2,0:0:0:0:
256,192,195120,1,2,0:0:0:0:
256,192,195205,1,0,0:0:0:0:
256,192,195377,1,2,0:0:0:0:
256,192,195548,1,0,0:0:0:0:
256,192,195720,1,0,0:0:0:0:
256,192,195891,1,2,0:0:0:0:
256,192,196062,1,2,0:0:0:0:
256,192,196234,1,0,0:0:0:0:
256,192,196405,1,2,0:0:0:0:
256,192,196491,1,0,0:0:0:0:
256,192,196577,1,0,0:0:0:0:
256,192,196748,1,2,0:0:0:0:
256,192,196920,1,0,0:0:0:0:
256,192,197091,1,2,0:0:0:0:
256,192,197177,1,2,0:0:0:0:
256,192,197262,1,0,0:0:0:0:
256,192,197434,1,2,0:0:0:0:
256,192,197605,1,4,0:0:0:0:
256,192,197777,1,0,0:0:0:0:
256,192,197948,1,2,0:0:0:0:
256,192,198034,1,0,0:0:0:0:
256,192,198120,1,2,0:0:0:0:
256,192,198291,1,4,0:0:0:0:
256,192,198462,1,4,0:0:0:0:
256,192,198634,1,2,0:0:0:0:
256,192,198720,1,0,0:0:0:0:
256,192,198805,1,2,0:0:0:0:
256,192,198977,1,4,0:0:0:0:
256,192,199148,1,0,0:0:0:0:
256,192,199320,1,2,0:0:0:0:
256,192,199491,1,0,0:0:0:0:
256,192,199834,1,0,0:0:0:0:
256,192,200177,1,0,0:0:0:0:
256,192,200348,1,4,0:0:0:0:
