osu file format v14

[General]
AudioFilename: audio.mp3
AudioLeadIn: 0
PreviewTime: 37499
Countdown: 0
SampleSet: Normal
StackLeniency: 0.7
Mode: 3
LetterboxInBreaks: 0
SpecialStyle: 0
WidescreenStoryboard: 0

[Editor]
Bookmarks: 16010,27657,38598,50157,62951,65421,76804,88098,113069,127010,138216,151274,162569
DistanceSpacing: 0.9
BeatDivisor: 4
GridSize: 32
TimelineZoom: 2.699999

[Metadata]
Title:More One Night (Assertive Hardcore Bootleg) [long ver.]
TitleUnicode:More One Night (Assertive Hardcore Bootleg) [long ver.]
Artist:Assertive
ArtistUnicode:Assertive
Creator:Meeoro
Version:Insanely not talented
Source:Shoujo Shuumatsu Ryokou
Tags:少女終末旅行
BeatmapID:1555600
BeatmapSetID:737121

[Difficulty]
HPDrainRate:7
CircleSize:4
OverallDifficulty:6
ApproachRate:5
SliderMultiplier:1.4
SliderTickRate:1

[Events]
//Background and Video events
0,0,"maxresdefault (2).jpg",0,0
//Break Periods
//Storyboard Layer 0 (Background)
//Storyboard Layer 1 (Fail)
//Storyboard Layer 2 (Pass)
//Storyboard Layer 3 (Foreground)
//Storyboard Sound Samples

[TimingPoints]
922,352.941176470588,4,1,0,30,1,0

[HitObjects]
64,192,921,128,0,1274:0:0:0:0:
192,192,1274,128,0,1627:0:0:0:0:
320,192,1627,128,0,1980:0:0:0:0:
448,192,1980,128,0,2333:0:0:0:0:
64,192,2333,128,0,2686:0:0:0:0:
192,192,2686,128,0,3039:0:0:0:0:
320,192,3039,128,0,3392:0:0:0:0:
448,192,3392,128,0,3745:0:0:0:0:
320,192,5157,1,0,0:0:0:0:
192,192,5157,1,0,0:0:0:0:
64,192,5510,1,0,0:0:0:0:
448,192,5510,1,0,0:0:0:0:
320,192,5863,1,0,0:0:0:0:
320,192,6127,1,0,0:0:0:0:
448,192,6216,1,0,0:0:0:0:
64,192,6216,1,0,0:0:0:0:
320,192,6392,128,0,7627:0:0:0:0:
64,192,6921,1,0,0:0:0:0:
448,192,6921,1,0,0:0:0:0:
448,192,7627,1,0,0:0:0:0:
64,192,7627,1,0,0:0:0:0:
192,192,7627,128,0,7980:0:0:0:0:
64,192,7980,128,0,8686:0:0:0:0:
448,192,8333,1,0,0:0:0:0:
320,192,8333,1,0,0:0:0:0:
192,192,8686,1,0,0:0:0:0:
192,192,8951,1,0,0:0:0:0:
64,192,9039,1,0,0:0:0:0:
448,192,9039,1,0,0:0:0:0:
192,192,9216,128,0,10098:0:0:0:0:
64,192,9745,1,0,0:0:0:0:
448,192,9745,1,0,0:0:0:0:
320,192,10098,128,0,10451:0:0:0:0:
448,192,10451,128,0,10804:0:0:0:0:
64,192,10451,1,0,0:0:0:0:
192,192,10804,1,0,0:0:0:0:
64,192,10804,1,0,0:0:0:0:
192,192,11157,1,0,0:0:0:0:
320,192,11157,1,0,0:0:0:0:
320,192,11510,1,0,0:0:0:0:
448,192,11510,1,0,0:0:0:0:
64,192,11686,1,0,0:0:0:0:
320,192,11863,1,0,0:0:0:0:
448,192,11863,1,0,0:0:0:0:
64,192,12039,1,0,0:0:0:0:
64,192,12216,1,0,0:0:0:0:
192,192,12216,1,0,0:0:0:0:
64,192,12569,1,0,0:0:0:0:
448,192,12569,1,0,0:0:0:0:
320,192,12921,1,0,0:0:0:0:
64,192,13274,1,0,0:0:0:0:
448,192,13274,1,0,0:0:0:0:
192,192,13627,1,0,0:0:0:0:
320,192,13804,1,0,0:0:0:0:
64,192,13980,1,0,0:0:0:0:
448,192,14157,1,0,0:0:0:0:
320,192,14333,1,0,0:0:0:0:
192,192,14510,1,0,0:0:0:0:
448,192,14686,1,0,0:0:0:0:
64,192,14863,1,0,0:0:0:0:
320,192,15039,1,0,0:0:0:0:
192,192,15127,1,0,0:0:0:0:
320,192,15216,1,0,0:0:0:0:
192,192,15304,1,0,0:0:0:0:
448,192,15392,1,0,0:0:0:0:
64,192,15480,1,0,0:0:0:0:
448,192,15569,1,0,0:0:0:0:
64,192,15657,1,0,0:0:0:0:
192,192,15745,1,0,0:0:0:0:
320,192,15833,1,0,0:0:0:0:
64,192,15921,1,0,0:0:0:0:
448,192,16010,128,0,16451:0:0:0:0:
192,192,16451,1,0,0:0:0:0:
64,192,16451,1,0,0:0:0:0:
192,192,16627,1,0,0:0:0:0:
448,192,16804,1,0,0:0:0:0:
320,192,16804,1,0,0:0:0:0:
320,192,16980,1,0,0:0:0:0:
448,192,17157,1,0,0:0:0:0:
64,192,17157,1,0,0:0:0:0:
192,192,17333,1,0,0:0:0:0:
64,192,17510,1,0,0:0:0:0:
448,192,17510,1,0,0:0:0:0:
320,192,17686,1,0,0:0:0:0:
320,192,17863,1,0,0:0:0:0:
192,192,17863,1,0,0:0:0:0:
192,192,18039,1,0,0:0:0:0:
320,192,18216,1,0,0:0:0:0:
192,192,18216,1,0,0:0:0:0:
320,192,18392,1,0,0:0:0:0:
64,192,18569,1,0,0:0:0:0:
320,192,18569,1,0,0:0:0:0:
192,192,18745,1,0,0:0:0:0:
192,192,18921,1,0,0:0:0:0:
448,192,18921,1,0,0:0:0:0:
320,192,19098,1,0,0:0:0:0:
64,192,19274,1,0,0:0:0:0:
192,192,19274,1,0,0:0:0:0:
192,192,19451,1,0,0:0:0:0:
320,192,19627,1,0,0:0:0:0:
448,192,19627,1,0,0:0:0:0:
320,192,19804,1,0,0:0:0:0:
64,192,19980,1,0,0:0:0:0:
448,192,19980,1,0,0:0:0:0:
192,192,20157,1,0,0:0:0:0:
64,192,20333,1,0,0:0:0:0:
448,192,20333,1,0,0:0:0:0:
320,192,20510,1,0,0:0:0:0:
192,192,20686,1,0,0:0:0:0:
320,192,20686,1,0,0:0:0:0:
192,192,20863,1,0,0:0:0:0:
192,192,21039,1,0,0:0:0:0:
320,192,21039,1,0,0:0:0:0:
320,192,21216,1,0,0:0:0:0:
64,192,21392,1,0,0:0:0:0:
320,192,21392,1,0,0:0:0:0:
192,192,21569,1,0,0:0:0:0:
64,192,21745,1,0,0:0:0:0:
448,192,21745,1,0,0:0:0:0:
320,192,21921,1,0,0:0:0:0:
64,192,22098,1,0,0:0:0:0:
192,192,22098,1,0,0:0:0:0:
192,192,22274,1,0,0:0:0:0:
192,192,22451,1,0,0:0:0:0:
320,192,22451,1,0,0:0:0:0:
320,192,22627,1,0,0:0:0:0:
320,192,22804,1,0,0:0:0:0:
448,192,22804,1,0,0:0:0:0:
320,192,22980,1,0,0:0:0:0:
320,192,23157,1,0,0:0:0:0:
192,192,23157,1,0,0:0:0:0:
192,192,23333,1,0,0:0:0:0:
192,192,23510,1,0,0:0:0:0:
64,192,23510,1,0,0:0:0:0:
64,192,23686,1,0,0:0:0:0:
448,192,23863,1,0,0:0:0:0:
64,192,23863,1,0,0:0:0:0:
448,192,24039,1,0,0:0:0:0:
448,192,24216,1,0,0:0:0:0:
64,192,24216,1,0,0:0:0:0:
192,192,24392,1,0,0:0:0:0:
320,192,24569,1,0,0:0:0:0:
192,192,24569,1,0,0:0:0:0:
320,192,24745,1,0,0:0:0:0:
192,192,24921,1,0,0:0:0:0:
320,192,24921,1,0,0:0:0:0:
192,192,25098,1,0,0:0:0:0:
64,192,25274,1,0,0:0:0:0:
448,192,25274,1,0,0:0:0:0:
320,192,25451,1,0,0:0:0:0:
448,192,25627,1,0,0:0:0:0:
64,192,25627,1,0,0:0:0:0:
64,192,25804,1,0,0:0:0:0:
448,192,25804,1,0,0:0:0:0:
448,192,25980,1,0,0:0:0:0:
64,192,25980,1,0,0:0:0:0:
192,192,26157,1,0,0:0:0:0:
320,192,26157,1,0,0:0:0:0:
320,192,26333,1,0,0:0:0:0:
192,192,26510,1,0,0:0:0:0:
448,192,26686,1,0,0:0:0:0:
64,192,26863,1,0,0:0:0:0:
64,192,27039,1,0,0:0:0:0:
320,192,27039,1,0,0:0:0:0:
448,192,27039,1,0,0:0:0:0:
192,192,27039,1,0,0:0:0:0:
64,192,27745,128,0,28451:0:0:0:0:
192,192,27745,1,0,0:0:0:0:
320,192,27921,1,0,0:0:0:0:
448,192,28098,1,0,0:0:0:0:
320,192,28274,1,0,0:0:0:0:
192,192,28451,128,0,29157:0:0:0:0:
64,192,28627,1,0,0:0:0:0:
320,192,28804,1,0,0:0:0:0:
448,192,28980,1,0,0:0:0:0:
320,192,29157,128,0,29863:0:0:0:0:
192,192,29333,1,0,0:0:0:0:
64,192,29510,1,0,0:0:0:0:
192,192,29686,1,0,0:0:0:0:
448,192,29863,128,0,30569:0:0:0:0:
320,192,30039,1,0,0:0:0:0:
192,192,30216,1,0,0:0:0:0:
64,192,30392,1,0,0:0:0:0:
320,192,30569,128,0,31274:0:0:0:0:
192,192,30745,1,0,0:0:0:0:
448,192,30921,1,0,0:0:0:0:
192,192,31098,1,0,0:0:0:0:
192,192,31274,128,0,31980:0:0:0:0:
64,192,31451,1,0,0:0:0:0:
320,192,31627,1,0,0:0:0:0:
448,192,31804,1,0,0:0:0:0:
64,192,31980,128,0,32686:0:0:0:0:
320,192,32157,1,0,0:0:0:0:
192,192,32333,1,0,0:0:0:0:
320,192,32510,1,0,0:0:0:0:
192,192,32686,128,0,33392:0:0:0:0:
320,192,32686,128,0,33392:0:0:0:0:
448,192,33392,128,0,34098:0:0:0:0:
320,192,33480,1,0,0:0:0:0:
192,192,33569,1,0,0:0:0:0:
64,192,33657,1,0,0:0:0:0:
192,192,33745,1,0,0:0:0:0:
320,192,33833,1,0,0:0:0:0:
192,192,33921,1,0,0:0:0:0:
64,192,34010,1,0,0:0:0:0:
320,192,34098,128,0,34804:0:0:0:0:
192,192,34186,1,0,0:0:0:0:
448,192,34274,1,0,0:0:0:0:
192,192,34363,1,0,0:0:0:0:
64,192,34451,1,0,0:0:0:0:
192,192,34539,1,0,0:0:0:0:
448,192,34627,1,0,0:0:0:0:
192,192,34804,128,0,35510:0:0:0:0:
64,192,34892,1,0,0:0:0:0:
320,192,34980,1,0,0:0:0:0:
448,192,35069,1,0,0:0:0:0:
320,192,35157,1,0,0:0:0:0:
64,192,35245,1,0,0:0:0:0:
320,192,35333,1,0,0:0:0:0:
448,192,35421,1,0,0:0:0:0:
64,192,35510,128,0,35863:0:0:0:0:
448,192,35863,128,0,36216:0:0:0:0:
64,192,36216,1,0,0:0:0:0:
192,192,36304,1,0,0:0:0:0:
448,192,36392,1,0,0:0:0:0:
320,192,36480,1,0,0:0:0:0:
64,192,36569,1,0,0:0:0:0:
192,192,36657,1,0,0:0:0:0:
448,192,36745,1,0,0:0:0:0:
320,192,36833,1,0,0:0:0:0:
64,192,36921,1,0,0:0:0:0:
192,192,37010,1,0,0:0:0:0:
448,192,37098,1,0,0:0:0:0:
320,192,37186,1,0,0:0:0:0:
64,192,37274,1,0,0:0:0:0:
192,192,37363,1,0,0:0:0:0:
448,192,37451,1,0,0:0:0:0:
320,192,37539,1,0,0:0:0:0:
64,192,37627,1,0,0:0:0:0:
192,192,37627,1,0,0:0:0:0:
320,192,37716,1,0,0:0:0:0:
448,192,37716,1,0,0:0:0:0:
192,192,37804,1,0,0:0:0:0:
64,192,37804,1,0,0:0:0:0:
320,192,37892,1,0,0:0:0:0:
448,192,37892,1,0,0:0:0:0:
64,192,37980,1,0,0:0:0:0:
192,192,37980,1,0,0:0:0:0:
320,192,38069,1,0,0:0:0:0:
448,192,38069,1,0,0:0:0:0:
64,192,38157,1,0,0:0:0:0:
192,192,38157,1,0,0:0:0:0:
320,192,38245,1,0,0:0:0:0:
448,192,38245,1,0,0:0:0:0:
64,192,38333,1,0,0:0:0:0:
192,192,38333,1,0,0:0:0:0:
320,192,38686,1,0,0:0:0:0:
192,192,38863,1,0,0:0:0:0:
64,192,39039,128,0,39392:0:0:0:0:
448,192,39216,1,0,0:0:0:0:
192,192,39392,1,0,0:0:0:0:
320,192,39392,128,0,39745:0:0:0:0:
64,192,39569,1,0,0:0:0:0:
192,192,39745,128,0,40098:0:0:0:0:
448,192,39745,1,0,0:0:0:0:
320,192,39921,1,0,0:0:0:0:
448,192,40098,128,0,40451:0:0:0:0:
64,192,40098,1,0,0:0:0:0:
192,192,40274,1,0,0:0:0:0:
320,192,40451,1,0,0:0:0:0:
192,192,40451,128,0,40804:0:0:0:0:
448,192,40627,1,0,0:0:0:0:
320,192,40804,128,0,41157:0:0:0:0:
64,192,40804,1,0,0:0:0:0:
64,192,40980,1,0,0:0:0:0:
448,192,41157,1,0,0:0:0:0:
64,192,41157,128,0,41333:0:0:0:0:
320,192,41510,1,0,0:0:0:0:
192,192,41510,1,0,0:0:0:0:
192,192,41686,128,0,41863:0:0:0:0:
320,192,41686,128,0,41863:0:0:0:0:
448,192,41863,128,0,42216:0:0:0:0:
64,192,42039,1,0,0:0:0:0:
192,192,42216,128,0,42569:0:0:0:0:
320,192,42216,1,0,0:0:0:0:
448,192,42392,1,0,0:0:0:0:
320,192,42569,128,0,42921:0:0:0:0:
64,192,42569,1,0,0:0:0:0:
192,192,42745,1,0,0:0:0:0:
64,192,42921,128,0,43274:0:0:0:0:
448,192,42921,1,0,0:0:0:0:
320,192,43098,1,0,0:0:0:0:
192,192,43274,1,0,0:0:0:0:
320,192,43451,1,0,0:0:0:0:
192,192,43627,1,0,0:0:0:0:
448,192,43627,1,0,0:0:0:0:
320,192,43804,1,0,0:0:0:0:
192,192,43980,1,0,0:0:0:0:
64,192,43980,1,0,0:0:0:0:
320,192,44157,1,0,0:0:0:0:
192,192,44333,1,0,0:0:0:0:
448,192,44333,1,0,0:0:0:0:
320,192,44333,1,0,0:0:0:0:
192,192,44510,1,0,0:0:0:0:
64,192,44686,128,0,45039:0:0:0:0:
448,192,44863,1,0,0:0:0:0:
448,192,45039,128,0,45392:0:0:0:0:
64,192,45216,1,0,0:0:0:0:
320,192,45392,128,0,45745:0:0:0:0:
192,192,45392,128,0,45745:0:0:0:0:
64,192,45569,1,0,0:0:0:0:
448,192,45745,1,0,0:0:0:0:
320,192,45921,1,0,0:0:0:0:
192,192,46098,1,0,0:0:0:0:
320,192,46098,1,0,0:0:0:0:
64,192,46274,1,0,0:0:0:0:
320,192,46451,1,0,0:0:0:0:
192,192,46451,1,0,0:0:0:0:
448,192,46627,1,0,0:0:0:0:
448,192,46804,1,0,0:0:0:0:
64,192,46804,1,0,0:0:0:0:
320,192,46980,1,0,0:0:0:0:
64,192,47157,1,0,0:0:0:0:
448,192,47157,1,0,0:0:0:0:
192,192,47333,1,0,0:0:0:0:
448,192,47333,1,0,0:0:0:0:
320,192,47510,128,0,47863:0:0:0:0:
64,192,47863,1,0,0:0:0:0:
192,192,48039,1,0,0:0:0:0:
192,192,48216,128,0,48569:0:0:0:0:
320,192,48216,1,0,0:0:0:0:
448,192,48392,1,0,0:0:0:0:
320,192,48569,1,0,0:0:0:0:
64,192,48745,1,0,0:0:0:0:
448,192,48745,1,0,0:0:0:0:
320,192,48921,1,0,0:0:0:0:
448,192,49010,1,0,0:0:0:0:
192,192,49098,1,0,0:0:0:0:
64,192,49186,1,0,0:0:0:0:
320,192,49274,1,0,0:0:0:0:
448,192,49363,1,0,0:0:0:0:
192,192,49451,1,0,0:0:0:0:
64,192,49539,1,0,0:0:0:0:
192,192,49627,128,0,49980:0:0:0:0:
320,192,49627,128,0,49980:0:0:0:0:
448,192,49980,1,0,0:0:0:0:
64,192,50157,1,0,0:0:0:0:
192,192,50333,128,0,50510:0:0:0:0:
320,192,50333,1,0,0:0:0:0:
448,192,50510,1,0,0:0:0:0:
320,192,50686,128,0,50863:0:0:0:0:
192,192,50686,1,0,0:0:0:0:
64,192,50863,1,0,0:0:0:0:
192,192,50951,1,0,0:0:0:0:
192,192,51127,1,0,0:0:0:0:
320,192,51216,128,0,51392:0:0:0:0:
192,192,51392,128,0,51569:0:0:0:0:
64,192,51392,1,0,0:0:0:0:
448,192,51569,1,0,0:0:0:0:
448,192,51657,1,0,0:0:0:0:
64,192,51745,128,0,51921:0:0:0:0:
448,192,51921,128,0,52098:0:0:0:0:
320,192,52098,1,0,0:0:0:0:
448,192,52274,1,0,0:0:0:0:
192,192,52274,1,0,0:0:0:0:
192,192,52451,128,0,52627:0:0:0:0:
320,192,52451,1,0,0:0:0:0:
64,192,52627,1,0,0:0:0:0:
192,192,52804,1,0,0:0:0:0:
64,192,52980,1,0,0:0:0:0:
320,192,52980,1,0,0:0:0:0:
192,192,53157,1,0,0:0:0:0:
448,192,53157,1,0,0:0:0:0:
320,192,53333,1,0,0:0:0:0:
192,192,53510,1,0,0:0:0:0:
64,192,53510,1,0,0:0:0:0:
192,192,53686,1,0,0:0:0:0:
192,192,53774,1,0,0:0:0:0:
448,192,53863,1,0,0:0:0:0:
64,192,53863,1,0,0:0:0:0:
448,192,54039,1,0,0:0:0:0:
64,192,54216,1,0,0:0:0:0:
320,192,54216,128,0,54569:0:0:0:0:
448,192,54569,128,0,54745:0:0:0:0:
320,192,54833,1,0,0:0:0:0:
192,192,54921,1,0,0:0:0:0:
320,192,55010,1,0,0:0:0:0:
64,192,55098,128,0,55274:0:0:0:0:
320,192,55274,1,0,0:0:0:0:
448,192,55274,1,0,0:0:0:0:
192,192,55451,1,0,0:0:0:0:
64,192,55627,1,0,0:0:0:0:
320,192,55627,1,0,0:0:0:0:
448,192,55804,1,0,0:0:0:0:
64,192,55980,128,0,56157:0:0:0:0:
320,192,55980,1,0,0:0:0:0:
192,192,56157,128,0,56333:0:0:0:0:
448,192,56333,1,0,0:0:0:0:
64,192,56333,128,0,56510:0:0:0:0:
192,192,56510,128,0,56598:0:0:0:0:
448,192,56598,1,0,0:0:0:0:
448,192,56774,1,0,0:0:0:0:
64,192,56863,1,0,0:0:0:0:
448,192,56863,1,0,0:0:0:0:
192,192,57039,128,0,57216:0:0:0:0:
320,192,57039,1,0,0:0:0:0:
64,192,57216,1,0,0:0:0:0:
64,192,57304,1,0,0:0:0:0:
320,192,57392,1,0,0:0:0:0:
448,192,57392,128,0,57569:0:0:0:0:
64,192,57569,128,0,57745:0:0:0:0:
448,192,57745,128,0,57921:0:0:0:0:
320,192,57745,1,0,0:0:0:0:
192,192,57921,1,0,0:0:0:0:
192,192,58010,1,0,0:0:0:0:
448,192,58098,1,0,0:0:0:0:
64,192,58098,1,0,0:0:0:0:
192,192,58274,1,0,0:0:0:0:
448,192,58451,1,0,0:0:0:0:
64,192,58451,1,0,0:0:0:0:
320,192,58627,1,0,0:0:0:0:
64,192,58804,1,0,0:0:0:0:
192,192,58804,1,0,0:0:0:0:
320,192,58804,1,0,0:0:0:0:
64,192,58980,1,0,0:0:0:0:
192,192,59157,1,0,0:0:0:0:
320,192,59157,1,0,0:0:0:0:
448,192,59157,1,0,0:0:0:0:
448,192,59333,1,0,0:0:0:0:
192,192,59510,1,0,0:0:0:0:
320,192,59510,128,0,59863:0:0:0:0:
64,192,59686,1,0,0:0:0:0:
192,192,59863,128,0,60039:0:0:0:0:
64,192,60039,128,0,60216:0:0:0:0:
448,192,60039,1,0,0:0:0:0:
448,192,60216,1,0,0:0:0:0:
192,192,60392,1,0,0:0:0:0:
320,192,60569,1,0,0:0:0:0:
64,192,60569,1,0,0:0:0:0:
192,192,60745,1,0,0:0:0:0:
192,192,60921,128,0,61274:0:0:0:0:
448,192,60921,128,0,62333:0:0:0:0:
64,192,61274,128,0,61627:0:0:0:0:
192,192,61627,1,0,0:0:0:0:
320,192,61804,1,0,0:0:0:0:
192,192,61980,1,0,0:0:0:0:
64,192,62157,1,0,0:0:0:0:
192,192,62333,1,0,0:0:0:0:
320,192,62510,1,0,0:0:0:0:
320,192,62598,1,0,0:0:0:0:
192,192,62686,1,0,0:0:0:0:
64,192,63039,1,0,0:0:0:0:
192,192,63039,1,0,0:0:0:0:
320,192,63039,1,0,0:0:0:0:
448,192,63216,1,0,0:0:0:0:
192,192,63304,1,0,0:0:0:0:
64,192,63392,1,0,0:0:0:0:
320,192,63392,1,0,0:0:0:0:
448,192,63392,1,0,0:0:0:0:
192,192,63569,1,0,0:0:0:0:
320,192,63657,1,0,0:0:0:0:
64,192,63745,1,0,0:0:0:0:
192,192,63745,1,0,0:0:0:0:
448,192,63745,1,0,0:0:0:0:
320,192,63833,1,0,0:0:0:0:
192,192,63921,1,0,0:0:0:0:
64,192,64010,1,0,0:0:0:0:
320,192,64098,1,0,0:0:0:0:
448,192,64098,1,0,0:0:0:0:
192,192,64098,1,0,0:0:0:0:
64,192,64186,1,0,0:0:0:0:
192,192,64274,1,0,0:0:0:0:
320,192,64363,1,0,0:0:0:0:
64,192,64451,1,0,0:0:0:0:
448,192,64451,1,0,0:0:0:0:
192,192,64451,1,0,0:0:0:0:
320,192,64539,1,0,0:0:0:0:
192,192,64627,1,0,0:0:0:0:
64,192,64716,1,0,0:0:0:0:
320,192,64804,1,0,0:0:0:0:
448,192,64804,1,0,0:0:0:0:
64,192,64804,1,0,0:0:0:0:
192,192,64892,1,0,0:0:0:0:
320,192,64980,1,0,0:0:0:0:
448,192,65069,1,0,0:0:0:0:
64,192,65157,1,0,0:0:0:0:
320,192,65157,1,0,0:0:0:0:
448,192,65157,1,0,0:0:0:0:
448,192,65510,1,0,0:0:0:0:
320,192,65686,1,0,0:0:0:0:
192,192,65863,1,0,0:0:0:0:
64,192,65863,1,0,0:0:0:0:
192,192,66039,1,0,0:0:0:0:
448,192,66216,1,0,0:0:0:0:
320,192,66216,1,0,0:0:0:0:
320,192,66392,1,0,0:0:0:0:
448,192,66569,1,0,0:0:0:0:
64,192,66569,1,0,0:0:0:0:
192,192,66745,1,0,0:0:0:0:
64,192,66921,1,0,0:0:0:0:
448,192,66921,1,0,0:0:0:0:
320,192,67098,1,0,0:0:0:0:
320,192,67274,1,0,0:0:0:0:
64,192,67274,1,0,0:0:0:0:
192,192,67451,1,0,0:0:0:0:
192,192,67627,1,0,0:0:0:0:
448,192,67627,1,0,0:0:0:0:
320,192,67804,1,0,0:0:0:0:
64,192,67980,1,0,0:0:0:0:
192,192,67980,1,0,0:0:0:0:
192,192,68157,1,0,0:0:0:0:
448,192,68333,1,0,0:0:0:0:
320,192,68333,1,0,0:0:0:0:
320,192,68510,1,0,0:0:0:0:
64,192,68686,1,0,0:0:0:0:
320,192,68686,1,0,0:0:0:0:
192,192,68863,1,0,0:0:0:0:
448,192,69039,1,0,0:0:0:0:
192,192,69039,1,0,0:0:0:0:
320,192,69216,1,0,0:0:0:0:
64,192,69392,1,0,0:0:0:0:
448,192,69392,1,0,0:0:0:0:
192,192,69569,1,0,0:0:0:0:
64,192,69745,1,0,0:0:0:0:
448,192,69745,1,0,0:0:0:0:
320,192,69921,1,0,0:0:0:0:
192,192,70098,1,0,0:0:0:0:
320,192,70098,1,0,0:0:0:0:
192,192,70274,1,0,0:0:0:0:
192,192,70451,1,0,0:0:0:0:
320,192,70451,1,0,0:0:0:0:
320,192,70627,1,0,0:0:0:0:
64,192,70804,1,0,0:0:0:0:
320,192,70804,1,0,0:0:0:0:
192,192,70980,1,0,0:0:0:0:
64,192,71157,1,0,0:0:0:0:
448,192,71157,1,0,0:0:0:0:
320,192,71333,1,0,0:0:0:0:
64,192,71510,1,0,0:0:0:0:
192,192,71510,1,0,0:0:0:0:
192,192,71686,1,0,0:0:0:0:
192,192,71863,1,0,0:0:0:0:
320,192,71863,1,0,0:0:0:0:
320,192,72039,1,0,0:0:0:0:
320,192,72216,1,0,0:0:0:0:
448,192,72216,1,0,0:0:0:0:
320,192,72392,1,0,0:0:0:0:
320,192,72569,1,0,0:0:0:0:
192,192,72569,1,0,0:0:0:0:
192,192,72745,1,0,0:0:0:0:
192,192,72921,1,0,0:0:0:0:
64,192,72921,1,0,0:0:0:0:
64,192,73098,1,0,0:0:0:0:
448,192,73274,1,0,0:0:0:0:
64,192,73274,1,0,0:0:0:0:
448,192,73451,1,0,0:0:0:0:
448,192,73627,1,0,0:0:0:0:
64,192,73627,1,0,0:0:0:0:
192,192,73804,1,0,0:0:0:0:
320,192,73980,1,0,0:0:0:0:
192,192,73980,1,0,0:0:0:0:
320,192,74157,1,0,0:0:0:0:
64,192,74333,1,0,0:0:0:0:
448,192,74333,1,0,0:0:0:0:
192,192,74510,1,0,0:0:0:0:
64,192,74686,1,0,0:0:0:0:
448,192,74686,1,0,0:0:0:0:
320,192,74863,1,0,0:0:0:0:
192,192,75039,1,0,0:0:0:0:
320,192,75039,1,0,0:0:0:0:
448,192,75216,1,0,0:0:0:0:
320,192,75392,1,0,0:0:0:0:
192,192,75392,1,0,0:0:0:0:
64,192,75569,1,0,0:0:0:0:
320,192,75745,1,0,0:0:0:0:
192,192,75745,1,0,0:0:0:0:
448,192,75745,1,0,0:0:0:0:
192,192,75921,1,0,0:0:0:0:
320,192,75921,1,0,0:0:0:0:
64,192,75921,1,0,0:0:0:0:
448,192,76098,1,0,0:0:0:0:
64,192,76098,1,0,0:0:0:0:
192,192,76098,1,0,0:0:0:0:
64,192,76274,1,0,0:0:0:0:
320,192,76274,1,0,0:0:0:0:
448,192,76274,1,0,0:0:0:0:
64,192,76451,1,0,0:0:0:0:
320,192,76451,1,0,0:0:0:0:
448,192,76451,1,0,0:0:0:0:
192,192,76451,1,0,0:0:0:0:
192,192,76627,1,0,0:0:0:0:
192,192,76804,128,0,77157:0:0:0:0:
64,192,77157,128,0,77863:0:0:0:0:
320,192,77333,1,0,0:0:0:0:
448,192,77510,1,0,0:0:0:0:
320,192,77686,1,0,0:0:0:0:
192,192,77863,128,0,78569:0:0:0:0:
64,192,78039,1,0,0:0:0:0:
320,192,78216,1,0,0:0:0:0:
448,192,78392,1,0,0:0:0:0:
320,192,78569,128,0,79274:0:0:0:0:
192,192,78745,1,0,0:0:0:0:
64,192,78921,1,0,0:0:0:0:
192,192,79098,1,0,0:0:0:0:
448,192,79274,128,0,79980:0:0:0:0:
320,192,79451,1,0,0:0:0:0:
192,192,79627,1,0,0:0:0:0:
64,192,79804,1,0,0:0:0:0:
320,192,79980,128,0,80686:0:0:0:0:
192,192,80157,1,0,0:0:0:0:
448,192,80333,1,0,0:0:0:0:
192,192,80510,1,0,0:0:0:0:
192,192,80686,128,0,81392:0:0:0:0:
64,192,80863,1,0,0:0:0:0:
320,192,81039,1,0,0:0:0:0:
448,192,81216,1,0,0:0:0:0:
64,192,81392,128,0,82098:0:0:0:0:
320,192,81569,1,0,0:0:0:0:
192,192,81745,1,0,0:0:0:0:
320,192,81921,1,0,0:0:0:0:
192,192,82098,128,0,82804:0:0:0:0:
320,192,82098,128,0,82804:0:0:0:0:
64,192,82451,1,0,0:0:0:0:
448,192,82451,1,0,0:0:0:0:
448,192,82804,128,0,83510:0:0:0:0:
320,192,82892,1,0,0:0:0:0:
192,192,82980,1,0,0:0:0:0:
64,192,83069,1,0,0:0:0:0:
192,192,83157,1,0,0:0:0:0:
320,192,83245,1,0,0:0:0:0:
192,192,83333,1,0,0:0:0:0:
64,192,83421,1,0,0:0:0:0:
320,192,83510,128,0,84216:0:0:0:0:
192,192,83598,1,0,0:0:0:0:
448,192,83686,1,0,0:0:0:0:
192,192,83774,1,0,0:0:0:0:
64,192,83863,1,0,0:0:0:0:
192,192,83951,1,0,0:0:0:0:
448,192,84039,1,0,0:0:0:0:
192,192,84216,128,0,84921:0:0:0:0:
64,192,84304,1,0,0:0:0:0:
320,192,84392,1,0,0:0:0:0:
448,192,84480,1,0,0:0:0:0:
320,192,84569,1,0,0:0:0:0:
64,192,84657,1,0,0:0:0:0:
320,192,84745,1,0,0:0:0:0:
448,192,84833,1,0,0:0:0:0:
64,192,84921,128,0,85274:0:0:0:0:
448,192,85274,128,0,85627:0:0:0:0:
64,192,85627,1,0,0:0:0:0:
192,192,85716,1,0,0:0:0:0:
448,192,85804,1,0,0:0:0:0:
320,192,85892,1,0,0:0:0:0:
64,192,85980,1,0,0:0:0:0:
192,192,86069,1,0,0:0:0:0:
448,192,86157,1,0,0:0:0:0:
320,192,86245,1,0,0:0:0:0:
64,192,86333,1,0,0:0:0:0:
192,192,86421,1,0,0:0:0:0:
448,192,86510,1,0,0:0:0:0:
320,192,86598,1,0,0:0:0:0:
64,192,86686,1,0,0:0:0:0:
192,192,86774,1,0,0:0:0:0:
448,192,86863,1,0,0:0:0:0:
320,192,86951,1,0,0:0:0:0:
64,192,87039,1,0,0:0:0:0:
192,192,87039,1,0,0:0:0:0:
320,192,87127,1,0,0:0:0:0:
448,192,87127,1,0,0:0:0:0:
192,192,87216,1,0,0:0:0:0:
64,192,87216,1,0,0:0:0:0:
320,192,87304,1,0,0:0:0:0:
448,192,87304,1,0,0:0:0:0:
64,192,87392,1,0,0:0:0:0:
192,192,87392,1,0,0:0:0:0:
320,192,87480,1,0,0:0:0:0:
448,192,87480,1,0,0:0:0:0:
64,192,87569,1,0,0:0:0:0:
192,192,87569,1,0,0:0:0:0:
320,192,87657,1,0,0:0:0:0:
448,192,87657,1,0,0:0:0:0:
64,192,87745,1,0,0:0:0:0:
192,192,87745,1,0,0:0:0:0:
320,192,88098,1,0,0:0:0:0:
192,192,88274,1,0,0:0:0:0:
64,192,88451,128,0,88804:0:0:0:0:
448,192,88627,1,0,0:0:0:0:
192,192,88804,1,0,0:0:0:0:
320,192,88804,128,0,89157:0:0:0:0:
64,192,88980,1,0,0:0:0:0:
192,192,89157,128,0,89510:0:0:0:0:
448,192,89157,1,0,0:0:0:0:
320,192,89333,1,0,0:0:0:0:
448,192,89510,128,0,89863:0:0:0:0:
64,192,89510,1,0,0:0:0:0:
192,192,89686,1,0,0:0:0:0:
320,192,89863,1,0,0:0:0:0:
192,192,89863,128,0,90216:0:0:0:0:
448,192,90039,1,0,0:0:0:0:
320,192,90216,128,0,90569:0:0:0:0:
64,192,90216,1,0,0:0:0:0:
64,192,90392,1,0,0:0:0:0:
448,192,90569,1,0,0:0:0:0:
64,192,90569,128,0,90745:0:0:0:0:
320,192,90921,1,0,0:0:0:0:
192,192,90921,1,0,0:0:0:0:
192,192,91098,128,0,91274:0:0:0:0:
320,192,91098,128,0,91274:0:0:0:0:
448,192,91274,128,0,91627:0:0:0:0:
64,192,91451,1,0,0:0:0:0:
192,192,91627,128,0,91980:0:0:0:0:
320,192,91627,1,0,0:0:0:0:
448,192,91804,1,0,0:0:0:0:
320,192,91980,128,0,92333:0:0:0:0:
64,192,91980,1,0,0:0:0:0:
192,192,92157,1,0,0:0:0:0:
64,192,92333,128,0,92686:0:0:0:0:
448,192,92333,1,0,0:0:0:0:
320,192,92510,1,0,0:0:0:0:
192,192,92686,1,0,0:0:0:0:
320,192,92863,1,0,0:0:0:0:
192,192,93039,1,0,0:0:0:0:
448,192,93039,1,0,0:0:0:0:
320,192,93216,1,0,0:0:0:0:
192,192,93392,1,0,0:0:0:0:
64,192,93392,1,0,0:0:0:0:
320,192,93569,1,0,0:0:0:0:
192,192,93745,1,0,0:0:0:0:
448,192,93745,1,0,0:0:0:0:
320,192,93745,1,0,0:0:0:0:
192,192,93921,1,0,0:0:0:0:
64,192,94098,128,0,94451:0:0:0:0:
192,192,94098,1,0,0:0:0:0:
320,192,94098,1,0,0:0:0:0:
448,192,94274,1,0,0:0:0:0:
448,192,94451,128,0,94804:0:0:0:0:
64,192,94627,1,0,0:0:0:0:
320,192,94804,128,0,95157:0:0:0:0:
192,192,94804,128,0,95157:0:0:0:0:
64,192,94980,1,0,0:0:0:0:
448,192,95157,1,0,0:0:0:0:
320,192,95333,1,0,0:0:0:0:
192,192,95510,1,0,0:0:0:0:
320,192,95510,1,0,0:0:0:0:
64,192,95686,1,0,0:0:0:0:
320,192,95863,1,0,0:0:0:0:
192,192,95863,1,0,0:0:0:0:
448,192,96039,1,0,0:0:0:0:
448,192,96216,1,0,0:0:0:0:
64,192,96216,1,0,0:0:0:0:
320,192,96392,1,0,0:0:0:0:
64,192,96569,1,0,0:0:0:0:
448,192,96569,1,0,0:0:0:0:
192,192,96745,1,0,0:0:0:0:
448,192,96745,1,0,0:0:0:0:
320,192,96921,128,0,97274:0:0:0:0:
64,192,96921,1,0,0:0:0:0:
448,192,96921,1,0,0:0:0:0:
64,192,97274,128,0,97627:0:0:0:0:
192,192,97451,1,0,0:0:0:0:
192,192,97627,128,0,97980:0:0:0:0:
320,192,97627,1,0,0:0:0:0:
448,192,97804,1,0,0:0:0:0:
320,192,97980,128,0,98157:0:0:0:0:
64,192,98157,1,0,0:0:0:0:
448,192,98157,128,0,98333:0:0:0:0:
192,192,98333,1,0,0:0:0:0:
64,192,98510,1,0,0:0:0:0:
64,192,98686,1,0,0:0:0:0:
448,192,98686,1,0,0:0:0:0:
320,192,98774,1,0,0:0:0:0:
192,192,98951,1,0,0:0:0:0:
64,192,99039,1,0,0:0:0:0:
448,192,99039,1,0,0:0:0:0:
448,192,99392,1,0,0:0:0:0:
64,192,99569,1,0,0:0:0:0:
192,192,99745,128,0,100098:0:0:0:0:
64,192,99745,1,0,0:0:0:0:
448,192,99745,1,0,0:0:0:0:
320,192,99921,1,0,0:0:0:0:
448,192,100098,128,0,100451:0:0:0:0:
320,192,100098,1,0,0:0:0:0:
64,192,100274,1,0,0:0:0:0:
64,192,100451,1,0,0:0:0:0:
320,192,100451,128,0,100804:0:0:0:0:
192,192,100627,1,0,0:0:0:0:
448,192,100980,1,0,0:0:0:0:
64,192,101157,1,0,0:0:0:0:
192,192,101157,1,0,0:0:0:0:
320,192,101333,1,0,0:0:0:0:
320,192,101510,1,0,0:0:0:0:
448,192,101510,1,0,0:0:0:0:
192,192,101686,1,0,0:0:0:0:
64,192,101863,1,0,0:0:0:0:
320,192,101863,1,0,0:0:0:0:
448,192,101863,128,0,102216:0:0:0:0:
192,192,102039,1,0,0:0:0:0:
64,192,102216,1,0,0:0:0:0:
320,192,102216,1,0,0:0:0:0:
192,192,102392,1,0,0:0:0:0:
320,192,102569,1,0,0:0:0:0:
64,192,102569,1,0,0:0:0:0:
192,192,102569,128,0,102921:0:0:0:0:
448,192,102921,1,0,0:0:0:0:
320,192,102921,128,0,103274:0:0:0:0:
192,192,103274,1,0,0:0:0:0:
64,192,103274,128,0,103627:0:0:0:0:
320,192,103451,1,0,0:0:0:0:
448,192,103627,1,0,0:0:0:0:
448,192,103804,1,0,0:0:0:0:
192,192,103980,1,0,0:0:0:0:
64,192,103980,1,0,0:0:0:0:
64,192,104157,1,0,0:0:0:0:
320,192,104333,1,0,0:0:0:0:
448,192,104333,1,0,0:0:0:0:
448,192,104510,1,0,0:0:0:0:
192,192,104686,128,0,104863:0:0:0:0:
320,192,104686,128,0,104863:0:0:0:0:
448,192,104863,1,0,0:0:0:0:
64,192,105039,1,0,0:0:0:0:
192,192,105039,1,0,0:0:0:0:
448,192,105216,1,0,0:0:0:0:
64,192,105392,128,0,106098:0:0:0:0:
448,192,105392,1,0,0:0:0:0:
320,192,105392,1,0,0:0:0:0:
192,192,105569,1,0,0:0:0:0:
448,192,105745,1,0,0:0:0:0:
320,192,105745,1,0,0:0:0:0:
192,192,105921,1,0,0:0:0:0:
448,192,106098,1,0,0:0:0:0:
320,192,106098,128,0,106274:0:0:0:0:
64,192,106363,128,0,106627:0:0:0:0:
448,192,106451,1,0,0:0:0:0:
192,192,106627,128,0,106804:0:0:0:0:
448,192,106804,1,0,0:0:0:0:
64,192,106804,1,0,0:0:0:0:
320,192,106980,1,0,0:0:0:0:
64,192,107157,1,0,0:0:0:0:
192,192,107157,1,0,0:0:0:0:
448,192,107333,1,0,0:0:0:0:
192,192,107510,1,0,0:0:0:0:
64,192,107510,1,0,0:0:0:0:
320,192,107686,128,0,107863:0:0:0:0:
64,192,107686,1,0,0:0:0:0:
192,192,107863,128,0,108039:0:0:0:0:
448,192,107863,1,0,0:0:0:0:
64,192,108039,128,0,108216:0:0:0:0:
448,192,108216,1,0,0:0:0:0:
320,192,108216,1,0,0:0:0:0:
448,192,108392,1,0,0:0:0:0:
320,192,108569,1,0,0:0:0:0:
192,192,108569,1,0,0:0:0:0:
64,192,108745,1,0,0:0:0:0:
64,192,108921,1,0,0:0:0:0:
192,192,108921,1,0,0:0:0:0:
320,192,109098,1,0,0:0:0:0:
64,192,109098,1,0,0:0:0:0:
448,192,109274,1,0,0:0:0:0:
192,192,109274,1,0,0:0:0:0:
320,192,109451,1,0,0:0:0:0:
64,192,109451,1,0,0:0:0:0:
192,192,109627,1,0,0:0:0:0:
320,192,109627,1,0,0:0:0:0:
448,192,109627,1,0,0:0:0:0:
192,192,109804,1,0,0:0:0:0:
192,192,109980,1,0,0:0:0:0:
320,192,109980,1,0,0:0:0:0:
320,192,110157,1,0,0:0:0:0:
320,192,110333,1,0,0:0:0:0:
192,192,110333,1,0,0:0:0:0:
448,192,110333,1,0,0:0:0:0:
64,192,110333,128,0,111392:0:0:0:0:
192,192,110686,128,0,111392:0:0:0:0:
320,192,111039,128,0,111392:0:0:0:0:
448,192,111392,1,0,0:0:0:0:
448,192,111569,1,0,0:0:0:0:
320,192,111657,1,0,0:0:0:0:
192,192,111745,1,0,0:0:0:0:
64,192,111833,1,0,0:0:0:0:
448,192,111921,1,0,0:0:0:0:
320,192,112010,1,0,0:0:0:0:
192,192,112098,1,0,0:0:0:0:
448,192,112186,1,0,0:0:0:0:
320,192,112274,1,0,0:0:0:0:
64,192,112363,1,0,0:0:0:0:
192,192,112451,1,0,0:0:0:0:
448,192,112539,1,0,0:0:0:0:
320,192,112627,1,0,0:0:0:0:
64,192,112716,1,0,0:0:0:0:
192,192,112804,1,0,0:0:0:0:
448,192,113157,128,0,113510:0:0:0:0:
320,192,113510,128,0,113863:0:0:0:0:
192,192,113863,128,0,114216:0:0:0:0:
64,192,114216,128,0,114569:0:0:0:0:
192,192,114569,128,0,114921:0:0:0:0:
320,192,114921,128,0,115274:0:0:0:0:
448,192,115274,128,0,115451:0:0:0:0:
64,192,115980,1,0,0:0:0:0:
192,192,115980,1,0,0:0:0:0:
320,192,115980,1,0,0:0:0:0:
192,192,116157,1,0,0:0:0:0:
320,192,116333,1,0,0:0:0:0:
192,192,116510,1,0,0:0:0:0:
192,192,116686,1,0,0:0:0:0:
320,192,116686,1,0,0:0:0:0:
448,192,116686,1,0,0:0:0:0:
320,192,116863,1,0,0:0:0:0:
192,192,117039,1,0,0:0:0:0:
320,192,117216,1,0,0:0:0:0:
64,192,117392,1,0,0:0:0:0:
320,192,117392,1,0,0:0:0:0:
448,192,117392,1,0,0:0:0:0:
192,192,117569,1,0,0:0:0:0:
64,192,117745,1,0,0:0:0:0:
192,192,117745,1,0,0:0:0:0:
448,192,117745,1,0,0:0:0:0:
320,192,117921,1,0,0:0:0:0:
64,192,118098,1,0,0:0:0:0:
192,192,118098,1,0,0:0:0:0:
320,192,118098,1,0,0:0:0:0:
448,192,118098,1,0,0:0:0:0:
448,192,118804,1,0,0:0:0:0:
320,192,118804,1,0,0:0:0:0:
192,192,118804,1,0,0:0:0:0:
320,192,118980,1,0,0:0:0:0:
192,192,119157,1,0,0:0:0:0:
320,192,119333,1,0,0:0:0:0:
64,192,119510,1,0,0:0:0:0:
192,192,119510,1,0,0:0:0:0:
320,192,119510,1,0,0:0:0:0:
192,192,119686,1,0,0:0:0:0:
320,192,119863,1,0,0:0:0:0:
192,192,120039,1,0,0:0:0:0:
192,192,120216,1,0,0:0:0:0:
64,192,120216,1,0,0:0:0:0:
448,192,120216,1,0,0:0:0:0:
320,192,120392,1,0,0:0:0:0:
320,192,120569,1,0,0:0:0:0:
64,192,120569,1,0,0:0:0:0:
448,192,120569,1,0,0:0:0:0:
192,192,120745,1,0,0:0:0:0:
64,192,120921,1,0,0:0:0:0:
192,192,120921,1,0,0:0:0:0:
320,192,120921,1,0,0:0:0:0:
448,192,120921,1,0,0:0:0:0:
64,192,121627,1,0,0:0:0:0:
192,192,121716,1,0,0:0:0:0:
448,192,121804,1,0,0:0:0:0:
320,192,121892,1,0,0:0:0:0:
64,192,121980,1,0,0:0:0:0:
192,192,122069,1,0,0:0:0:0:
448,192,122157,1,0,0:0:0:0:
320,192,122245,1,0,0:0:0:0:
64,192,122333,1,0,0:0:0:0:
192,192,122421,1,0,0:0:0:0:
448,192,122510,1,0,0:0:0:0:
320,192,122598,1,0,0:0:0:0:
64,192,122686,1,0,0:0:0:0:
192,192,122774,1,0,0:0:0:0:
448,192,122863,1,0,0:0:0:0:
320,192,122951,1,0,0:0:0:0:
192,192,123039,1,0,0:0:0:0:
320,192,123039,1,0,0:0:0:0:
64,192,123127,1,0,0:0:0:0:
448,192,123216,1,0,0:0:0:0:
64,192,123304,1,0,0:0:0:0:
192,192,123392,1,0,0:0:0:0:
320,192,123392,1,0,0:0:0:0:
448,192,123480,1,0,0:0:0:0:
64,192,123569,1,0,0:0:0:0:
448,192,123657,1,0,0:0:0:0:
320,192,123745,1,0,0:0:0:0:
192,192,123745,1,0,0:0:0:0:
320,192,123921,1,0,0:0:0:0:
320,192,124010,1,0,0:0:0:0:
192,192,124098,1,0,0:0:0:0:
192,192,124274,1,0,0:0:0:0:
64,192,124451,1,0,0:0:0:0:
448,192,124451,1,0,0:0:0:0:
192,192,124451,128,0,125157:0:0:0:0:
320,192,124451,128,0,125157:0:0:0:0:
64,192,125157,128,0,125863:0:0:0:0:
448,192,125157,128,0,125863:0:0:0:0:
192,192,126921,1,0,0:0:0:0:
320,192,127098,1,0,0:0:0:0:
448,192,127274,128,0,127627:0:0:0:0:
64,192,127451,1,0,0:0:0:0:
320,192,127627,1,0,0:0:0:0:
192,192,127627,128,0,127980:0:0:0:0:
448,192,127804,1,0,0:0:0:0:
320,192,127980,128,0,128333:0:0:0:0:
64,192,127980,1,0,0:0:0:0:
192,192,128157,1,0,0:0:0:0:
64,192,128333,128,0,128686:0:0:0:0:
448,192,128333,1,0,0:0:0:0:
320,192,128510,1,0,0:0:0:0:
192,192,128686,1,0,0:0:0:0:
320,192,128686,128,0,129039:0:0:0:0:
64,192,128863,1,0,0:0:0:0:
192,192,129039,128,0,129392:0:0:0:0:
448,192,129039,1,0,0:0:0:0:
448,192,129216,1,0,0:0:0:0:
64,192,129392,1,0,0:0:0:0:
448,192,129392,128,0,129569:0:0:0:0:
192,192,129745,1,0,0:0:0:0:
320,192,129745,1,0,0:0:0:0:
320,192,129921,128,0,130098:0:0:0:0:
192,192,129921,128,0,130098:0:0:0:0:
64,192,130098,128,0,130451:0:0:0:0:
448,192,130274,1,0,0:0:0:0:
320,192,130451,128,0,130804:0:0:0:0:
192,192,130451,1,0,0:0:0:0:
64,192,130627,1,0,0:0:0:0:
192,192,130804,128,0,131157:0:0:0:0:
448,192,130804,1,0,0:0:0:0:
320,192,130980,1,0,0:0:0:0:
448,192,131157,128,0,131510:0:0:0:0:
64,192,131157,1,0,0:0:0:0:
192,192,131333,1,0,0:0:0:0:
320,192,131510,1,0,0:0:0:0:
192,192,131686,1,0,0:0:0:0:
320,192,131863,1,0,0:0:0:0:
64,192,131863,1,0,0:0:0:0:
192,192,132039,1,0,0:0:0:0:
320,192,132216,1,0,0:0:0:0:
448,192,132216,1,0,0:0:0:0:
192,192,132392,1,0,0:0:0:0:
320,192,132569,1,0,0:0:0:0:
64,192,132569,1,0,0:0:0:0:
192,192,132569,1,0,0:0:0:0:
320,192,132745,1,0,0:0:0:0:
448,192,132921,128,0,133274:0:0:0:0:
64,192,133098,1,0,0:0:0:0:
64,192,133274,128,0,133627:0:0:0:0:
448,192,133451,1,0,0:0:0:0:
192,192,133627,128,0,133980:0:0:0:0:
320,192,133627,128,0,133980:0:0:0:0:
448,192,133804,1,0,0:0:0:0:
64,192,133980,1,0,0:0:0:0:
192,192,134157,1,0,0:0:0:0:
320,192,134333,1,0,0:0:0:0:
192,192,134333,1,0,0:0:0:0:
448,192,134510,1,0,0:0:0:0:
192,192,134686,1,0,0:0:0:0:
320,192,134686,1,0,0:0:0:0:
64,192,134863,1,0,0:0:0:0:
64,192,135039,1,0,0:0:0:0:
448,192,135039,1,0,0:0:0:0:
192,192,135216,1,0,0:0:0:0:
448,192,135392,1,0,0:0:0:0:
64,192,135392,1,0,0:0:0:0:
320,192,135569,1,0,0:0:0:0:
64,192,135569,1,0,0:0:0:0:
192,192,135745,128,0,136098:0:0:0:0:
448,192,136098,1,0,0:0:0:0:
320,192,136274,1,0,0:0:0:0:
320,192,136451,128,0,136804:0:0:0:0:
192,192,136451,1,0,0:0:0:0:
64,192,136627,1,0,0:0:0:0:
192,192,136804,1,0,0:0:0:0:
448,192,136980,1,0,0:0:0:0:
64,192,136980,1,0,0:0:0:0:
192,192,137157,1,0,0:0:0:0:
64,192,137245,1,0,0:0:0:0:
320,192,137333,1,0,0:0:0:0:
448,192,137421,1,0,0:0:0:0:
192,192,137510,1,0,0:0:0:0:
64,192,137598,1,0,0:0:0:0:
320,192,137686,1,0,0:0:0:0:
448,192,137774,1,0,0:0:0:0:
320,192,137863,128,0,138216:0:0:0:0:
192,192,137863,128,0,138216:0:0:0:0:
64,192,138216,1,0,0:0:0:0:
448,192,138392,1,0,0:0:0:0:
320,192,138569,128,0,138745:0:0:0:0:
192,192,138569,1,0,0:0:0:0:
64,192,138745,1,0,0:0:0:0:
192,192,138921,128,0,139098:0:0:0:0:
320,192,138921,1,0,0:0:0:0:
448,192,139098,1,0,0:0:0:0:
320,192,139186,1,0,0:0:0:0:
320,192,139363,1,0,0:0:0:0:
192,192,139451,128,0,139627:0:0:0:0:
320,192,139627,128,0,139804:0:0:0:0:
448,192,139627,1,0,0:0:0:0:
64,192,139804,1,0,0:0:0:0:
64,192,139892,1,0,0:0:0:0:
448,192,139980,128,0,140157:0:0:0:0:
64,192,140157,128,0,140333:0:0:0:0:
192,192,140333,1,0,0:0:0:0:
64,192,140510,1,0,0:0:0:0:
320,192,140510,1,0,0:0:0:0:
320,192,140686,128,0,140863:0:0:0:0:
192,192,140686,1,0,0:0:0:0:
448,192,140863,1,0,0:0:0:0:
320,192,141039,1,0,0:0:0:0:
448,192,141216,1,0,0:0:0:0:
192,192,141216,1,0,0:0:0:0:
320,192,141392,1,0,0:0:0:0:
64,192,141392,1,0,0:0:0:0:
192,192,141569,1,0,0:0:0:0:
320,192,141745,1,0,0:0:0:0:
448,192,141745,1,0,0:0:0:0:
320,192,141921,1,0,0:0:0:0:
320,192,142010,1,0,0:0:0:0:
64,192,142098,1,0,0:0:0:0:
448,192,142098,1,0,0:0:0:0:
64,192,142274,1,0,0:0:0:0:
448,192,142451,1,0,0:0:0:0:
192,192,142451,128,0,142804:0:0:0:0:
64,192,142804,128,0,142980:0:0:0:0:
192,192,143069,1,0,0:0:0:0:
320,192,143157,1,0,0:0:0:0:
192,192,143245,1,0,0:0:0:0:
448,192,143333,128,0,143510:0:0:0:0:
192,192,143510,1,0,0:0:0:0:
64,192,143510,1,0,0:0:0:0:
320,192,143686,1,0,0:0:0:0:
448,192,143863,1,0,0:0:0:0:
192,192,143863,1,0,0:0:0:0:
64,192,144039,1,0,0:0:0:0:
448,192,144216,128,0,144392:0:0:0:0:
192,192,144216,1,0,0:0:0:0:
320,192,144392,128,0,144569:0:0:0:0:
64,192,144569,1,0,0:0:0:0:
448,192,144569,128,0,144745:0:0:0:0:
320,192,144745,128,0,144833:0:0:0:0:
64,192,144833,1,0,0:0:0:0:
64,192,145010,1,0,0:0:0:0:
448,192,145098,1,0,0:0:0:0:
64,192,145098,1,0,0:0:0:0:
320,192,145274,128,0,145451:0:0:0:0:
192,192,145274,1,0,0:0:0:0:
448,192,145451,1,0,0:0:0:0:
448,192,145539,1,0,0:0:0:0:
192,192,145627,1,0,0:0:0:0:
64,192,145627,128,0,145804:0:0:0:0:
448,192,145804,128,0,145980:0:0:0:0:
64,192,145980,128,0,146157:0:0:0:0:
192,192,145980,1,0,0:0:0:0:
320,192,146157,1,0,0:0:0:0:
320,192,146245,1,0,0:0:0:0:
64,192,146333,1,0,0:0:0:0:
448,192,146333,1,0,0:0:0:0:
320,192,146510,1,0,0:0:0:0:
64,192,146686,1,0,0:0:0:0:
448,192,146686,1,0,0:0:0:0:
192,192,146863,1,0,0:0:0:0:
448,192,147039,1,0,0:0:0:0:
320,192,147039,1,0,0:0:0:0:
192,192,147039,1,0,0:0:0:0:
448,192,147216,1,0,0:0:0:0:
320,192,147392,1,0,0:0:0:0:
192,192,147392,1,0,0:0:0:0:
64,192,147392,1,0,0:0:0:0:
64,192,147569,1,0,0:0:0:0:
320,192,147745,1,0,0:0:0:0:
192,192,147745,128,0,148098:0:0:0:0:
448,192,147921,1,0,0:0:0:0:
320,192,148098,128,0,148274:0:0:0:0:
448,192,148274,128,0,148451:0:0:0:0:
64,192,148274,1,0,0:0:0:0:
64,192,148451,1,0,0:0:0:0:
320,192,148627,1,0,0:0:0:0:
192,192,148804,1,0,0:0:0:0:
448,192,148804,1,0,0:0:0:0:
320,192,148980,1,0,0:0:0:0:
320,192,149157,128,0,149510:0:0:0:0:
64,192,149157,128,0,150569:0:0:0:0:
448,192,149510,128,0,149863:0:0:0:0:
320,192,149863,1,0,0:0:0:0:
192,192,150039,1,0,0:0:0:0:
320,192,150216,1,0,0:0:0:0:
448,192,150392,1,0,0:0:0:0:
320,192,150569,1,0,0:0:0:0:
192,192,150745,1,0,0:0:0:0:
192,192,150833,1,0,0:0:0:0:
320,192,150921,1,0,0:0:0:0:
64,192,151274,1,0,0:0:0:0:
192,192,151274,1,0,0:0:0:0:
192,192,151451,1,0,0:0:0:0:
320,192,151451,1,0,0:0:0:0:
320,192,151627,1,0,0:0:0:0:
448,192,151627,1,0,0:0:0:0:
192,192,151804,1,0,0:0:0:0:
448,192,151804,1,0,0:0:0:0:
64,192,151980,1,0,0:0:0:0:
320,192,151980,1,0,0:0:0:0:
192,192,152157,1,0,0:0:0:0:
448,192,152157,1,0,0:0:0:0:
320,192,152333,1,0,0:0:0:0:
448,192,152333,1,0,0:0:0:0:
320,192,152510,1,0,0:0:0:0:
192,192,152510,1,0,0:0:0:0:
192,192,152686,1,0,0:0:0:0:
64,192,152686,1,0,0:0:0:0:
448,192,152863,1,0,0:0:0:0:
64,192,152863,1,0,0:0:0:0:
320,192,153039,1,0,0:0:0:0:
64,192,153039,1,0,0:0:0:0:
64,192,153216,1,0,0:0:0:0:
448,192,153216,1,0,0:0:0:0:
64,192,153392,1,0,0:0:0:0:
320,192,153392,1,0,0:0:0:0:
192,192,153569,1,0,0:0:0:0:
320,192,153745,1,0,0:0:0:0:
448,192,153921,1,0,0:0:0:0:
448,192,154098,1,0,0:0:0:0:
192,192,154098,1,0,0:0:0:0:
320,192,154274,1,0,0:0:0:0:
64,192,154274,1,0,0:0:0:0:
192,192,154451,1,0,0:0:0:0:
448,192,154451,1,0,0:0:0:0:
320,192,154627,1,0,0:0:0:0:
192,192,154627,1,0,0:0:0:0:
64,192,154804,1,0,0:0:0:0:
448,192,154804,1,0,0:0:0:0:
192,192,154980,1,0,0:0:0:0:
320,192,154980,1,0,0:0:0:0:
64,192,155157,1,0,0:0:0:0:
320,192,155157,1,0,0:0:0:0:
192,192,155333,1,0,0:0:0:0:
448,192,155333,1,0,0:0:0:0:
64,192,155510,1,0,0:0:0:0:
320,192,155510,1,0,0:0:0:0:
64,192,155686,1,0,0:0:0:0:
448,192,155686,1,0,0:0:0:0:
192,192,155863,1,0,0:0:0:0:
448,192,155863,1,0,0:0:0:0:
64,192,156039,1,0,0:0:0:0:
448,192,156039,1,0,0:0:0:0:
192,192,156216,1,0,0:0:0:0:
448,192,156216,1,0,0:0:0:0:
320,192,156392,1,0,0:0:0:0:
192,192,156569,1,0,0:0:0:0:
64,192,156745,1,0,0:0:0:0:
448,192,156921,1,0,0:0:0:0:
320,192,156921,1,0,0:0:0:0:
448,192,157098,1,0,0:0:0:0:
320,192,157098,1,0,0:0:0:0:
192,192,157274,1,0,0:0:0:0:
64,192,157274,1,0,0:0:0:0:
192,192,157451,1,0,0:0:0:0:
64,192,157451,1,0,0:0:0:0:
320,192,157627,1,0,0:0:0:0:
192,192,157627,1,0,0:0:0:0:
320,192,157804,1,0,0:0:0:0:
192,192,157804,1,0,0:0:0:0:
448,192,157980,1,0,0:0:0:0:
64,192,157980,1,0,0:0:0:0:
448,192,158157,1,0,0:0:0:0:
64,192,158157,1,0,0:0:0:0:
192,192,158333,1,0,0:0:0:0:
320,192,158333,1,0,0:0:0:0:
64,192,158510,1,0,0:0:0:0:
448,192,158510,1,0,0:0:0:0:
448,192,158686,1,0,0:0:0:0:
192,192,158686,1,0,0:0:0:0:
64,192,158863,1,0,0:0:0:0:
320,192,158863,1,0,0:0:0:0:
64,192,159039,1,0,0:0:0:0:
448,192,159039,1,0,0:0:0:0:
320,192,159216,1,0,0:0:0:0:
192,192,159392,1,0,0:0:0:0:
320,192,159569,1,0,0:0:0:0:
64,192,159745,1,0,0:0:0:0:
192,192,159745,1,0,0:0:0:0:
64,192,159921,1,0,0:0:0:0:
192,192,159921,1,0,0:0:0:0:
64,192,160098,1,0,0:0:0:0:
320,192,160098,1,0,0:0:0:0:
192,192,160274,1,0,0:0:0:0:
448,192,160274,1,0,0:0:0:0:
320,192,160451,1,0,0:0:0:0:
448,192,160451,1,0,0:0:0:0:
320,192,160627,1,0,0:0:0:0:
448,192,160627,1,0,0:0:0:0:
448,192,160804,1,0,0:0:0:0:
192,192,160804,1,0,0:0:0:0:
64,192,160980,1,0,0:0:0:0:
320,192,160980,1,0,0:0:0:0:
192,192,161157,1,0,0:0:0:0:
320,192,161157,1,0,0:0:0:0:
192,192,161333,1,0,0:0:0:0:
320,192,161333,1,0,0:0:0:0:
64,192,161510,1,0,0:0:0:0:
448,192,161686,1,0,0:0:0:0:
64,192,161863,128,0,162039:0:0:0:0:
448,192,161863,128,0,162039:0:0:0:0:
192,192,162039,1,0,0:0:0:0:
320,192,162127,1,0,0:0:0:0:
192,192,162216,1,0,0:0:0:0:
320,192,162304,1,0,0:0:0:0:
192,192,162392,1,0,0:0:0:0:
320,192,162480,1,0,0:0:0:0:
64,192,162569,1,0,0:0:0:0:
448,192,162569,1,0,0:0:0:0:
192,192,162745,1,0,0:0:0:0:
320,192,162745,1,0,0:0:0:0:
192,192,162921,1,0,0:0:0:0:
320,192,162921,1,0,0:0:0:0:
64,192,163098,1,0,0:0:0:0:
448,192,163098,1,0,0:0:0:0:
192,192,163274,1,0,0:0:0:0:
320,192,163274,1,0,0:0:0:0:
192,192,163451,1,0,0:0:0:0:
320,192,163451,1,0,0:0:0:0:
64,192,163627,1,0,0:0:0:0:
192,192,163627,1,0,0:0:0:0:
320,192,163804,1,0,0:0:0:0:
448,192,163804,1,0,0:0:0:0:
64,192,163980,1,0,0:0:0:0:
192,192,163980,1,0,0:0:0:0:
320,192,164157,1,0,0:0:0:0:
448,192,164157,1,0,0:0:0:0:
192,192,164333,1,0,0:0:0:0:
320,192,164333,1,0,0:0:0:0:
64,192,164510,1,0,0:0:0:0:
448,192,164510,1,0,0:0:0:0:
64,192,164686,1,0,0:0:0:0:
192,192,164774,1,0,0:0:0:0:
448,192,164863,1,0,0:0:0:0:
320,192,164951,1,0,0:0:0:0:
64,192,165039,1,0,0:0:0:0:
192,192,165127,1,0,0:0:0:0:
448,192,165216,1,0,0:0:0:0:
320,192,165304,1,0,0:0:0:0:
448,192,165392,1,0,0:0:0:0:
64,192,165392,1,0,0:0:0:0:
192,192,165569,1,0,0:0:0:0:
320,192,165569,1,0,0:0:0:0:
64,192,165745,1,0,0:0:0:0:
448,192,165745,1,0,0:0:0:0:
192,192,165921,1,0,0:0:0:0:
320,192,165921,1,0,0:0:0:0:
64,192,166098,1,0,0:0:0:0:
448,192,166098,1,0,0:0:0:0:
64,192,166274,1,0,0:0:0:0:
448,192,166274,1,0,0:0:0:0:
320,192,166451,1,0,0:0:0:0:
448,192,166451,1,0,0:0:0:0:
64,192,166627,1,0,0:0:0:0:
192,192,166627,1,0,0:0:0:0:
320,192,166804,1,0,0:0:0:0:
448,192,166804,1,0,0:0:0:0:
64,192,166980,1,0,0:0:0:0:
192,192,166980,1,0,0:0:0:0:
64,192,167157,1,0,0:0:0:0:
448,192,167157,1,0,0:0:0:0:
192,192,167333,1,0,0:0:0:0:
320,192,167333,1,0,0:0:0:0:
192,192,167510,1,0,0:0:0:0:
64,192,167598,1,0,0:0:0:0:
320,192,167686,1,0,0:0:0:0:
448,192,167774,1,0,0:0:0:0:
192,192,167863,1,0,0:0:0:0:
64,192,167951,1,0,0:0:0:0:
320,192,168039,1,0,0:0:0:0:
448,192,168127,1,0,0:0:0:0:
64,192,168216,1,0,0:0:0:0:
320,192,168216,1,0,0:0:0:0:
64,192,168392,1,0,0:0:0:0:
448,192,168392,1,0,0:0:0:0:
64,192,168569,1,0,0:0:0:0:
320,192,168569,1,0,0:0:0:0:
448,192,168745,1,0,0:0:0:0:
192,192,168745,1,0,0:0:0:0:
448,192,168921,1,0,0:0:0:0:
64,192,168921,1,0,0:0:0:0:
448,192,169098,1,0,0:0:0:0:
192,192,169098,1,0,0:0:0:0:
192,192,169274,1,0,0:0:0:0:
320,192,169274,1,0,0:0:0:0:
64,192,169451,1,0,0:0:0:0:
448,192,169451,1,0,0:0:0:0:
192,192,169627,1,0,0:0:0:0:
320,192,169627,1,0,0:0:0:0:
320,192,169804,1,0,0:0:0:0:
448,192,169804,1,0,0:0:0:0:
64,192,169980,1,0,0:0:0:0:
192,192,169980,1,0,0:0:0:0:
320,192,170157,1,0,0:0:0:0:
448,192,170157,1,0,0:0:0:0:
64,192,170333,1,0,0:0:0:0:
192,192,170333,1,0,0:0:0:0:
320,192,170421,1,0,0:0:0:0:
448,192,170421,1,0,0:0:0:0:
64,192,170510,1,0,0:0:0:0:
192,192,170510,1,0,0:0:0:0:
320,192,170598,1,0,0:0:0:0:
448,192,170598,1,0,0:0:0:0:
64,192,170686,1,0,0:0:0:0:
192,192,170686,1,0,0:0:0:0:
320,192,170774,1,0,0:0:0:0:
448,192,170774,1,0,0:0:0:0:
192,192,170863,1,0,0:0:0:0:
64,192,170863,1,0,0:0:0:0:
64,192,171039,1,0,0:0:0:0:
320,192,171039,1,0,0:0:0:0:
64,192,171216,1,0,0:0:0:0:
448,192,171216,1,0,0:0:0:0:
64,192,171392,1,0,0:0:0:0:
320,192,171392,1,0,0:0:0:0:
448,192,171569,1,0,0:0:0:0:
192,192,171569,1,0,0:0:0:0:
448,192,171745,1,0,0:0:0:0:
64,192,171745,1,0,0:0:0:0:
448,192,171921,1,0,0:0:0:0:
192,192,171921,1,0,0:0:0:0:
192,192,172098,1,0,0:0:0:0:
320,192,172098,1,0,0:0:0:0:
64,192,172274,1,0,0:0:0:0:
448,192,172274,1,0,0:0:0:0:
192,192,172451,1,0,0:0:0:0:
64,192,172451,1,0,0:0:0:0:
448,192,172451,1,0,0:0:0:0:
192,192,172627,1,0,0:0:0:0:
320,192,172627,1,0,0:0:0:0:
64,192,172804,1,0,0:0:0:0:
320,192,172804,1,0,0:0:0:0:
448,192,172804,1,0,0:0:0:0:
192,192,172980,1,0,0:0:0:0:
320,192,172980,1,0,0:0:0:0:
64,192,173157,1,0,0:0:0:0:
192,192,173157,1,0,0:0:0:0:
448,192,173245,1,0,0:0:0:0:
320,192,173333,1,0,0:0:0:0:
192,192,173421,1,0,0:0:0:0:
448,192,173510,1,0,0:0:0:0:
320,192,173510,1,0,0:0:0:0:
64,192,173598,1,0,0:0:0:0:
192,192,173686,1,0,0:0:0:0:
320,192,173774,1,0,0:0:0:0:
64,192,173863,1,0,0:0:0:0:
448,192,173863,1,0,0:0:0:0:
192,192,174039,1,0,0:0:0:0:
320,192,174039,1,0,0:0:0:0:
64,192,174216,1,0,0:0:0:0:
448,192,174216,1,0,0:0:0:0:
192,192,174392,1,0,0:0:0:0:
320,192,174392,1,0,0:0:0:0:
64,192,174569,1,0,0:0:0:0:
192,192,174569,1,0,0:0:0:0:
320,192,174569,1,0,0:0:0:0:
448,192,174569,1,0,0:0:0:0:
192,192,174745,1,0,0:0:0:0:
320,192,174833,1,0,0:0:0:0:
192,192,174921,1,0,0:0:0:0:
