osu file format v14

[General]
AudioFilename: audio.mp3
AudioLeadIn: 0
PreviewTime: 76839
Countdown: 0
SampleSet: Soft
StackLeniency: 0.7
Mode: 0
LetterboxInBreaks: 0
WidescreenStoryboard: 1

[Editor]
DistanceSpacing: 1.1
BeatDivisor: 4
GridSize: 32
TimelineZoom: 2.699999

[Metadata]
Title:Xanadu
TitleUnicode:Xanadu
Artist:Asriel
ArtistUnicode:Asriel
Creator:Lasse
Version:Insane
Source:
Tags:japanese gothic symphonic rock metal kokomi 黒瀬圭亮 Keisuke Kurose
BeatmapID:2633339
BeatmapSetID:1267099

[Difficulty]
HPDrainRate:6
CircleSize:4
OverallDifficulty:8
ApproachRate:9.2
SliderMultiplier:1.6
SliderTickRate:1

[Events]
//Background and Video events
0,0,"bg.jpg",0,0
//Break Periods
//Storyboard Layer 0 (Background)
//Storyboard Layer 1 (Fail)
//Storyboard Layer 2 (Pass)
//Storyboard Layer 3 (Foreground)
//Storyboard Layer 4 (Overlay)
//Storyboard Sound Samples

[TimingPoints]
1537,269.058295964126,4,2,35,60,1,0
4496,-200,4,2,35,60,0,0
13644,-200,4,2,35,60,0,0
13913,-100,4,2,35,68,0,0
14317,-100,4,2,34,75,0,1
14586,-100,4,2,35,75,0,1
20640,-83.3333333333333,4,2,35,75,0,1
20774,-83.3333333333333,4,2,34,75,0,1
21043,-83.3333333333333,4,2,35,75,0,1
21850,-83.3333333333333,4,2,34,75,0,1
22254,-83.3333333333333,4,2,35,75,0,1
22927,-100,4,2,34,75,0,1
23196,-100,4,2,35,75,0,1
29250,-83.3333333333333,4,2,35,75,0,1
29384,-83.3333333333333,4,2,34,75,0,1
29653,-83.3333333333333,4,2,35,75,0,1
31537,-100,4,2,35,70,0,0
31940,-133.333333333333,4,2,35,65,0,0
32478,-133.333333333333,4,2,35,60,0,0
33689,-100,4,2,35,70,0,0
34093,-133.333333333333,4,2,35,65,0,0
34631,-133.333333333333,4,2,35,60,0,0
35841,-100,4,2,35,65,0,0
37994,-100,4,2,34,70,0,0
38263,-100,4,2,35,70,0,0
40146,-114.942528735632,4,2,35,60,0,0
56963,-166.666666666667,4,2,35,60,0,0
57433,-200,4,2,35,30,0,0
57501,-100,4,2,34,65,0,0
57770,-100,4,2,35,65,0,0
59519,-100,4,2,34,65,0,0
59788,-100,4,2,35,65,0,0
61806,-100,4,2,34,65,0,0
62075,-100,4,2,35,65,0,0
64227,-90.9090909090909,4,2,35,60,0,0
64765,-83.3333333333333,4,2,35,65,0,0
65303,-76.9230769230769,4,2,35,70,0,0
65841,-100,4,2,35,65,0,0
66110,-100,4,2,34,65,0,0
66380,-100,4,2,35,65,0,0
69205,-133.333333333333,4,2,35,65,0,0
69339,-133.333333333333,4,2,35,50,0,0
69877,-133.333333333333,4,2,35,65,0,0
70281,-100,4,2,34,68,0,0
70550,-100,4,2,35,68,0,0
72433,-90.9090909090909,4,2,34,70,0,0
72702,-90.9090909090909,4,2,35,70,0,0
74451,-90.9090909090909,4,2,34,70,0,0
74720,-90.9090909090909,4,2,35,72,0,0
75931,-90.9090909090909,4,2,35,74,0,0
76873,-83.3333333333333,4,2,35,78,0,1
77142,-83.3333333333333,4,2,34,78,0,1
77276,-83.3333333333333,4,2,35,78,0,1
81043,-83.3333333333333,4,2,34,78,0,1
81312,-83.3333333333333,4,2,35,78,0,1
83196,-76.9230769230769,4,2,34,78,0,1
83465,-76.9230769230769,4,2,35,78,0,1
83868,-90.9090909090909,4,2,35,78,0,1
84272,-76.9230769230769,4,2,34,78,0,1
84541,-76.9230769230769,4,2,35,78,0,1
85348,-83.3333333333333,4,2,34,78,0,1
85617,-83.3333333333333,4,2,35,78,0,1
89653,-83.3333333333333,4,2,34,78,0,1
89922,-83.3333333333333,4,2,35,78,0,1
91806,-76.9230769230769,4,2,34,78,0,1
92209,-76.9230769230769,4,2,35,78,0,1
92882,-76.9230769230769,4,2,34,78,0,1
93151,-76.9230769230769,4,2,35,78,0,1
93958,-83.3333333333333,4,2,34,78,0,1
94227,-83.3333333333333,4,2,35,78,0,1
98128,-76.9230769230769,4,2,35,78,0,1
98330,-76.9230769230769,4,2,35,50,0,1
98397,-71.4285714285714,4,2,34,78,0,1
98599,-71.4285714285714,4,2,35,50,0,1
98667,-100,4,2,35,65,0,0
100146,-125,4,2,35,65,0,0
100550,-100,4,2,35,65,0,0
101626,-100,4,2,35,65,0,0
101895,-100,4,2,35,50,0,0
102164,-133.333333333333,4,2,35,60,0,0
102568,-133.333333333333,4,2,35,50,0,0
102702,-133.333333333333,4,2,35,60,0,0
111312,-100,4,2,35,62,0,0
118913,-133.333333333333,4,2,35,65,0,0
118980,-133.333333333333,4,2,35,60,0,0
119788,-83.3333333333333,4,2,34,76,0,1
120191,-83.3333333333333,4,2,36,76,0,1
120460,-83.3333333333333,4,2,37,76,0,1
120729,-83.3333333333333,4,2,36,76,0,1
120864,-83.3333333333333,4,2,35,76,0,1
120998,-83.3333333333333,4,2,36,76,0,1
121133,-83.3333333333333,4,2,35,76,0,1
121267,-83.3333333333333,4,2,36,76,0,1
121537,-83.3333333333333,4,2,37,76,0,1
121806,-83.3333333333333,4,2,36,76,0,1
121940,-83.3333333333333,4,2,35,76,0,1
122344,-83.3333333333333,4,2,36,76,0,1
122613,-83.3333333333333,4,2,37,76,0,1
122882,-83.3333333333333,4,2,36,76,0,1
123016,-83.3333333333333,4,2,35,76,0,1
123151,-83.3333333333333,4,2,36,76,0,1
123285,-83.3333333333333,4,2,35,76,0,1
123420,-83.3333333333333,4,2,36,76,0,1
123689,-83.3333333333333,4,2,37,76,0,1
123958,-83.3333333333333,4,2,36,76,0,1
124093,-83.3333333333333,4,2,34,76,0,1
124496,-83.3333333333333,4,2,36,76,0,1
124765,-83.3333333333333,4,2,37,76,0,1
125034,-83.3333333333333,4,2,36,76,0,1
125169,-83.3333333333333,4,2,35,76,0,1
125303,-83.3333333333333,4,2,36,76,0,1
125438,-83.3333333333333,4,2,35,76,0,1
125572,-83.3333333333333,4,2,36,76,0,1
125841,-83.3333333333333,4,2,37,76,0,1
126110,-83.3333333333333,4,2,36,76,0,1
126245,-83.3333333333333,4,2,35,76,0,1
126649,-83.3333333333333,4,2,36,76,0,1
126783,-83.3333333333333,4,2,35,76,0,1
127725,-83.3333333333333,4,2,36,76,0,1
127859,-83.3333333333333,4,2,35,76,0,1
127994,-83.3333333333333,4,2,36,76,0,1
128128,-83.3333333333333,4,2,35,76,0,1
128263,-83.3333333333333,4,2,36,76,0,1
128397,-83.3333333333333,4,2,34,76,0,1
128667,-83.3333333333333,4,2,35,76,0,1
130281,-71.4285714285714,4,2,35,76,0,1
130954,-83.3333333333333,4,2,35,76,0,1
131626,-76.9230769230769,4,2,35,76,0,1
132030,-83.3333333333333,4,2,35,76,0,1
132299,-83.3333333333333,4,2,37,76,0,1
132433,-83.3333333333333,4,2,35,76,0,1
132702,-83.3333333333333,4,2,34,76,0,1
132971,-83.3333333333333,4,2,35,76,0,1
133375,-83.3333333333333,4,2,37,76,0,1
133510,-83.3333333333333,4,2,35,76,0,1
134451,-83.3333333333333,4,2,37,76,0,1
134586,-83.3333333333333,4,2,35,76,0,1
134855,-76.9230769230769,4,2,35,76,0,1
135258,-76.9230769230769,4,2,36,76,0,1
135393,-76.9230769230769,4,2,35,76,0,1
135931,-71.4285714285714,4,2,34,76,0,1
136200,-71.4285714285714,4,2,35,76,0,1
136335,-71.4285714285714,4,2,36,76,0,1
136469,-71.4285714285714,4,2,35,76,0,1
136604,-71.4285714285714,4,2,36,76,0,1
136738,-71.4285714285714,4,2,35,76,0,1
137007,-76.9230769230769,4,2,34,76,0,1
137276,-76.9230769230769,4,2,35,76,0,1
139160,-71.4285714285714,4,2,34,77,0,1
139563,-71.4285714285714,4,2,35,77,0,1
141312,-66.6666666666667,4,2,34,78,0,1
141581,-66.6666666666667,4,2,35,78,0,1
143465,-62.5,4,2,34,79,0,1
143734,-62.5,4,2,35,79,0,1
144676,-100,4,2,36,80,0,1
144945,-100,4,2,36,78,0,1
145214,-100,4,2,35,70,0,0
145348,-100,4,2,35,50,0,0
145617,-114.942528735632,4,2,35,60,0,0
162971,-100,4,2,34,65,0,0
163241,-100,4,2,35,65,0,0
164989,-100,4,2,34,65,0,0
165258,-100,4,2,35,65,0,0
167276,-100,4,2,34,65,0,0
167545,-100,4,2,35,65,0,0
169429,-90.9090909090909,4,2,34,65,0,0
169631,-90.9090909090909,4,2,34,30,0,0
169698,-83.3333333333333,4,2,35,60,0,0
170236,-76.9230769230769,4,2,35,65,0,0
170774,-71.4285714285714,4,2,35,70,0,0
171110,-71.4285714285714,4,2,35,30,0,0
171178,-100,4,2,35,65,0,0
171581,-100,4,2,34,65,0,0
171850,-100,4,2,35,65,0,0
174676,-133.333333333333,4,2,35,65,0,0
174810,-133.333333333333,4,2,35,50,0,0
175348,-133.333333333333,4,2,35,65,0,0
175752,-100,4,2,34,68,0,0
176021,-100,4,2,35,68,0,0
177904,-90.9090909090909,4,2,34,70,0,0
178173,-90.9090909090909,4,2,35,70,0,0
179922,-90.9090909090909,4,2,34,70,0,0
180191,-90.9090909090909,4,2,35,72,0,0
181402,-90.9090909090909,4,2,35,74,0,0
182344,-83.3333333333333,4,2,35,78,0,1
182613,-83.3333333333333,4,2,34,78,0,1
182747,-83.3333333333333,4,2,35,78,0,1
186514,-83.3333333333333,4,2,34,78,0,1
186783,-83.3333333333333,4,2,35,78,0,1
188667,-76.9230769230769,4,2,34,78,0,1
188936,-76.9230769230769,4,2,35,78,0,1
189339,-90.9090909090909,4,2,35,78,0,1
189743,-76.9230769230769,4,2,34,78,0,1
190012,-76.9230769230769,4,2,35,78,0,1
190819,-83.3333333333333,4,2,34,78,0,1
191088,-83.3333333333333,4,2,35,78,0,1
195124,-83.3333333333333,4,2,34,78,0,1
195393,-83.3333333333333,4,2,35,78,0,1
197276,-76.9230769230769,4,2,34,78,0,1
197545,-76.9230769230769,4,2,35,78,0,1
197949,-90.9090909090909,4,2,35,78,0,1
198353,-76.9230769230769,4,2,34,78,0,1
198757,-76.9230769230769,4,2,35,78,0,1
199429,-83.3333333333333,4,2,34,78,0,1
199698,-83.3333333333333,4,2,35,78,0,1
203599,-76.9230769230769,4,2,35,78,0,1
203801,-76.9230769230769,4,2,35,50,0,1
203868,-71.4285714285714,4,2,34,78,0,0
204070,-71.4285714285714,4,2,34,50,0,0
204137,-100,4,2,35,65,0,0
207097,-100,4,2,35,65,0,0
207366,-100,4,2,35,50,0,0
207635,-90.9090909090909,4,2,35,60,0,0
208173,-166.666666666667,4,2,35,60,0,0
208711,-166.666666666667,4,2,35,50,0,0
216245,-166.666666666667,4,2,36,60,0,0
216380,-166.666666666667,4,2,35,60,0,0
216649,-76.9230769230769,4,2,34,78,0,1
216918,-76.9230769230769,4,2,35,78,0,1
217590,-76.9230769230769,4,2,36,78,0,1
217725,-76.9230769230769,4,2,35,78,0,1
218532,-76.9230769230769,4,2,37,78,0,1
218667,-76.9230769230769,4,2,35,78,0,1
219608,-76.9230769230769,4,2,37,78,0,1
219743,-76.9230769230769,4,2,35,78,0,1
220954,-76.9230769230769,4,2,34,78,0,1
221223,-76.9230769230769,4,2,35,78,0,1
221357,-76.9230769230769,4,2,36,78,0,1
221492,-76.9230769230769,4,2,35,78,0,1
221626,-76.9230769230769,4,2,37,78,0,1
221761,-76.9230769230769,4,2,35,78,0,1
221895,-76.9230769230769,4,2,36,78,0,1
222030,-76.9230769230769,4,2,35,78,0,1
222164,-76.9230769230769,4,2,37,78,0,1
222299,-76.9230769230769,4,2,35,78,0,1
222433,-76.9230769230769,4,2,36,78,0,1
222568,-76.9230769230769,4,2,35,78,0,1
222702,-76.9230769230769,4,2,37,78,0,1
222837,-76.9230769230769,4,2,35,78,0,1
222971,-76.9230769230769,4,2,36,78,0,1
223106,-76.9230769230769,4,2,35,78,0,1
224048,-76.9230769230769,4,2,36,78,0,1
224182,-76.9230769230769,4,2,35,78,0,1
225258,-76.9230769230769,4,2,34,78,0,1
225528,-76.9230769230769,4,2,35,78,0,1
228084,-76.9230769230769,4,2,37,78,0,1
228218,-76.9230769230769,4,2,35,78,0,1
229160,-76.9230769230769,4,2,37,78,0,1
229294,-76.9230769230769,4,2,35,78,0,1
229563,-76.9230769230769,4,2,34,78,0,1
229832,-76.9230769230769,4,2,35,78,0,1
229967,-76.9230769230769,4,2,36,78,0,1
230102,-76.9230769230769,4,2,35,78,0,1
230236,-76.9230769230769,4,2,37,78,0,1
230371,-76.9230769230769,4,2,35,78,0,1
230505,-76.9230769230769,4,2,36,78,0,1
230640,-76.9230769230769,4,2,35,78,0,1
230774,-76.9230769230769,4,2,37,78,0,1
230909,-76.9230769230769,4,2,35,78,0,1
231043,-76.9230769230769,4,2,36,78,0,1
231178,-76.9230769230769,4,2,35,78,0,1
231312,-76.9230769230769,4,2,37,78,0,1
231447,-76.9230769230769,4,2,35,78,0,1
233868,-76.9230769230769,4,2,34,78,0,1
234137,-76.9230769230769,4,2,35,78,0,1
234676,-76.9230769230769,4,2,37,78,0,1
234810,-76.9230769230769,4,2,35,78,0,1
235886,-76.9230769230769,4,2,36,78,0,1
236021,-76.9230769230769,4,2,35,78,0,1
236693,-76.9230769230769,4,2,37,78,0,1
236828,-76.9230769230769,4,2,35,78,0,1
238039,-76.9230769230769,4,2,36,78,0,1
238173,-76.9230769230769,4,2,34,78,0,1
238442,-76.9230769230769,4,2,35,78,0,1
238846,-76.9230769230769,4,2,37,78,0,1
238980,-76.9230769230769,4,2,35,78,0,1
239250,-76.9230769230769,4,2,37,78,0,1
239317,-76.9230769230769,4,2,35,78,0,1
240191,-76.9230769230769,4,2,36,78,0,1
240326,-76.9230769230769,4,2,35,78,0,1
242344,-76.9230769230769,4,2,36,78,0,1
242478,-76.9230769230769,4,2,34,78,0,1
242747,-76.9230769230769,4,2,35,78,0,1
243554,-76.9230769230769,4,2,37,78,0,1
243621,-76.9230769230769,4,2,35,78,0,1
246783,-76.9230769230769,4,2,34,78,0,1
247052,-76.9230769230769,4,2,35,78,0,1
247725,-76.9230769230769,4,2,36,78,0,1
247859,-76.9230769230769,4,2,35,78,0,1
248801,-76.9230769230769,4,2,36,78,0,1
248936,-76.9230769230769,4,2,34,78,0,1
249205,-76.9230769230769,4,2,35,78,0,1
251223,-71.4285714285714,4,2,35,72,0,0
251761,-71.4285714285714,4,2,35,74,0,0
252164,-71.4285714285714,4,2,34,74,0,0
252433,-71.4285714285714,4,2,35,76,0,0
253375,-100,4,2,35,60,0,0
253644,-100,4,2,34,72,0,0
254989,-100,4,2,34,60,0,0
255258,-133.333333333333,4,2,35,64,0,0
255595,-133.333333333333,4,2,35,5,0,0
255662,-100,4,2,35,64,0,0
255797,-100,4,2,34,72,0,0
257411,-133.333333333333,4,2,35,62,0,0
258218,-133.333333333333,4,2,35,56,0,0
259294,-133.333333333333,4,2,35,58,0,0
259429,-133.333333333333,4,2,35,60,0,0
259563,-133.333333333333,4,2,35,62,0,0
259698,-111.111111111111,4,2,35,70,0,0
260102,-100,4,2,34,72,0,0
260236,-100,4,2,35,65,0,0
260371,-100,4,2,35,67,0,0
260774,-111.111111111111,4,2,35,62,0,0
261178,-100,4,2,34,72,0,0
261447,-100,4,2,35,74,0,0
261850,-133.333333333333,4,2,35,68,0,0
268039,-200,4,2,35,64,0,0
268241,-200,4,2,35,5,0,0
268308,-100,4,2,34,70,0,0
268577,-100,4,2,35,70,0,0
269384,-90.9090909090909,4,2,34,72,0,0
269653,-90.9090909090909,4,2,35,72,0,0
270460,-83.3333333333333,4,2,34,80,0,1
270729,-83.3333333333333,4,2,35,80,0,1
274765,-83.3333333333333,4,2,34,80,0,1
275034,-83.3333333333333,4,2,35,80,0,1
276245,-100,4,2,35,80,0,1
276514,-76.9230769230769,4,2,35,80,0,1
276918,-71.4285714285714,4,2,34,80,0,1
277321,-83.3333333333333,4,2,35,80,0,1
277994,-71.4285714285714,4,2,35,80,0,1
278397,-76.9230769230769,4,2,35,80,0,1
279070,-83.3333333333333,4,2,34,80,0,1
279339,-83.3333333333333,4,2,35,80,0,1
283375,-83.3333333333333,4,2,34,80,0,1
283644,-83.3333333333333,4,2,35,80,0,1
285124,-76.9230769230769,4,2,35,80,0,1
285528,-71.4285714285714,4,2,34,80,0,1
285797,-83.3333333333333,4,2,35,80,0,1
286604,-76.9230769230769,4,2,35,80,0,1
287680,-83.3333333333333,4,2,34,80,0,1
287949,-83.3333333333333,4,2,35,80,0,1
291985,-83.3333333333333,4,2,34,80,0,1
292254,-83.3333333333333,4,2,35,80,0,1
293734,-76.9230769230769,4,2,35,80,0,1
294137,-71.4285714285714,4,2,34,80,0,1
294406,-71.4285714285714,4,2,35,80,0,1
294541,-83.3333333333333,4,2,35,80,0,1
295214,-71.4285714285714,4,2,35,80,0,1
295617,-83.3333333333333,4,2,35,80,0,1
296290,-83.3333333333333,4,2,34,80,0,1
296559,-83.3333333333333,4,2,35,80,0,1
300595,-76.9230769230769,4,2,34,80,0,1
300998,-83.3333333333333,4,2,35,80,0,1
302344,-76.9230769230769,4,2,35,80,0,1
302747,-71.4285714285714,4,2,34,80,0,1
303016,-71.4285714285714,4,2,35,80,0,1
303420,-83.3333333333333,4,2,35,80,0,1
303823,-166.666666666667,4,2,35,70,0,0
303891,-200,4,2,35,5,0,0
305034,-200,4,2,35,55,0,0
307052,-200,4,2,35,40,0,0
312837,-125,4,2,35,60,0,0
313106,-125,4,2,35,68,0,0
313510,-90.9090909090909,4,2,34,75,0,1
313779,-90.9090909090909,4,2,35,75,0,1
317411,-90.9090909090909,4,2,37,75,0,1
317545,-90.9090909090909,4,2,35,75,0,1
317815,-90.9090909090909,4,2,34,75,0,1
318084,-90.9090909090909,4,2,35,75,0,1
319563,-83.3333333333333,4,2,35,75,0,1
320640,-100,4,2,35,75,0,1
321043,-76.9230769230769,4,2,35,75,0,1
321447,-76.9230769230769,4,2,36,75,0,1
321581,-76.9230769230769,4,2,35,75,0,1
321716,-76.9230769230769,4,2,36,75,0,1
321850,-76.9230769230769,4,2,35,75,0,1
322119,-90.9090909090909,4,2,34,75,0,1
322389,-90.9090909090909,4,2,35,75,0,1
326021,-90.9090909090909,4,2,37,75,0,1
326155,-90.9090909090909,4,2,35,75,0,1
326424,-90.9090909090909,4,2,34,75,0,1
326693,-90.9090909090909,4,2,35,75,0,1
328173,-83.3333333333333,4,2,35,75,0,1
328577,-83.3333333333333,4,2,34,75,0,1
328980,-83.3333333333333,4,2,35,75,0,1
329250,-76.9230769230769,4,2,35,75,0,1
329653,-76.9230769230769,4,2,34,75,0,1
329922,-76.9230769230769,4,2,35,75,0,1
330864,-200,4,2,35,70,0,0
331537,-200,4,2,35,68,0,0
332209,-200,4,2,35,66,0,0
332613,-166.666666666667,4,2,35,64,0,0
332882,-166.666666666667,4,2,35,58,0,0
333016,-168.350168350168,4,2,34,62,0,0
333084,-200,4,2,35,50,0,0
334093,-200,4,2,35,45,0,0
334631,-200,4,2,35,40,0,0
335169,-200,4,2,35,35,0,0
335707,-200,4,2,35,30,0,0
336245,-200,4,2,35,25,0,0
336783,-200,4,2,35,20,0,0
337321,-200,4,2,35,18,0,0
337859,-200,4,2,35,16,0,0
338397,-200,4,2,35,14,0,0
338936,-200,4,2,35,12,0,0
339474,-200,4,2,37,24,0,0

[Colours]
Combo1 : 240,140,140
Combo2 : 200,180,220
Combo3 : 240,200,155
Combo4 : 150,185,220

[HitObjects]
124,288,13644,6,8,L|126:309,3,13.3333333333333,8|8|8|8,0:1|0:1|0:1|0:1,0:1:0:0:
55,240,13913,5,10,0:0:0:0:
45,335,14048,1,8,0:2:0:0:
124,384,14182,1,8,0:3:0:0:
210,329,14317,6,0,P|215:254|243:158,1,160,14|8,0:1|0:1,0:0:0:0:
346,115,14720,2,0,P|363:144|363:199,1,80,8|0,0:0|0:0,0:0:0:0:
251,39,14989,2,0,P|212:32|181:142,1,160,10|8,0:1|0:0,0:0:0:0:
359,210,15393,6,0,P|431:180|509:196,1,160,10|8,0:1|0:1,0:0:0:0:
502,343,15797,2,0,P|485:306|449:281,1,80,10|0,0:0|0:0,0:0:0:0:
373,362,16066,2,8,P|332:336|288:333,1,80,10|8,0:1|0:1,0:1:0:0:
202,384,16335,1,8,0:0:0:0:
134,264,16469,6,0,P|132:191|151:103,1,160,14|8,0:1|0:1,0:1:0:0:
9,30,16873,2,0,P|-13:73|63:132,1,160,8|8,0:0|0:1,0:0:0:0:
207,42,17276,1,10,0:1:0:0:
253,171,17411,1,8,0:0:0:0:
354,122,17545,6,0,P|395:100|508:114,1,160,10|8,0:1|0:1,0:0:0:0:
288,71,17949,2,0,P|263:42|253:-9,1,80,10|0,0:0|0:0,0:0:0:0:
407,186,18218,2,0,P|421:263|365:346,1,160,10|8,0:1|0:0,0:0:0:0:
121,238,18622,6,0,P|107:315|144:384,1,160,14|8,0:1|0:1,0:0:0:0:
233,261,19025,2,0,L|244:147,1,80,8|0,0:0|0:0,0:0:0:0:
49,116,19294,2,0,L|56:195,1,80,10|8,0:1|0:1,0:0:0:0:
216,43,19563,1,8,0:0:0:0:
307,97,19698,6,0,P|372:113|452:42,1,160,10|8,0:1|0:1,0:0:0:0:
433,193,20102,2,0,P|471:200|508:227,1,80,10|0,0:0|0:0,0:0:0:0:
421,307,20371,2,8,P|434:344|431:384,1,80,10|8,0:1|0:1,0:1:0:0:
322,264,20640,1,8,0:0:0:0:
197,345,20774,6,0,B|158:379|158:379|-3:345,1,191.999994140625,14|8,0:1|0:1,0:0:0:0:
130,204,21178,2,0,B|110:177|110:177|125:89,1,95.9999970703126,14|0,0:0|0:0,0:0:0:0:
159,34,21447,1,10,0:3:0:0:
159,34,21514,1,8,0:3:0:0:
159,34,21581,1,8,0:3:0:0:
229,167,21716,1,10,0:0:0:0:
388,125,21850,6,0,B|427:88|413:30|365:1|365:1|317:28,1,191.999994140625,14|8,0:1|0:1,0:0:0:0:
208,178,22254,2,0,P|202:232|225:277,1,95.9999970703126,12|0,0:0|0:0,0:0:0:0:
404,249,22523,5,10,0:0:0:0:
391,384,22658,1,10,0:0:0:0:
311,305,22792,1,10,0:0:0:0:
491,344,22927,6,0,B|518:309|518:309|483:179,1,160,14|8,0:1|0:1,0:0:0:0:
512,62,23330,2,0,B|495:120|428:121|428:121|381:79,1,160,12|10,0:0|0:1,0:0:0:0:
334,21,23734,1,8,0:1:0:0:
246,29,23868,1,8,0:0:0:0:
213,111,24003,2,0,B|186:178|257:191|211:290,1,160,10|8,0:1|0:1,0:1:0:0:
114,367,24406,6,0,P|72:357|19:349,1,80,10|0,0:0|0:0,0:0:0:0:
219,284,24676,2,0,P|261:274|314:266,1,80,10|8,0:1|0:1,0:0:0:0:
106,221,24945,1,8,0:0:0:0:
234,135,25079,6,0,B|297:82|247:11|247:11|220:18,1,160,14|8,0:1|0:1,0:1:0:0:
123,139,25483,2,0,P|58:123|14:199,1,160,8|8,0:0|0:1,0:0:0:0:
8,279,25886,1,8,0:1:0:0:
60,350,26021,1,8,0:0:0:0:
147,358,26155,2,0,B|244:331|207:402|323:371,1,160,10|8,0:1|0:1,0:0:0:0:
480,306,26559,6,0,P|482:345|466:403,1,80,10|0,0:0|0:0,0:0:0:0:
355,300,26828,1,10,0:1:0:0:
425,213,26963,1,8,0:1:0:0:
366,122,27097,1,8,0:0:0:0:
269,219,27232,6,0,B|237:254|237:254|112:229,1,160,14|8,0:1|0:1,0:0:0:0:
15,278,27635,2,0,P|-4:207|69:128,1,160,8|8,0:0|0:1,0:0:0:0:
115,90,28039,1,8,0:1:0:0:
189,136,28173,1,8,0:0:0:0:
307,93,28308,6,0,P|310:34|405:25,1,160,10|8,0:1|0:1,0:1:0:0:
415,158,28712,2,0,L|519:175,1,80,8|0,0:0|0:0,0:0:0:0:
357,237,28980,1,8,0:1:0:0:
428,288,29115,1,8,0:1:0:0:
372,378,29250,1,8,0:0:0:0:
340,228,29384,6,0,P|360:171|299:42,1,191.999994140625,14|8,0:1|0:1,0:1:0:0:
231,196,29788,2,0,P|183:200|103:214,1,95.9999970703126,14|0,0:0|0:0,0:0:0:0:
58,260,30057,1,8,0:3:0:0:
58,260,30124,1,8,0:3:0:0:
58,260,30191,1,8,0:3:0:0:
83,141,30326,1,8,0:0:0:0:
154,293,30460,2,0,P|203:325|333:262,1,191.999994140625,14|8,0:1|0:1,0:0:0:0:
419,133,30864,6,0,B|426:102|426:102|422:85|422:85|428:38,1,95.9999970703126,14|0,0:0|0:0,0:0:0:0:
321,160,31133,1,8,0:0:0:0:
463,229,31267,1,8,0:0:0:0:
320,284,31402,1,8,0:0:0:0:
467,348,31537,6,0,B|493:341|511:314|511:314|511:256|463:229,1,160,14|0,0:1|0:0,0:0:0:0:
389,252,31940,2,0,L|251:236,1,120.000004577637,2|0,0:0|0:0,0:0:0:0:
86,280,32478,5,8,0:0:0:0:
86,280,32613,2,0,P|77:217|114:151,1,120.000004577637,10|8,0:1|0:1,0:0:0:0:
159,116,33016,1,8,0:0:0:0:
269,238,33285,5,8,0:0:0:0:
323,293,33420,1,8,0:0:0:0:
378,239,33554,1,8,0:0:0:0:
324,184,33689,2,0,B|307:144|307:144|303:93|351:35,1,160,14|0,0:1|0:0,0:0:0:0:
421,10,34093,2,0,B|502:32|502:32|443:46,1,120.000004577637,2|0,0:0|0:0,0:0:0:0:
259,130,34631,5,8,0:0:0:0:
207,69,34765,2,0,P|167:51|77:57,1,120.000004577637,12|8,0:1|0:1,0:1:0:0:
0,102,35169,5,14,0:0:0:0:
14,245,35438,1,10,0:3:0:0:
157,232,35707,1,10,0:0:0:0:
236,284,35841,6,0,B|233:360|300:369|300:369|337:353,1,160,14|8,0:1|0:1,0:0:0:0:
366,281,36245,1,12,0:0:0:0:
512,157,36514,5,10,0:1:0:0:
512,157,36649,1,8,0:1:0:0:
494,234,36783,1,8,0:0:0:0:
370,285,37052,5,10,0:1:0:0:
370,285,37187,1,8,0:1:0:0:
346,200,37321,1,8,0:0:0:0:
234,119,37590,5,10,0:1:0:0:
234,119,37725,1,10,0:1:0:0:
209,211,37859,1,10,0:0:0:0:
127,150,37994,6,0,P|16:160|-1:194,1,160,14|8,0:1|0:1,0:0:0:0:
98,340,38397,2,0,P|104:302|122:254,1,80,14|0,0:2|0:0,0:0:0:0:
306,196,38667,1,10,0:0:0:0:
389,275,38801,2,0,B|412:348|358:390|358:390|315:368,1,160,12|8,0:1|0:1,0:0:0:0:
224,243,39205,5,8,2:2:0:0:
306,196,39339,1,8,2:2:0:0:
250,129,39474,2,0,L|262:83,2,40,8|8|8,2:2|2:2|2:2,0:0:0:0:
163,170,39743,1,8,2:2:0:0:
91,106,39877,1,8,2:2:0:0:
175,59,40012,1,8,2:2:0:0:
250,129,40146,6,0,P|305:147|390:98,1,139.200001168213,14|8,0:1|0:1,0:0:0:0:
466,44,40550,2,0,L|369:33,1,69.6000005841065,10|0,0:0|0:0,0:0:0:0:
486,180,40819,1,8,0:1:0:0:
486,180,40954,2,0,L|389:191,1,69.6000005841065,10|8,0:1|0:0,0:0:0:0:
512,318,41223,2,0,L|368:298,1,139.200001168213,10|8,0:1|0:1,0:0:0:0:
268,384,41626,6,0,P|275:353|271:305,1,69.6000005841065,10|0,0:0|0:0,0:0:0:0:
176,268,41895,2,0,P|169:299|173:347,1,69.6000005841065,10|8,0:1|0:1,0:0:0:0:
266,229,42164,1,8,0:0:0:0:
266,229,42299,2,0,B|288:169|241:169|265:87,1,139.200001168213,10|8,0:1|0:1,0:0:0:0:
345,141,42702,6,0,P|379:141|406:119,1,69.6000005841065,10|0,0:0|0:0,0:0:0:0:
259,6,42971,2,8,P|204:8|176:86,1,139.200001168213,10|8,0:1|0:0,0:1:0:0:
99,162,43375,2,0,P|66:103|74:35,1,139.200001168213,10|8,0:1|0:1,0:0:0:0:
197,166,43779,2,0,P|204:234|171:293,2,139.200001168213,10|8|8,0:0|0:1|0:0,0:1:0:0:
273,66,44451,6,0,P|325:38|432:56,1,139.200001168213,14|8,0:1|0:1,0:1:0:0:
512,85,44855,2,0,P|507:50|491:19,1,69.6000005841065,10|0,0:2|0:0,0:0:0:0:
398,125,45124,2,0,P|382:155|377:190,1,69.6000005841065,10|8,0:1|0:1,0:0:0:0:
443,265,45393,1,10,0:0:0:0:
443,265,45528,1,8,0:1:0:0:
354,360,45662,6,0,P|306:381|212:343,1,139.200001168213,2|8,0:0|0:0,0:0:0:0:
163,258,46066,2,0,B|123:292|123:292|143:394,1,139.200001168213,2|8,0:0|0:1,0:0:0:0:
255,266,46469,2,0,P|265:235|260:188,1,69.6000005841065,8|8,0:0|0:1,0:0:0:0:
132,123,46738,5,2,0:0:0:0:
132,123,46873,1,8,0:1:0:0:
132,123,47007,2,0,P|99:139|65:141,1,69.6000005841065,8|0,0:0|0:0,0:0:0:0:
219,67,47276,5,2,0:0:0:0:
219,67,47411,1,8,0:1:0:0:
219,67,47545,2,0,P|221:33|235:1,1,69.6000005841065,8|8,0:0|0:1,0:0:0:0:
223,171,47815,5,2,0:0:0:0:
223,171,47949,1,8,0:1:0:0:
223,171,48084,2,0,P|253:191|272:220,1,69.6000005841065,8|0,0:0|0:0,0:0:0:0:
308,320,48353,5,10,0:1:0:0:
370,364,48488,1,8,0:1:0:0:
445,354,48622,1,8,0:0:0:0:
486,290,48756,2,0,B|494:246|494:246|481:205|481:205|491:132,1,139.200001168213,14|8,0:1|0:1,0:0:0:0:
412,13,49160,6,0,P|425:42|427:89,1,69.6000005841065,10|0,0:0|0:0,0:0:0:0:
383,161,49429,1,8,0:1:0:0:
304,106,49563,2,0,P|290:74|287:39,1,69.6000005841065,10|8,0:1|0:0,0:0:0:0:
383,161,49832,2,0,P|406:226|379:308,1,139.200001168213,10|8,0:1|0:1,0:0:0:0:
272,202,50236,6,0,P|235:188|193:193,1,69.6000005841065,10|0,0:0|0:0,0:0:0:0:
186,286,50505,2,8,P|223:300|265:295,1,69.6000005841065,10|8,0:1|0:1,0:1:0:0:
118,223,50774,1,8,0:0:0:0:
118,223,50909,2,0,P|76:225|4:289,1,139.200001168213,10|8,0:1|0:1,0:1:0:0:
0,150,51312,6,0,L|10:65,1,69.6000005841065,10|0,0:0|0:0,0:0:0:0:
160,137,51581,2,8,L|79:130,1,69.6000005841065,10|8,0:1|0:1,0:1:0:0:
195,49,51850,1,8,0:0:0:0:
195,49,51985,2,0,B|281:30|253:87|346:64,1,139.200001168213,10|8,0:1|0:1,0:0:0:0:
438,0,52389,2,0,P|465:62|445:127,2,139.200001168213,10|8|8,0:0|0:1|0:0,0:0:0:0:
260,109,53061,6,0,P|239:173|267:236,1,139.200001168213,14|8,0:1|0:1,0:0:0:0:
370,272,53465,2,0,P|411:259|460:257,1,69.6000005841065,10|0,0:0|0:0,0:0:0:0:
376,369,53734,1,8,0:1:0:0:
376,369,53868,2,0,P|341:364|308:353,1,69.6000005841065,2|8,0:0|0:0,0:0:0:0:
219,297,54137,6,0,P|236:231|205:170,1,139.200001168213,10|8,0:1|0:1,0:0:0:0:
111,249,54541,2,0,P|47:257|-2:197,2,139.200001168213,10|10|8,0:0|0:1|0:0,0:0:0:0:
205,170,55214,2,0,P|199:103|250:59,1,139.200001168213,10|8,0:1|0:1,0:1:0:0:
333,4,55617,2,0,L|345:82,1,69.6000005841065,10|0,0:0|0:0,0:0:0:0:
431,140,55886,5,10,0:1:0:0:
431,140,56021,1,8,0:1:0:0:
510,89,56155,1,8,0:0:0:0:
502,222,56290,2,0,P|447:189|359:207,1,139.200001168213,14|8,0:1|0:1,0:0:0:0:
274,285,56693,2,0,L|258:203,1,69.6000005841065,14|0,0:0|0:0,0:0:0:0:
170,148,56963,5,8,0:3:0:0:
170,148,57030,1,8,0:3:0:0:
170,148,57097,1,8,0:3:0:0:
170,148,57164,1,8,0:3:0:0:
170,148,57232,2,0,L|154:232,1,71.9999978027344,14|0,0:0|0:0,0:0:0:0:
152,238,57501,6,0,B|105:277|105:277|44:240,1,120,14|0,0:1|0:0,0:0:0:0:
34,250,57770,6,0,P|19:218|26:167,1,80,10|0,0:0|0:0,0:0:0:0:
75,75,58039,2,0,L|165:58,1,80,10|8,0:1|0:1,0:0:0:0:
222,0,58308,1,8,0:0:0:0:
269,108,58442,2,0,L|444:120,1,160,14|8,0:1|0:1,0:0:0:0:
331,203,58846,6,0,P|316:240|319:280,1,80,10|0,0:0|0:0,0:0:0:0:
418,370,59115,2,0,P|432:333|429:293,1,80,10|8,0:1|0:1,0:0:0:0:
429,293,59384,1,8,0:0:0:0:
308,365,59519,2,0,B|251:353|251:353|219:369|219:369|143:349,1,160,14|8,0:1|0:1,0:0:0:0:
63,378,59922,6,0,P|60:329|78:297,1,80,10|0,0:0|0:0,0:0:0:0:
218,283,60191,2,0,P|221:234|203:202,1,80,10|8,0:1|0:1,0:0:0:0:
140,134,60460,1,8,0:0:0:0:
44,208,60595,6,0,B|9:230|9:230|-26:166|26:109,1,160,14|8,0:1|0:1,0:0:0:0:
133,57,60998,2,0,P|127:96|139:133,1,80,8|0,0:0|0:0,0:0:0:0:
229,220,61267,2,0,L|311:205,1,80,8|8,0:1|0:1,0:0:0:0:
410,136,61537,1,12,0:0:0:0:
474,264,61671,1,2,0:0:0:0:
474,264,61738,1,2,0:0:0:0:
474,264,61806,1,12,0:1:0:0:
511,29,62075,6,0,B|475:22|475:22|441:36|441:36|362:16,1,120,10|0,0:0|0:0,0:0:0:0:
389,41,62344,2,0,P|324:71|235:22,1,160,10|8,0:1|0:0,0:0:0:0:
114,152,62747,2,0,P|179:122|268:171,1,160,14|8,0:1|0:1,0:0:0:0:
314,265,63151,5,8,0:3:0:0:
314,265,63218,2,0,L|299:355,1,80,8|0,0:3|0:0,0:0:0:0:
232,379,63420,1,8,0:3:0:0:
232,379,63487,2,0,L|142:364,1,80,8|0,0:3|0:0,0:0:0:0:
78,384,63689,1,12,0:0:0:0:
36,123,64227,5,10,0:0:0:0:
120,172,64362,2,2,P|206:166|260:100,1,176.000005371094,14|8,0:1|0:1,0:1:0:0:
287,14,64765,5,10,0:0:0:0:
284,129,64900,2,2,P|224:201|130:209,1,191.999994140625,14|8,0:1|0:1,0:1:0:0:
36,207,65303,5,10,0:0:0:0:
143,246,65438,2,2,P|243:237|307:158,1,207.999990478516,14|8,0:1|0:1,0:1:0:0:
338,59,65841,5,8,0:0:0:0:
338,59,65976,1,8,0:0:0:0:
407,131,66110,2,0,P|406:201|370:257,1,120,14|0,0:1|0:0,0:0:0:0:
367,263,66380,6,0,L|274:243,1,80,10|0,0:0|0:0,0:0:0:0:
228,355,66649,2,8,L|135:335,1,80,10|8,0:1|0:1,0:1:0:0:
66,384,66918,1,8,0:0:0:0:
0,264,67052,2,0,P|0:172|47:98,1,160,14|8,0:1|0:1,0:0:0:0:
167,30,67456,6,0,L|79:34,1,80,10|0,0:0|0:0,0:0:0:0:
199,146,67725,2,0,L|111:150,1,80,10|8,0:1|0:1,0:0:0:0:
263,68,67994,1,8,0:0:0:0:
320,176,68128,5,14,0:1:0:0:
320,176,68196,1,2,0:1:0:0:
320,176,68263,2,0,P|293:233|306:302,1,120,2|0,0:0|0:0,0:0:0:0:
317,310,68532,2,0,L|416:298,1,80,14|0,0:0|0:0,0:0:0:0:
498,328,68801,5,10,0:0:0:0:
453,233,68936,1,8,0:3:0:0:
503,142,69070,1,4,0:3:0:0:
434,79,69205,6,0,B|374:107|300:72|357:31|278:-1|218:28,1,240.000009155274,14|0,0:1|0:0,0:0:0:0:
118,92,69877,5,8,0:0:0:0:
250,132,70012,1,8,0:0:0:0:
102,188,70146,1,8,0:0:0:0:
208,222,70281,6,0,P|239:256|211:369,1,160,14|8,0:1|0:1,0:0:0:0:
101,339,70684,2,0,L|6:347,1,80,8|0,0:0|0:0,0:0:0:0:
14,227,70954,2,0,P|-12:154|27:88,1,160,10|8,0:1|0:0,0:0:0:0:
132,28,71357,6,0,B|169:66|169:66|282:31,1,160,14|8,0:1|0:1,0:0:0:0:
375,98,71761,2,0,P|387:65|372:7,1,80,8|0,0:0|0:0,0:0:0:0:
276,136,72030,1,10,0:1:0:0:
276,136,72164,1,8,0:1:0:0:
381,188,72299,1,8,0:0:0:0:
272,261,72433,6,0,B|184:231|206:318|102:291,1,176.000005371094,14|8,0:1|0:1,0:0:0:0:
248,370,72837,2,0,L|353:358,1,88.000002685547,10|0,0:0|0:0,0:0:0:0:
469,383,73106,2,0,L|454:289,1,88.000002685547,10|8,0:1|0:1,0:0:0:0:
428,163,73375,5,8,0:0:0:0:
335,229,73510,1,14,0:1:0:0:
335,229,73577,1,2,0:1:0:0:
335,229,73644,2,0,B|288:240|288:240|239:216,1,88.000002685547,2|8,0:1|0:1,0:0:0:0:
192,135,73913,2,0,B|207:97|207:97|184:34,1,88.000002685547,10|0,0:0|0:0,0:0:0:0:
71,0,74182,5,8,0:0:0:0:
69,16,74249,1,8,0:0:0:0:
66,33,74316,1,8,0:0:0:0:
64,50,74383,1,8,0:0:0:0:
62,67,74451,1,12,0:1:0:0:
155,275,74720,6,0,L|59:289,1,88.000002685547,10|0,0:1|0:0,0:0:0:0:
216,372,74989,2,0,L|312:358,1,88.000002685547,10|0,0:1|0:0,0:0:0:0:
402,297,75258,5,10,0:0:0:0:
477,382,75393,1,8,0:1:0:0:
477,382,75460,1,8,0:1:0:0:
477,382,75528,1,8,0:0:0:0:
509,255,75662,1,14,0:1:0:0:
387,100,75931,5,10,0:1:0:0:
305,199,76066,1,8,0:0:0:0:
234,84,76200,1,8,0:0:0:0:
234,84,76267,1,8,0:0:0:0:
234,84,76335,2,0,B|247:49|247:49|217:-13,1,88.000002685547,8|8,0:0|0:0,0:0:0:0:
101,122,76604,2,0,B|88:157|88:157|118:219,1,88.000002685547,8|8,0:0|0:0,0:0:0:0:
249,272,76873,6,0,B|302:251|302:251|399:287,1,143.999995605469,10|0,0:1|0:0,0:0:0:0:
434,340,77142,2,0,P|459:296|445:239,1,95.9999970703126,14|0,0:0|0:0,0:0:0:0:
296,168,77411,2,0,L|114:249,1,191.999994140625,10|8,0:1|0:0,0:0:0:0:
120,246,77815,1,8,0:1:0:0:
14,197,77949,6,0,P|0:133|24:96,1,95.9999970703126,2|8,0:0|0:1,0:0:0:0:
195,195,78218,2,0,P|211:102|158:25,1,191.999994140625,10|10,0:0|0:1,0:0:0:0:
58,19,78622,1,8,0:1:0:0:
12,108,78756,1,8,0:0:0:0:
122,159,78891,6,0,B|238:109|201:187|307:150,1,191.999994140625,14|8,0:1|0:1,0:0:0:0:
182,238,79294,2,0,B|138:309|194:371|194:371|258:361,1,191.999994140625,8|8,0:0|0:1,0:0:0:0:
240,363,79698,1,8,0:1:0:0:
365,315,79832,6,0,L|374:214,1,95.9999970703126,10|8,0:2|0:1,0:0:0:0:
488,258,80102,2,0,L|479:359,1,95.9999970703126,2|8,0:1|0:1,0:0:0:0:
315,174,80371,2,0,P|365:169|427:140,1,95.9999970703126,10|0,0:0|0:0,0:0:0:0:
355,17,80640,2,0,P|305:22|243:51,1,95.9999970703126,10|8,0:1|0:1,0:0:0:0:
181,136,80909,5,8,0:0:0:0:
300,202,81043,2,0,B|339:228|339:228|350:308|289:360,1,191.999994140625,14|8,0:1|0:1,0:1:0:0:
164,326,81447,2,0,L|143:224,1,95.9999970703126,8|0,0:0|0:0,0:0:0:0:
59,384,81716,2,8,L|40:290,1,95.9999970703126,8|8,0:1|0:1,0:1:0:0:
0,162,81985,5,10,0:0:0:0:
0,162,82119,2,0,P|65:177|116:53,1,191.999994140625,8|8,0:1|0:1,0:0:0:0:
268,0,82523,2,0,P|249:44|264:102,1,95.9999970703126,10|0,0:0|0:0,0:0:0:0:
380,158,82792,2,0,P|399:114|384:56,1,95.9999970703126,10|8,0:1|0:1,0:0:0:0:
222,195,83062,1,8,0:0:0:0:
348,280,83196,6,0,B|407:258|461:297|461:297|509:276|498:212,1,207.999990478516,14|8,0:1|0:1,0:1:0:0:
391,67,83599,2,0,B|351:59|351:59|337:63|337:63|269:49,1,103.999995239258,14|0,0:0|0:0,0:0:0:0:
105,0,83868,5,8,0:3:0:0:
105,0,83936,2,0,P|142:54|131:112,1,88.000002685547,8|8,0:3|0:3,0:0:0:0:
119,148,84137,1,8,0:0:0:0:
238,229,84272,6,0,B|349:209|349:209|400:227|387:286,1,207.999990478516,14|8,0:1|0:1,0:0:0:0:
271,363,84676,2,0,B|230:355|230:355|212:363|212:363|142:348,1,103.999995239258,14|0,0:0|0:0,0:0:0:0:
10,369,84945,5,8,0:0:0:0:
152,342,85079,1,8,0:0:0:0:
0,266,85214,1,8,0:0:0:0:
137,236,85348,6,0,B|164:195|143:127|143:127|172:49,1,191.999994140625,14|8,0:1|0:1,0:0:0:0:
20,98,85752,2,0,P|4:142|24:184,1,95.9999970703126,12|0,0:0|0:0,0:0:0:0:
191,145,86021,2,0,P|238:118|395:136,1,191.999994140625,10|8,0:1|0:0,0:0:0:0:
371,122,86424,1,8,0:1:0:0:
247,90,86559,6,0,P|231:39|245:-4,1,95.9999970703126,2|0,0:0|0:0,0:0:0:0:
375,126,86828,2,0,P|405:203|356:329,1,191.999994140625,10|10,0:0|0:1,0:0:0:0:
271,300,87232,1,8,0:1:0:0:
204,381,87366,1,8,0:0:0:0:
76,332,87501,6,0,P|44:243|71:152,1,191.999994140625,14|8,0:1|0:1,0:0:0:0:
230,201,87904,2,0,B|327:223|327:223|386:136,1,191.999994140625,8|8,0:0|0:1,0:0:0:0:
378,146,88308,1,8,0:1:0:0:
310,31,88442,6,0,L|195:37,1,95.9999970703126,10|8,0:0|0:1,0:0:0:0:
120,130,88711,2,0,L|24:135,1,95.9999970703126,2|8,0:0|0:1,0:0:0:0:
161,265,88980,2,0,P|149:328|181:387,1,95.9999970703126,8|0,0:0|0:0,0:0:0:0:
330,384,89250,2,0,P|342:338|332:291,1,95.9999970703126,10|8,0:1|0:1,0:0:0:0:
270,183,89519,5,8,0:0:0:0:
380,114,89653,2,0,P|466:112|510:210,1,191.999994140625,14|8,0:1|0:1,0:0:0:0:
450,372,90057,2,0,B|430:312|430:312|448:260|448:260|418:171,2,191.999994140625,10|8|8,0:0|0:1|0:0,0:0:0:0:
259,288,90729,2,0,B|279:228|279:228|261:176|261:176|291:87,1,191.999994140625,8|8,0:1|0:1,0:0:0:0:
113,14,91133,6,0,P|75:63|137:181,1,191.999994140625,10|8,0:0|0:1,0:0:0:0:
228,207,91537,1,10,0:1:0:0:
284,106,91672,1,8,0:0:0:0:
445,171,91806,6,0,B|493:198|493:198|503:293|456:349,1,207.999990478516,14|0,0:1|0:0,0:0:0:0:
279,384,92209,2,0,P|278:326|237:269,1,103.999995239258,14|0,0:0|0:0,0:0:0:0:
130,204,92478,1,8,0:3:0:0:
101,318,92613,1,8,0:1:0:0:
101,318,92680,1,8,0:1:0:0:
101,318,92747,1,8,0:0:0:0:
0,205,92882,6,0,L|229:158,1,207.999990478516,14|8,0:1|0:1,0:0:0:0:
350,25,93285,2,0,B|302:38|302:38|244:8,1,103.999995239258,14|0,0:0|0:0,0:0:0:0:
392,149,93554,5,10,0:0:0:0:
488,86,93689,1,8,0:3:0:0:
501,200,93824,1,4,0:3:0:0:
371,136,93958,6,0,P|290:133|259:229,1,191.999994140625,14|8,0:1|0:1,0:0:0:0:
359,307,94362,2,0,P|448:292|514:385,2,191.999994140625,6|8|8,0:2|0:1|0:0,0:0:0:0:
278,359,95034,1,8,0:1:0:0:
177,302,95169,6,8,P|160:253|175:190,1,95.9999970703126,10|8,0:1|0:1,0:1:0:0:
306,140,95438,2,8,P|322:184|317:231,1,95.9999970703126,8|8,0:2|0:1,0:1:0:0:
81,257,95707,2,8,P|75:209|92:165,1,95.9999970703126,10|8,0:1|0:1,0:1:0:0:
245,47,95976,5,10,0:2:0:0:
314,148,96110,1,8,0:1:0:0:
314,148,96178,1,8,0:1:0:0:
314,148,96245,2,0,P|408:173|470:97,2,191.999994140625,8|8|8,0:1|0:2|0:1,0:0:0:0:
241,84,96918,1,8,0:1:0:0:
146,180,97052,6,8,P|138:230|153:275,1,95.9999970703126,10|8,0:2|0:1,0:1:0:0:
319,240,97321,2,8,P|327:190|312:145,1,95.9999970703126,10|8,0:1|0:1,0:1:0:0:
144,72,97590,2,8,L|45:66,1,95.9999970703126,10|8,0:2|0:1,0:1:0:0:
312,37,97859,2,8,L|406:14,1,95.9999970703126,10|8,0:1|0:1,0:1:0:0:
512,140,98128,6,0,P|513:211|416:196,1,155.999992858887,14|0,0:0|0:0,0:0:0:0:
372,255,98397,6,0,B|319:238|319:238|335:303|285:353,1,167.999994873047,14|0,0:1|0:0,0:0:0:0:
227,384,98667,5,8,0:0:0:0:
187,263,98801,1,8,0:3:0:0:
66,91,99205,5,4,0:3:0:0:
256,32,99474,1,8,0:0:0:0:
446,91,99743,5,8,0:1:0:0:
446,91,99810,1,8,0:1:0:0:
446,91,99877,2,0,L|433:184,1,80,8|8,0:3|0:0,0:0:0:0:
347,263,100146,1,8,0:3:0:0:
347,263,100214,2,0,B|322:152,1,96,8|8,0:3|0:3,0:0:0:0:
256,32,100550,5,8,0:3:0:0:
178,159,100729,1,8,0:3:0:0:
45,89,100909,1,8,0:3:0:0:
0,308,101223,5,4,0:3:0:0:
163,271,101424,1,4,0:3:0:0:
313,347,101626,2,0,B|390:370|390:370|476:324,1,160,14|0,0:1|0:0,0:0:0:0:
470,346,102164,6,0,L|474:213,1,120.000004577637,2|0,0:0|0:0,0:0:0:0:
486,80,102702,5,8,0:2:0:0:
415,114,102837,1,8,0:2:0:0:
421,35,102971,1,8,0:2:0:0:
323,265,103510,6,0,L|327:309,2,30.0000011444092,8|8|8,0:2|0:2|0:2,0:0:0:0:
287,194,103779,1,8,0:2:0:0:
73,62,104317,5,8,0:2:0:0:
73,62,104384,1,8,0:2:0:0:
73,62,104451,1,8,0:2:0:0:
15,114,104586,2,0,P|5:149|8:193,1,60.0000022888184,8|8,0:2|0:2,0:0:0:0:
58,254,104855,5,8,0:2:0:0:
120,208,104989,1,8,0:2:0:0:
192,237,105124,1,8,0:2:0:0:
421,166,105662,6,0,L|429:119,2,30.0000011444092,8|8|8,0:0|0:0|0:0,0:0:0:0:
465,230,105931,1,8,0:0:0:0:
275,370,106469,5,8,0:0:0:0:
275,370,106536,1,8,0:0:0:0:
275,370,106603,1,8,0:0:0:0:
320,306,106738,2,0,P|331:271|326:237,1,60.0000022888184,8|8,0:0|0:0,0:0:0:0:
275,175,107008,5,8,0:0:0:0:
216,225,107142,1,8,0:0:0:0:
201,148,107276,1,8,0:0:0:0:
7,86,107815,6,0,L|-4:126,2,30.0000011444092,8|8|8,0:0|0:0|0:0,0:0:0:0:
60,29,108084,1,8,0:0:0:0:
310,168,108622,5,10,0:0:0:0:
310,168,108689,1,8,0:0:0:0:
310,168,108756,1,8,0:0:0:0:
378,206,108891,2,0,L|453:200,1,60.0000022888184,8|8,0:0|0:0,0:0:0:0:
512,129,109160,5,10,0:0:0:0:
452,79,109294,1,8,0:0:0:0:
493,12,109429,1,8,0:0:0:0:
301,139,109967,6,0,L|313:182,2,30.0000011444092,8|8|8,0:0|0:0|0:0,0:0:0:0:
275,64,110236,1,10,0:0:0:0:
44,46,110774,5,10,0:0:0:0:
44,46,110841,1,8,0:0:0:0:
44,46,110909,1,8,0:0:0:0:
8,115,111043,2,0,B|0:141|0:141|0:173,1,60.0000022888184,8|8,0:0|0:0,0:0:0:0:
40,261,111312,5,10,0:0:0:0:
116,226,111446,1,8,0:0:0:0:
156,299,111581,1,8,0:0:0:0:
397,366,112119,6,0,L|448:361,2,40,10|8|8,0:0|0:0|0:0,0:0:0:0:
318,334,112389,1,8,0:0:0:0:
505,155,112927,6,0,L|497:235,1,80,8|8,0:0|0:0,0:0:0:0:
398,280,113196,2,0,L|390:200,1,80,8|8,0:0|0:0,0:0:0:0:
306,129,113465,5,10,0:0:0:0:
249,190,113599,1,8,0:0:0:0:
224,109,113734,1,8,0:0:0:0:
0,241,114272,5,10,0:0:0:0:
38,166,114406,1,8,0:0:0:0:
82,237,114541,1,8,0:0:0:0:
271,21,115079,5,8,0:0:0:0:
271,21,115146,1,8,0:0:0:0:
271,21,115214,1,8,0:0:0:0:
248,101,115348,2,0,P|248:136|262:180,1,80,8|8,0:0|0:0,0:0:0:0:
335,242,115617,5,10,0:0:0:0:
413,211,115752,1,8,0:0:0:0:
479,262,115886,1,8,0:0:0:0:
246,354,116424,6,0,L|190:365,2,40,8|8|8,0:0|0:0|0:0,0:0:0:0:
327,374,116693,1,8,0:0:0:0:
512,178,117232,5,10,0:0:0:0:
512,178,117299,1,8,0:0:0:0:
512,178,117366,1,8,0:0:0:0:
432,149,117501,2,0,L|410:66,1,80,8|8,0:0|0:0,0:0:0:0:
324,20,117770,5,10,0:0:0:0:
277,89,117904,1,8,0:0:0:0:
201,52,118039,1,8,0:0:0:0:
13,255,118577,6,0,L|5:312,2,40,8|8|8,0:0|0:0|0:0,0:0:0:0:
33,171,118846,1,8,0:0:0:0:
106,225,118980,5,0,1:0:0:0:
106,225,119048,1,0,1:0:0:0:
106,225,119115,2,0,P|144:227|174:210,1,60.0000022888184,0|0,1:0|1:0,0:0:0:0:
213,154,119384,2,0,L|222:110,2,30.0000011444092,0|0|0,1:0|1:0|1:0,0:0:0:0:
263,254,119653,5,2,1:2:0:0:
363,220,119788,2,2,P|445:208|512:285,1,191.999994140625,14|8,0:1|0:1,0:1:0:0:
331,134,120191,6,0,P|335:77|364:37,1,95.9999970703126,10|0,0:1|0:0,0:0:0:0:
422,296,120460,2,0,P|418:353|389:393,1,95.9999970703126,10|8,0:1|0:1,0:0:0:0:
315,130,120729,2,0,P|319:73|348:33,1,95.9999970703126,10|8,0:1|0:1,0:0:0:0:
406,292,120998,2,0,P|402:349|373:389,1,95.9999970703126,2|8,0:1|0:1,0:0:0:0:
299,126,121267,2,0,P|303:69|332:29,1,95.9999970703126,10|0,0:1|0:0,0:0:0:0:
390,288,121537,2,0,P|386:345|357:385,1,95.9999970703126,10|8,0:1|0:1,0:0:0:0:
231,243,121806,5,10,0:1:0:0:
110,325,121940,2,2,B|69:350|69:350|-3:303|31:214,1,191.999994140625,14|8,0:1|0:1,0:1:0:0:
139,64,122344,6,0,L|206:141,1,95.9999970703126,10|0,0:1|0:0,0:0:0:0:
373,320,122613,2,0,L|306:243,1,95.9999970703126,10|8,0:1|0:1,0:0:0:0:
86,229,122882,2,0,L|186:209,1,95.9999970703126,10|8,0:1|0:1,0:0:0:0:
425,154,123151,2,0,L|325:174,1,95.9999970703126,2|8,0:1|0:1,0:0:0:0:
203,357,123420,2,0,L|235:260,1,95.9999970703126,10|0,0:1|0:0,0:0:0:0:
308,26,123689,2,0,L|277:124,1,95.9999970703126,10|8,0:1|0:1,0:0:0:0:
233,266,123958,5,10,0:1:0:0:
359,346,124093,2,2,B|461:372|461:372|508:352|491:285,1,191.999994140625,14|8,0:1|0:1,0:1:0:0:
387,136,124496,6,0,P|391:181|363:235,1,95.9999970703126,10|0,0:1|0:0,0:0:0:0:
167,141,124765,2,0,P|163:96|191:42,1,95.9999970703126,10|8,0:1|0:1,0:0:0:0:
400,146,125034,2,0,P|404:191|376:245,1,95.9999970703126,10|8,0:1|0:1,0:0:0:0:
154,131,125303,2,0,P|150:86|178:32,1,95.9999970703126,2|8,0:1|0:1,0:0:0:0:
413,156,125572,2,0,P|417:201|389:255,1,95.9999970703126,10|0,0:1|0:0,0:0:0:0:
141,121,125841,2,0,P|137:76|165:22,1,95.9999970703126,10|8,0:1|0:1,0:0:0:0:
289,101,126110,5,10,0:1:0:0:
128,111,126245,2,2,B|67:88|67:88|-1:135|21:198,1,191.999994140625,14|8,0:1|0:1,0:1:0:0:
101,384,126649,2,0,P|108:334|135:288,1,95.9999970703126,14|2,0:1|0:0,0:0:0:0:
256,224,126918,1,8,0:3:0:0:
256,224,126985,1,8,0:3:0:0:
256,224,127052,1,8,0:3:0:0:
337,314,127187,1,10,0:2:0:0:
449,238,127321,6,2,P|481:149|442:61,1,191.999994140625,14|8,0:1|0:1,0:1:0:0:
282,123,127725,2,0,P|229:133|186:107,1,95.9999970703126,10|2,0:1|0:0,0:0:0:0:
82,23,127994,1,10,0:1:0:0:
31,156,128128,1,10,0:1:0:0:
90,8,128263,1,10,0:1:0:0:
184,134,128397,6,0,P|266:156|344:78,1,191.999994140625,14|8,0:1|0:1,0:0:0:0:
259,189,128801,2,0,P|239:256|303:358,1,191.999994140625,8|8,0:0|0:1,0:0:0:0:
408,287,129205,5,10,0:1:0:0:
404,382,129339,1,8,0:0:0:0:
488,334,129474,2,2,P|508:267|444:165,1,191.999994140625,10|8,0:1|0:1,0:1:0:0:
332,240,129877,2,0,L|126:266,1,191.999994140625,8|0,0:0|0:0,0:0:0:0:
0,246,130281,5,10,0:1:0:0:
65,346,130415,1,8,0:0:0:0:
136,252,130550,2,2,B|183:234|228:240|228:240|248:258|248:258|307:267|359:240,1,223.999993164063,14|8,0:1|0:1,0:1:0:0:
471,175,130954,2,0,P|438:81|517:24,1,191.999994140625,8|0,0:0|0:0,0:0:0:0:
397,107,131357,5,10,0:1:0:0:
319,40,131492,1,8,0:0:0:0:
267,122,131626,2,2,B|246:164|256:206|256:206|272:232|272:232|283:272|243:336,1,207.999990478516,10|8,0:1|0:1,0:1:0:0:
128,384,132030,2,0,P|126:326|104:281,1,95.9999970703126,8|0,0:0|0:0,0:0:0:0:
17,232,132299,2,0,B|-4:278|-4:278|10:325,1,95.9999970703126,10|8,0:1|0:1,0:0:0:0:
149,214,132568,1,8,0:0:0:0:
254,319,132702,6,2,P|327:338|416:254,1,191.999994140625,14|8,0:1|0:1,0:1:0:0:
512,165,133106,2,2,L|384:148,1,95.9999970703126,10|0,0:0|0:0,0:1:0:0:
294,137,133375,5,10,0:1:0:0:
416,177,133510,2,0,L|544:160,1,95.9999970703126,8|8,0:1|0:0,0:0:0:0:
363,87,133779,2,2,P|296:22|205:37,1,191.999994140625,10|8,0:1|0:1,0:1:0:0:
165,129,134182,2,0,L|180:231,1,95.9999970703126,8|0,0:0|0:0,0:0:0:0:
142,374,134451,5,10,0:1:0:0:
70,283,134586,1,8,0:1:0:0:
1,375,134720,1,8,0:0:0:0:
62,266,134855,6,2,B|73:213|73:213|24:133|74:61,1,207.999990478516,14|8,0:1|0:1,0:1:0:0:
255,0,135258,2,0,L|270:108,1,103.999995239258,14|2,0:1|0:0,0:0:0:0:
373,183,135528,1,8,0:3:0:0:
373,183,135595,1,8,0:3:0:0:
373,183,135662,1,8,0:3:0:0:
463,118,135797,1,10,0:0:0:0:
511,258,135931,6,2,P|440:215|286:264,1,223.999993164063,14|8,0:1|0:1,0:1:0:0:
206,384,136335,2,0,L|190:272,1,111.999996582031,14|2,0:1|0:0,0:0:0:0:
151,126,136604,5,10,0:1:0:0:
55,219,136738,1,8,0:2:0:0:
11,92,136873,1,10,0:0:0:0:
165,139,137007,6,2,B|267:170|267:170|358:103,1,207.999990478516,14|8,0:1|0:1,0:1:0:0:
501,31,137411,2,0,L|391:17,1,103.999995239258,12|0,0:0|0:0,0:0:0:0:
510,174,137680,1,8,0:0:0:0:
510,174,137815,2,0,L|267:198,1,207.999990478516,10|8,0:1|0:1,0:0:0:0:
165,139,138218,6,0,P|170:81|134:33,1,103.999995239258,10|8,0:0|0:1,0:0:0:0:
10,158,138487,2,0,P|5:216|41:264,1,103.999995239258,2|8,0:0|0:1,0:0:0:0:
128,326,138756,5,8,0:0:0:0:
231,276,138891,1,8,0:0:0:0:
281,378,139025,1,8,0:0:0:0:
395,331,139160,6,2,B|438:300|438:300|465:199|388:142,1,223.999993164063,14|8,0:1|0:1,0:1:0:0:
260,51,139563,2,0,P|283:100|266:152,1,111.999996582031,14|0,0:0|0:0,0:0:0:0:
136,17,139832,1,8,0:0:0:0:
135,17,139967,2,0,P|74:105|111:205,1,223.999993164063,10|8,0:1|0:1,0:0:0:0:
257,259,140371,6,0,L|381:241,1,111.999996582031,10|8,0:0|0:1,0:0:0:0:
415,344,140640,2,0,L|291:362,1,111.999996582031,2|8,0:0|0:1,0:0:0:0:
157,316,140909,5,8,0:0:0:0:
65,381,141044,1,8,0:0:0:0:
4,287,141178,1,8,0:0:0:0:
99,217,141312,6,2,B|144:180|128:127|128:127|111:110|111:110|81:52|132:-3,1,240.000009155274,14|8,0:1|0:1,0:1:0:0:
260,161,141716,2,0,P|343:174|378:137,1,120.000004577637,12|0,0:0|0:0,0:0:0:0:
485,45,141985,1,8,0:0:0:0:
485,45,142119,2,0,B|396:31|396:31|349:53|349:53|227:36,1,240.000009155274,10|8,0:1|0:1,0:0:0:0:
32,28,142523,6,0,P|14:83|38:137,1,120.000004577637,10|8,0:0|0:1,0:0:0:0:
140,224,142792,2,0,L|268:206,1,120.000004577637,2|8,0:0|0:1,0:0:0:0:
428,184,143061,5,8,0:0:0:0:
512,270,143196,1,8,0:0:0:0:
464,379,143330,1,8,0:0:0:0:
332,327,143465,6,0,B|284:302|230:317|230:317|194:353|194:353|151:367|89:338,1,256,14|8,0:1|0:1,0:0:0:0:
28,179,143868,2,0,P|-8:236|20:313,1,128,14|0,0:0|0:0,0:0:0:0:
171,135,144137,2,0,P|180:73|145:21,1,128,10|8,0:0|0:1,0:0:0:0:
278,253,144406,2,0,P|268:314|303:366,1,128,10|8,0:0|0:1,0:0:0:0:
500,384,144676,5,10,0:1:0:0:
389,335,144811,1,8,0:1:0:0:
495,281,144945,1,10,0:1:0:0:
385,231,145080,1,8,0:1:0:0:
493,179,145214,2,2,B|512:146|512:146|498:105,1,80,14|0,0:1|0:0,0:1:0:0:
487,89,145617,6,0,B|406:59|428:124|338:93,1,139.200001168213,14|8,0:1|0:1,0:0:0:0:
192,63,146021,2,0,P|191:28|209:0,1,69.6000005841065,2|0,0:0|0:0,0:0:0:0:
268,114,146290,2,0,P|268:148|250:177,1,69.6000005841065,10|8,0:1|0:1,0:0:0:0:
127,195,146559,1,8,0:0:0:0:
127,195,146693,2,0,P|62:198|18:262,1,139.200001168213,10|8,0:1|0:1,0:0:0:0:
85,340,147097,6,0,L|164:334,1,69.6000005841065,10|0,0:0|0:0,0:0:0:0:
268,384,147366,2,0,L|261:303,1,69.6000005841065,10|8,0:1|0:1,0:0:0:0:
339,256,147635,1,8,0:0:0:0:
339,256,147770,2,0,P|396:291|469:239,1,139.200001168213,10|8,0:1|0:1,0:0:0:0:
512,160,148173,6,0,L|499:74,1,69.6000005841065,10|0,0:0|0:0,0:0:0:0:
410,91,148442,2,0,L|423:177,1,69.6000005841065,10|8,0:1|0:1,0:1:0:0:
317,87,148712,1,8,0:0:0:0:
317,87,148846,2,0,P|278:104|196:59,1,139.200001168213,10|8,0:1|0:1,0:0:0:0:
119,144,149250,2,0,P|80:127|-2:172,2,139.200001168213,8|8|8,0:0|0:1|0:0,0:0:0:0:
179,248,149922,6,0,B|148:278|148:278|133:331|184:397,1,139.200001168213,14|8,0:1|0:1,0:0:0:0:
266,381,150326,2,0,L|273:311,1,69.6000005841065,10|0,0:0|0:0,0:0:0:0:
384,354,150595,2,8,L|377:284,1,69.6000005841065,10|8,0:1|0:1,0:1:0:0:
291,204,150864,1,10,0:0:0:0:
291,204,150999,1,8,0:1:0:0:
179,248,151133,6,8,P|128:257|44:205,1,139.200001168213,10|8,0:1|0:0,0:0:0:0:
144,155,151537,2,0,B|118:119|118:119|164:12,1,139.200001168213,2|8,0:0|0:1,0:0:0:0:
236,96,151940,2,0,P|275:104|322:80,1,69.6000005841065,10|0,0:0|0:0,0:0:0:0:
438,28,152208,5,2,0:0:0:0:
438,28,152343,1,8,0:1:0:0:
438,28,152478,2,0,L|358:16,1,69.6000005841065,8|0,0:0|0:0,0:0:0:0:
464,113,152747,5,10,0:1:0:0:
464,113,152882,1,8,0:1:0:0:
464,113,153017,2,0,L|384:101,1,69.6000005841065,8|8,0:0|0:1,0:0:0:0:
503,200,153285,5,2,0:0:0:0:
503,200,153420,1,8,0:1:0:0:
503,200,153555,2,0,L|423:188,1,69.6000005841065,8|0,0:0|0:0,0:0:0:0:
326,212,153823,5,10,0:1:0:0:
372,273,153958,1,8,0:1:0:0:
351,347,154093,1,8,0:0:0:0:
277,368,154227,2,0,B|224:356|224:356|199:369|199:369|131:355,1,139.200001168213,14|8,0:1|0:1,0:0:0:0:
40,285,154631,6,0,P|21:319|18:362,1,69.6000005841065,10|0,0:0|0:0,0:0:0:0:
130,251,154900,1,8,0:1:0:0:
130,251,155034,2,0,P|124:189|106:157,1,69.6000005841065,2|8,0:0|0:0,0:0:0:0:
227,283,155303,2,0,P|277:296|360:266,1,139.200001168213,10|8,0:1|0:1,0:0:0:0:
440,162,155707,6,0,L|427:84,1,69.6000005841065,10|0,0:0|0:0,0:0:0:0:
341,167,155976,2,8,L|329:98,1,69.6000005841065,10|8,0:1|0:1,0:1:0:0:
252,32,156245,1,8,0:0:0:0:
252,32,156380,2,0,P|224:68|130:32,1,139.200001168213,10|8,0:1|0:1,0:0:0:0:
15,102,156783,6,0,P|12:65|35:22,1,69.6000005841065,10|0,0:0|0:0,0:0:0:0:
140,52,157052,2,8,P|143:89|120:132,1,69.6000005841065,10|8,0:1|0:1,0:1:0:0:
49,205,157321,1,8,0:0:0:0:
49,205,157456,2,0,P|18:253|43:356,1,139.200001168213,10|8,0:1|0:1,0:0:0:0:
148,375,157859,2,0,L|295:360,2,139.200001168213,10|10|8,0:0|0:1|0:2,0:0:0:0:
0,327,158532,6,0,P|-10:259|23:200,1,139.200001168213,14|8,0:1|0:1,0:0:0:0:
119,251,158936,2,0,L|203:240,1,69.6000005841065,10|0,0:0|0:0,0:0:0:0:
260,177,159205,1,10,0:1:0:0:
260,177,159339,2,0,L|265:99,1,69.6000005841065,8|8,0:1|0:0,0:0:0:0:
356,27,159608,6,0,P|422:30|445:98,1,139.200001168213,10|8,0:1|0:1,0:0:0:0:
380,201,160012,2,0,P|433:225|511:194,2,139.200001168213,10|10|8,0:0|0:1|0:0,0:0:0:0:
264,107,160684,6,0,P|211:83|133:114,1,139.200001168213,14|8,0:1|0:1,0:0:0:0:
73,210,161088,2,0,L|147:199,1,69.6000005841065,10|0,0:0|0:0,0:0:0:0:
225,249,161357,5,10,0:1:0:0:
225,249,161492,1,8,0:1:0:0:
177,332,161626,1,8,0:0:0:0:
269,377,161761,2,0,P|344:364|430:365,1,139.200001168213,14|8,0:1|0:1,0:0:0:0:
512,298,162164,2,0,P|476:296|418:273,1,69.6000005841065,14|0,0:0|0:0,0:0:0:0:
359,209,162433,5,8,0:3:0:0:
359,209,162501,1,8,0:3:0:0:
359,209,162568,1,8,0:3:0:0:
433,166,162702,2,0,B|450:137|450:137|441:89,1,69.6000005841065,14|2,2:2|2:2,0:0:0:0:
360,33,162971,6,0,B|287:15|316:66|244:59,1,120,14|0,0:1|0:0,0:0:0:0:
225,73,163241,6,0,P|219:34|197:1,1,80,8|2,0:0|0:0,0:0:0:0:
112,105,163510,2,0,P|117:144|139:177,1,80,8|8,0:1|0:1,0:0:0:0:
223,235,163779,1,8,0:0:0:0:
133,342,163912,2,0,P|61:361|19:292,1,160,14|8,0:1|0:1,0:0:0:0:
0,181,164316,6,0,L|28:82,1,80,10|0,0:0|0:0,0:0:0:0:
139,177,164586,2,8,P|178:148|226:143,1,80,10|8,0:1|0:1,0:1:0:0:
304,143,164854,1,8,0:0:0:0:
381,250,164989,2,0,B|422:287|422:287|506:271|505:199,1,160,14|8,0:1|0:1,0:0:0:0:
420,141,165393,2,0,P|439:82|425:50,1,80,10|0,0:0|0:0,0:0:0:0:
312,61,165662,2,8,P|278:20|243:6,1,80,10|8,0:1|0:1,0:1:0:0:
254,8,165930,1,8,0:0:0:0:
171,112,166066,6,0,L|199:289,1,160,14|8,0:1|0:1,0:1:0:0:
112,337,166469,2,0,L|97:256,1,80,10|0,0:0|0:0,0:0:0:0:
211,375,166738,2,0,P|251:366|290:363,1,80,10|8,0:1|0:1,0:0:0:0:
425,384,167007,1,12,0:0:0:0:
460,295,167141,1,2,0:0:0:0:
460,295,167208,1,2,0:0:0:0:
460,295,167276,1,14,0:1:0:0:
227,225,167545,6,0,B|185:220|185:220|159:237|159:237|82:230,1,120,10|0,0:0|0:0,0:0:0:0:
91,221,167815,2,0,P|76:175|110:128,1,80,10|8,0:1|0:1,0:1:0:0:
140,69,168083,1,8,0:0:0:0:
251,112,168218,2,0,L|443:85,1,160,14|8,0:1|0:1,0:0:0:0:
498,115,168622,6,0,P|509:78|492:42,1,80,10|0,0:0|0:0,0:0:0:0:
407,172,168891,2,8,P|433:200|472:203,1,80,10|8,0:1|0:1,0:1:0:0:
403,65,169160,2,0,P|364:74|342:106,1,80,10|0,0:0|0:0,0:0:0:0:
293,205,169429,6,0,B|258:245|258:245|160:226,1,132.00000402832,14|0,0:1|0:0,0:0:0:0:
170,242,169697,5,10,0:0:0:0:
68,196,169832,2,2,P|47:132|113:29,1,191.999994140625,14|8,0:1|0:1,0:1:0:0:
198,10,170235,5,10,0:0:0:0:
96,19,170371,2,2,P|33:98|52:197,1,207.999990478516,14|8,0:1|0:1,0:1:0:0:
101,287,170773,5,10,0:0:0:0:
39,214,170909,2,2,P|10:136|33:54,1,167.999994873047,14|0,0:1|0:0,0:1:0:0:
46,43,171178,5,8,0:0:0:0:
127,92,171312,1,8,0:0:0:0:
182,14,171446,1,8,0:0:0:0:
267,57,171581,2,0,B|322:72|322:72|394:40,1,120,14|0,0:1|0:0,0:0:0:0:
396,42,171850,6,0,P|418:68|415:123,1,80,10|0,0:0|0:0,0:0:0:0:
346,183,172119,2,8,P|345:222|369:253,1,80,10|8,0:1|0:1,0:1:0:0:
453,307,172388,1,8,0:0:0:0:
341,375,172523,2,0,L|165:358,1,160,14|8,0:1|0:1,0:0:0:0:
73,384,172926,6,0,P|70:342|95:298,1,80,10|0,0:0|0:0,0:0:0:0:
226,270,173196,2,8,P|229:228|204:184,1,80,10|8,0:1|0:1,0:1:0:0:
126,143,173465,1,8,0:0:0:0:
203,78,173598,5,14,0:1:0:0:
203,78,173667,1,2,0:0:0:0:
203,78,173734,2,0,L|332:59,1,120,2|0,0:1|0:0,0:0:0:0:
337,69,174003,2,0,B|329:107|329:107|354:155,1,80,14|0,0:0|0:0,0:0:0:0:
412,228,174271,5,8,0:0:0:0:
503,258,174406,1,8,0:3:0:0:
476,350,174541,1,4,0:3:0:0:
384,326,174676,6,0,B|240:288|305:386|156:357,1,240.000009155274,14|0,0:1|0:0,0:0:0:0:
7,320,175347,5,8,0:0:0:0:
150,267,175482,1,8,0:0:0:0:
3,228,175616,1,8,0:0:0:0:
151,180,175752,6,0,B|168:132|168:132|154:87|154:87|174:28,1,160,14|8,0:1|0:1,0:0:0:0:
267,106,176155,2,0,P|321:113|350:89,1,80,8|0,0:0|0:0,0:0:0:0:
427,10,176424,2,0,B|447:68|447:68|433:113|433:113|450:161,1,160,10|8,0:1|0:0,0:0:0:0:
512,277,176828,6,0,P|506:337|405:335,1,160,14|8,0:1|0:1,0:1:0:0:
348,274,177231,2,0,P|365:234|352:181,1,80,8|0,0:0|0:0,0:0:0:0:
319,82,177501,1,10,0:1:0:0:
319,82,177634,1,8,0:1:0:0:
257,172,177769,1,8,0:0:0:0:
161,80,177904,6,0,B|121:40|121:40|-9:71,1,176.000005371094,14|8,0:1|0:1,0:0:0:0:
80,183,178308,2,0,P|60:233|74:278,1,88.000002685547,10|0,0:0|0:0,0:0:0:0:
181,373,178577,2,0,L|200:281,1,88.000002685547,10|8,0:1|0:1,0:0:0:0:
257,172,178845,1,8,0:0:0:0:
383,276,178980,5,14,0:1:0:0:
383,276,179047,1,2,0:0:0:0:
383,276,179115,2,0,B|424:289|424:289|482:249,1,88.000002685547,2|8,0:0|0:1,0:0:0:0:
393,140,179384,6,0,B|382:105|382:105|374:96|374:96|362:59,1,88.000002685547,10|0,0:0|0:0,0:0:0:0:
295,16,179586,1,8,0:1:0:0:
295,16,179653,2,0,B|283:52|283:52|274:61|274:61|264:96,1,88.000002685547,10|0,0:0|0:0,0:0:0:0:
199,143,179855,1,8,0:1:0:0:
199,143,179922,2,0,B|187:106|187:106|178:97|178:97|168:62,1,88.000002685547,14|0,0:0|0:0,0:0:0:0:
12,6,180191,6,0,P|-8:57|3:93,1,88.000002685547,10|0,0:1|0:0,0:0:0:0:
129,189,180460,2,0,P|177:164|219:163,1,88.000002685547,10|0,0:1|0:0,0:0:0:0:
330,242,180729,5,10,0:0:0:0:
330,242,180797,1,8,0:0:0:0:
330,242,180864,1,8,0:0:0:0:
330,242,180931,1,8,0:0:0:0:
330,242,180998,1,8,0:0:0:0:
350,136,181133,1,14,0:1:0:0:
512,314,181401,5,8,0:1:0:0:
419,367,181537,1,8,0:0:0:0:
366,274,181671,1,8,0:0:0:0:
459,221,181806,2,0,B|473:180|473:180|461:137,1,88.000002685547,8|8,0:0|0:0,0:0:0:0:
275,88,182075,2,0,B|261:129|261:129|272:171,1,88.000002685547,8|8,0:0|0:0,0:0:0:0:
199,304,182344,6,0,B|154:295|154:295|112:316|112:316|43:302,1,143.999995605469,10|0,0:1|0:0,0:0:0:0:
0,257,182613,2,0,P|-5:210|19:169,1,95.9999970703126,14|0,0:2|0:0,0:0:0:0:
204,151,182882,2,0,P|296:168|354:77,1,191.999994140625,10|8,0:1|0:0,0:0:0:0:
352,98,183286,1,8,0:1:0:0:
290,199,183420,6,0,P|279:250|301:295,1,95.9999970703126,2|8,0:0|0:1,0:0:0:0:
459,222,183689,2,0,P|507:309|467:386,1,191.999994140625,10|10,0:0|0:1,0:0:0:0:
382,342,184093,1,8,0:1:0:0:
294,381,184227,1,8,0:0:0:0:
196,305,184362,6,0,B|150:221|225:215|183:120,1,191.999994140625,14|8,0:1|0:1,0:0:0:0:
21,84,184765,2,0,P|12:160|114:175,1,191.999994140625,8|8,0:0|0:1,0:0:0:0:
183,120,185169,1,8,0:1:0:0:
309,232,185303,6,0,L|208:227,1,95.9999970703126,10|0,0:0|0:0,0:0:0:0:
320,136,185572,2,0,L|325:35,1,95.9999970703126,2|8,0:0|0:1,0:0:0:0:
416,147,185841,2,0,L|517:152,1,95.9999970703126,10|0,0:0|0:0,0:0:0:0:
405,243,186110,2,8,L|400:344,1,95.9999970703126,10|8,0:1|0:1,0:1:0:0:
212,250,186380,5,8,0:0:0:0:
126,351,186514,2,0,B|78:375|78:375|3:337|19:255,1,191.999994140625,14|0,0:1|0:0,0:0:0:0:
109,166,186918,2,0,L|204:152,1,95.9999970703126,8|0,0:0|0:0,0:0:0:0:
140,37,187187,2,0,L|45:51,1,95.9999970703126,8|8,0:1|0:1,0:0:0:0:
264,90,187456,5,10,0:0:0:0:
264,90,187590,2,0,B|382:89|297:21|440:16,1,191.999994140625,8|8,0:1|0:1,0:0:0:0:
467,130,187994,2,0,P|493:160|511:235,1,95.9999970703126,10|0,0:0|0:0,0:0:0:0:
412,305,188263,2,0,P|381:267|368:222,1,95.9999970703126,10|8,0:1|0:1,0:0:0:0:
369,95,188533,1,8,0:0:0:0:
249,162,188667,6,0,B|212:197|155:198|155:198|109:150|47:150,1,207.999990478516,14|8,0:1|0:1,0:0:0:0:
0,307,189070,2,0,L|122:284,1,103.999995239258,14|0,0:0|0:0,0:0:0:0:
222,384,189339,5,8,0:3:0:0:
222,384,189407,2,0,L|223:273,1,88.000002685547,8|8,0:3|0:3,0:0:0:0:
225,216,189608,1,8,0:0:0:0:
337,315,189743,6,0,P|420:339|457:235,1,207.999990478516,14|8,0:1|0:1,0:0:0:0:
378,148,190147,2,0,B|339:140|339:140|319:148|319:148|249:133,1,103.999995239258,14|0,0:0|0:0,0:0:0:0:
146,126,190416,5,8,0:0:0:0:
283,54,190550,1,8,0:0:0:0:
159,26,190685,1,8,0:0:0:0:
264,161,190819,6,0,P|288:219|256:363,1,191.999994140625,14|8,0:1|0:1,0:0:0:0:
156,256,191223,2,0,L|53:252,1,95.9999970703126,12|0,0:0|0:0,0:0:0:0:
280,148,191492,2,0,P|338:115|482:160,1,191.999994140625,10|8,0:1|0:0,0:0:0:0:
456,136,191895,1,8,0:1:0:0:
383,244,192030,6,0,L|274:229,1,95.9999970703126,2|0,0:0|0:0,0:0:0:0:
197,126,192299,2,0,P|210:50|103:8,1,191.999994140625,10|10,0:0|0:1,0:0:0:0:
19,34,192703,1,8,0:1:0:0:
1,137,192837,1,8,0:0:0:0:
128,187,192971,6,0,P|197:166|354:154,1,191.999994140625,14|8,0:1|0:1,0:0:0:0:
336,266,193375,2,0,P|402:293|532:382,1,191.999994140625,8|8,0:0|0:1,0:0:0:0:
503,357,193779,1,8,0:1:0:0:
463,227,193913,6,0,L|452:122,1,95.9999970703126,10|8,0:0|0:1,0:0:0:0:
341,34,194182,2,0,L|330:129,1,95.9999970703126,2|8,0:0|0:1,0:0:0:0:
183,129,194451,2,0,L|173:34,1,95.9999970703126,10|0,0:0|0:0,0:0:0:0:
59,131,194720,2,0,L|49:227,1,95.9999970703126,10|8,0:1|0:1,0:0:0:0:
0,322,194990,5,8,0:0:0:0:
118,365,195124,2,0,L|314:343,1,191.999994140625,14|8,0:1|0:1,0:1:0:0:
443,235,195528,2,0,P|393:156|418:66,2,191.999994140625,10|8|8,0:0|0:1|0:0,0:0:0:0:
356,151,196200,2,0,P|269:110|174:116,1,191.999994140625,8|8,0:1|0:1,0:0:0:0:
320,297,196604,6,0,P|225:302|138:262,1,191.999994140625,10|8,0:0|0:1,0:0:0:0:
34,211,197008,1,10,0:1:0:0:
5,322,197143,1,8,0:0:0:0:
141,244,197276,6,0,B|174:215|166:167|166:167|154:146|154:146|141:87|192:43,1,207.999990478516,14|8,0:1|0:1,0:0:0:0:
300,183,197680,2,0,P|348:185|406:157,1,103.999995239258,12|0,0:0|0:0,0:0:0:0:
491,53,197949,5,8,0:3:0:0:
491,53,198016,2,0,L|381:39,1,88.000002685547,8|8,0:3|0:3,0:0:0:0:
336,83,198218,1,8,0:0:0:0:
416,174,198353,6,0,B|464:207|464:207|479:289|431:360,1,207.999990478516,14|8,0:1|0:1,0:0:0:0:
328,285,198756,2,0,P|272:261|219:274,1,103.999995239258,14|0,0:0|0:0,0:0:0:0:
62,337,199025,5,8,0:0:0:0:
171,369,199160,1,8,0:3:0:0:
126,253,199295,1,4,0:3:0:0:
231,267,199429,6,0,P|274:186|239:100,1,191.999994140625,14|8,0:1|0:1,0:0:0:0:
70,169,199832,2,0,P|26:250|61:336,2,191.999994140625,14|8|8,0:0|0:1|0:2,0:0:0:0:
145,108,200505,1,8,0:1:0:0:
271,178,200640,6,8,P|311:189|358:165,1,95.9999970703126,10|8,0:1|0:1,0:1:0:0:
338,47,200909,2,8,P|298:36|251:60,1,95.9999970703126,8|8,0:2|0:1,0:1:0:0:
275,196,201178,2,8,P|315:207|362:183,1,95.9999970703126,8|8,0:1|0:1,0:1:0:0:
430,89,201447,5,10,0:2:0:0:
490,185,201581,1,8,0:1:0:0:
490,185,201649,1,8,0:1:0:0:
490,185,201716,2,0,P|514:257|482:373,2,191.999994140625,8|8|8,0:1|0:2|0:1,0:0:0:0:
421,117,202389,1,8,0:1:0:0:
367,223,202523,6,0,L|358:319,1,95.9999970703126,10|0,0:0|0:0,0:0:0:0:
235,384,202792,2,0,L|226:288,1,95.9999970703126,10|0,0:1|0:0,0:0:0:0:
124,214,203061,2,0,P|82:226|25:208,1,95.9999970703126,10|8,0:0|0:1,0:0:0:0:
99,74,203330,2,0,P|140:50|187:51,1,95.9999970703126,10|8,0:1|0:1,0:0:0:0:
325,105,203599,6,0,B|392:123|424:70|424:70|467:63,1,155.999992858887,14|0,0:0|0:0,0:0:0:0:
480,139,203868,6,0,B|511:176|511:176|524:244|482:321,1,167.999994873047,14|0,0:1|0:0,0:0:0:0:
454,360,204138,5,8,0:0:0:0:
375,263,204272,1,8,0:3:0:0:
132,378,204676,5,4,0:3:0:0:
206,165,204945,1,8,0:2:0:0:
381,270,205214,5,8,0:1:0:0:
381,270,205281,1,8,0:1:0:0:
381,270,205348,2,0,P|430:274|466:239,1,80,8|8,0:3|0:0,0:0:0:0:
500,180,205617,5,8,0:3:0:0:
500,180,205684,1,8,0:3:0:0:
500,180,205752,2,0,L|476:93,1,80,4|4,0:3|0:3,0:0:0:0:
396,27,206021,5,8,0:0:0:0:
256,96,206200,1,8,0:3:0:0:
116,27,206380,1,8,0:3:0:0:
94,155,206559,5,4,0:3:0:0:
256,96,206738,1,4,0:3:0:0:
418,155,206918,1,4,0:3:0:0:
365,229,207097,6,0,B|304:221|304:221|264:244|264:244|202:236,1,160,14|0,0:1|0:0,0:0:0:0:
94,155,207635,6,0,B|126:209|97:265|86:271|65:236|-10:352|109:412|175:355|168:286|111:238,1,352.000010742188,2|14,0:0|2:1,0:0:0:0:
28,204,208711,5,8,0:1:0:0:
27,216,209250,1,8,0:1:0:0:
26,228,209788,1,8,0:1:0:0:
107,373,210326,5,10,0:1:0:0:
227,272,210864,5,8,0:1:0:0:
228,260,211403,1,8,0:1:0:0:
229,248,211941,1,8,0:1:0:0:
346,325,212209,6,0,L|375:326,3,23.9999992675781
381,340,212478,1,10,0:1:0:0:
508,195,213016,5,8,0:1:0:0:
510,183,213555,1,8,0:1:0:0:
512,171,214093,1,8,0:1:0:0:
437,53,214451,5,0,0:0:0:0:
437,53,214541,1,0,0:0:0:0:
437,53,214631,1,10,0:1:0:0:
336,255,215169,5,8,0:1:0:0:
197,36,215707,6,0,B|187:66|187:66|189:90|189:90|168:145,1,95.9999970703126,10|0,0:1|0:0,0:0:0:0:
59,271,216245,5,10,0:1:0:0:
0,175,216380,1,8,0:1:0:0:
0,175,216649,6,2,B|36:163|78:163|78:163|115:188|115:188|159:189|206:169,1,207.999990478516,14|8,0:1|0:1,0:1:0:0:
302,111,217052,2,0,P|292:62|319:19,1,103.999995239258,8|0,0:0|0:0,0:1:0:0:
441,121,217321,2,8,P|451:170|424:213,1,103.999995239258,8|8,0:1|0:1,0:1:0:0:
292,275,217590,5,10,0:1:0:0:
198,202,217725,1,2,0:0:0:0:
198,202,217792,1,2,0:0:0:0:
198,202,217859,2,2,B|132:182|132:182|74:209|74:209|-10:181,2,207.999990478516,10|8|8,0:1|0:0|0:1,0:1:0:0:
279,282,218532,5,10,0:1:0:0:
380,228,218667,1,10,0:0:0:0:
461,307,218801,2,2,B|487:295|499:271|499:271|513:194|455:117,1,207.999990478516,14|8,0:1|0:1,0:1:0:0:
371,54,219205,2,0,P|337:105|197:82,1,207.999990478516,8|8,0:0|0:1,0:0:0:0:
100,7,219608,5,10,0:1:0:0:
39,99,219743,1,10,0:0:0:0:
119,180,219877,2,2,B|180:196|180:196|214:277|146:336,1,207.999990478516,10|8,0:1|0:1,0:1:0:0:
25,384,220281,2,0,L|8:244,1,103.999995239258,8|0,0:0|0:0,0:0:0:0:
0,177,220550,1,8,0:1:0:0:
0,177,220685,1,8,0:1:0:0:
104,204,220819,1,8,0:0:0:0:
217,136,220954,6,2,P|224:40|320:27,1,207.999990478516,14|8,0:1|0:1,0:1:0:0:
459,125,221357,2,0,L|444:238,1,103.999995239258,10|0,0:1|0:0,0:0:0:0:
343,384,221626,2,0,L|329:280,1,103.999995239258,10|8,0:1|0:1,0:0:0:0:
213,141,221895,2,0,L|199:244,1,103.999995239258,10|0,0:1|0:0,0:0:0:0:
35,384,222164,6,0,P|18:328|30:282,1,103.999995239258,10|8,0:1|0:1,0:0:0:0:
213,238,222433,2,0,P|230:294|218:340,1,103.999995239258,10|0,0:1|0:0,0:0:0:0:
97,209,222702,1,10,0:1:0:0:
97,209,222837,1,8,0:1:0:0:
193,131,222971,1,10,0:1:0:0:
301,208,223106,6,2,B|398:248|398:248|511:180,1,207.999990478516,14|8,0:1|0:1,0:1:0:0:
389,122,223510,2,0,P|401:71|390:21,1,103.999995239258,8|0,0:0|0:0,0:0:0:0:
214,115,223779,6,2,L|108:96,1,103.999995239258,2|0,0:2|0:0,0:1:0:0:
28,36,224048,1,10,0:1:0:0:
29,175,224182,1,2,0:0:0:0:
29,175,224250,1,2,0:0:0:0:
29,175,224317,2,2,L|46:289,1,103.999995239258,10|8,0:1|0:1,0:1:0:0:
153,350,224586,2,0,B|222:335|222:335|269:361|269:361|371:337,2,207.999990478516,8|8|8,0:0|0:1|0:0,0:0:0:0:
16,289,225258,6,2,B|-14:247|-14:247|-21:167|40:95,1,207.999990478516,14|0,0:1|0:0,0:1:0:0:
88,211,225662,2,0,P|154:249|254:183,1,207.999990478516,8|8,0:0|0:1,0:0:0:0:
280,92,226066,1,8,0:1:0:0:
359,43,226200,1,8,0:0:0:0:
470,94,226335,5,2,0:0:0:0:
470,94,226402,1,2,0:0:0:0:
470,94,226469,2,2,P|487:140|465:205,1,103.999995239258,10|8,0:1|0:1,0:1:0:0:
387,308,226738,2,2,L|337:198,1,103.999995239258,8|0,0:0|0:0,0:1:0:0:
284,96,227007,1,10,0:1:0:0:
284,96,227142,1,8,0:1:0:0:
210,158,227276,1,8,0:0:0:0:
118,56,227411,6,2,B|67:34|67:34|-5:84|27:192,1,207.999990478516,14|8,0:1|0:1,0:1:0:0:
95,265,227815,2,0,B|138:254|138:254|147:257|147:257|220:240,1,103.999995239258,8|0,0:0|0:0,0:0:0:0:
340,178,228084,5,10,0:1:0:0:
314,278,228218,1,8,0:1:0:0:
399,337,228353,1,10,0:0:0:0:
483,276,228487,2,0,P|508:214|461:74,1,207.999990478516,2|8,0:0|0:1,0:0:0:0:
375,26,228891,2,2,B|330:57|330:57|263:38,1,103.999995239258,8|0,0:0|0:0,0:1:0:0:
155,0,229160,5,10,0:1:0:0:
155,0,229294,1,8,0:1:0:0:
115,82,229429,1,8,0:0:0:0:
223,123,229563,6,2,B|273:160|273:160|293:229|223:338,1,207.999990478516,14|8,0:1|0:1,0:1:0:0:
51,384,229967,2,0,L|35:272,1,103.999995239258,10|0,0:1|0:0,0:0:0:0:
104,94,230236,2,0,L|120:206,1,103.999995239258,10|8,0:1|0:1,0:0:0:0:
245,299,230505,2,0,L|259:196,1,103.999995239258,10|0,0:1|0:0,0:0:0:0:
387,340,230774,6,0,P|437:351|483:324,1,103.999995239258,10|0,0:1|0:0,0:0:0:0:
353,183,231043,2,0,P|302:171|257:199,1,103.999995239258,10|0,0:1|0:0,0:0:0:0:
150,299,231312,1,10,0:1:0:0:
51,233,231447,2,0,P|32:177|66:113,1,103.999995239258,10|8,0:1|0:0,0:0:0:0:
161,33,231716,6,2,B|214:73|214:73|360:26,1,207.999990478516,14|8,0:1|0:1,0:1:0:0:
444,120,232119,6,0,L|523:130,2,69.3333301595054,10|0|0,2:2|2:0|2:0,0:0:0:0:
363,185,232389,2,0,L|290:194,2,69.3333301595054,10|0|0,2:1|2:0|2:0,0:0:0:0:
444,238,232658,2,0,L|516:247,2,69.3333301595054,10|0|0,2:0|2:0|2:0,0:0:0:0:
365,298,232927,5,10,2:1:0:0:
366,326,233016,1,0,2:0:0:0:
356,352,233106,1,0,2:0:0:0:
335,371,233196,1,10,2:0:0:0:
309,381,233285,1,0,2:0:0:0:
281,378,233375,1,0,2:0:0:0:
256,363,233465,2,0,B|252:325|232:299|232:299|247:276|247:245|247:245|218:211|237:147,1,207.999990478516,10|8,2:1|0:0,0:0:0:0:
379,114,233868,6,2,B|435:162|506:132|506:132|520:97|484:61,1,207.999990478516,14|0,0:1|0:0,0:1:0:0:
372,14,234272,2,0,B|294:15|294:15|264:46|264:46|154:61,1,207.999990478516,8|8,0:0|0:1,0:0:0:0:
30,64,234676,5,10,0:1:0:0:
96,0,234810,1,8,0:0:0:0:
190,75,234945,2,2,P|218:133|173:287,1,207.999990478516,2|10,0:0|0:1,0:1:0:0:
105,370,235348,2,2,P|99:315|85:261,1,103.999995239258,10|8,0:0|0:1,0:1:0:0:
285,304,235617,2,10,P|291:249|305:195,1,103.999995239258,10|8,0:1|0:1,0:1:0:0:
399,96,235886,5,10,0:1:0:0:
471,184,236021,2,2,B|504:229|504:229|479:299|464:409,1,207.999990478516,14|8,0:1|0:1,0:1:0:0:
285,304,236424,2,0,P|346:286|392:280,1,103.999995239258,8|8,0:0|0:1,0:0:0:0:
263,178,236693,5,10,0:1:0:0:
353,128,236828,2,2,P|372:75|344:11,1,103.999995239258,10|8,0:1|0:0,0:1:0:0:
221,104,237097,2,0,P|154:57|24:87,1,207.999990478516,10|8,0:1|0:1,0:0:0:0:
111,183,237501,2,2,P|89:218|101:304,1,103.999995239258,10|8,0:0|0:1,0:1:0:0:
220,384,237770,2,2,L|240:267,1,103.999995239258,10|8,0:1|0:1,0:1:0:0:
294,176,238039,5,10,0:1:0:0:
368,307,238173,2,2,B|420:341|420:341|506:314|500:229,1,207.999990478516,14|8,0:1|0:1,0:1:0:0:
384,143,238577,2,2,P|337:177|289:174,1,103.999995239258,10|8,0:0|0:1,0:1:0:0:
98,55,238846,6,0,P|193:59|202:160,1,207.999990478516,10|8,0:1|0:0,0:0:0:0:
107,206,239250,1,10,0:1:0:0:
107,206,239317,1,8,0:1:0:0:
107,206,239384,2,2,L|-2:194,1,103.999995239258,8|8,0:1|0:1,0:1:0:0:
168,284,239653,2,2,P|151:332|165:381,1,103.999995239258,10|8,0:0|0:1,0:1:0:0:
318,311,239922,2,2,P|335:262|321:213,1,103.999995239258,10|8,0:1|0:1,0:1:0:0:
203,130,240191,5,10,0:1:0:0:
106,205,240326,2,2,B|51:237|51:237|-16:173|20:91,1,207.999990478516,14|8,0:1|0:1,0:1:0:0:
142,65,240729,2,0,P|236:86|296:-2,2,207.999990478516,8|8|8,0:0|0:1|0:0,0:0:0:0:
2,101,241402,6,2,P|-21:173|53:303,1,207.999990478516,10|8,0:1|0:1,0:1:0:0:
152,384,241806,2,2,L|160:279,1,103.999995239258,10|8,0:0|0:1,0:1:0:0:
286,177,242075,2,2,L|293:280,1,103.999995239258,10|8,0:1|0:1,0:1:0:0:
412,381,242344,5,10,0:1:0:0:
490,298,242478,2,2,P|513:226|439:96,1,207.999990478516,14|0,0:1|0:0,0:1:0:0:
384,251,242882,2,0,P|366:271|262:256,1,103.999995239258,8|8,0:0|0:1,0:0:0:0:
268,172,243151,2,2,B|294:149|300:120|300:120|294:39|212:-6,1,207.999990478516,10|8,0:1|0:1,0:1:0:0:
88,58,243554,6,0,P|54:130|111:248,1,207.999990478516,10|8,0:1|0:1,0:0:0:0:
257,271,243958,2,2,L|372:251,1,103.999995239258,8|8,0:1|0:1,0:1:0:0:
454,205,244227,1,10,0:1:0:0:
454,205,244362,1,8,0:1:0:0:
512,286,244496,1,8,0:0:0:0:
407,361,244631,6,2,B|335:347|335:347|292:370|292:370|189:356,1,207.999990478516,14|8,0:1|0:1,0:1:0:0:
110,288,245034,2,2,P|86:335|90:385,1,103.999995239258,10|8,0:0|0:1,0:1:0:0:
269,280,245303,1,10,0:1:0:0:
269,280,245438,2,10,P|273:229|248:180,1,103.999995239258,8|8,0:1|0:2,0:1:0:0:
104,141,245707,6,2,B|58:160|58:160|-20:116|33:16,1,207.999990478516,10|8,0:1|0:1,0:1:0:0:
162,72,246110,2,0,P|223:81|284:42,1,103.999995239258,10|8,0:0|0:1,0:0:0:0:
348,6,246380,1,10,0:1:0:0:
348,6,246514,1,8,0:1:0:0:
445,42,246649,1,8,0:0:0:0:
375,160,246783,6,0,B|350:196|353:246|353:246|372:277|372:277|373:321|347:363,1,207.999990478516,14|8,0:1|0:1,0:0:0:0:
204,384,247187,2,10,L|190:263,1,103.999995239258,10|8,0:0|0:1,0:1:0:0:
335,247,247456,2,2,L|349:126,1,103.999995239258,8|8,0:1|0:1,0:1:0:0:
173,64,247725,5,10,0:1:0:0:
122,167,247859,2,2,P|31:193|0:104,1,207.999990478516,14|8,0:1|0:1,0:1:0:0:
182,45,248263,2,2,L|302:26,1,103.999995239258,10|8,0:0|0:1,0:1:0:0:
345,166,248532,2,2,L|242:149,1,103.999995239258,10|8,0:1|0:1,0:1:0:0:
417,61,248801,5,10,0:1:0:0:
473,160,248936,2,2,P|498:229|453:369,1,207.999990478516,14|8,0:1|0:1,0:1:0:0:
328,354,249339,2,0,P|247:313|114:345,2,207.999990478516,8|8|8,0:2|0:1|0:2,0:0:0:0:
465,259,250012,5,8,0:1:0:0:
465,259,250079,1,8,0:1:0:0:
465,259,250146,2,0,P|481:193|465:144,1,103.999995239258,10|8,0:1|0:1,0:0:0:0:
333,67,250415,2,8,P|317:133|333:182,1,103.999995239258,10|8,0:2|0:1,0:1:0:0:
182,259,250684,2,8,P|190:208|174:159,1,103.999995239258,10|8,0:1|0:1,0:1:0:0:
39,80,250953,2,8,B|10:109|10:109|35:179,1,103.999995239258,14|8,0:2|0:1,0:1:0:0:
168,273,251223,6,0,B|118:254|118:254|63:275,1,111.999996582031,14|0,0:1|0:0,0:0:0:0:
230,359,251492,2,0,B|280:378|280:378|334:356,1,111.999996582031,10|0,0:1|0:0,0:0:0:0:
425,284,251761,5,8,0:0:0:0:
415,267,251828,1,8,0:0:0:0:
409,250,251895,1,8,0:3:0:0:
407,231,251962,1,8,0:3:0:0:
409,213,252030,1,4,0:3:0:0:
415,195,252097,1,4,0:3:0:0:
425,179,252164,1,14,0:1:0:0:
226,10,252433,5,8,0:1:0:0:
313,79,252568,1,12,0:0:0:0:
232,156,252702,1,8,0:0:0:0:
145,87,252837,2,0,P|80:79|39:106,1,111.999996582031,8|8,0:0|0:0,0:0:0:0:
194,240,253106,2,0,P|258:247|299:220,1,111.999996582031,8|8,0:0|0:0,0:0:0:0:
405,103,253375,6,0,B|409:175|464:150|466:255|397:217|421:179,1,160,10|12,0:1|0:0,0:0:0:0:
418,183,254989,5,8,0:3:0:0:
483,312,255258,5,10,0:0:0:0:
422,360,255393,2,0,P|381:369|320:331,1,90.0000034332277,14|0,0:1|0:0,0:0:0:0:
313,330,255662,6,0,B|329:298|329:298|318:247,1,80,8|12,0:1|0:0,0:0:0:0:
69,309,257411,5,10,0:0:0:0:
138,361,257545,2,0,B|152:366|190:349|190:349|142:328|103:336|103:336|66:347|11:319|11:319|39:303|70:309,1,300.000011444092,14|0,0:1|0:0,0:0:0:0:
272,222,259294,5,14,0:1:0:0:
295,309,259429,1,8,0:1:0:0:
382,286,259563,1,8,0:0:0:0:
359,199,259698,2,0,L|323:35,1,143.999995605469,14|8,0:1|0:1,0:0:0:0:
227,142,260102,2,0,P|186:150|132:125,1,80,14|0,0:0|0:0,0:0:0:0:
87,70,260371,5,8,0:0:0:0:
39,134,260505,1,8,0:3:0:0:
78,203,260640,1,4,2:3:0:0:
150,139,260774,6,0,L|301:118,1,143.999995605469,10|8,0:1|0:1,0:0:0:0:
397,162,261178,2,0,P|417:195|411:233,1,80,14|0,0:0|0:0,0:0:0:0:
345,335,261447,5,8,0:0:0:0:
258,294,261581,1,8,0:0:0:0:
196,368,261716,1,8,0:0:0:0:
109,327,261850,6,0,P|82:259|135:156,1,180.000006866455,14|8,0:1|0:1,0:0:0:0:
257,114,262523,2,0,P|305:129|368:83,1,120.000004577637,10|0,0:0|0:0,0:0:0:0:
361,95,262927,1,8,0:1:0:0:
344,21,263061,2,0,P|296:6|233:52,1,120.000004577637,2|8,0:0|0:1,0:0:0:0:
156,157,263599,2,0,P|107:189|51:175,1,120.000004577637,10|2,0:0|0:1,0:0:0:0:
171,176,264003,6,0,B|202:211|191:270|176:255|166:312|196:346,1,180.000006866455,14|8,0:1|0:1,0:0:0:0:
338,376,264676,2,0,L|348:235,1,120.000004577637,8|0,0:0|0:0,0:0:0:0:
346,256,265079,1,8,0:1:0:0:
436,309,265214,2,0,L|426:168,1,120.000004577637,2|8,0:0|0:1,0:0:0:0:
251,259,265752,2,0,L|261:118,1,120.000004577637,10|2,0:0|0:0,0:0:0:0:
364,82,266155,6,0,P|354:147|251:119,1,180.000006866455,14|8,0:1|0:1,0:0:0:0:
135,63,266828,2,0,P|66:40|2:58,1,120.000004577637,8|0,0:0|0:0,0:0:0:0:
20,48,267232,1,8,0:1:0:0:
67,124,267366,2,0,P|48:167|69:261,1,120.000004577637,2|8,0:0|0:1,0:0:0:0:
151,344,267904,5,8,0:0:0:0:
219,370,268039,2,0,B|257:356|245:377|289:360,1,60,10|0,0:1|0:0,0:0:0:0:
299,365,268308,6,0,P|276:303|320:203,1,160,14|0,0:1|0:0,0:0:0:0:
323,208,268644,1,8,0:1:0:0:
341,200,268711,2,0,P|361:155|351:101,1,80,12|0,0:0|0:0,0:0:0:0:
204,34,268980,6,0,L|215:91,1,53.3333333333333,8|8,0:3|0:3,0:0:0:0:
134,266,269250,5,8,0:0:0:0:
40,217,269384,2,0,B|5:179|5:179|-2:118|52:61,1,176.000005371094,14|8,0:1|0:1,0:0:0:0:
178,161,269788,2,0,P|226:172|280:135,1,88.000002685547,14|0,0:0|0:0,0:0:0:0:
381,125,270057,5,8,0:3:0:0:
381,125,270124,2,0,B|364:94|364:94|387:25,1,88.000002685547,8|0,0:3|0:3,0:0:0:0:
452,17,270326,1,8,0:0:0:0:
511,168,270460,6,0,B|513:206|498:238|498:238|500:262|514:276|514:276|516:318|494:351,1,191.999994140625,14|8,0:1|0:1,0:0:0:0:
364,299,270864,2,0,P|311:277|259:292,1,95.9999970703126,12|0,0:0|0:0,0:0:0:0:
148,384,271133,2,0,P|127:315|180:198,1,191.999994140625,10|8,0:1|0:0,0:0:0:0:
169,207,271537,1,8,0:1:0:0:
290,176,271671,6,0,P|342:186|383:152,1,95.9999970703126,2|8,0:0|0:1,0:0:0:0:
291,46,271940,2,0,L|96:29,1,191.999994140625,8|10,0:0|0:1,0:0:0:0:
16,77,272344,1,8,0:1:0:0:
1,171,272478,1,8,0:0:0:0:
106,254,272613,6,0,L|301:237,1,191.999994140625,14|8,0:1|0:1,0:0:0:0:
404,293,273016,2,0,P|394:339|411:384,1,95.9999970703126,8|0,0:0|0:0,0:0:0:0:
491,229,273285,2,0,P|500:182|483:137,1,95.9999970703126,8|8,0:1|0:1,0:0:0:0:
388,56,273554,5,10,0:0:0:0:
388,56,273689,2,0,P|366:122|246:106,1,191.999994140625,8|8,0:1|0:1,0:0:0:0:
280,262,274093,2,0,P|232:258|185:278,1,95.9999970703126,10|0,0:0|0:0,0:0:0:0:
87,384,274362,5,10,0:1:0:0:
28,308,274496,1,8,0:0:0:0:
79,226,274631,1,8,0:0:0:0:
195,300,274765,6,8,B|237:346|237:346|385:324,1,191.999994140625,14|0,0:1|0:0,0:1:0:0:
495,384,275169,2,0,B|446:304|517:274|467:187,1,191.999994140625,8|8,0:0|0:1,0:0:0:0:
390,149,275572,1,8,0:1:0:0:
319,214,275707,1,8,0:0:0:0:
226,188,275841,2,0,B|172:176|172:176|113:207|113:207|38:190,1,191.999994140625,10|8,0:1|0:1,0:0:0:0:
178,86,276245,6,0,P|177:53|214:-19,1,80,10|0,0:0|0:0,0:0:0:0:
356,59,276514,2,0,P|380:174|343:267,1,207.999990478516,14|8,0:1|0:0,0:0:0:0:
177,375,276918,6,0,B|119:315|10:351|10:351|27:381|62:385,1,223.999993164063,14|8,0:1|0:1,0:0:0:0:
208,279,277321,2,0,P|228:227|220:170,1,95.9999970703126,10|0,0:0|0:0,0:0:0:0:
125,35,277590,5,8,0:3:0:0:
93,163,277725,1,8,0:3:0:0:
29,84,277859,1,8,0:0:0:0:
191,106,277994,6,0,B|278:84|278:84|294:62|294:62|429:28,1,223.999993164063,14|8,0:1|0:1,0:0:0:0:
410,171,278397,2,0,P|465:178|529:211,1,103.999995239258,10|0,0:0|0:0,0:0:0:0:
387,270,278667,5,10,0:1:0:0:
446,354,278801,1,8,0:0:0:0:
344,377,278936,1,8,0:0:0:0:
282,292,279070,2,0,B|254:254|268:211|268:211|265:200|265:200|286:159|265:106,1,191.999994140625,14|8,0:1|0:1,0:0:0:0:
153,29,279474,2,0,P|101:43|39:45,1,95.9999970703126,10|0,0:0|0:0,0:0:0:0:
266,108,279743,6,0,P|365:68|481:95,1,191.999994140625,8|8,0:1|0:0,0:0:0:0:
448,192,280146,2,0,P|505:251|506:370,1,191.999994140625,10|8,0:1|0:1,0:0:0:0:
375,290,280550,5,10,0:0:0:0:
321,369,280684,1,0,0:0:0:0:
248,305,280819,2,0,L|211:94,1,191.999994140625,10|10,0:1|0:0,0:0:0:0:
89,28,281223,6,0,P|32:87|31:206,1,191.999994140625,14|8,0:1|0:1,0:0:0:0:
158,269,281626,2,0,P|198:227|336:274,1,191.999994140625,8|8,0:0|0:1,0:0:0:0:
357,338,282030,1,8,0:1:0:0:
445,373,282164,1,8,0:0:0:0:
512,271,282299,6,0,B|493:226|493:226|512:144|512:144|481:68,1,191.999994140625,10|8,0:1|0:1,0:0:0:0:
304,145,282702,2,0,L|399:157,1,95.9999970703126,10|0,0:0|0:0,0:0:0:0:
353,32,282971,2,0,L|257:19,1,95.9999970703126,10|8,0:1|0:1,0:0:0:0:
150,93,283241,1,8,0:0:0:0:
238,200,283375,6,0,B|271:247|271:247|243:315|226:415,1,191.999994140625,14|8,0:1|0:1,0:0:0:0:
53,317,283779,2,0,L|149:298,1,95.9999970703126,8|0,0:0|0:0,0:0:0:0:
332,219,284048,2,8,L|237:200,1,95.9999970703126,8|8,0:1|0:1,0:1:0:0:
65,171,284317,5,10,0:0:0:0:
65,171,284451,1,8,0:1:0:0:
156,107,284586,2,0,P|172:67|150:-17,1,95.9999970703126,2|8,0:0|0:1,0:0:0:0:
238,200,284855,2,0,P|233:247|249:291,1,95.9999970703126,10|0,0:0|0:0,0:0:0:0:
399,384,285124,6,0,B|415:325|415:325|403:279|403:279|436:175,1,207.999990478516,14|8,0:1|0:0,0:0:0:0:
512,31,285528,2,0,P|509:92|360:70,1,223.999993164063,14|8,0:1|0:1,0:0:0:0:
293,28,285931,2,0,L|396:17,1,95.9999970703126,10|8,0:0|0:1,0:0:0:0:
273,144,286200,5,8,0:3:0:0:
173,67,286335,1,8,0:3:0:0:
155,190,286469,1,8,0:0:0:0:
292,158,286604,6,0,P|353:186|321:342,1,207.999990478516,14|8,0:1|0:2,0:0:0:0:
231,384,287007,2,0,L|212:276,1,103.999995239258,10|8,0:0|0:1,0:0:0:0:
146,169,287276,5,10,0:0:0:0:
31,219,287411,1,8,0:0:0:0:
44,94,287546,1,8,0:0:0:0:
161,183,287680,6,0,B|252:210|252:210|347:153,1,191.999994140625,14|8,0:1|0:1,0:0:0:0:
455,52,288084,2,0,B|426:43|426:43|398:51|398:51|345:40,1,95.9999970703126,12|0,0:1|0:0,0:0:0:0:
456,153,288353,2,0,B|502:181|502:181|511:266|467:327,1,191.999994140625,10|8,0:1|0:0,0:0:0:0:
475,314,288756,1,8,0:1:0:0:
364,382,288891,6,0,L|349:269,1,95.9999970703126,2|8,0:0|0:1,0:0:0:0:
230,208,289160,2,0,P|238:282|127:296,1,191.999994140625,10|10,0:0|0:1,0:0:0:0:
51,272,289564,1,8,0:1:0:0:
18,182,289698,1,8,0:0:0:0:
115,94,289832,6,0,B|182:81|182:81|220:104|220:104|320:89,1,191.999994140625,14|8,0:1|0:1,0:0:0:0:
386,0,290236,2,0,P|431:78|395:172,1,191.999994140625,8|8,0:0|0:1,0:0:0:0:
398,168,290640,1,8,0:1:0:0:
302,264,290774,6,0,L|422:280,1,95.9999970703126,10|8,0:0|0:1,0:0:0:0:
277,170,291043,2,0,L|293:50,1,95.9999970703126,2|8,0:0|0:1,0:0:0:0:
183,195,291312,2,0,L|63:179,1,95.9999970703126,10|0,0:0|0:0,0:0:0:0:
208,289,291581,2,8,L|192:409,1,95.9999970703126,8|8,0:1|0:1,0:1:0:0:
330,267,291851,5,8,0:0:0:0:
416,359,291985,2,0,B|457:386|457:386|523:345|502:247,1,191.999994140625,14|0,0:1|0:0,0:0:0:0:
439,96,292389,2,0,L|424:205,1,95.9999970703126,8|0,0:0|0:0,0:0:0:0:
330,267,292658,2,8,L|316:171,1,95.9999970703126,8|8,0:1|0:1,0:1:0:0:
232,69,292927,5,10,0:0:0:0:
232,69,293061,2,0,B|115:81|182:1|60:13,1,191.999994140625,8|8,0:1|0:1,0:0:0:0:
56,123,293465,2,0,P|20:178|27:223,1,95.9999970703126,10|0,0:0|0:0,0:0:0:0:
124,339,293734,6,0,P|227:311|331:305,1,207.999990478516,14|8,0:1|0:0,0:0:0:0:
465,381,294137,2,0,B|500:343|500:343|472:263|445:144,1,223.999993164063,14|8,0:1|0:1,0:0:0:0:
332,57,294541,6,0,P|334:115|310:176,1,95.9999970703126,10|0,0:0|0:0,0:0:0:0:
239,243,294810,1,8,0:3:0:0:
239,243,294877,2,0,P|190:222|133:225,1,95.9999970703126,8|8,0:3|0:3,0:0:0:0:
83,263,295079,1,8,0:0:0:0:
0,138,295214,6,0,P|38:40|142:48,1,223.999993164063,14|8,0:1|0:1,0:0:0:0:
237,150,295617,2,0,B|226:197|226:197|246:270,1,95.9999970703126,8|0,0:0|0:0,0:0:0:0:
338,339,295886,5,8,0:1:0:0:
369,231,296021,1,8,0:0:0:0:
354,356,296156,1,8,0:0:0:0:
454,271,296290,6,0,P|476:214|425:74,1,191.999994140625,14|8,0:1|0:1,0:0:0:0:
314,56,296693,2,0,B|272:76|272:76|200:56,1,95.9999970703126,12|0,0:0|0:0,0:0:0:0:
88,18,296963,2,0,P|53:105|76:197,1,191.999994140625,10|8,0:1|0:0,0:0:0:0:
76,197,297366,1,8,0:1:0:0:
232,238,297501,6,0,L|344:213,1,95.9999970703126,2|0,0:0|0:0,0:0:0:0:
482,275,297770,2,0,P|488:348|382:364,1,191.999994140625,10|10,0:0|0:1,0:0:0:0:
298,336,298174,1,8,0:1:0:0:
210,374,298308,1,8,0:0:0:0:
108,307,298442,6,0,B|81:268|81:268|111:96,1,191.999994140625,14|8,0:1|0:1,0:0:0:0:
176,16,298846,2,0,P|193:91|298:83,1,191.999994140625,8|8,0:0|0:1,0:0:0:0:
292,89,299250,1,8,0:1:0:0:
405,6,299384,6,0,L|390:124,1,95.9999970703126,10|8,0:0|0:1,0:0:0:0:
505,247,299653,2,0,L|410:175,1,95.9999970703126,2|8,0:0|0:1,0:0:0:0:
246,213,299922,2,0,L|355:166,1,95.9999970703126,10|0,0:0|0:0,0:0:0:0:
405,6,300192,5,10,0:1:0:0:
392,101,300326,1,8,0:1:0:0:
292,89,300461,1,8,0:0:0:0:
343,187,300595,6,0,B|393:221|393:221|400:321|319:379,1,207.999990478516,14|8,0:1|0:1,0:0:0:0:
249,282,300998,2,0,B|156:235|167:327|67:280,1,191.999994140625,10|8,0:0|0:1,0:0:0:0:
2,209,301402,1,8,0:1:0:0:
41,121,301537,1,8,0:0:0:0:
162,165,301671,6,0,B|258:185|258:185|346:151,1,191.999994140625,10|8,0:1|0:1,0:0:0:0:
451,12,302075,2,0,P|424:65|465:139,1,143.999995605469,10|0,0:0|0:0,0:0:0:0:
512,205,302344,6,0,B|504:248|469:276|469:276|340:240,1,207.999990478516,14|8,0:1|0:0,0:1:0:0:
186,154,302747,6,0,P|201:71|73:43,1,223.999993164063,14|8,0:1|0:1,0:0:0:0:
20,148,303151,2,0,L|48:295,1,111.999996582031,10|0,0:0|0:0,0:0:0:0:
118,358,303420,5,8,0:3:0:0:
118,358,303487,2,0,P|165:337|223:338,1,95.9999970703126,8|8,0:3|0:3,0:0:0:0:
275,377,303689,1,8,0:0:0:0:
364,301,303823,6,0,B|324:365|430:442|505:307|403:226|403:226|402:165|446:148|446:148|435:129|448:92,1,431.999986816407,14|14,0:1|2:1,0:0:0:0:
316,39,307052,6,0,L|320:64,3,13.3333333333333
162,209,309250,6,0,L|157:234,2,13.3333333333333
399,293,311267,6,0,L|401:312,5,13.3333333333333
36,354,312837,6,8,L|29:385,3,21.3333333333333,8|8|8|8,0:1|0:1|0:1|0:1,0:1:0:0:
82,282,313106,5,10,0:0:0:0:
151,328,313241,1,8,0:0:0:0:
227,295,313375,1,8,0:0:0:0:
163,211,313510,6,0,B|137:175|137:175|138:104|204:55,1,176.000005371094,14|8,0:1|0:1,0:0:0:0:
279,143,313913,2,0,P|335:150|375:125,1,88.000002685547,10|0,0:0|0:0,0:0:0:0:
444,52,314182,2,0,B|500:91|501:165|501:165|475:201,1,176.000005371094,10|8,0:1|0:0,0:0:0:0:
413,293,314586,5,10,0:1:0:0:
413,293,314653,1,2,0:0:0:0:
413,293,314720,2,0,L|321:282,1,88.000002685547,2|8,0:0|0:1,0:0:0:0:
223,296,314989,2,0,L|212:383,1,88.000002685547,10|0,0:0|0:0,0:0:0:0:
121,275,315258,2,0,L|33:264,1,88.000002685547,10|8,0:1|0:1,0:0:0:0:
0,183,315528,1,8,0:0:0:0:
102,143,315662,6,0,B|192:120|132:58|236:44,1,176.000005371094,14|8,0:1|0:1,0:0:0:0:
323,147,316066,2,0,P|296:207|338:315,1,176.000005371094,8|8,0:0|0:1,0:0:0:0:
395,364,316469,1,8,0:1:0:0:
481,347,316604,1,8,0:0:0:0:
512,253,316738,5,10,0:1:0:0:
512,253,316806,1,2,0:0:0:0:
512,253,316873,2,2,L|484:132,1,88.000002685547,2|8,0:0|0:1,0:1:0:0:
399,67,317142,2,0,L|388:171,1,88.000002685547,8|0,0:0|0:0,0:0:0:0:
283,220,317411,1,10,0:1:0:0:
190,194,317545,1,8,0:1:0:0:
163,287,317680,1,8,0:0:0:0:
45,237,317815,6,2,P|19:168|70:57,1,176.000005371094,14|8,0:1|0:1,0:1:0:0:
180,102,318218,2,0,L|354:77,1,176.000005371094,8|8,0:0|0:1,0:0:0:0:
431,18,318622,1,8,0:1:0:0:
493,91,318756,1,8,0:0:0:0:
421,164,318891,5,10,0:1:0:0:
421,164,318958,1,2,0:0:0:0:
421,164,319025,2,0,B|416:200|416:200|420:214|420:214|411:271,1,88.000002685547,2|8,0:0|0:1,0:0:0:0:
337,384,319294,2,0,B|326:349|326:349|328:334|328:334|316:299,1,88.000002685547,8|0,0:0|0:0,0:0:0:0:
162,229,319563,6,0,B|129:280|129:280|62:294|14:225,1,191.999994140625,14|8,0:1|0:0,0:1:0:0:
202,120,319967,2,0,B|235:171|235:171|302:185|350:116,1,191.999994140625,14|0,0:1|0:0,0:0:0:0:
214,29,320371,2,0,L|114:17,1,95.9999970703126,14|0,0:0|0:0,0:0:0:0:
5,149,320640,5,8,0:3:0:0:
5,149,320707,2,0,L|21:258,1,80,8|0,0:3|0:0,0:0:0:0:
31,302,320909,1,8,0:0:0:0:
142,371,321043,6,2,B|166:338|165:302|165:302|143:259|143:259|142:203|165:168,1,207.999990478516,14|10,0:1|0:1,0:1:0:0:
247,322,321447,2,0,P|277:336|361:317,1,103.999995239258,14|8,0:1|0:1,0:0:0:0:
482,271,321716,5,10,0:1:0:0:
376,203,321851,1,8,0:0:0:0:
492,159,321985,1,8,0:0:0:0:
418,69,322119,6,2,B|382:110|382:110|237:76,1,176.000005371094,14|8,0:1|0:1,0:1:0:0:
161,110,322523,2,0,P|157:61|191:9,1,88.000002685547,12|0,0:2|0:1,0:1:0:0:
320,134,322792,2,0,P|335:194|275:306,1,176.000005371094,8|8,0:1|2:0,0:0:0:0:
187,361,323196,5,10,0:1:0:0:
187,361,323263,1,2,0:0:0:0:
187,361,323330,2,0,B|147:353|147:353|136:358|136:358|69:345,1,88.000002685547,2|8,0:0|0:1,0:0:0:0:
0,270,323599,2,0,B|40:262|40:262|51:267|51:267|118:254,1,88.000002685547,10|0,0:0|0:0,0:0:0:0:
196,190,323868,2,8,B|156:182|156:182|145:187|145:187|78:174,1,88.000002685547,10|8,0:1|0:1,0:1:0:0:
36,122,324138,1,8,0:0:0:0:
126,47,324272,6,0,P|179:24|305:56,1,176.000005371094,14|8,0:1|0:1,0:1:0:0:
331,161,324676,2,0,B|297:201|297:201|290:269|334:348,1,176.000005371094,8|8,0:0|0:1,0:0:0:0:
380,384,325079,1,8,0:1:0:0:
467,371,325214,1,8,0:0:0:0:
505,278,325348,5,10,0:1:0:0:
505,278,325415,1,2,0:0:0:0:
505,278,325483,2,0,L|484:182,1,88.000002685547,2|8,0:0|0:1,0:0:0:0:
406,101,325752,6,2,B|366:123|366:123|329:101,1,88.000002685547,10|0,0:0|0:0,0:1:0:0:
194,39,326021,2,0,B|234:31|234:31|245:36|245:36|312:23,1,88.000002685547,10|8,0:1|0:1,0:0:0:0:
211,144,326290,1,8,0:0:0:0:
91,97,326424,6,0,B|46:84|46:84|-8:130|19:212,1,176.000005371094,14|8,0:1|0:1,0:0:0:0:
134,280,326828,2,0,P|166:255|213:247,1,88.000002685547,8|0,0:0|0:0,0:0:0:0:
348,352,327097,2,0,P|272:386|208:332,1,176.000005371094,10|8,0:1|0:0,0:0:0:0:
343,236,327501,5,10,0:1:0:0:
343,236,327568,1,2,0:0:0:0:
343,236,327635,2,0,B|369:217|369:217|339:117,1,88.000002685547,2|8,0:0|0:1,0:0:0:0:
203,74,327904,2,0,B|186:127|186:127|212:146,1,88.000002685547,10|0,0:0|0:0,0:0:0:0:
374,53,328173,6,0,P|486:62|482:165,1,191.999994140625,14|8,0:1|0:0,0:0:0:0:
454,282,328577,2,0,B|336:239|378:323|235:270,1,191.999994140625,14|8,0:1|0:1,0:1:0:0:
157,384,328980,2,0,L|143:256,1,95.9999970703126,14|0,0:0|0:0,0:0:0:0:
43,173,329250,5,8,0:3:0:0:
19,284,329384,1,8,0:3:0:0:
131,308,329519,1,8,0:0:0:0:
168,186,329653,6,0,P|148:88|220:18,1,207.999990478516,14|8,0:1|0:1,0:0:0:0:
283,139,330057,2,0,B|318:133|318:133|335:142|335:142|390:135,1,103.999995239258,14|0,0:0|0:0,0:0:0:0:
512,62,330326,5,8,0:0:0:0:
497,218,330461,1,8,0:3:0:0:
403,123,330595,1,4,0:3:0:0:
290,284,330864,5,8,0:0:0:0:
347,353,330998,1,8,0:0:0:0:
379,269,331133,1,8,0:0:0:0:
240,145,331537,5,8,0:1:0:0:
216,222,331671,5,8,0:0:0:0:
314,127,331806,1,8,0:0:0:0:
183,88,331940,1,8,0:0:0:0:
348,284,332209,5,8,0:1:0:0:
305,366,332344,2,0,L|314:391,2,20,8|8|8,0:1|0:1|0:0,0:0:0:0:
231,311,332613,2,0,P|177:305|136:323,1,95.9999970703126,14|0,0:1|0:0,0:0:0:0:
44,337,333016,6,0,B|-12:283|-69:141|-24:-62|219:-65|239:62|277:104|304:28|358:107|416:69|494:31|494:31|463:75|435:105|383:120|354:125|354:125|377:157|424:166|477:158|477:158|422:211|386:222|332:205|332:205|354:241|401:264|446:278|446:278|385:265|329:262|285:294|285:294|257:313|224:331|173:340|115:329|82:263|75:226|75:226|70:193|60:134|101:70|173:65|220:91|255:131|263:152|267:206|244:240|227:259|196:262|174:256|150:236|143:214|160:178,1,2280.95992412578,14|0,0:1|3:0,0:1:0:0:
