osu file format v14

[General]
AudioFilename: audio.mp3
AudioLeadIn: 0
PreviewTime: 84372
Countdown: 0
SampleSet: Soft
StackLeniency: 0.7
Mode: 0
LetterboxInBreaks: 0
WidescreenStoryboard: 0

[Editor]
Bookmarks: 188029,197581,264447,273999,302656,322790,351595
DistanceSpacing: 0.7
BeatDivisor: 4
GridSize: 16
TimelineZoom: 2.2

[Metadata]
Title:Shiroi Yoru Hamon o Utsusu Yami
TitleUnicode:白い夜波紋を映す闇
Artist:Asriel
ArtistUnicode:Asriel
Creator:Lyruke
Version:Coldness of the White Night
Source:
Tags:abyss symphonic kokomi metal rock gothic japanese
BeatmapID:2882253
BeatmapSetID:1396532

[Difficulty]
HPDrainRate:5.7
CircleSize:4.2
OverallDifficulty:9.2
ApproachRate:9.6
SliderMultiplier:1.84
SliderTickRate:1

[Events]
//Background and Video events
0,0,"bg asriel.jpg",0,0
//Break Periods
//Storyboard Layer 0 (Background)
//Storyboard Layer 1 (Fail)
//Storyboard Layer 2 (Pass)
//Storyboard Layer 3 (Foreground)
//Storyboard Layer 4 (Overlay)
//Storyboard Sound Samples

[TimingPoints]
568,298.507462686567,4,2,4,40,1,0
568,-135.135135135135,4,2,4,40,0,0
4033,298.507462686567,4,2,4,40,1,0
4033,-135.135135135135,4,2,4,40,0,0
6388,298.507462686567,4,2,4,60,1,0
6388,-106.382978723404,4,2,4,60,0,0
6537,298.507462686567,4,2,4,60,1,0
6537,-106.382978723404,4,2,4,60,0,0
7581,309.278350515464,4,2,4,60,1,0
7581,-106.382978723404,4,2,4,60,0,0
7890,298.507462686567,4,2,4,60,1,0
7890,-106.382978723404,4,2,4,60,0,0
8934,298.507462686567,4,2,4,60,1,0
8934,-106.382978723404,4,2,4,60,0,0
27441,294.117647058824,4,2,4,60,1,0
28029,298.507462686567,4,2,4,70,1,0
28029,-96.1538461538461,4,2,4,70,0,0
46984,-106.382978723404,4,2,4,60,0,0
63328,-106.382978723404,4,2,4,5,0,0
63402,-106.382978723404,4,2,4,60,0,0
63626,-106.382978723404,4,2,4,5,0,0
63701,-106.382978723404,4,2,4,60,0,0
63925,-106.382978723404,4,2,4,5,0,0
63999,-106.382978723404,4,2,4,60,0,0
66088,-87.719298245614,4,2,4,80,0,1
84148,-87.719298245614,4,2,4,80,0,0
85342,-87.719298245614,4,2,4,80,0,1
104446,-156.25,4,2,4,40,0,0
121163,-135.135135135135,4,2,4,50,0,0
130715,-96.1538461538461,4,2,4,70,0,0
149368,298.507462686567,4,2,4,70,1,0
149666,-106.382978723404,4,2,4,60,0,0
149815,298.507462686567,4,2,4,60,1,0
149815,-106.382978723404,4,2,4,60,0,0
150418,298.507462686567,4,2,4,60,1,0
150418,-106.382978723404,4,2,4,60,0,0
151015,298.507462686567,4,2,4,60,1,0
151015,-106.382978723404,4,2,4,60,0,0
166014,-106.382978723404,4,2,4,5,0,0
166089,-106.382978723404,4,2,4,60,0,0
166313,-106.382978723404,4,2,4,5,0,0
166387,-106.382978723404,4,2,4,60,0,0
166611,-106.382978723404,4,2,4,5,0,0
166686,-106.382978723404,4,2,4,60,0,0
168776,-87.719298245614,4,2,4,80,0,1
186835,-87.719298245614,4,2,4,80,0,0
188029,-87.719298245614,4,2,4,80,0,1
207134,-96.1538461538461,4,2,4,70,0,0
216686,-96.1538461538461,4,2,4,75,0,0
219074,-96.1538461538461,4,2,4,80,0,0
221462,-96.1538461538461,4,2,4,85,0,0
223850,-96.1538461538461,4,2,4,70,0,0
226238,-156.25,4,2,4,60,0,0
230865,-106.382978723404,4,2,4,70,0,0
235641,-156.25,4,2,4,60,0,0
240417,-106.382978723404,4,2,4,70,0,0
242432,-106.382978723404,4,2,4,5,0,0
242507,-106.382978723404,4,2,4,60,0,0
242731,-106.382978723404,4,2,4,5,0,0
242805,-106.382978723404,4,2,4,60,0,0
243029,-106.382978723404,4,2,4,5,0,0
243104,-106.382978723404,4,2,4,60,0,0
245194,-87.719298245614,4,2,4,80,0,1
263253,-87.719298245614,4,2,4,80,0,0
264447,-87.719298245614,4,2,4,80,0,1
283403,-96.1538461538461,4,2,4,70,0,0
318158,298.507462686567,4,2,4,70,1,0
318158,-96.1538461538461,4,2,4,70,0,0
319043,298.507462686567,4,2,4,70,1,0
319043,-96.1538461538461,4,2,4,70,0,0
319342,298.507462686567,4,2,4,70,1,0
319342,-96.1538461538461,4,2,4,70,0,0
320222,298.507462686567,4,2,4,70,1,0
320222,-96.1538461538461,4,2,4,70,0,0
320526,298.507462686567,4,2,4,70,1,0
320526,-96.1538461538461,4,2,4,70,0,0
322790,298.507462686567,4,2,4,70,1,0
322790,-96.1538461538461,4,2,4,70,0,0
322939,298.507462686567,4,2,4,60,1,0
322939,-96.1538461538461,4,2,4,60,0,0
341446,-96.1538461538461,4,2,4,65,0,0
341595,-96.1538461538461,4,2,4,70,0,0
341744,-96.1538461538461,4,2,4,75,0,0
341894,-96.1538461538461,4,2,4,80,0,0
342043,-96.1538461538461,4,2,4,85,0,0
342118,-96.1538461538461,4,2,4,60,0,0
351595,-96.1538461538461,4,2,4,5,0,0

[Colours]
Combo1 : 192,192,192
Combo2 : 166,55,55
Combo3 : 117,117,117
Combo4 : 255,155,106

[HitObjects]
65,324,568,5,2,0:0:0:0:
91,316,717,1,0,0:0:0:0:
115,310,866,1,0,0:0:0:0:
141,303,1015,1,0,0:0:0:0:
232,255,1165,6,0,L|223:322,1,68.0800016621094,2|0,0:0|0:0,0:0:0:0:
156,205,1463,1,0,0:0:0:0:
271,174,1612,1,0,0:0:0:0:
191,67,1762,6,0,L|200:134,1,68.0800016621094,2|0,0:0|0:0,0:0:0:0:
315,245,2060,1,0,0:0:0:0:
351,142,2209,1,0,0:0:0:0:
420,249,2359,6,0,P|453:247|482:230,1,68.0800016621094,2|0,0:0|0:0,0:0:0:0:
351,142,2657,2,0,P|321:124|288:123,1,68.0800016621094
192,224,2956,6,0,L|200:291,1,68.0800016621094,2|0,0:0|0:0,0:0:0:0:
96,208,3254,1,0,0:0:0:0:
220,144,3403,1,0,0:0:0:0:
58,105,3553,1,6,0:0:0:0:
58,105,3851,1,6,0:0:0:0:
243,55,4033,5,8,0:0:0:0:
270,60,4107,1,8,0:0:0:0:
293,76,4182,1,8,0:0:0:0:
308,99,4256,1,8,0:0:0:0:
314,126,4331,2,0,L|302:184,1,34.0400008310547,8|0,3:0|0:0,0:0:0:0:
206,279,4480,2,0,L|196:223,1,34.0400008310547,8|0,0:0|0:0,0:0:0:0:
179,101,4630,5,0,1:0:0:0:
118,236,4779,1,8,0:0:0:0:
66,43,4928,1,8,0:0:0:0:
66,43,6388,6,0,L|89:221,1,172.95999736084,6|0,1:2|1:0,0:0:0:0:
202,356,6835,2,0,P|164:335|118:327,1,86.47999868042,10|0,0:0|0:0,0:0:0:0:
242,205,7134,1,2,1:2:0:0:
316,373,7283,2,0,P|358:372|400:352,1,86.47999868042,2|8,1:2|0:0,0:0:0:0:
512,117,7581,6,0,B|430:122|448:198|348:202,1,172.95999736084,2|0,0:0|1:0,0:0:0:0:
346,26,8039,2,0,L|364:134,1,86.47999868042,10|0,0:0|0:0,0:0:0:0:
207,224,8337,2,0,L|225:116,1,86.47999868042,2|0,1:2|1:0,0:0:0:0:
367,239,8636,1,10,0:0:0:0:
259,37,8785,6,0,P|177:24|124:88,1,172.95999736084,6|0,1:2|1:0,0:0:0:0:
45,257,9232,2,0,L|138:240,1,86.47999868042,10|0,0:0|0:0,0:0:0:0:
209,103,9531,1,2,1:2:0:0:
322,261,9680,2,0,L|225:246,1,86.47999868042,2|8,1:2|0:0,0:0:0:0:
364,42,9978,6,0,B|405:85|405:85|356:201,1,172.95999736084,2|0,0:0|1:0,0:0:0:0:
246,333,10426,2,0,L|234:233,1,86.47999868042,10|0,0:0|0:0,0:0:0:0:
140,97,10725,1,2,1:2:0:0:
64,288,10874,1,2,1:2:0:0:
248,144,11023,1,8,0:0:0:0:
33,27,11172,6,0,L|54:203,1,172.95999736084,6|0,1:2|1:0,0:0:0:0:
156,359,11620,2,0,L|171:257,1,86.47999868042,10|0,0:0|0:0,0:0:0:0:
144,101,11919,1,2,1:2:0:0:
273,272,12068,2,0,L|259:170,1,86.47999868042,2|8,1:2|0:0,0:0:0:0:
114,8,12366,6,0,B|240:43|240:43|267:6,1,172.95999736084,2|0,0:0|1:0,0:0:0:0:
406,109,12814,2,0,P|363:107|326:86,1,86.47999868042,10|0,0:0|0:0,0:0:0:0:
207,199,13113,2,0,P|243:177|286:175,1,86.47999868042,2|0,1:2|1:0,0:0:0:0:
445,249,13411,1,10,0:0:0:0:
256,384,13560,6,0,B|187:372|187:372|167:343|167:343|87:324,1,172.95999736084,6|0,1:2|1:0,0:0:0:0:
0,192,14008,2,0,L|107:172,1,86.47999868042,10|0,0:0|0:0,0:0:0:0:
262,83,14307,1,2,1:2:0:0:
73,39,14456,1,2,1:2:0:0:
269,113,14605,1,8,0:0:0:0:
66,4,14754,6,0,B|23:43|23:43|68:166,1,172.95999736084,2|0,0:0|1:0,0:0:0:0:
167,276,15202,2,0,P|205:258|248:252,1,86.47999868042,10|0,0:0|1:0,0:0:0:0:
432,352,15501,1,10,0:0:0:0:
341,142,15650,1,2,0:0:0:0:
235,354,15799,1,2,0:0:0:0:
495,173,15948,6,0,B|409:184|440:248|339:254,1,172.95999736084,6|0,1:2|1:0,0:0:0:0:
261,116,16396,2,0,P|303:118|340:141,1,86.47999868042,10|0,0:0|0:0,0:0:0:0:
259,272,16695,1,2,1:2:0:0:
158,95,16844,2,0,L|169:194,1,86.47999868042,2|8,1:2|0:0,0:0:0:0:
16,349,17142,6,0,P|62:282|141:301,1,172.95999736084,2|0,0:0|1:0,0:0:0:0:
281,376,17590,2,0,P|238:378|199:360,1,86.47999868042,10|0,0:0|0:0,0:0:0:0:
292,249,17889,1,2,1:2:0:0:
384,384,18038,2,0,L|474:354,1,86.47999868042,2|8,1:2|0:0,0:0:0:0:
467,145,18336,6,0,B|436:178|388:177|388:177|363:133|303:136,1,172.95999736084,6|0,1:2|1:0,0:0:0:0:
427,0,18784,2,0,L|416:91,1,86.47999868042,10|0,0:0|0:0,0:0:0:0:
307,227,19083,1,2,1:2:0:0:
190,75,19232,2,0,L|202:167,1,86.47999868042,2|8,1:2|0:0,0:0:0:0:
327,365,19531,6,0,B|421:356|395:287|484:284,1,172.95999736084,2|0,0:0|1:0,0:0:0:0:
318,175,19978,2,0,L|335:282,1,86.47999868042,10|0,0:0|0:0,0:0:0:0:
166,378,20277,1,2,1:2:0:0:
106,170,20426,1,2,1:2:0:0:
297,276,20575,1,8,0:0:0:0:
71,375,20725,6,0,L|99:199,1,172.95999736084,6|0,1:2|1:0,0:0:0:0:
227,64,21172,2,0,L|239:158,1,86.47999868042,10|0,0:0|0:0,0:0:0:0:
325,295,21471,1,2,1:2:0:0:
435,127,21620,2,0,L|336:109,1,86.47999868042,2|8,1:2|0:0,0:0:0:0:
168,255,21919,6,0,B|242:243|242:243|264:217|264:217|340:203,1,172.95999736084,2|0,0:0|1:0,0:0:0:0:
428,351,22366,2,0,P|385:346|348:325,1,86.47999868042,10|0,0:0|0:0,0:0:0:0:
244,191,22665,1,2,1:2:0:0:
157,359,22814,2,0,P|199:354|236:333,1,86.47999868042,2|8,1:2|0:0,0:0:0:0:
52,184,23113,6,0,B|6:226|6:226|50:331,1,172.95999736084,6|0,1:2|1:0,0:0:0:0:
197,261,23560,2,0,L|106:250,1,86.47999868042,10|0,0:0|0:0,0:0:0:0:
240,107,23859,1,2,1:2:0:0:
308,286,24008,1,2,1:2:0:0:
168,160,24157,1,8,0:0:0:0:
408,50,24307,6,0,L|387:229,1,172.95999736084,2|0,1:2|1:0,1:0:0:0:
217,354,24754,1,2,0:0:0:0:
317,150,24904,1,2,0:0:0:0:
391,362,25053,1,10,0:0:0:0:
241,129,25202,1,2,1:2:0:0:
304,384,25351,1,6,1:2:0:0:
462,212,25650,5,0,1:0:0:0:
462,212,25799,1,0,1:0:0:0:
308,354,26098,6,0,L|315:299,1,43.23999934021,0|0,1:0|0:0,0:0:0:0:
323,240,26247,1,8,0:0:0:0:
156,132,26396,5,0,1:0:0:0:
156,132,26545,1,0,1:0:0:0:
207,286,26695,1,8,0:0:0:0:
275,131,26993,6,2,L|283:79,2,43.23999934021
44,218,27441,5,8,0:0:0:0:
85,206,27514,1,8,0:0:0:0:
127,213,27588,1,8,0:0:0:0:
162,237,27661,1,8,0:0:0:0:
185,274,27735,1,8,0:0:0:0:
220,298,27808,1,8,0:0:0:0:
262,305,27882,1,8,0:0:0:0:
304,294,27955,1,8,0:0:0:0:
333,263,28029,6,0,L|356:71,1,191.359998832031,6|0,1:2|1:0,0:0:0:0:
431,286,28476,1,8,0:0:0:0:
253,115,28626,5,2,1:2:0:0:
168,352,28775,1,10,0:0:0:0:
371,173,28924,1,2,1:2:0:0:
123,37,29073,6,0,B|70:81|70:81|116:216,1,191.359998832031,10|8,0:0|0:0,0:0:0:0:
281,359,29521,1,0,1:0:0:0:
337,97,29670,1,8,0:0:0:0:
442,313,29820,5,2,1:2:0:0:
331,64,29969,1,10,0:0:0:0:
159,263,30118,1,2,1:2:0:0:
365,71,30267,6,0,B|420:44|462:74|462:74|476:129|421:176,1,191.359998832031,10|8,0:0|0:0,0:0:0:0:
274,333,30715,1,0,1:0:0:0:
176,104,30864,1,8,0:0:0:0:
38,330,31014,5,2,1:2:0:0:
276,216,31163,1,10,0:0:0:0:
39,136,31312,1,0,1:0:0:0:
274,333,31461,6,0,B|331:287|331:287|295:168,1,191.359998832031,10|8,0:0|0:0,0:0:0:0:
159,24,31909,2,0,L|141:118,1,95.6799994160156,2|8,1:2|0:0,0:0:0:0:
243,256,32208,2,0,L|170:192,1,95.6799994160156,2|8,1:2|0:0,0:0:0:0:
0,220,32506,2,0,L|91:186,1,95.6799994160156,2|8,1:2|0:0,0:0:0:0:
342,144,32805,6,0,B|235:147|271:62|157:53,1,191.359998832031,6|0,1:2|1:0,0:0:0:0:
240,288,33252,1,8,0:0:0:0:
330,58,33402,5,2,1:2:0:0:
416,281,33551,1,10,0:0:0:0:
169,140,33700,1,2,1:2:0:0:
422,73,33849,6,0,B|470:121|470:121|416:243,1,191.359998832031,10|8,0:0|0:0,0:0:0:0:
199,365,34297,1,0,1:0:0:0:
156,113,34446,1,8,0:0:0:0:
299,302,34596,5,2,1:2:0:0:
340,50,34745,1,10,0:0:0:0:
272,279,34894,1,2,1:2:0:0:
178,15,35043,6,0,P|87:30|51:114,1,191.359998832031,10|8,0:0|0:0,0:0:0:0:
174,288,35491,2,0,B|279:280|247:198|367:193,1,191.359998832031,2|0,1:2|1:0,0:0:0:0:
145,100,35939,1,8,0:0:0:0:
337,283,36088,1,0,1:0:0:0:
106,202,36237,1,8,0:0:0:0:
343,126,36387,5,0,1:0:0:0:
208,315,36536,1,6,0:0:0:0:
127,72,36685,1,2,1:2:0:0:
127,72,36760,1,0,1:0:0:0:
127,72,36834,2,0,L|118:138,1,47.8399997080078,0|0,1:0|1:0,0:0:0:0:
208,315,36984,2,0,L|199:249,1,47.8399997080078,2|0,1:2|0:0,0:0:0:0:
251,48,37133,5,8,0:0:0:0:
312,202,37282,1,10,0:0:0:0:
312,202,37581,6,0,B|304:157|351:137|399:160|393:220|352:269,1,191.359998832031,6|0,1:2|1:0,0:0:0:0:
202,110,38028,1,8,0:0:0:0:
280,318,38178,5,2,1:2:0:0:
222,90,38327,1,10,0:0:0:0:
79,287,38476,1,2,1:2:0:0:
168,25,38626,6,0,P|258:17|306:98,1,191.359998832031,10|8,0:0|0:0,0:0:0:0:
320,336,39073,1,0,1:0:0:0:
420,103,39223,1,8,0:0:0:0:
489,342,39372,5,2,1:2:0:0:
265,157,39521,1,10,0:0:0:0:
508,216,39670,1,2,1:2:0:0:
229,274,39820,6,0,B|98:230|98:230|60:286,1,191.359998832031,10|8,0:0|0:0,0:0:0:0:
238,123,40267,1,0,1:0:0:0:
123,337,40417,1,8,0:0:0:0:
352,217,40566,5,2,1:2:0:0:
96,142,40715,1,10,0:0:0:0:
355,101,40864,1,2,1:2:0:0:
87,15,41014,6,0,B|41:61|41:61|89:196,1,191.359998832031,10|8,0:0|0:0,0:0:0:0:
285,284,41461,2,0,P|245:257|198:252,1,95.6799994160156,2|8,1:2|0:0,0:0:0:0:
336,126,41760,2,0,P|332:173|351:216,1,95.6799994160156,2|8,1:2|0:0,0:0:0:0:
177,154,42058,2,0,P|219:133|247:95,1,95.6799994160156,2|8,1:2|0:0,0:0:0:0:
480,0,42357,6,0,L|451:190,1,191.359998832031,6|2,1:2|1:2,0:0:0:0:
200,293,42805,2,0,P|242:212|333:214,1,191.359998832031,10|8,0:0|0:0,0:0:0:0:
464,382,43252,1,0,1:0:0:0:
288,282,43402,1,8,0:0:0:0:
476,208,43551,1,0,1:0:0:0:
308,371,43700,1,8,0:0:0:0:
374,179,43849,6,0,L|386:276,1,95.6799994160156,2|8,1:2|0:0,0:0:0:0:
205,194,44148,2,0,L|283:134,1,95.6799994160156,2|8,1:2|0:0,0:0:0:0:
303,334,44446,2,0,L|212:295,1,95.6799994160156,2|8,1:2|0:0,0:0:0:0:
41,110,44745,6,0,B|149:116|104:196|219:194,1,191.359998832031,6|0,1:2|1:0,0:0:0:0:
366,49,45193,1,8,0:0:0:0:
274,245,45342,1,8,0:0:0:0:
153,44,45491,1,4,1:2:0:0:
153,44,45790,1,4,1:2:0:0:
292,134,46088,5,8,0:0:0:0:
292,134,46163,1,8,0:0:0:0:
292,134,46237,1,8,0:0:0:0:
236,62,46387,1,8,0:0:0:0:
149,148,46536,2,0,L|164:213,1,47.8399997080078,8|8,0:0|0:3,0:0:0:0:
273,356,46685,1,10,0:3:0:0:
374,153,46834,1,8,0:0:0:0:
165,295,46984,6,0,B|129:257|80:260|80:260|54:306|-3:300,1,172.95999736084,6|2,1:2|1:2,0:0:0:0:
0,128,47431,2,0,P|42:133|71:164,1,86.47999868042,10|0,0:0|0:0,0:0:0:0:
109,352,47730,1,2,1:2:0:0:
204,182,47879,1,2,1:2:0:0:
11,213,48028,1,10,0:0:0:0:
195,291,48178,6,0,L|292:274,1,86.47999868042,2|0,1:2|0:0,0:0:0:0:
416,182,48476,1,2,1:2:0:0:
233,102,48626,2,0,L|251:199,1,86.47999868042,10|0,0:0|0:0,0:0:0:0:
361,77,48924,1,2,1:2:0:0:
172,12,49073,2,0,L|155:106,1,86.47999868042,2|8,1:2|0:0,0:0:0:0:
223,300,49372,6,0,P|306:292|349:218,1,172.95999736084,6|2,1:2|1:2,0:0:0:0:
464,64,49820,2,0,L|476:160,1,86.47999868042,10|0,0:0|0:0,0:0:0:0:
402,308,50118,1,2,1:2:0:0:
313,153,50267,1,2,1:2:0:0:
231,338,50417,1,10,0:0:0:0:
351,228,50566,6,0,L|438:211,1,86.47999868042,2|0,1:2|0:0,0:0:0:0:
322,66,50864,1,2,1:2:0:0:
220,254,51014,2,0,P|177:260|136:241,1,86.47999868042,10|0,0:0|0:0,0:0:0:0:
77,78,51312,1,2,1:2:0:0:
269,161,51461,2,0,P|311:161|348:139,1,86.47999868042,2|8,1:2|0:0,0:0:0:0:
167,0,51760,6,0,L|188:176,1,172.95999736084,6|0,1:2|1:0,0:0:0:0:
336,313,52208,2,0,L|351:214,1,86.47999868042,10|0,0:0|0:0,0:0:0:0:
416,80,52506,1,2,1:2:0:0:
471,248,52655,1,0,1:0:0:0:
345,143,52805,2,0,L|447:165,1,86.47999868042,10|0,0:0|1:0,0:0:0:0:
413,348,53103,6,0,P|376:324|333:312,1,86.47999868042,2|0,0:0|1:0,0:0:0:0:
168,384,53402,2,0,P|207:363|237:331,1,86.47999868042,10|0,0:0|0:0,0:0:0:0:
258,153,53700,2,0,P|255:197|265:238,1,86.47999868042,2|0,1:2|1:0,0:0:0:0:
415,188,53999,1,10,0:0:0:0:
249,53,54148,6,0,B|157:61|191:131|92:138,1,172.95999736084,4|0,1:2|1:0,0:0:0:0:
265,237,54596,2,0,P|305:224|336:187,1,86.47999868042,10|0,0:0|0:0,0:0:0:0:
422,56,54894,1,2,1:2:0:0:
497,209,55043,1,0,1:0:0:0:
411,34,55193,2,0,P|374:10|331:7,1,86.47999868042,10|0,0:0|1:0,0:0:0:0:
328,183,55491,6,0,L|346:94,1,86.47999868042,2|0,0:0|1:0,0:0:0:0:
176,0,55790,2,0,L|193:89,1,86.47999868042,10|0,0:0|0:0,0:0:0:0:
284,256,56088,1,2,1:2:0:0:
99,167,56237,1,10,0:0:0:0:
99,167,56536,6,0,B|138:197|181:192|181:192|209:141|274:146,1,172.95999736084,6|2,1:2|1:2,0:0:0:0:
363,278,56984,2,0,P|320:279|283:255,1,86.47999868042,10|0,0:0|0:0,0:0:0:0:
387,118,57282,1,2,1:2:0:0:
469,293,57431,1,2,1:2:0:0:
320,184,57581,1,10,0:0:0:0:
512,112,57730,6,0,L|493:207,1,86.47999868042,2|0,1:2|0:0,0:0:0:0:
406,347,58028,1,2,1:2:0:0:
286,176,58178,2,0,L|301:267,1,86.47999868042,10|0,0:0|0:0,0:0:0:0:
412,145,58476,1,2,1:2:0:0:
226,70,58626,2,0,L|210:160,1,86.47999868042,2|8,1:2|0:0,0:0:0:0:
74,324,58924,6,0,B|170:320|131:245|232:236,1,172.95999736084,6|2,1:2|1:2,0:0:0:0:
63,149,59372,2,0,L|77:241,1,86.47999868042,10|0,0:0|0:0,0:0:0:0:
198,84,59670,1,2,1:2:0:0:
33,18,59820,1,2,1:2:0:0:
158,168,59969,1,10,0:0:0:0:
256,0,60118,6,0,L|241:98,1,86.47999868042,2|0,1:2|0:0,0:0:0:0:
316,232,60417,1,2,1:2:0:0:
416,64,60566,2,0,L|429:166,1,86.47999868042,10|0,0:0|0:0,0:0:0:0:
480,288,60864,1,2,1:2:0:0:
327,146,61014,2,0,L|313:254,1,86.47999868042,2|8,1:2|0:0,0:0:0:0:
91,281,61312,6,0,P|141:217|220:239,1,172.95999736084,6|0,1:2|1:0,0:0:0:0:
274,384,61760,2,0,L|183:362,1,86.47999868042,10|0,0:0|0:0,0:0:0:0:
161,353,61984,1,8,0:3:0:0:
161,353,62058,1,10,0:3:0:0:
315,231,62208,1,0,1:0:0:0:
414,384,62357,2,0,L|502:364,1,86.47999868042,10|0,0:0|0:0,0:0:0:0:
422,137,62655,5,6,0:0:0:0:
325,317,62805,1,0,1:0:0:0:
500,190,63103,6,0,B|435:196|454:247|379:254,1,129.71999802063,6|0,0:0|0:0,0:0:0:0:
325,317,63402,2,0,L|306:176,1,129.71999802063,6|0,0:0|0:0,0:0:0:0:
286,98,63700,2,0,P|248:64|170:74,1,129.71999802063,6|0,1:2|1:2,1:2:0:0:
114,128,63999,5,0,1:0:0:0:
188,280,64148,2,0,L|204:192,1,86.47999868042,8|0,0:0|0:0,0:0:0:0:
300,347,64446,1,0,1:0:0:0:
114,219,64596,1,0,1:0:0:0:
359,128,64745,1,10,0:0:0:0:
359,128,65043,5,8,0:0:0:0:
216,362,65193,1,8,0:0:0:0:
352,96,65342,1,8,0:0:0:0:
464,368,65491,1,8,0:0:0:0:
206,175,65640,1,2,0:0:0:0:
206,175,65790,1,2,0:0:0:0:
0,346,66088,6,0,B|108:341|74:251|199:243,1,209.759997439453,6|0,1:2|1:0,0:0:0:0:
363,384,66536,2,0,L|240:358,1,104.879998719727,8|0,0:0|0:0,0:0:0:0:
423,182,66834,1,0,1:0:0:0:
229,353,66984,1,0,1:0:0:0:
324,136,67133,2,0,L|343:260,1,104.879998719727,10|0,0:0|0:0,0:0:0:0:
144,313,67431,6,0,P|180:275|230:264,1,104.879998719727,2|0,1:2|1:0,0:0:0:0:
120,119,67730,1,10,0:0:0:0:
25,326,67879,2,0,L|9:222,1,104.879998719727,2|0,0:0|1:0,0:0:0:0:
221,84,68178,2,0,L|204:191,1,104.879998719727,2|8,1:2|0:0,0:0:0:0:
444,381,68476,6,0,P|398:293|299:300,1,209.759997439453,6|0,1:2|1:0,0:0:0:0:
106,384,68924,2,0,P|157:387|205:367,1,104.879998719727,8|0,0:0|0:0,0:0:0:0:
342,184,69223,1,0,1:0:0:0:
143,302,69372,1,0,1:0:0:0:
351,384,69521,2,0,L|366:273,1,104.879998719727,10|0,0:0|0:0,0:0:0:0:
272,48,69820,6,0,P|225:23|171:24,1,104.879998719727,2|0,1:2|1:0,0:0:0:0:
251,232,70118,1,10,0:0:0:0:
432,48,70267,2,0,L|451:163,1,104.879998719727,2|0,0:0|1:0,0:0:0:0:
226,252,70566,2,0,L|244:135,1,104.879998719727,2|8,1:2|0:0,0:0:0:0:
412,364,70864,6,0,B|371:316|315:314|315:314|286:369|224:361,1,209.759997439453,6|0,1:2|1:0,0:0:0:0:
80,192,71312,2,0,L|90:296,1,104.879998719727,10|0,0:0|0:0,0:0:0:0:
243,148,71611,1,2,1:2:0:0:
45,66,71760,1,0,1:0:0:0:
201,252,71909,2,0,L|304:232,1,104.879998719727,10|0,0:0|0:0,0:0:0:0:
509,163,72208,6,0,P|457:157|409:129,1,104.879998719727,2|0,1:2|1:0,0:0:0:0:
240,1,72506,2,0,P|291:6|337:32,1,104.879998719727,10|0,0:0|0:0,0:0:0:0:
304,232,72805,1,2,1:2:0:0:
148,50,72954,1,0,1:0:0:0:
48,295,73103,1,10,0:0:0:0:
284,128,73252,6,0,P|379:158|401:256,1,209.759997439453,6|0,1:2|1:0,0:0:0:0:
256,384,73700,2,0,B|144:378|175:289|76:282,1,209.759997439453,10|0,0:0|1:0,0:0:0:0:
206,124,74148,1,0,1:0:0:0:
302,318,74297,1,8,0:0:0:0:
409,146,74446,6,0,L|388:43,1,104.879998719727,4|0,0:0|0:0,0:0:0:0:
226,153,74745,1,0,1:0:0:0:
428,264,74894,2,0,P|478:254|512:216,1,104.879998719727,10|0,0:0|0:0,0:0:0:0:
312,109,75193,1,2,1:2:0:0:
189,331,75342,1,2,1:2:0:0:
418,157,75491,1,8,0:0:0:0:
146,44,75640,6,0,B|94:96|94:96|144:225,1,209.759997439453,6|0,0:0|1:0,0:0:0:0:
311,356,76088,2,0,L|333:246,1,104.879998719727,10|0,0:0|0:0,0:0:0:0:
381,48,76387,1,2,1:2:0:0:
507,256,76536,1,0,1:0:0:0:
250,142,76685,1,10,0:0:0:0:
512,67,76834,1,2,0:0:0:0:
267,44,76984,5,0,1:0:0:0:
465,160,77133,1,0,1:0:0:0:
270,262,77282,2,0,L|158:244,1,104.879998719727,8|0,0:0|0:0,0:0:0:0:
346,125,77581,1,2,1:2:0:0:
415,315,77730,2,0,P|466:321|513:298,1,104.879998719727,2|8,1:2|0:0,0:0:0:0:
359,29,78028,6,0,B|253:32|278:130|161:124,1,209.759997439453,6|0,0:0|1:0,0:0:0:0:
16,0,78476,2,0,L|37:127,1,104.879998719727,10|0,0:0|0:0,0:0:0:0:
153,322,78775,1,2,1:2:0:0:
266,115,78924,1,0,1:0:0:0:
151,349,79073,1,10,0:0:0:0:
67,81,79223,1,2,0:0:0:0:
252,280,79372,5,2,1:2:0:0:
57,198,79521,1,0,1:0:0:0:
235,95,79670,2,0,L|249:210,1,104.879998719727,8|0,0:0|0:0,0:0:0:0:
362,371,79969,1,2,1:2:0:0:
161,233,80118,1,0,1:0:0:0:
421,160,80267,1,8,0:0:0:0:
218,349,80417,6,0,P|123:303|20:285,1,209.759997439453,6|0,1:2|1:0,0:0:0:0:
222,177,80864,2,0,L|334:156,1,104.879998719727,10|0,0:0|0:0,0:0:0:0:
455,340,81163,1,2,1:2:0:0:
253,262,81312,1,2,1:2:0:0:
460,148,81461,1,10,0:0:0:0:
230,1,81611,6,0,B|175:45|175:45|226:188,1,209.759997439453,2|0,0:0|1:0,0:0:0:0:
412,240,82058,2,0,P|372:206|321:201,1,104.879998719727,10|0,0:0|0:0,0:0:0:0:
162,300,82357,2,0,P|213:295|252:261,1,104.879998719727,2|0,1:2|1:0,0:0:0:0:
80,96,82655,2,0,L|59:208,1,104.879998719727,10|0,0:0|0:0,0:0:0:0:
209,383,82954,6,0,P|254:358|305:348,1,104.879998719727,6|0,1:2|0:0,0:0:0:0:
489,234,83252,1,2,1:2:0:0:
452,226,83327,1,0,1:0:0:0:
416,219,83402,1,2,1:2:0:0:
380,212,83476,1,0,1:0:0:0:
344,205,83551,2,0,L|277:190,1,52.4399993598633,0|0,1:0|1:0,0:0:0:0:
80,48,83700,5,8,0:0:0:0:
86,84,83775,1,8,0:3:0:0:
93,120,83849,2,0,L|106:187,1,52.4399993598633,0|0,1:0|1:0,0:0:0:0:
305,348,83999,2,0,L|317:288,1,52.4399993598633,0|0,1:0|1:0,0:0:0:0:
392,23,84148,5,6,0:0:0:0:
267,88,84297,1,8,0:0:0:0:
267,88,84372,1,8,0:0:0:0:
267,88,84446,1,8,0:0:0:0:
458,141,84596,1,0,1:0:0:0:
257,228,84745,1,8,0:0:0:0:
504,313,84894,5,8,0:0:0:0:
467,312,84969,1,8,0:0:0:0:
433,325,85043,1,8,0:0:0:0:
409,353,85118,1,8,0:0:0:0:
375,366,85193,1,8,0:0:0:0:
338,366,85267,1,8,0:0:0:0:
305,348,85342,6,0,L|281:134,1,209.759997439453,6|8,1:2|0:0,0:0:0:0:
46,30,85790,2,0,B|197:68|197:68|231:13,1,209.759997439453,2|0,1:2|1:0,0:0:0:0:
384,120,86237,2,0,L|271:142,1,104.879998719727,10|0,0:0|0:0,0:0:0:0:
157,319,86536,5,2,1:2:0:0:
364,237,86685,1,0,1:0:0:0:
178,119,86834,2,0,L|198:247,1,104.879998719727,10|0,0:0|1:0,0:0:0:0:
379,374,87133,2,0,P|338:341|288:328,1,104.879998719727,2|0,0:0|0:0,0:0:0:0:
56,241,87431,2,0,P|106:227|146:195,1,104.879998719727,10|0,0:0|0:0,0:0:0:0:
423,149,87730,6,0,B|305:143|356:52|221:39,1,209.759997439453,6|8,1:2|0:0,0:0:0:0:
222,305,88178,2,0,B|280:258|280:258|239:108,1,209.759997439453,2|0,1:2|1:0,0:0:0:0:
64,16,88626,2,0,L|47:122,1,104.879998719727,10|0,0:0|0:0,0:0:0:0:
176,304,88924,5,2,1:2:0:0:
224,96,89073,1,0,1:0:0:0:
48,224,89223,2,0,L|156:207,1,104.879998719727,8|0,0:0|1:0,0:0:0:0:
359,130,89521,2,0,P|307:122|262:95,1,104.879998719727,2|0,0:0|1:0,0:0:0:0:
371,284,89820,2,0,P|416:257|470:249,1,104.879998719727,10|0,0:0|0:0,0:0:0:0:
282,371,90118,6,0,L|267:243,1,104.879998719727,6|0,1:2|0:0,0:0:0:0:
142,127,90417,1,10,0:0:0:0:
355,261,90566,2,0,L|368:146,1,104.879998719727,2|0,0:0|1:0,0:0:0:0:
187,16,90864,1,2,1:2:0:0:
392,137,91014,1,8,0:0:0:0:
201,266,91163,6,0,B|166:214|101:220|101:220|70:273|7:267,1,209.759997439453,2|0,1:2|1:0,0:0:0:0:
201,383,91611,2,0,P|243:353|297:339,1,104.879998719727,10|0,0:0|1:0,0:0:0:0:
496,288,91909,2,0,P|448:265|411:228,1,104.879998719727,2|0,0:0|1:0,0:0:0:0:
294,58,92208,2,0,L|308:168,1,104.879998719727,10|0,0:0|0:0,0:0:0:0:
94,344,92506,6,0,P|147:261|244:280,1,209.759997439453,6|8,1:2|0:0,0:0:0:0:
448,384,92954,2,0,L|464:260,1,104.879998719727,2|0,1:2|0:0,0:0:0:0:
307,162,93252,2,0,L|323:286,1,104.879998719727,2|8,1:2|0:0,0:0:0:0:
496,192,93551,1,2,0:0:0:0:
351,63,93700,5,8,0:3:0:0:
316,50,93775,1,8,0:3:0:0:
280,52,93849,1,8,0:3:0:0:
248,69,93924,1,8,0:3:0:0:
225,98,93999,1,4,0:3:0:0:
193,115,94073,1,4,0:3:0:0:
157,117,94148,1,4,0:3:0:0:
122,105,94223,1,4,0:3:0:0:
98,76,94297,6,0,L|88:3,1,52.4399993598633,2|0,1:2|1:0,0:0:0:0:
220,314,94446,2,0,L|210:387,1,52.4399993598633,2|0,1:2|1:0,0:0:0:0:
372,94,94596,5,4,0:0:0:0:
372,94,94894,6,0,B|427:138|427:138|380:278,1,209.759997439453,6|8,1:2|0:0,0:0:0:0:
116,292,95342,2,0,P|164:205|263:216,1,209.759997439453,2|0,1:2|0:0,0:0:0:0:
384,384,95790,2,0,L|277:359,1,104.879998719727,10|0,0:0|0:0,0:0:0:0:
477,266,96088,5,2,1:2:0:0:
266,183,96237,1,0,1:0:0:0:
473,78,96387,2,0,L|456:187,1,104.879998719727,8|0,0:0|1:0,0:0:0:0:
262,290,96685,2,0,P|304:259|355:251,1,104.879998719727,2|0,0:0|0:0,0:0:0:0:
205,115,96984,2,0,P|162:84|110:75,1,104.879998719727,10|0,0:0|0:0,0:0:0:0:
32,311,97282,6,0,B|135:302|106:222|215:211,1,209.759997439453,6|8,1:2|0:0,0:0:0:0:
44,21,97730,2,0,B|-11:65|-11:65|36:205,1,209.759997439453,2|0,1:2|0:0,0:0:0:0:
214,307,98178,2,0,L|323:286,1,104.879998719727,10|0,0:0|0:0,0:0:0:0:
496,192,98476,5,2,1:2:0:0:
288,144,98626,1,0,1:0:0:0:
405,342,98775,2,0,L|419:228,1,104.879998719727,8|0,0:0|0:0,0:0:0:0:
289,58,99073,1,0,1:0:0:0:
199,253,99223,1,0,1:0:0:0:
300,39,99372,2,0,P|345:13|401:19,1,104.879998719727,10|0,0:0|0:0,0:0:0:0:
493,275,99670,6,0,B|344:222|344:222|310:275,1,209.759997439453,6|8,1:2|0:0,0:0:0:0:
81,172,100118,2,0,P|135:89|231:113,1,209.759997439453,2|0,0:0|1:0,0:0:0:0:
192,314,100566,2,0,L|178:202,1,104.879998719727,10|0,0:0|0:0,0:0:0:0:
352,64,100864,5,2,1:2:0:0:
270,249,101014,1,0,1:0:0:0:
472,187,101163,2,0,L|446:76,1,104.879998719727,8|2,0:0|0:0,0:0:0:0:
270,206,101461,1,0,1:0:0:0:
465,290,101611,1,0,1:0:0:0:
262,378,101760,2,0,L|147:353,1,104.879998719727,10|0,0:0|0:0,0:0:0:0:
0,208,102058,6,0,L|115:183,1,104.879998719727,6|0,1:2|0:0,0:0:0:0:
295,291,102357,1,8,0:0:0:0:
161,108,102506,1,0,1:0:0:0:
161,108,102581,1,0,1:0:0:0:
161,108,102655,1,0,1:0:0:0:
33,339,102805,1,8,0:3:0:0:
16,74,102954,1,8,0:3:0:0:
157,318,103103,1,0,1:0:0:0:
279,16,103252,5,8,0:0:0:0:
279,16,103551,5,0,1:0:0:0:
342,215,103700,1,4,0:0:0:0:
419,24,104446,6,0,L|399:147,2,117.76,6|2|2,0:0|0:0|0:0,0:0:0:0:
289,170,105342,1,2,0:0:0:0:
289,170,105491,2,0,B|351:173|336:226|409:224,1,117.76,2|0,0:0|0:0,0:0:0:0:
472,182,105939,1,2,0:0:0:0:
472,182,106237,2,0,L|459:263,1,58.88,2|0,0:0|0:0,0:0:0:0:
376,307,106536,2,0,L|363:226,1,58.88,2|0,0:0|0:0,0:0:0:0:
290,81,106834,6,0,P|233:89|199:136,1,117.76,6|0,0:0|0:0,0:0:0:0:
256,267,107282,2,0,B|315:263|298:214|373:210,1,117.76,2|0,0:0|0:0,0:0:0:0:
465,246,107730,1,2,0:0:0:0:
376,307,107879,1,0,1:0:0:0:
497,351,108028,5,10,0:0:0:0:
321,187,108327,5,8,0:3:0:0:
165,352,108626,5,10,0:0:0:0:
277,290,108775,1,0,1:0:0:0:
31,152,109223,6,0,B|181:162|119:283|278:290,1,294.4,4|0,0:0|0:0,0:0:0:0:
234,129,111611,5,6,0:0:0:0:
234,129,112208,5,2,0:0:0:0:
234,129,112805,5,2,0:0:0:0:
215,263,113402,5,8,0:0:0:0:
118,100,113601,6,0,L|104:157,1,39.2533333333333,8|8,0:3|0:3,0:0:0:0:
48,192,113999,6,0,L|70:320,2,117.76,6|2|2,0:0|0:0|0:0,0:0:0:0:
118,100,114745,1,8,0:3:0:0:
173,188,114894,1,10,0:3:0:0:
232,103,115043,1,8,0:3:0:0:
270,246,115193,6,0,P|322:219|382:211,1,117.76,6|2,0:0|0:0,0:0:0:0:
477,187,115640,1,8,0:3:0:0:
382,135,115790,1,10,0:3:0:0:
475,86,115939,1,8,0:3:0:0:
368,36,116088,2,0,L|374:100,1,58.88,10|0,0:3|0:0,0:0:0:0:
367,235,116387,6,0,L|246:212,1,117.76,6|0,0:0|0:0,0:0:0:0:
169,135,116834,2,0,L|241:125,1,58.88,0|0,1:0|0:0,0:0:0:0:
162,224,117133,1,8,0:3:0:0:
83,146,117282,1,8,0:3:0:0:
162,224,117431,1,8,0:3:0:0:
82,286,117581,6,0,L|73:211,1,58.88,6|0,0:0|0:0,0:0:0:0:
3,338,117879,1,8,0:3:0:0:
3,338,118178,1,10,0:0:0:0:
107,382,118327,1,10,0:3:0:0:
177,316,118476,1,10,0:3:0:0:
248,374,118626,1,10,0:3:0:0:
304,262,118775,6,0,P|350:227|411:236,2,117.76,4|2|2,0:0|0:0|0:0,0:0:0:0:
220,218,119521,1,8,0:3:0:0:
302,159,119670,1,10,0:3:0:0:
214,109,119820,1,8,0:3:0:0:
319,42,119969,6,0,L|301:162,1,117.76,6|0,0:0|0:0,0:0:0:0:
220,218,120417,1,8,0:3:0:0:
220,218,120715,1,8,0:3:0:0:
134,168,120864,1,8,0:3:0:0:
214,109,121014,1,8,0:0:0:0:
141,52,121163,6,0,B|104:89|104:89|140:183,1,136.160003324219,4|0,0:0|0:0,0:0:0:0:
240,240,121611,2,0,B|311:233|289:181|367:176,1,136.160003324219,8|0,0:0|0:0,0:0:0:0:
434,287,122058,2,0,P|400:283|371:265,1,68.0800016621094,8|0,0:0|0:0,0:0:0:0:
453,72,122357,6,0,L|427:217,1,136.160003324219,8|0,0:0|0:0,0:0:0:0:
331,346,122805,2,0,B|230:321|230:321|206:357,1,136.160003324219,8|0,0:0|0:0,0:0:0:0:
80,384,123252,2,0,L|70:303,1,68.0800016621094,8|0,0:0|0:0,0:0:0:0:
0,160,123551,6,0,B|76:165|52:218|127:223,1,136.160003324219,4|0,0:0|0:0,0:0:0:0:
246,113,123999,2,0,P|181:101|133:146,1,136.160003324219,8|0,0:0|0:0,0:0:0:0:
202,240,124446,2,0,L|277:225,1,68.0800016621094,8|0,0:0|0:0,0:0:0:0:
387,112,124745,6,0,B|353:146|353:146|395:232,1,136.160003324219,8|0,0:0|0:0,0:0:0:0:
506,354,125193,2,0,P|447:319|378:305,1,136.160003324219,8|0,0:0|0:0,0:0:0:0:
256,384,125640,2,0,L|347:364,1,68.0800016621094,8|0,0:0|0:0,0:0:0:0:
233,247,125939,6,0,P|168:253|133:308,1,136.160003324219,4|0,0:0|0:0,0:0:0:0:
322,369,126387,2,0,L|342:222,1,136.160003324219,8|0,0:0|0:0,0:0:0:0:
222,180,126834,2,0,L|236:262,1,68.0800016621094,8|0,0:0|0:0,0:0:0:0:
358,146,127133,6,0,B|287:139|309:87|228:82,1,136.160003324219,8|0,0:0|0:0,0:0:0:0:
87,202,127581,2,0,L|226:179,1,136.160003324219,8|0,0:0|0:0,0:0:0:0:
320,276,128028,2,0,L|245:266,1,68.0800016621094,8|0,0:0|0:0,0:0:0:0:
72,362,128327,6,0,P|118:315|183:323,1,136.160003324219,4|0,0:0|0:0,0:0:0:0:
336,384,128775,2,0,L|351:245,1,136.160003324219,8|0,0:0|0:0,0:0:0:0:
464,160,129223,2,0,L|474:237,1,68.0800016621094,8|0,0:0|0:0,0:0:0:0:
357,138,129521,5,0,3:0:0:0:
273,233,129670,1,0,3:0:0:0:
235,82,129820,1,0,3:0:0:0:
331,168,129969,1,0,3:0:0:0:
365,50,130118,1,0,3:0:0:0:
243,117,130267,1,0,3:0:0:0:
398,50,130417,1,0,3:0:0:0:
398,50,130715,6,0,B|442:94|442:94|381:229,1,191.359998832031,6|0,1:2|1:0,0:0:0:0:
223,357,131163,1,8,0:0:0:0:
160,140,131312,5,2,1:2:0:0:
86,359,131461,1,10,0:0:0:0:
164,122,131611,1,2,1:2:0:0:
240,368,131760,6,0,B|336:362|309:284|409:271,1,191.359998832031,10|8,0:0|0:0,0:0:0:0:
170,261,132208,1,0,1:0:0:0:
391,172,132357,1,8,0:0:0:0:
178,80,132506,5,2,1:2:0:0:
320,291,132655,1,10,0:0:0:0:
126,161,132805,1,2,1:2:0:0:
331,6,132954,6,0,L|308:201,1,191.359998832031,10|8,0:0|0:0,0:0:0:0:
229,0,133402,1,0,1:0:0:0:
412,138,133551,1,8,0:0:0:0:
215,242,133700,5,2,1:2:0:0:
401,58,133849,1,10,0:0:0:0:
486,279,133999,1,0,1:0:0:0:
265,119,134148,6,0,B|168:122|196:205|96:203,1,191.359998832031,10|8,0:0|0:0,0:0:0:0:
264,304,134596,2,0,P|310:293|342:258,1,95.6799994160156,2|8,1:2|0:0,0:0:0:0:
369,81,134894,2,0,P|354:126|368:171,1,95.6799994160156,2|8,1:2|0:0,0:0:0:0:
509,283,135193,2,0,P|477:248|431:237,1,95.6799994160156,2|8,1:2|0:0,0:0:0:0:
224,384,135491,6,0,L|207:193,1,191.359998832031,6|0,1:2|1:0,0:0:0:0:
96,0,135939,1,8,0:0:0:0:
0,208,136088,5,2,1:2:0:0:
224,122,136237,1,10,0:0:0:0:
1,23,136387,1,2,1:2:0:0:
245,139,136536,6,0,B|391:107|391:107|417:156,1,191.359998832031,10|8,0:0|0:0,0:0:0:0:
307,295,136984,1,0,1:0:0:0:
253,44,137133,1,8,0:0:0:0:
387,231,137282,5,2,1:2:0:0:
492,11,137431,1,10,0:0:0:0:
282,157,137581,1,2,1:2:0:0:
487,297,137730,6,0,L|514:98,1,191.359998832031,10|8,0:0|0:0,0:0:0:0:
302,8,138178,2,0,B|198:15|235:94|118:100,1,191.359998832031,2|0,1:2|1:0,0:0:0:0:
372,144,138626,1,8,0:0:0:0:
184,302,138775,1,0,1:0:0:0:
304,92,138924,1,8,0:0:0:0:
361,335,139073,5,0,1:0:0:0:
205,161,139223,1,2,0:0:0:0:
118,384,139372,1,2,1:2:0:0:
118,384,139446,1,0,1:0:0:0:
118,384,139521,6,0,L|170:377,1,47.8399997080078,0|0,1:0|1:0,0:0:0:0:
352,236,139670,2,0,L|292:229,1,47.8399997080078,2|0,1:2|0:0,0:0:0:0:
149,83,139820,5,8,0:0:0:0:
260,231,139969,1,10,0:0:0:0:
260,231,140267,6,0,B|221:267|171:259|171:259|141:204|76:210,1,191.359998832031,6|0,1:2|1:0,0:0:0:0:
252,370,140715,1,8,0:0:0:0:
226,136,140864,5,2,1:2:0:0:
69,328,141014,1,10,0:0:0:0:
296,226,141163,1,2,1:2:0:0:
74,71,141312,6,0,B|28:115|28:115|79:242,1,191.359998832031,10|8,0:0|0:0,0:0:0:0:
252,370,141760,1,0,1:0:0:0:
312,139,141909,1,8,0:0:0:0:
231,381,142058,5,2,1:2:0:0:
139,138,142208,1,10,0:0:0:0:
366,240,142357,1,2,1:2:0:0:
133,357,142506,6,0,L|106:155,1,191.359998832031,10|8,0:0|0:0,0:0:0:0:
281,16,142954,1,0,1:0:0:0:
366,240,143103,1,8,0:0:0:0:
139,138,143252,5,2,1:2:0:0:
398,116,143402,1,10,0:0:0:0:
214,279,143551,1,2,1:2:0:0:
369,33,143700,6,0,P|459:46|490:132,1,191.359998832031,10|8,0:0|0:0,0:0:0:0:
366,240,144148,2,0,L|247:214,1,95.6799994160156,2|8,1:2|0:0,0:0:0:0:
172,71,144446,2,0,L|208:187,1,95.6799994160156,2|8,1:2|0:0,0:0:0:0:
122,324,144745,2,0,L|204:233,1,95.6799994160156,2|8,1:2|0:0,0:0:0:0:
37,36,145043,6,0,L|65:238,1,191.359998832031,6|0,1:2|1:0,0:0:0:0:
221,369,145491,2,0,B|357:321|357:321|387:365,1,191.359998832031,10|8,0:0|0:0,0:0:0:0:
512,208,145939,1,0,1:0:0:0:
312,148,146088,1,8,0:0:0:0:
475,310,146237,1,0,1:0:0:0:
384,105,146387,1,8,0:0:0:0:
254,271,146536,6,0,P|206:268|167:242,1,95.6799994160156,2|8,1:2|0:0,0:0:0:0:
143,57,146834,2,0,P|164:98|161:146,1,95.6799994160156,2|8,1:2|0:0,0:0:0:0:
17,263,147133,2,0,P|42:223|85:202,1,95.6799994160156,2|8,1:2|0:0,0:0:0:0:
241,371,147431,6,0,B|344:367|317:285|418:278,1,191.359998832031,6|0,1:2|1:0,0:0:0:0:
245,98,147879,1,8,0:0:0:0:
135,309,148028,1,8,0:0:0:0:
347,175,148178,1,4,1:2:0:0:
347,175,148476,1,4,1:2:0:0:
264,279,148775,5,8,0:0:0:0:
264,279,148849,1,8,0:0:0:0:
264,279,148924,1,8,0:0:0:0:
384,352,149073,1,8,0:0:0:0:
256,187,149223,1,8,0:0:0:0:
448,256,149368,1,10,0:3:0:0:
448,256,149442,1,8,0:3:0:0:
448,256,149517,1,8,0:3:0:0:
231,164,149666,6,0,B|144:173|176:241|81:247,1,172.95999736084,6|2,1:2|1:2,0:0:0:0:
64,56,150113,2,0,L|80:145,1,86.47999868042,10|0,0:0|0:0,0:0:0:0:
2,306,150418,1,2,1:2:0:0:
170,243,150567,1,2,1:2:0:0:
18,184,150716,1,10,0:0:0:0:
121,347,150865,6,0,L|216:333,1,86.47999868042,2|0,1:2|0:0,0:0:0:0:
323,194,151164,1,2,1:2:0:0:
408,360,151313,2,0,L|313:346,1,86.47999868042,10|0,0:0|0:0,0:0:0:0:
242,208,151612,1,2,1:2:0:0:
426,164,151761,2,0,L|412:259,1,86.47999868042,2|8,1:2|0:0,0:0:0:0:
258,380,152059,6,0,L|240:195,1,172.95999736084,6|2,1:2|1:2,0:0:0:0:
133,61,152507,2,0,L|117:152,1,86.47999868042,10|0,0:0|0:0,0:0:0:0:
215,296,152806,1,2,1:2:0:0:
296,94,152955,1,2,1:2:0:0:
361,277,153104,1,10,0:0:0:0:
202,168,153253,6,0,L|291:185,1,86.47999868042,2|0,1:2|0:0,0:0:0:0:
432,112,153552,1,2,1:2:0:0:
285,8,153701,2,0,L|296:102,1,86.47999868042,10|0,0:0|0:0,0:0:0:0:
360,241,154000,1,2,1:2:0:0:
464,80,154149,2,0,L|453:174,1,86.47999868042,2|8,1:2|0:0,0:0:0:0:
320,360,154447,6,0,P|237:362|196:290,1,172.95999736084,6|0,1:2|1:0,0:0:0:0:
344,155,154895,2,0,L|359:252,1,86.47999868042,10|0,0:0|0:0,0:0:0:0:
230,136,155194,1,2,1:2:0:0:
400,59,155343,1,0,1:0:0:0:
241,6,155492,2,0,L|154:22,1,86.47999868042,10|0,0:0|1:0,0:0:0:0:
18,125,155791,6,0,P|61:132|94:159,1,86.47999868042,2|0,0:0|1:0,0:0:0:0:
147,336,156089,2,0,P|132:295|139:253,1,86.47999868042,10|0,0:0|0:0,0:0:0:0:
267,123,156388,2,0,P|239:155|199:170,1,86.47999868042,2|0,1:2|1:0,0:0:0:0:
48,257,156686,1,10,0:0:0:0:
256,326,156835,6,0,B|348:319|325:252|404:243,1,172.95999736084,4|0,1:2|1:0,0:0:0:0:
512,373,157283,2,0,P|469:370|430:347,1,86.47999868042,10|0,0:0|0:0,0:0:0:0:
319,189,157582,1,2,1:2:0:0:
250,353,157731,1,0,1:0:0:0:
407,268,157880,2,0,L|304:282,1,86.47999868042,10|0,0:0|1:0,0:0:0:0:
129,197,158179,6,0,P|171:191|208:169,1,86.47999868042,2|0,0:0|1:0,0:0:0:0:
348,50,158477,2,0,P|305:55|268:77,1,86.47999868042,10|0,0:0|1:0,0:0:0:0:
211,265,158776,1,2,1:2:0:0:
129,70,158925,1,10,0:0:0:0:
129,70,159223,6,0,B|82:115|82:115|129:220,1,172.95999736084,6|2,1:2|1:2,0:0:0:0:
274,332,159671,2,0,P|311:310|353:301,1,86.47999868042,10|0,0:0|0:0,0:0:0:0:
501,198,159970,1,2,1:2:0:0:
413,360,160119,1,2,1:2:0:0:
350,186,160268,1,10,0:0:0:0:
488,321,160417,6,0,L|505:225,1,86.47999868042,2|0,1:2|0:0,0:0:0:0:
353,150,160716,1,2,1:2:0:0:
486,24,160865,2,0,L|499:118,1,86.47999868042,10|0,0:0|0:0,0:0:0:0:
363,219,161164,1,2,1:2:0:0:
295,71,161313,2,0,L|403:55,1,86.47999868042,2|8,1:2|0:0,0:0:0:0:
244,207,161612,6,0,B|175:198|175:198|151:162|151:162|87:150,1,172.95999736084,6|2,1:2|1:2,0:0:0:0:
204,11,162059,2,0,L|214:114,1,86.47999868042,10|0,0:0|0:0,0:0:0:0:
300,277,162358,1,2,1:2:0:0:
371,117,162507,1,2,1:2:0:0:
455,279,162656,1,10,0:0:0:0:
290,188,162806,6,0,L|399:205,1,86.47999868042,2|0,1:2|0:0,0:0:0:0:
224,327,163104,1,2,1:2:0:0:
189,134,163253,1,10,0:0:0:0:
77,273,163403,1,2,0:0:0:0:
269,217,163552,1,10,0:0:0:0:
94,82,163701,2,0,L|105:181,1,86.47999868042,2|8,1:2|0:0,0:0:0:0:
214,335,164000,6,0,B|345:305|345:305|367:349,1,172.95999736084,6|0,1:2|1:0,0:0:0:0:
494,226,164447,2,0,P|451:218|417:192,1,86.47999868042,10|0,0:0|0:0,0:0:0:0:
403,166,164671,1,8,0:3:0:0:
403,166,164746,1,10,0:3:0:0:
347,8,164895,1,0,1:0:0:0:
256,176,165044,2,0,L|241:69,1,86.47999868042,10|0,0:0|0:0,0:0:0:0:
124,234,165343,5,6,0:0:0:0:
338,288,165492,1,0,1:0:0:0:
164,147,165791,6,0,L|184:288,1,129.71999802063,6|0,0:0|0:0,0:0:0:0:
227,349,166089,2,0,B|299:341|276:291|363:283,1,129.71999802063,6|0,0:0|0:0,0:0:0:0:
441,346,166388,2,0,P|410:290|427:230,1,129.71999802063,6|0,0:0|0:0,0:0:0:0:
476,173,166686,5,0,1:0:0:0:
296,99,166835,2,0,L|311:187,1,86.47999868042,8|0,0:0|0:0,0:0:0:0:
356,364,167134,1,0,1:0:0:0:
467,141,167283,1,0,1:0:0:0:
302,310,167432,1,10,0:0:0:0:
302,310,167731,5,8,0:0:0:0:
266,85,167880,1,8,0:0:0:0:
483,255,168029,1,8,0:0:0:0:
215,182,168179,1,8,0:0:0:0:
488,27,168328,1,2,0:0:0:0:
488,27,168477,1,2,0:0:0:0:
353,238,168776,6,0,B|243:229|271:141|151:136,1,209.759997439453,6|0,1:2|1:0,0:0:0:0:
43,311,169223,2,0,P|94:302|134:270,1,104.879998719727,8|0,0:0|0:0,0:0:0:0:
336,141,169522,1,0,1:0:0:0:
116,193,169671,1,0,1:0:0:0:
296,344,169820,2,0,L|315:227,1,104.879998719727,10|0,0:0|0:0,0:0:0:0:
405,36,170119,6,0,P|450:10|501:15,1,104.879998719727,2|0,1:2|1:0,0:0:0:0:
393,208,170417,1,10,0:0:0:0:
260,25,170567,2,0,P|208:23|161:46,1,104.879998719727,2|0,0:0|1:0,0:0:0:0:
24,233,170865,2,0,P|75:234|122:211,1,104.879998719727,2|8,1:2|0:0,0:0:0:0:
371,48,171164,6,0,L|342:274,1,209.759997439453,6|0,1:2|1:0,0:0:0:0:
142,352,171612,2,0,L|129:237,1,104.879998719727,8|0,0:0|0:0,0:0:0:0:
295,96,171910,1,0,1:0:0:0:
231,304,172059,1,0,1:0:0:0:
85,138,172209,2,0,L|205:165,1,104.879998719727,10|0,0:0|0:0,0:0:0:0:
400,320,172507,6,0,P|445:294|496:284,1,104.879998719727,2|0,1:2|1:0,0:0:0:0:
368,96,172806,1,10,0:0:0:0:
203,288,172955,2,0,L|187:157,1,104.879998719727,2|0,0:0|1:0,0:0:0:0:
20,21,173253,2,0,L|4:152,1,104.879998719727,2|8,1:2|0:0,0:0:0:0:
143,363,173552,6,0,P|242:370|294:285,1,209.759997439453,6|0,1:2|1:0,0:0:0:0:
178,89,174000,2,0,L|194:220,1,104.879998719727,10|0,0:0|0:0,0:0:0:0:
301,370,174298,1,2,1:2:0:0:
370,156,174447,1,0,1:0:0:0:
191,304,174597,2,0,L|321:280,1,104.879998719727,10|0,0:0|0:0,0:0:0:0:
491,183,174895,6,0,P|439:174|398:143,1,104.879998719727,2|0,1:2|1:0,0:0:0:0:
229,0,175194,2,0,P|280:8|321:39,1,104.879998719727,10|0,0:0|0:0,0:0:0:0:
288,272,175492,1,2,1:2:0:0:
477,97,175641,1,0,1:0:0:0:
216,173,175791,1,10,0:0:0:0:
432,384,175940,6,0,B|319:372|358:301|240:291,1,209.759997439453,6|0,1:2|1:0,0:0:0:0:
78,377,176388,2,0,L|51:159,1,209.759997439453,10|0,0:0|1:0,0:0:0:0:
237,30,176835,1,0,1:0:0:0:
37,138,176985,1,8,0:0:0:0:
244,229,177134,6,0,L|360:215,1,104.879998719727,4|0,0:0|0:0,0:0:0:0:
503,93,177432,1,0,1:0:0:0:
273,29,177582,2,0,L|287:145,1,104.879998719727,10|0,0:0|0:0,0:0:0:0:
367,358,177880,1,2,1:2:0:0:
205,145,178029,1,2,1:2:0:0:
461,274,178179,1,8,0:0:0:0:
193,358,178328,6,0,B|85:350|127:263|21:248,1,209.759997439453,6|0,0:0|1:0,0:0:0:0:
221,122,178776,2,0,L|200:251,1,104.879998719727,10|0,0:0|0:0,0:0:0:0:
367,358,179074,1,2,1:2:0:0:
429,138,179223,1,0,1:0:0:0:
257,295,179373,1,10,0:0:0:0:
200,33,179522,1,2,0:0:0:0:
81,239,179671,5,0,1:0:0:0:
283,146,179820,1,0,1:0:0:0:
99,36,179970,2,0,L|114:139,1,104.879998719727,8|0,0:0|0:0,0:0:0:0:
0,297,180268,1,2,1:2:0:0:
194,183,180417,2,0,L|178:286,1,104.879998719727,2|8,1:2|0:0,0:0:0:0:
457,373,180716,6,0,P|415:284|318:297,1,209.759997439453,6|0,0:0|1:0,0:0:0:0:
139,384,181164,2,0,P|190:383|236:359,1,104.879998719727,10|0,0:0|0:0,0:0:0:0:
390,190,181462,1,2,1:2:0:0:
171,95,181612,1,0,1:0:0:0:
429,22,181761,1,10,0:0:0:0:
235,229,181910,1,2,0:0:0:0:
443,109,182059,5,2,1:2:0:0:
250,18,182209,1,0,1:0:0:0:
359,216,182358,2,0,L|370:97,1,104.879998719727,8|0,0:0|0:0,0:0:0:0:
202,228,182656,1,2,1:2:0:0:
342,31,182806,1,0,1:0:0:0:
456,268,182955,1,8,0:0:0:0:
233,113,183104,6,0,P|133:125|81:212,1,209.759997439453,6|0,1:2|1:0,0:0:0:0:
228,383,183552,2,0,L|346:361,1,104.879998719727,10|0,0:0|0:0,0:0:0:0:
179,195,183850,1,2,1:2:0:0:
348,329,184000,1,2,1:2:0:0:
416,112,184149,1,10,0:0:0:0:
246,280,184298,6,0,B|205:231|143:238|143:238|119:292|53:288,1,209.759997439453,2|0,0:0|1:0,0:0:0:0:
41,83,184746,2,0,L|62:198,1,104.879998719727,10|0,0:0|0:0,0:0:0:0:
194,379,185044,2,0,L|215:264,1,104.879998719727,2|0,1:2|1:0,0:0:0:0:
320,64,185343,2,0,P|363:36|415:36,1,104.879998719727,10|0,0:0|0:0,0:0:0:0:
309,257,185641,6,0,P|257:257|213:229,1,104.879998719727,6|0,1:2|0:0,0:0:0:0:
100,44,185940,1,10,0:3:0:0:
63,40,186015,1,8,0:3:0:0:
30,55,186089,1,10,0:3:0:0:
8,84,186164,1,8,0:3:0:0:
2,119,186238,2,0,L|16:189,1,52.4399993598633,4|4,0:3|0:3,0:0:0:0:
217,362,186388,5,8,0:0:0:0:
253,354,186462,1,8,0:3:0:0:
289,347,186537,2,0,L|301:276,1,52.4399993598633,0|0,1:0|1:0,0:0:0:0:
394,62,186686,2,0,L|405:131,1,52.4399993598633,0|0,1:0|1:0,0:0:0:0:
501,368,186835,5,6,0:0:0:0:
383,232,186985,1,8,0:0:0:0:
383,232,187059,1,8,0:0:0:0:
383,232,187134,1,8,0:0:0:0:
282,384,187283,1,0,0:0:0:0:
478,274,187432,1,8,0:3:0:0:
487,269,187507,1,8,0:3:0:0:
496,265,187582,1,8,0:3:0:0:
227,140,187731,1,4,0:3:0:0:
227,140,188029,6,0,B|207:89|256:61|309:82|321:147|269:207,1,209.759997439453,6|0,1:2|1:0,0:0:0:0:
85,351,188477,2,0,L|193:331,1,104.879998719727,10|0,0:0|1:0,0:0:0:0:
319,170,188776,1,8,0:0:0:0:
101,104,188925,2,0,L|118:217,1,104.879998719727,2|8,1:2|0:0,0:0:0:0:
262,380,189223,5,2,1:2:0:0:
333,136,189373,1,8,0:0:0:0:
459,348,189522,1,0,1:0:0:0:
423,78,189671,1,8,0:0:0:0:
181,266,189820,5,2,1:2:0:0:
481,173,189970,1,8,0:0:0:0:
198,82,190119,1,2,1:2:0:0:
481,195,190268,1,8,0:0:0:0:
250,379,190417,6,0,L|228:169,1,209.759997439453,6|0,1:2|1:0,0:0:0:0:
48,16,190865,2,0,L|32:130,1,104.879998719727,10|0,0:0|1:0,0:0:0:0:
160,288,191164,1,8,0:0:0:0:
320,96,191313,2,0,L|339:218,1,104.879998719727,2|8,1:2|0:0,0:0:0:0:
160,373,191612,5,2,1:2:0:0:
117,125,191761,1,8,0:0:0:0:
315,330,191910,1,0,1:0:0:0:
375,30,192059,1,8,0:0:0:0:
504,305,192209,5,2,1:2:0:0:
254,147,192358,1,8,0:0:0:0:
427,378,192507,1,2,1:2:0:0:
512,80,192656,1,8,0:0:0:0:
317,238,192806,6,0,L|186:224,1,104.879998719727,6|8,1:2|0:0,0:0:0:0:
0,320,193104,5,2,1:2:0:0:
256,192,193253,1,10,0:0:0:0:
0,80,193403,1,0,1:0:0:0:
150,327,193552,1,10,0:0:0:0:
288,69,193701,1,0,1:0:0:0:
392,326,193850,1,10,0:0:0:0:
274,46,194000,6,0,P|231:16|179:12,1,104.879998719727,2|8,1:2|0:0,0:0:0:0:
260,265,194298,1,2,1:2:0:0:
403,47,194447,1,8,0:0:0:0:
505,303,194597,1,2,1:2:0:0:
246,154,194746,1,8,0:0:0:0:
512,102,194895,1,2,1:2:0:0:
373,346,195044,1,8,0:0:0:0:
184,85,195194,6,0,B|132:137|132:137|182:266,1,209.759997439453,6|0,1:2|1:0,0:0:0:0:
373,346,195641,2,0,L|476:326,1,104.879998719727,10|0,0:0|1:0,0:0:0:0:
327,102,195940,5,8,0:0:0:0:
327,102,196014,1,8,0:0:0:0:
327,102,196089,2,0,L|268:92,1,52.4399993598633,8|8,0:0|0:0,0:0:0:0:
123,350,196238,2,0,L|182:340,1,52.4399993598633,8|8,0:0|0:0,0:0:0:0:
450,213,196388,5,8,0:3:0:0:
415,202,196462,1,8,0:3:0:0:
378,206,196537,1,8,0:3:0:0:
346,223,196612,1,8,0:3:0:0:
321,251,196686,1,4,0:3:0:0:
289,268,196761,1,4,0:3:0:0:
252,272,196835,1,4,0:3:0:0:
218,262,196910,1,4,0:3:0:0:
194,233,196985,6,0,L|183:172,1,52.4399993598633,2|0,1:2|1:0,0:0:0:0:
460,10,197134,2,0,L|449:71,1,52.4399993598633,0|0,1:0|1:0,0:0:0:0:
375,343,197283,5,6,0:0:0:0:
375,343,197582,6,0,B|315:349|286:294|286:294|220:289|172:348,1,209.759997439453,6|8,1:2|0:0,0:0:0:0:
44,108,198029,2,0,P|141:90|192:174,1,209.759997439453,2|0,1:2|0:0,0:0:0:0:
64,368,198477,2,0,L|44:242,1,104.879998719727,10|0,0:0|0:0,0:0:0:0:
163,72,198776,5,2,1:2:0:0:
252,272,198925,1,0,1:0:0:0:
359,71,199074,2,0,P|401:41|453:37,1,104.879998719727,8|0,0:0|1:0,0:0:0:0:
416,275,199373,2,0,L|398:149,1,104.879998719727,2|0,0:0|0:0,0:0:0:0:
206,25,199671,2,0,L|188:151,1,104.879998719727,10|0,0:0|0:0,0:0:0:0:
24,333,199970,6,0,B|178:294|178:294|205:345,1,209.759997439453,6|8,1:2|0:0,0:0:0:0:
445,242,200417,2,0,B|360:231|360:231|336:195|336:195|252:178,1,209.759997439453,2|0,1:2|0:0,0:0:0:0:
62,54,200865,2,0,L|76:167,1,104.879998719727,10|0,0:0|0:0,0:0:0:0:
201,338,201164,5,2,1:2:0:0:
254,137,201313,1,0,1:0:0:0:
56,250,201462,2,0,L|159:230,1,104.879998719727,8|0,0:0|0:0,0:0:0:0:
376,172,201761,1,0,1:0:0:0:
164,126,201910,1,0,1:0:0:0:
332,302,202059,2,0,L|346:197,1,104.879998719727,10|0,0:0|0:0,0:0:0:0:
172,2,202358,6,0,L|205:215,1,209.759997439453,6|8,1:2|0:0,0:0:0:0:
410,353,202806,2,0,B|376:292|301:303|301:303|276:353|214:347,1,209.759997439453,0|0,1:0|1:0,0:0:0:0:
86,200,203253,2,0,L|100:96,1,104.879998719727,8|0,0:0|1:0,0:0:0:0:
230,267,203552,5,2,1:2:0:0:
108,64,203701,1,0,1:0:0:0:
6,284,203850,1,8,0:0:0:0:
209,134,204000,2,0,P|309:140|361:226,1,209.759997439453,2|0,1:2|1:0,0:0:0:0:
217,384,204447,2,0,L|197:263,1,104.879998719727,10|0,0:0|1:0,0:0:0:0:
108,64,204746,6,0,P|63:37|11:30,1,104.879998719727,6|0,1:2|0:0,0:0:0:0:
118,210,205044,2,0,P|169:203|214:176,1,104.879998719727,8|0,0:0|1:0,0:0:0:0:
320,0,205343,1,0,1:0:0:0:
388,196,205492,1,8,0:3:0:0:
210,78,205641,2,0,L|322:91,1,104.879998719727,8|0,0:3|1:0,0:0:0:0:
500,219,205940,5,6,1:2:0:0:
295,262,206089,1,0,1:0:0:0:
479,365,206238,2,0,L|495:239,1,104.879998719727,8|0,0:0|1:0,0:0:0:0:
314,90,206537,1,10,0:0:0:0:
380,347,206686,1,0,1:0:0:0:
183,161,206835,1,4,0:0:0:0:
463,90,206985,1,2,0:0:0:0:
463,90,207059,1,2,0:0:0:0:
463,90,207134,6,0,L|478:184,1,95.6799994160156,6|0,1:2|0:0,0:0:0:0:
285,277,207432,2,0,L|300:182,1,95.6799994160156,10|0,0:0|0:0,0:0:0:0:
188,23,207731,1,0,1:0:0:0:
316,159,207880,1,0,1:0:0:0:
131,238,208029,2,0,L|36:222,1,95.6799994160156,8|2,0:0|1:2,0:0:0:0:
212,30,208328,6,0,B|261:79|261:79|206:195,1,191.359998832031,2|8,1:2|0:0,0:0:0:0:
83,369,208776,2,0,B|186:364|164:280|280:271,1,191.359998832031,2|0,0:0|1:0,0:0:0:0:
407,384,209223,2,0,P|359:380|321:352,1,95.6799994160156,8|0,0:0|1:0,0:0:0:0:
352,157,209522,6,0,L|340:256,1,95.6799994160156,6|0,1:2|0:0,0:0:0:0:
512,188,209820,1,8,0:0:0:0:
351,24,209970,2,0,B|208:61|208:61|179:6,1,191.359998832031,2|0,0:0|1:0,0:0:0:0:
32,144,210417,2,0,P|79:149|118:175,1,95.6799994160156,8|0,0:0|1:0,0:0:0:0:
215,362,210716,6,0,L|406:329,1,191.359998832031,2|8,1:2|0:0,0:0:0:0:
440,106,211164,2,0,P|349:109|311:191,1,191.359998832031,2|0,0:0|1:0,0:0:0:0:
485,297,211612,2,0,L|506:185,1,95.6799994160156,12|0,0:0|0:0,0:0:0:0:
366,13,211910,6,0,B|270:26|302:95|196:103,1,191.359998832031,6|8,1:2|0:0,0:0:0:0:
7,7,212358,2,0,L|33:209,1,191.359998832031,2|0,0:0|1:0,0:0:0:0:
193,325,212806,2,0,L|203:229,1,95.6799994160156,8|0,0:0|1:0,0:0:0:0:
344,50,213104,6,0,B|396:101|396:101|338:221,1,191.359998832031,2|8,1:2|0:0,0:0:0:0:
193,356,213552,2,0,B|97:343|129:274|23:266,1,191.359998832031,2|0,0:0|1:0,0:0:0:0:
215,134,214000,2,0,L|202:228,1,95.6799994160156,8|0,0:0|1:0,0:0:0:0:
368,384,214298,5,6,1:2:0:0:
400,128,214447,1,2,0:0:0:0:
255,296,214597,1,10,0:0:0:0:
496,240,214746,2,0,L|474:146,1,95.6799994160156,2|0,0:0|1:0,0:0:0:0:
304,32,215044,1,2,1:2:0:0:
482,111,215194,1,10,0:0:0:0:
286,192,215343,6,0,L|186:179,1,95.6799994160156,2|0,1:2|1:0,0:0:0:0:
26,76,215641,1,2,1:2:0:0:
184,35,215791,1,10,0:0:0:0:
13,92,215940,2,0,L|25:194,1,95.6799994160156,2|0,1:2|1:0,0:0:0:0:
128,320,216238,1,2,1:2:0:0:
206,131,216388,1,10,0:0:0:0:
206,131,216686,5,6,1:2:0:0:
55,281,216835,1,2,0:0:0:0:
260,211,216985,1,10,0:0:0:0:
97,126,217134,2,0,L|115:252,1,95.6799994160156,2|0,0:0|1:0,0:0:0:0:
269,371,217432,1,2,1:2:0:0:
343,159,217582,1,10,0:0:0:0:
261,384,217731,6,0,L|161:366,1,95.6799994160156,2|0,1:2|1:0,0:0:0:0:
266,187,218029,1,2,1:2:0:0:
384,384,218179,1,10,0:0:0:0:
496,176,218328,2,0,L|481:69,1,95.6799994160156,2|0,1:2|1:0,0:0:0:0:
255,8,218626,1,2,1:2:0:0:
382,237,218776,1,10,0:0:0:0:
382,237,219074,5,6,1:2:0:0:
144,288,219223,1,2,0:0:0:0:
352,147,219373,1,10,0:0:0:0:
160,71,219522,2,0,P|112:70|73:95,1,95.6799994160156,2|0,0:0|1:0,0:0:0:0:
165,301,219820,1,2,1:2:0:0:
271,87,219970,1,10,0:0:0:0:
51,210,220119,6,0,L|148:199,1,95.6799994160156,2|0,1:2|1:0,0:0:0:0:
368,336,220417,1,2,1:2:0:0:
176,176,220567,1,10,0:0:0:0:
416,96,220716,2,0,L|401:203,1,95.6799994160156,2|0,1:2|1:0,0:0:0:0:
215,367,221014,1,2,1:2:0:0:
176,81,221164,1,10,0:0:0:0:
176,81,221462,5,6,1:2:0:0:
80,304,221612,1,2,0:0:0:0:
7,71,221761,1,10,0:0:0:0:
194,216,221910,2,0,L|305:200,1,95.6799994160156,2|0,0:0|1:0,0:0:0:0:
490,95,222209,1,2,1:2:0:0:
271,3,222358,1,10,0:0:0:0:
510,103,222507,6,0,L|495:207,1,95.6799994160156,2|2,1:2|1:2,0:0:0:0:
368,368,222806,1,0,1:0:0:0:
290,132,222955,1,8,0:0:0:0:
178,318,223104,1,2,1:2:0:0:
398,203,223253,1,2,1:2:0:0:
160,114,223403,1,0,1:0:0:0:
359,276,223552,1,10,0:0:0:0:
72,345,223701,1,0,1:0:0:0:
288,148,223850,5,6,0:0:0:0:
288,148,224149,1,0,1:0:0:0:
288,148,224298,1,0,1:0:0:0:
106,226,224447,1,10,0:0:0:0:
284,338,224597,2,0,L|385:322,1,95.6799994160156,4|0,1:2|0:0,0:0:0:0:
489,146,224895,6,0,B|394:157|434:220|322:232,1,191.359998832031,6|0,1:2|0:0,0:0:0:0:
178,136,225343,1,2,0:0:0:0:
178,136,225641,1,2,0:0:0:0:
196,286,225791,5,8,0:0:0:0:
333,140,225940,1,12,0:0:0:0:
333,140,226238,6,0,L|341:73,2,58.88,6|0|2,0:0|0:0|0:0,0:0:0:0:
385,246,226835,1,0,0:0:0:0:
443,155,226985,1,0,0:0:0:0:
493,239,227134,1,0,0:0:0:0:
493,239,227283,2,0,L|482:296,1,58.88
382,371,227582,5,2,1:2:0:0:
300,226,227731,2,0,P|270:223|244:235,1,58.88,8|0,0:0|0:0,0:0:0:0:
178,347,228029,1,8,0:3:0:0:
86,229,228179,2,0,L|95:151,1,58.88,8|0,0:3|0:0,0:0:0:0:
198,63,228477,6,0,B|259:74|243:114|300:117,1,117.76,6|2,0:0|0:0,0:0:0:0:
400,48,228925,2,0,L|387:116,1,58.88
362,200,229223,1,0,0:0:0:0:
457,167,229373,1,0,0:0:0:0:
482,274,229522,1,0,0:0:0:0:
482,274,229671,2,0,L|401:260,1,58.88
331,308,229970,5,2,0:0:0:0:
254,209,230119,2,0,L|260:274,1,58.88,0|0,0:0|1:0,0:0:0:0:
160,384,230417,1,8,0:0:0:0:
160,384,230492,1,0,1:0:0:0:
160,384,230567,1,0,1:0:0:0:
336,310,230716,1,8,0:0:0:0:
143,166,230865,6,0,B|52:175|88:244|-6:251,1,172.95999736084,6|0,1:2|1:0,0:0:0:0:
152,357,231313,2,0,P|194:348|227:320,1,86.47999868042,10|0,0:0|0:0,0:0:0:0:
309,144,231612,1,2,1:2:0:0:
372,325,231761,1,0,1:0:0:0:
193,232,231910,2,0,L|298:250,1,86.47999868042,10|0,0:0|1:0,0:0:0:0:
473,229,232209,6,0,P|431:218|403:186,1,86.47999868042,2|0,0:0|1:0,0:0:0:0:
399,21,232507,2,0,P|410:62|397:102,1,86.47999868042,10|0,0:0|0:0,0:0:0:0:
254,180,232806,2,0,P|283:149|325:140,1,86.47999868042,2|0,1:2|1:0,0:0:0:0:
466,254,233104,1,10,0:0:0:0:
282,375,233253,6,0,B|191:366|227:297|133:290,1,172.95999736084,4|0,1:2|1:0,0:0:0:0:
299,184,233701,2,0,L|283:286,1,86.47999868042,10|0,0:0|0:0,0:0:0:0:
188,119,234000,1,2,1:2:0:0:
366,77,234149,1,0,1:0:0:0:
198,9,234298,2,0,P|155:7|117:28,1,86.47999868042,10|0,0:0|1:0,0:0:0:0:
199,204,234597,6,0,L|185:95,1,86.47999868042,2|0,0:0|1:0,0:0:0:0:
23,18,234895,2,0,L|9:127,1,86.47999868042,10|0,0:0|0:0,0:0:0:0:
90,288,235194,1,2,1:2:0:0:
179,90,235343,1,10,0:0:0:0:
179,90,235641,6,0,L|192:210,1,117.76,6|0,0:0|0:0,0:0:0:0:
264,302,236089,2,0,P|290:289|319:282,1,58.88
426,257,236388,1,0,0:0:0:0:
348,188,236537,1,0,0:0:0:0:
441,143,236686,1,0,0:0:0:0:
441,143,236835,2,0,L|429:64,1,58.88
357,12,237134,5,2,0:0:0:0:
288,95,237283,2,0,P|258:97|230:91,1,58.88
148,21,237582,1,0,0:0:0:0:
78,106,237731,2,0,L|91:179,1,58.88
141,270,238029,6,0,B|61:243|61:243|39:273,1,117.76,6|0,0:0|1:0,0:0:0:0:
89,361,238477,2,0,L|166:351,1,58.88,8|0,0:0|0:0,0:0:0:0:
255,384,238776,1,0,0:0:0:0:
242,275,238925,1,0,0:0:0:0:
336,330,239074,1,0,0:0:0:0:
336,330,239223,2,0,L|347:257,1,58.88
416,176,239522,5,2,0:0:0:0:
299,201,239671,2,0,L|288:129,1,58.88,0|0,0:0|1:0,0:0:0:0:
210,22,239970,1,8,0:0:0:0:
210,22,240044,1,0,1:0:0:0:
210,22,240119,1,0,1:0:0:0:
366,98,240268,1,8,0:0:0:0:
174,200,240417,6,0,B|133:156|86:159|86:159|58:204|6:204,1,172.95999736084,6|0,1:2|1:0,0:0:0:0:
0,17,240865,2,0,L|14:117,1,86.47999868042,10|0,0:0|0:0,0:0:0:0:
18,132,241089,1,8,0:3:0:0:
18,132,241164,1,10,0:3:0:0:
150,219,241313,1,0,1:0:0:0:
26,364,241462,2,0,L|40:264,1,86.47999868042,10|0,0:0|0:0,0:0:0:0:
147,87,241761,5,6,0:0:0:0:
211,282,241910,1,0,1:0:0:0:
324,81,242209,6,0,B|361:120|361:120|326:197,1,129.71999802063,6|0,0:0|0:0,0:0:0:0:
245,283,242507,2,0,B|311:275|293:233|364:223,1,129.71999802063,6|0,0:0|0:0,0:0:0:0:
462,280,242806,2,0,P|432:224|452:164,1,129.71999802063,6|0,0:0|0:0,0:0:0:0:
503,103,243104,5,0,1:0:0:0:
392,14,243253,2,0,L|408:117,1,86.47999868042,8|0,0:0|0:0,0:0:0:0:
330,280,243552,1,0,1:0:0:0:
239,80,243701,1,0,1:0:0:0:
424,208,243850,1,10,0:0:0:0:
424,208,244149,5,8,0:0:0:0:
300,16,244298,1,8,0:0:0:0:
213,284,244447,1,8,0:0:0:0:
387,50,244597,1,8,0:0:0:0:
498,347,244746,1,2,0:0:0:0:
498,347,244895,1,2,0:0:0:0:
307,208,245194,6,0,B|267:258|211:248|211:248|184:185|105:199,1,209.759997439453,6|0,1:2|1:0,0:0:0:0:
8,365,245641,2,0,P|59:360|99:328,1,104.879998719727,8|0,0:0|0:0,0:0:0:0:
246,156,245940,1,0,1:0:0:0:
32,112,246089,1,0,1:0:0:0:
246,20,246238,2,0,L|234:128,1,104.879998719727,10|0,0:0|0:0,0:0:0:0:
321,335,246537,6,0,P|366:359|418:356,1,104.879998719727,2|0,1:2|1:0,0:0:0:0:
330,190,246835,1,10,0:0:0:0:
182,372,246985,2,0,L|165:244,1,104.879998719727,2|0,0:0|1:0,0:0:0:0:
343,86,247283,2,0,L|326:214,1,104.879998719727,2|8,1:2|0:0,0:0:0:0:
68,257,247582,6,0,P|119:172|218:184,1,209.759997439453,6|0,1:2|1:0,0:0:0:0:
359,367,248029,2,0,L|247:336,1,104.879998719727,8|0,0:0|0:0,0:0:0:0:
415,187,248328,1,0,1:0:0:0:
482,384,248477,1,0,1:0:0:0:
411,170,248626,2,0,P|368:140|317:130,1,104.879998719727,10|0,0:0|0:0,0:0:0:0:
96,240,248925,6,0,P|147:230|189:200,1,104.879998719727,2|0,1:2|1:0,0:0:0:0:
338,50,249223,1,10,0:0:0:0:
94,16,249373,2,0,L|115:141,1,104.879998719727,2|0,0:0|1:0,0:0:0:0:
266,305,249671,2,0,L|287:180,1,104.879998719727,2|8,1:2|0:0,0:0:0:0:
479,30,249970,6,0,B|327:75|327:75|299:23,1,209.759997439453,6|0,1:2|1:0,0:0:0:0:
102,143,250417,2,0,L|204:164,1,104.879998719727,10|0,0:0|0:0,0:0:0:0:
371,321,250716,1,2,1:2:0:0:
162,248,250865,1,0,1:0:0:0:
382,179,251014,2,0,L|364:298,1,104.879998719727,10|0,0:0|0:0,0:0:0:0:
159,373,251313,6,0,P|199:340|250:332,1,104.879998719727,2|0,1:2|1:0,0:0:0:0:
473,219,251612,2,0,P|421:210|381:178,1,104.879998719727,10|0,0:0|0:0,0:0:0:0:
262,8,251910,1,2,1:2:0:0:
152,232,252059,1,0,1:0:0:0:
402,155,252209,1,10,0:0:0:0:
126,23,252358,6,0,L|152:232,1,209.759997439453,6|0,1:2|1:0,0:0:0:0:
272,384,252806,2,0,B|397:368|342:298|462:283,1,209.759997439453,10|0,0:0|1:0,0:0:0:0:
276,160,253253,1,0,1:0:0:0:
180,357,253403,1,8,0:0:0:0:
351,235,253552,6,0,L|226:248,1,104.879998719727,4|0,0:0|0:0,0:0:0:0:
73,108,253850,1,0,1:0:0:0:
292,30,254000,2,0,L|278:155,1,104.879998719727,10|0,0:0|0:0,0:0:0:0:
205,368,254298,1,2,1:2:0:0:
104,110,254447,1,2,1:2:0:0:
0,379,254597,1,8,0:0:0:0:
235,212,254746,6,0,B|355:219|316:298|428:304,1,209.759997439453,6|0,0:0|1:0,0:0:0:0:
440,98,255194,2,0,L|419:218,1,104.879998719727,10|0,0:0|0:0,0:0:0:0:
231,349,255492,1,2,1:2:0:0:
434,227,255641,1,0,1:0:0:0:
208,113,255791,1,10,0:0:0:0:
373,333,255940,1,2,0:0:0:0:
148,233,256089,5,0,1:0:0:0:
341,148,256238,1,0,1:0:0:0:
167,15,256388,2,0,L|180:125,1,104.879998719727,8|0,0:0|0:0,0:0:0:0:
275,278,256686,1,2,1:2:0:0:
408,72,256835,2,0,L|298:59,1,104.879998719727,2|8,1:2|0:0,0:0:0:0:
102,234,257134,6,0,B|188:223|188:223|218:190|218:190|318:173,1,209.759997439453,6|0,0:0|1:0,0:0:0:0:
464,324,257582,2,0,L|338:298,1,104.879998719727,10|0,0:0|0:0,0:0:0:0:
193,166,257880,1,2,1:2:0:0:
304,384,258029,1,0,1:0:0:0:
380,128,258179,1,10,0:0:0:0:
171,328,258328,1,2,0:0:0:0:
119,71,258477,5,2,1:2:0:0:
290,203,258626,1,0,1:0:0:0:
79,301,258776,2,0,L|66:196,1,104.879998719727,8|0,0:0|0:0,0:0:0:0:
228,28,259074,1,2,1:2:0:0:
297,234,259223,1,0,1:0:0:0:
110,99,259373,1,8,0:0:0:0:
373,13,259522,6,0,B|424:64|424:64|354:200,1,209.759997439453,6|0,1:2|1:0,0:0:0:0:
201,335,259970,2,0,L|316:316,1,104.879998719727,10|0,0:0|0:0,0:0:0:0:
504,225,260268,1,2,1:2:0:0:
290,125,260417,1,2,1:2:0:0:
435,317,260567,1,10,0:0:0:0:
360,58,260716,6,0,P|264:29|194:100,1,209.759997439453,2|0,0:0|1:0,0:0:0:0:
321,308,261164,2,0,L|337:191,1,104.879998719727,10|0,0:0|0:0,0:0:0:0:
479,39,261462,2,0,L|495:156,1,104.879998719727,2|0,1:2|1:0,0:0:0:0:
387,361,261761,2,0,P|342:386|291:383,1,104.879998719727,10|0,0:0|0:0,0:0:0:0:
128,192,262059,6,0,P|179:189|224:214,1,104.879998719727,6|0,1:2|0:0,0:0:0:0:
61,384,262358,1,10,0:3:0:0:
57,347,262432,1,8,0:3:0:0:
54,310,262507,1,10,0:3:0:0:
51,274,262582,1,8,0:3:0:0:
49,237,262656,2,0,L|45:158,1,52.4399993598633,4|4,0:3|0:3,0:0:0:0:
218,13,262806,5,8,0:0:0:0:
253,5,262880,1,8,0:3:0:0:
288,18,262955,2,0,L|302:80,1,52.4399993598633,0|0,1:0|1:0,0:0:0:0:
371,315,263104,2,0,L|385:253,1,52.4399993598633,0|0,1:0|1:0,0:0:0:0:
499,17,263253,5,6,0:0:0:0:
361,167,263403,1,8,0:0:0:0:
361,167,263477,1,8,0:0:0:0:
361,167,263552,1,8,0:0:0:0:
218,13,263701,1,0,1:0:0:0:
136,243,263850,1,8,0:3:0:0:
131,252,263925,1,8,0:3:0:0:
127,261,264000,1,8,0:3:0:0:
363,60,264149,1,4,0:3:0:0:
363,60,264447,6,0,B|250:70|287:155|162:160,1,209.759997439453,6|8,0:0|0:0,0:0:0:0:
344,367,264895,2,0,P|429:318|412:222,1,209.759997439453,2|0,1:2|1:0,0:0:0:0:
217,111,265343,2,0,L|232:237,1,104.879998719727,10|0,0:0|1:0,0:0:0:0:
456,333,265641,5,10,0:0:0:0:
512,39,265791,1,0,1:0:0:0:
355,283,265940,5,8,0:0:0:0:
304,0,266089,1,0,1:0:0:0:
151,261,266238,5,10,0:0:0:0:
424,159,266388,1,0,1:0:0:0:
130,54,266537,5,10,0:0:0:0:
395,175,266686,1,0,1:0:0:0:
135,368,266835,6,0,P|47:319|50:220,1,209.759997439453,6|8,0:0|0:0,0:0:0:0:
270,69,267283,2,0,L|245:283,1,209.759997439453,2|0,1:2|1:0,0:0:0:0:
442,383,267731,2,0,L|428:256,1,104.879998719727,10|0,0:0|1:0,0:0:0:0:
351,21,268029,5,10,0:0:0:0:
262,302,268179,1,0,1:0:0:0:
447,50,268328,5,8,0:0:0:0:
512,336,268477,1,0,1:0:0:0:
322,115,268626,5,10,0:0:0:0:
224,384,268776,1,0,1:0:0:0:
197,42,268925,5,10,0:0:0:0:
361,289,269074,1,0,1:0:0:0:
292,7,269223,6,0,L|278:112,1,104.879998719727,6|0,0:0|1:0,0:0:0:0:
123,363,269522,5,10,0:0:0:0:
73,66,269671,1,2,1:2:0:0:
244,328,269820,5,8,0:0:0:0:
275,33,269970,1,2,1:2:0:0:
442,368,270119,5,8,0:0:0:0:
383,83,270268,1,2,1:2:0:0:
264,355,270417,6,0,L|245:222,1,104.879998719727,10|0,0:0|1:0,0:0:0:0:
164,0,270716,5,10,0:0:0:0:
46,283,270865,1,0,1:0:0:0:
270,71,271014,5,10,0:0:0:0:
356,348,271164,1,0,1:0:0:0:
439,25,271313,5,10,0:0:0:0:
306,286,271462,1,0,1:0:0:0:
216,0,271612,6,0,B|103:10|140:95|15:100,1,209.759997439453,6|8,0:0|0:0,0:0:0:0:
217,210,272059,2,0,P|267:197|301:158,1,104.879998719727,2|8,1:2|0:0,0:0:0:0:
442,13,272358,2,0,P|391:26|358:64,1,104.879998719727,2|8,1:2|0:0,0:0:0:0:
512,210,272656,1,2,1:2:0:0:
315,358,272806,5,8,0:3:0:0:
279,367,272880,1,8,0:3:0:0:
243,364,272955,1,8,0:3:0:0:
211,347,273029,1,8,0:3:0:0:
188,316,273104,1,4,0:3:0:0:
156,299,273179,1,4,0:3:0:0:
120,296,273253,1,4,0:3:0:0:
84,306,273328,1,4,0:3:0:0:
56,330,273403,6,0,L|48:385,1,52.4399993598633,2|0,1:2|1:0,0:0:0:0:
192,95,273552,2,0,L|184:40,1,52.4399993598633,0|0,1:0|1:0,0:0:0:0:
315,358,273701,5,6,0:0:0:0:
315,358,274000,6,0,L|343:136,1,209.759997439453,6|8,1:2|0:0,0:0:0:0:
112,22,274447,2,0,P|149:113|247:109,1,209.759997439453,2|0,1:2|1:0,0:0:0:0:
55,221,274895,2,0,L|43:101,1,104.879998719727,10|0,0:0|0:0,0:0:0:0:
210,235,275194,5,2,1:2:0:0:
11,299,275343,1,0,1:0:0:0:
211,372,275492,2,0,L|316:357,1,104.879998719727,8|0,0:0|1:0,0:0:0:0:
512,256,275791,2,0,P|460:248|422:214,1,104.879998719727,2|0,1:2|0:0,0:0:0:0:
286,43,276089,2,0,P|337:50|375:84,1,104.879998719727,10|0,0:0|1:0,0:0:0:0:
301,338,276388,6,0,B|253:290|253:290|292:147,1,209.759997439453,6|8,1:2|0:0,0:0:0:0:
496,16,276835,2,0,B|341:66|341:66|313:21,1,209.759997439453,2|0,1:2|0:0,0:0:0:0:
102,125,277283,2,0,L|209:142,1,104.879998719727,10|0,0:0|1:0,0:0:0:0:
400,258,277582,5,2,1:2:0:0:
179,290,277731,1,0,1:0:0:0:
339,136,277880,2,0,L|323:256,1,104.879998719727,8|0,0:0|1:0,0:0:0:0:
137,135,278179,1,2,0:0:0:0:
319,270,278328,1,0,1:0:0:0:
107,341,278477,2,0,L|2:305,1,104.879998719727,10|0,0:0|0:0,0:0:0:0:
67,51,278776,6,0,B|182:65|133:138|252:143,2,209.759997439453,6|8|0,1:2|0:0|1:0,0:0:0:0:
144,221,279522,1,0,1:0:0:0:
273,67,279671,2,0,L|290:180,1,104.879998719727,8|0,0:0|0:0,0:0:0:0:
354,374,279970,5,2,1:2:0:0:
421,161,280119,1,0,1:0:0:0:
267,303,280268,1,10,0:0:0:0:
510,214,280417,2,0,B|497:121|497:121|472:96|472:96|457:-3,1,209.759997439453,2|0,0:0|1:0,0:0:0:0:
325,180,280865,2,0,P|376:186|420:160,1,104.879998719727,10|0,0:0|0:0,0:0:0:0:
222,12,281164,6,0,L|206:124,1,104.879998719727,6|0,1:2|0:0,0:0:0:0:
120,266,281462,1,8,0:0:0:0:
296,158,281612,2,0,L|312:270,1,104.879998719727,2|0,0:0|0:0,0:0:0:0:
125,384,281910,1,8,0:3:0:0:
65,149,282059,1,8,0:3:0:0:
277,255,282209,1,8,0:0:0:0:
24,336,282358,6,0,L|40:226,1,104.879998719727,6|0,1:2|0:0,0:0:0:0:
212,50,282656,1,0,1:0:0:0:
295,349,282806,1,4,0:0:0:0:
295,349,283403,6,0,B|388:343|368:277|468:268,1,191.359998832031,4|0,1:2|1:0,0:0:0:0:
296,152,283850,2,0,L|308:255,1,95.6799994160156,10|0,0:0|0:0,0:0:0:0:
170,384,284149,1,2,1:2:0:0:
116,172,284298,1,0,1:0:0:0:
239,287,284447,2,0,L|128:268,1,95.6799994160156,8|2,0:0|0:0,0:0:0:0:
0,144,284746,5,2,1:2:0:0:
217,96,284895,1,2,1:2:0:0:
45,24,285044,1,8,0:0:0:0:
220,185,285194,2,0,L|317:171,1,95.6799994160156,2|0,0:0|1:0,0:0:0:0:
487,69,285492,1,2,1:2:0:0:
397,268,285641,1,8,0:0:0:0:
225,75,285791,6,0,P|135:87|107:173,1,191.359998832031,6|0,1:2|1:0,0:0:0:0:
270,292,286238,2,0,L|364:276,1,95.6799994160156,10|2,0:0|0:0,0:0:0:0:
200,155,286537,1,2,1:2:0:0:
130,344,286686,1,0,1:0:0:0:
24,188,286835,2,0,L|38:88,1,95.6799994160156,10|2,0:0|0:0,0:0:0:0:
190,0,287134,5,2,1:2:0:0:
277,199,287283,1,2,1:2:0:0:
115,104,287432,1,8,0:0:0:0:
320,16,287582,2,0,L|305:119,1,95.6799994160156,2|0,0:0|1:0,0:0:0:0:
195,298,287880,1,2,1:2:0:0:
110,88,288029,1,8,0:0:0:0:
309,224,288179,6,0,B|344:176|407:184|407:184|431:240|494:237,1,191.359998832031,6|0,1:2|1:0,0:0:0:0:
284,328,288626,2,0,P|241:306|194:297,1,95.6799994160156,10|0,0:0|0:0,0:0:0:0:
32,194,288925,1,0,1:0:0:0:
240,134,289074,1,0,1:0:0:0:
70,21,289223,2,0,L|83:130,1,95.6799994160156,8|0,0:0|0:0,0:0:0:0:
194,297,289522,5,0,1:0:0:0:
258,98,289671,1,0,1:0:0:0:
112,224,289820,2,0,L|230:209,1,95.6799994160156,8|0,0:0|0:0,0:0:0:0:
391,110,290119,2,0,L|273:95,1,95.6799994160156,0|0,1:0|1:0,0:0:0:0:
444,219,290417,1,10,0:0:0:0:
223,326,290567,6,0,B|130:320|150:254|50:245,1,191.359998832031,6|0,1:2|1:0,0:0:0:0:
196,116,291014,2,0,L|207:218,1,95.6799994160156,10|0,0:0|0:0,0:0:0:0:
355,320,291313,2,0,L|366:218,1,95.6799994160156,2|0,1:2|1:0,0:0:0:0:
470,373,291612,1,10,0:0:0:0:
417,148,291761,6,0,P|329:127|278:202,1,191.359998832031,2|0,1:2|1:0,0:0:0:0:
166,362,292209,2,0,L|273:342,1,95.6799994160156,10|0,0:0|0:0,0:0:0:0:
461,252,292507,1,2,1:2:0:0:
247,180,292656,1,2,1:2:0:0:
479,259,292806,1,8,0:0:0:0:
324,56,292955,6,0,L|342:247,1,191.359998832031,6|0,1:2|1:0,0:0:0:0:
174,352,293403,1,10,0:0:0:0:
256,160,293552,1,2,0:0:0:0:
80,256,293701,2,0,L|195:239,1,95.6799994160156,2|0,1:2|1:0,0:0:0:0:
380,180,294000,1,10,0:0:0:0:
176,116,294149,1,2,0:0:0:0:
266,302,294298,5,2,1:2:0:0:
324,116,294447,1,2,1:2:0:0:
171,236,294597,1,8,0:0:0:0:
374,345,294746,2,0,L|384:249,1,95.6799994160156,2|0,0:0|1:0,0:0:0:0:
441,39,295044,1,2,1:2:0:0:
512,224,295194,1,8,0:0:0:0:
294,115,295343,6,0,B|190:125|225:198|112:205,1,191.359998832031,6|0,1:2|1:0,0:0:0:0:
14,50,295791,2,0,P|61:48|100:73,1,95.6799994160156,8|0,0:0|0:0,0:0:0:0:
180,281,296089,1,2,1:2:0:0:
260,90,296238,1,0,1:0:0:0:
130,203,296388,2,0,L|237:189,1,95.6799994160156,10|0,0:0|0:0,0:0:0:0:
428,144,296686,5,2,1:2:0:0:
237,80,296835,1,0,1:0:0:0:
431,12,296985,2,0,L|419:120,1,95.6799994160156,8|0,0:0|0:0,0:0:0:0:
276,263,297283,2,0,L|264:155,1,95.6799994160156,2|0,1:2|1:0,0:0:0:0:
457,232,297582,1,10,0:0:0:0:
292,369,297731,6,0,B|214:360|214:360|187:329|187:329|108:315,1,191.359998832031,6|0,1:2|1:0,0:0:0:0:
0,176,298179,2,0,L|118:160,1,95.6799994160156,10|0,0:0|0:0,0:0:0:0:
271,78,298477,1,0,1:0:0:0:
86,54,298626,1,0,1:0:0:0:
224,193,298776,2,0,L|237:92,1,95.6799994160156,10|0,0:0|1:0,0:0:0:0:
363,233,299074,5,2,0:0:0:0:
169,304,299223,1,0,1:0:0:0:
343,379,299373,2,0,L|445:360,1,95.6799994160156,8|0,0:0|0:0,0:0:0:0:
279,262,299671,1,0,1:0:0:0:
472,213,299820,1,0,1:0:0:0:
290,84,299970,2,0,L|304:191,1,95.6799994160156,8|0,0:0|0:0,0:0:0:0:
183,359,300268,6,0,P|141:380|93:379,1,95.6799994160156,6|0,1:2|0:0,0:0:0:0:
10,180,300567,1,10,0:3:0:0:
43,174,300641,1,8,0:3:0:0:
76,168,300716,1,8,0:3:0:0:
109,163,300791,1,8,0:3:0:0:
142,157,300865,6,0,L|213:146,1,47.8399997080078,6|4,0:3|0:3,0:0:0:0:
411,41,301014,2,0,L|400:112,1,47.8399997080078,6|4,0:3|0:3,0:0:0:0:
273,310,301164,2,0,L|262:239,1,47.8399997080078,6|4,0:3|0:3,0:0:0:0:
140,34,301313,2,0,L|211:45,1,47.8399997080078,6|4,0:3|0:3,0:0:0:0:
409,212,301462,5,6,0:0:0:0:
265,262,301612,1,0,1:0:0:0:
418,344,301761,2,0,L|432:225,1,95.6799994160156,10|0,0:0|1:0,0:0:0:0:
281,84,302059,2,0,L|295:203,1,95.6799994160156,8|0,0:0|0:0,0:0:0:0:
170,353,302358,5,8,0:0:0:0:
138,365,302432,1,8,0:0:0:0:
105,364,302507,1,8,0:0:0:0:
75,349,302582,1,8,0:0:0:0:
53,324,302656,6,0,L|42:219,1,95.6799994160156,6|0,1:2|0:0,0:0:0:0:
172,82,302955,1,10,0:0:0:0:
128,272,303104,1,2,0:0:0:0:
0,112,303253,2,0,L|103:125,1,95.6799994160156,2|0,1:2|1:0,0:0:0:0:
255,255,303552,2,0,L|152:268,1,95.6799994160156,10|0,0:0|1:0,0:0:0:0:
256,99,303850,6,0,P|303:100|343:125,1,95.6799994160156,2|0,0:0|1:0,0:0:0:0:
447,263,304149,1,10,0:0:0:0:
265,350,304298,2,0,L|253:237,1,95.6799994160156,2|0,1:2|0:0,0:0:0:0:
125,80,304597,2,0,L|113:193,1,95.6799994160156,2|8,0:0|0:0,0:0:0:0:
3,381,304895,6,0,B|113:370|62:291|181:281,1,191.359998832031,2|0,0:0|1:0,0:0:0:0:
359,202,305343,2,0,P|311:198|268:178,1,95.6799994160156,10|0,0:0|1:0,0:0:0:0:
190,18,305641,1,0,0:0:0:0:
101,209,305791,1,0,1:0:0:0:
274,85,305940,2,0,L|379:99,1,95.6799994160156,10|0,0:0|0:0,0:0:0:0:
212,264,306238,6,0,P|173:236|128:221,1,95.6799994160156,2|0,1:2|1:0,0:0:0:0:
252,95,306537,1,10,0:0:0:0:
335,288,306686,2,0,P|382:288|423:265,1,95.6799994160156,2|0,1:2|0:0,0:0:0:0:
358,63,306985,1,2,1:2:0:0:
234,245,307134,1,10,0:0:0:0:
456,147,307283,1,2,0:0:0:0:
243,42,307432,6,0,L|254:137,1,95.6799994160156,4|0,1:2|0:0,0:0:0:0:
137,321,307731,1,10,0:0:0:0:
92,117,307880,1,2,0:0:0:0:
234,245,308029,2,0,L|140:226,1,95.6799994160156,2|0,1:2|1:0,0:0:0:0:
276,359,308328,1,10,0:0:0:0:
326,170,308477,1,2,1:2:0:0:
411,349,308626,6,0,L|427:249,1,95.6799994160156,2|0,0:0|1:0,0:0:0:0:
340,56,308925,2,0,P|292:55|253:81,1,95.6799994160156,10|2,0:0|1:2,0:0:0:0:
199,274,309223,2,0,P|223:233|220:186,1,95.6799994160156,2|0,0:0|1:0,0:0:0:0:
88,34,309522,2,0,P|111:75|153:96,1,95.6799994160156,10|0,0:0|0:0,0:0:0:0:
376,13,309820,6,0,L|345:214,1,191.359998832031,2|8,1:2|0:0,0:0:0:0:
166,360,310268,2,0,B|312:329|312:329|335:384,1,191.359998832031,2|0,0:0|1:0,0:0:0:0:
193,235,310716,2,0,L|89:208,1,95.6799994160156,10|0,0:0|0:0,0:0:0:0:
280,114,311014,6,0,L|384:87,1,95.6799994160156,2|0,1:2|0:0,0:0:0:0:
308,256,311313,1,8,0:0:0:0:
176,99,311462,2,0,L|189:210,1,95.6799994160156,0|0,1:0|0:0,0:0:0:0:
351,133,311761,1,0,1:0:0:0:
196,15,311910,2,0,P|148:15|109:40,1,95.6799994160156,10|0,0:0|0:0,0:0:0:0:
0,240,312209,6,0,B|102:253|66:321|186:337,1,191.359998832031,6|8,1:2|0:0,0:0:0:0:
324,243,312656,1,0,1:0:0:0:
149,140,312806,2,0,L|160:244,1,95.6799994160156,2|0,0:0|0:0,0:0:0:0:
310,370,313104,2,0,L|321:266,1,95.6799994160156,10|0,0:0|0:0,0:0:0:0:
496,112,313403,6,0,B|350:143|350:143|327:88,1,191.359998832031,2|8,0:0|0:0,0:0:0:0:
128,0,313850,2,0,B|83:46|83:46|134:174,1,191.359998832031,2|0,1:2|0:0,0:0:0:0:
302,249,314298,2,0,L|316:141,1,95.6799994160156,10|0,0:0|1:0,0:0:0:0:
471,339,314597,6,0,B|437:296|375:301|375:301|347:348|288:340,1,191.359998832031,6|8,1:2|0:0,0:0:0:0:
223,190,315044,1,0,1:0:0:0:
101,332,315194,2,0,L|88:224,1,95.6799994160156,0|0,1:0|0:0,0:0:0:0:
234,95,315492,2,0,L|221:203,1,95.6799994160156,10|0,0:0|1:0,0:0:0:0:
0,236,315791,6,0,P|47:158|137:168,1,191.359998832031,2|8,0:0|0:0,0:0:0:0:
278,359,316238,2,0,L|299:168,1,191.359998832031,2|0,1:2|1:0,0:0:0:0:
443,22,316686,2,0,L|456:141,1,95.6799994160156,10|0,0:0|0:0,0:0:0:0:
365,338,316985,6,0,P|324:361|277:358,1,95.6799994160156,6|0,1:2|0:0,0:0:0:0:
176,184,317283,2,0,P|223:180|263:204,1,95.6799994160156,8|0,0:0|0:0,0:0:0:0:
126,356,317582,1,0,1:0:0:0:
82,160,317731,1,0,1:0:0:0:
217,287,317880,2,0,L|122:263,1,95.6799994160156,8|0,0:0|0:0,0:0:0:0:
266,51,318158,6,0,B|315:100|315:100|256:223,1,191.359998832031,2|8,1:2|0:0,0:0:0:0:
81,373,318605,2,0,L|60:183,1,191.359998832031,2|0,0:0|1:0,0:0:0:0:
185,32,319043,2,0,L|172:136,1,95.6799994160156,10|0,0:0|0:0,0:0:0:0:
251,324,319342,6,0,P|289:296|336:290,1,95.6799994160156,6|0,1:2|0:0,0:0:0:0:
510,198,319640,2,0,P|463:192|424:164,1,95.6799994160156,10|0,0:0|0:0,0:0:0:0:
301,20,319939,5,2,0:0:0:0:
301,20,320013,1,2,0:0:0:0:
301,20,320088,1,8,0:3:0:0:
205,210,320222,1,8,0:3:0:0:
422,90,320371,1,0,1:0:0:0:
156,22,320526,5,12,0:0:0:0:
336,185,320824,5,0,1:0:0:0:
101,245,320973,1,8,0:0:0:0:
255,98,321272,5,4,0:0:0:0:
35,36,321570,5,4,0:0:0:0:
35,36,322790,6,0,L|60:227,1,191.359998832031,6|0,1:2|1:0,0:0:0:0:
192,368,323237,2,0,P|230:340|277:329,1,95.6799994160156,8|0,0:0|0:0,0:0:0:0:
454,229,323536,2,0,P|407:218|368:190,1,95.6799994160156,2|0,1:2|1:0,0:0:0:0:
261,37,323834,1,8,0:0:0:0:
128,227,323983,6,0,B|238:214|186:145|309:131,1,191.359998832031,2|0,1:2|1:0,0:0:0:0:
124,45,324431,2,0,L|141:158,1,95.6799994160156,10|0,0:0|0:0,0:0:0:0:
272,314,324730,2,0,L|289:201,1,95.6799994160156,2|0,1:2|1:0,0:0:0:0:
424,368,325028,1,10,0:0:0:0:
347,160,325177,6,0,P|261:132|204:202,1,191.359998832031,6|0,1:2|1:0,0:0:0:0:
341,365,325625,2,0,L|245:354,1,95.6799994160156,10|0,0:0|0:0,0:0:0:0:
82,237,325924,2,0,L|177:226,1,95.6799994160156,2|0,1:2|1:0,0:0:0:0:
305,98,326222,1,8,0:0:0:0:
109,0,326371,6,0,B|64:44|64:44|115:178,1,191.359998832031,2|0,1:2|1:0,0:0:0:0:
299,267,326819,2,0,P|259:240|212:232,1,95.6799994160156,10|0,0:0|0:0,0:0:0:0:
363,94,327118,1,2,1:2:0:0:
447,285,327267,1,2,1:2:0:0:
272,159,327416,1,10,0:0:0:0:
472,60,327565,6,0,L|452:256,1,191.359998832031,6|0,1:2|1:0,0:0:0:0:
282,358,328013,2,0,P|321:331|368:323,1,95.6799994160156,8|0,0:0|0:0,0:0:0:0:
235,169,328312,2,0,P|195:142|148:134,1,95.6799994160156,0|0,1:0|1:0,0:0:0:0:
254,332,328610,1,8,0:0:0:0:
349,129,328759,6,0,B|395:174|395:174|338:299,1,191.359998832031,0|0,1:0|1:0,0:0:0:0:
172,381,329207,2,0,L|161:265,1,95.6799994160156,10|0,0:0|0:0,0:0:0:0:
30,154,329506,2,0,L|19:270,1,95.6799994160156,2|0,1:2|1:0,0:0:0:0:
188,124,329804,1,10,0:0:0:0:
2,4,329953,6,0,B|143:40|143:40|178:-9,1,191.359998832031,6|0,1:2|1:0,0:0:0:0:
265,179,330401,2,0,P|231:212|185:217,1,95.6799994160156,8|0,0:0|0:0,0:0:0:0:
84,59,330700,1,2,1:2:0:0:
24,280,330849,1,2,1:2:0:0:
188,124,330998,1,10,0:0:0:0:
298,344,331147,6,0,P|373:292|367:201,1,191.359998832031,2|2,1:2|1:2,0:0:0:0:
103,140,331595,1,10,0:0:0:0:
297,255,331744,1,2,0:0:0:0:
37,291,331894,1,10,0:0:0:0:
280,162,332043,1,10,0:0:0:0:
40,76,332192,1,2,0:0:0:0:
208,245,332341,6,0,B|317:235|279:161|388:149,1,191.359998832031,6|0,1:2|1:0,0:0:0:0:
494,307,332789,2,0,P|446:302|407:276,1,95.6799994160156,8|0,0:0|0:0,0:0:0:0:
320,82,333088,1,0,1:0:0:0:
227,272,333237,1,0,1:0:0:0:
421,168,333386,1,8,0:0:0:0:
204,74,333536,6,0,B|158:121|158:121|210:243,1,191.359998832031,2|0,1:2|1:0,0:0:0:0:
372,361,333983,2,0,L|266:345,1,95.6799994160156,10|0,0:0|0:0,0:0:0:0:
415,197,334282,2,0,L|521:181,1,95.6799994160156,2|0,1:2|1:0,0:0:0:0:
349,61,334580,1,10,0:0:0:0:
247,262,334730,6,0,P|160:235|154:145,1,191.359998832031,6|0,1:2|1:0,0:0:0:0:
314,23,335177,2,0,L|304:127,1,95.6799994160156,10|0,0:0|0:0,0:0:0:0:
473,227,335476,2,0,L|463:123,1,95.6799994160156,2|0,1:2|1:0,0:0:0:0:
333,247,335774,1,8,0:0:0:0:
507,368,335924,6,0,L|314:342,1,191.359998832031,2|0,1:2|1:0,0:0:0:0:
136,230,336371,2,0,P|183:225|222:199,1,95.6799994160156,10|0,0:0|0:0,0:0:0:0:
321,39,336670,1,0,1:0:0:0:
397,222,336819,1,0,1:0:0:0:
220,120,336968,1,10,0:0:0:0:
419,6,337118,6,0,L|400:203,1,191.359998832031,6|0,1:2|1:0,0:0:0:0:
244,335,337565,2,0,L|234:239,1,95.6799994160156,10|0,0:0|0:0,0:0:0:0:
319,51,337864,1,0,1:0:0:0:
218,217,338013,1,0,1:0:0:0:
129,28,338162,1,8,0:0:0:0:
310,152,338312,6,0,B|457:120|457:120|483:173,1,191.359998832031,2|0,1:2|1:0,0:0:0:0:
351,308,338759,2,0,P|310:283|263:276,1,95.6799994160156,10|0,0:0|0:0,0:0:0:0:
87,182,339058,2,0,P|133:174|174:150,1,95.6799994160156,2|0,1:2|1:0,0:0:0:0:
371,218,339356,1,10,0:0:0:0:
187,384,339506,6,0,L|166:183,1,191.359998832031,6|0,1:2|1:0,0:0:0:0:
308,48,339953,2,0,L|293:158,1,95.6799994160156,8|0,0:0|0:0,0:0:0:0:
352,330,340252,1,0,1:0:0:0:
415,125,340401,1,0,1:0:0:0:
252,241,340550,2,0,L|362:226,1,95.6799994160156,10|0,0:0|0:0,0:0:0:0:
512,112,340849,5,8,0:3:0:0:
512,112,340924,1,8,0:3:0:0:
512,112,340998,1,8,0:3:0:0:
314,32,341147,2,0,L|325:151,1,95.6799994160156,10|0,0:0|1:0,0:0:0:0:
224,336,341446,5,8,0:0:0:0:
160,80,341595,1,8,0:0:0:0:
48,304,341744,1,8,0:0:0:0:
190,56,341894,1,8,0:0:0:0:
336,380,342043,5,4,1:2:0:0:
256,192,342118,12,0,351595,0:0:0:0:
