osu file format v14

[General]
AudioFilename: audio.mp3
AudioLeadIn: 0
PreviewTime: 262342
Countdown: 0
SampleSet: Soft
StackLeniency: 0.7
Mode: 0
LetterboxInBreaks: 0
WidescreenStoryboard: 0

[Editor]
Bookmarks: 43123,120391,195318,244489,301855
DistanceSpacing: 1.4
BeatDivisor: 4
GridSize: 8
TimelineZoom: 2

[Metadata]
Title:Shikkoku no Taiyou ni Yakarete
TitleUnicode:漆黒の太陽に灼かれて
Artist:Asriel
ArtistUnicode:Asriel
Creator:Sparhten
Version:Illuminate
Source:
Tags:Kkipalt kkip rock melon pop corsace quater qf tb tiebreaker japanese goth gothic loli rock jpop jrock KOKOMI 黄昏の月と漆黒の太阳 Ragnarok COMPLETE BOX amiya
BeatmapID:2851636
BeatmapSetID:1262458

[Difficulty]
HPDrainRate:5
CircleSize:4
OverallDifficulty:9
ApproachRate:9.3
SliderMultiplier:1.7
SliderTickRate:1

[Events]
//Background and Video events
0,0,"god i love feet.jpg",0,0
//Break Periods
//Storyboard Layer 0 (Background)
//Storyboard Layer 1 (Fail)
//Storyboard Layer 2 (Pass)
//Storyboard Layer 3 (Foreground)
//Storyboard Layer 4 (Overlay)
//Storyboard Sound Samples

[TimingPoints]
10343,292.682926829268,4,2,1,55,1,0
10343,-166.666666666667,4,2,1,55,0,0
14440,-111.111111111111,4,2,1,55,0,0
18538,-90.9090909090908,4,2,1,75,0,0
19123,-62.5,4,2,1,75,0,0
19708,-76.9230769230769,4,2,1,75,0,0
29660,-166.666666666667,4,2,1,75,0,0
30830,-76.9230769230769,4,2,1,75,0,0
32001,-166.666666666667,4,2,1,75,0,0
33172,-76.9230769230769,4,2,1,75,0,0
43123,-100,4,2,1,70,0,0
52196,-83.3333333333333,4,2,1,70,0,0
59513,-71.4285714285714,4,2,1,70,0,0
62733,-111.111111111111,4,2,1,70,0,0
71221,-83.3333333333333,4,2,1,70,0,0
75611,-250,4,2,1,70,0,0
75903,-71.4285714285714,4,2,1,70,0,0
80586,-66.6666666666667,4,2,1,80,0,1
96977,-58.8235294117647,4,2,1,80,0,0
99318,-66.6666666666667,4,2,1,80,0,1
119660,-66.6666666666667,4,2,1,60,0,0
120391,-100,4,2,1,60,0,0
129464,-83.3333333333333,4,2,1,60,0,0
136782,-71.4285714285714,4,2,1,60,0,0
139269,-133.333333333333,4,2,1,60,0,0
141464,-100,4,2,1,60,0,0
148489,-83.3333333333333,4,2,1,65,0,0
153464,-71.4285714285714,4,2,1,70,0,0
156684,-100,4,2,1,80,0,0
157855,-76.9230769230769,4,2,1,80,0,1
174245,-66.6666666666667,4,2,1,80,0,0
176586,-76.9230769230769,4,2,1,80,0,1
186245,-83.3333333333333,4,2,1,80,0,1
194733,-142.857142857143,4,2,1,80,0,0
195318,-1000,4,2,1,55,0,0
197660,-166.666666666667,4,2,1,55,0,0
211416,-333.333333333334,4,2,1,55,0,0
211708,-100,4,2,1,75,0,0
216099,-71.4285714285714,4,2,1,75,0,0
216391,-62.5,4,2,1,85,0,1
244489,-83.3333333333333,4,2,1,65,0,0
259123,-71.4285714285714,4,2,1,75,0,0
262050,-100,4,2,1,75,0,0
263221,-117.647058823529,4,2,1,50,0,0
267903,-125,4,2,1,50,0,0
270245,-111.111111111111,4,2,1,50,0,0
272733,-100,4,2,1,60,0,0
281367,-76.9230769230769,4,2,1,90,0,1
291611,-83.3333333333333,4,2,1,75,0,0
297611,-76.9230769230769,4,2,1,75,0,0
298342,-83.3333333333333,4,2,1,75,0,0
300684,-76.9230769230769,4,2,1,70,0,0
301562,-100,4,2,1,70,0,0
303025,-83.3333333333333,4,2,1,70,0,0
334342,-83.3333333333333,4,2,1,5,0,0

[Colours]
Combo1 : 223,223,223
Combo2 : 67,106,165
Combo3 : 102,102,102
Combo4 : 113,146,185

[HitObjects]
4,346,10343,5,2,0:2:0:0:
4,346,10489,1,0,0:2:0:0:
80,330,10635,1,0,0:2:0:0:
157,314,10782,1,0,0:2:0:0:
258,381,10928,2,0,B|233:351|233:351|235:294|254:217,1,152.999995330811,0|0,0:2|0:2,0:2:0:0:
318,186,11513,5,2,0:2:0:0:
318,186,11659,1,0,0:2:0:0:
392,219,11805,1,0,0:2:0:0:
310,99,11952,1,0,0:2:0:0:
386,234,12099,2,0,P|448:222|470:126,1,152.999995330811,0|0,0:2|0:2,0:2:0:0:
367,39,12684,5,2,0:2:0:0:
367,39,12830,1,0,0:2:0:0:
286,18,12976,1,0,0:2:0:0:
286,18,13123,1,0,0:2:0:0:
208,136,13269,5,0,0:2:0:0:
144,90,13415,1,0,0:2:0:0:
71,123,13561,1,0,0:2:0:0:
72,202,13708,1,0,0:2:0:0:
146,74,13855,5,2,0:2:0:0:
146,74,14001,1,0,0:2:0:0:
58,113,14147,1,0,0:2:0:0:
60,213,14294,1,0,0:2:0:0:
248,306,14440,6,0,P|209:295|153:290,1,76.4999976654053,2|0,0:2|0:2,0:2:0:0:
105,331,14733,2,0,P|66:320|10:315,1,76.4999976654053,2|0,0:2|0:2,0:2:0:0:
299,375,15026,5,2,0:2:0:0:
299,375,15172,1,0,0:2:0:0:
365,325,15318,1,0,0:2:0:0:
446,342,15465,1,0,0:2:0:0:
354,317,15611,2,0,B|334:269|337:216|337:216|356:171,1,152.999995330811,0|0,0:2|0:2,0:2:0:0:
356,170,16050,1,0,0:2:0:0:
500,223,16196,6,0,P|421:234|415:236,1,76.4999976654053,2|0,0:2|0:2,0:2:0:0:
219,119,16489,2,0,P|298:108|304:106,1,76.4999976654053,0|0,0:2|0:2,0:2:0:0:
512,28,16782,1,0,0:2:0:0:
498,109,16928,1,0,0:2:0:0:
420,94,17074,1,0,0:2:0:0:
434,13,17220,1,0,0:2:0:0:
267,192,17367,5,2,0:2:0:0:
267,192,17513,1,0,0:2:0:0:
133,131,17660,1,0,0:2:0:0:
247,42,17806,1,0,0:2:0:0:
121,129,17952,2,0,P|113:166|114:204,1,76.4999976654053,0|0,0:2|0:2,0:2:0:0:
31,203,18245,2,0,P|30:165|38:128,1,76.4999976654053,0|0,0:2|0:2,0:2:0:0:
0,341,18538,5,8,0:2:0:0:
18,311,18611,1,8,0:2:0:0:
51,298,18684,1,0,1:2:0:0:
85,307,18757,1,0,1:2:0:0:
108,332,18830,1,0,1:2:0:0:
133,361,18903,1,0,1:2:0:0:
167,368,18976,1,0,1:2:0:0:
199,356,19049,1,0,1:2:0:0:
219,324,19123,6,0,P|239:308|283:305,1,68,0|0,1:2|1:2,0:2:0:0:
465,370,19269,1,0,1:2:0:0:
438,384,19342,1,0,1:2:0:0:
414,384,19416,2,0,B|373:367|373:367|383:332|383:332|348:276|332:194,1,204,8|0,0:2|0:2,0:2:0:0:
481,1,19708,6,0,P|475:88|458:145,1,110.499994941712,4|0,1:2|0:2,0:2:0:0:
219,223,20001,2,0,P|220:167|230:113,1,110.499994941712,8|0,0:2|0:2,0:2:0:0:
403,170,20294,1,0,1:2:0:0:
129,99,20440,1,0,1:2:0:0:
407,40,20586,1,8,0:2:0:0:
219,223,20733,1,0,0:2:0:0:
288,55,20879,6,0,P|180:30|71:9,1,220.999989883423,0|8,1:2|0:2,0:2:0:0:
0,320,21318,1,0,0:2:0:0:
85,274,21464,2,0,P|84:219|74:165,1,110.499994941712,0|0,1:2|1:2,0:2:0:0:
83,380,21757,1,8,0:2:0:0:
83,380,21830,5,0,0:2:0:0:
83,380,21903,1,0,0:2:0:0:
240,237,22050,6,0,P|363:288|380:401,1,220.999989883423,4|8,1:2|0:2,0:2:0:0:
512,275,22489,1,0,0:2:0:0:
351,109,22635,2,0,P|340:164|327:246,1,110.499994941712,0|0,1:2|1:2,0:2:0:0:
495,128,22928,1,8,0:2:0:0:
335,301,23074,1,0,0:2:0:0:
206,79,23221,6,0,P|348:71|351:167,1,220.999989883423,0|8,1:2|0:2,0:2:0:0:
172,250,23660,1,0,0:2:0:0:
172,250,23733,1,0,0:2:0:0:
172,250,23806,2,0,P|145:161|20:158,1,220.999989883423,0|8,1:2|0:2,0:2:0:0:
110,322,24245,1,0,0:2:0:0:
65,54,24391,6,0,P|80:152|89:241,1,165.749992412568,4|0,1:2|0:2,0:2:0:0:
78,231,24684,1,8,0:2:0:0:
234,19,24830,2,0,P|221:73|218:150,1,110.499994941712,0|0,0:2|1:2,0:2:0:0:
360,266,25123,1,0,1:2:0:0:
412,77,25269,1,8,0:2:0:0:
512,271,25416,1,0,0:2:0:0:
297,156,25562,6,0,B|364:174|364:174|425:168|495:125,1,165.749992412568,0|0,1:2|0:2,0:2:0:0:
512,65,25855,2,0,P|457:58|403:68,1,110.499994941712,8|0,0:2|0:2,0:2:0:0:
306,375,26147,2,0,P|338:330|357:279,1,110.499994941712,0|0,1:2|1:2,0:2:0:0:
94,236,26440,1,8,0:2:0:0:
232,206,26586,1,0,0:2:0:0:
48,384,26733,6,0,P|74:272|79:185,1,165.749992412568,4|0,1:2|0:2,0:2:0:0:
34,153,27025,2,0,P|123:142|166:138,1,110.499994941712,8|0,0:2|0:2,0:2:0:0:
377,290,27318,2,0,P|351:178|346:91,1,165.749992412568,0|0,1:2|0:2,0:2:0:0:
399,52,27610,2,0,P|310:41|267:37,1,110.499994941712,8|0,0:2|0:2,0:2:0:0:
289,38,27830,1,0,0:2:0:0:
289,38,27903,5,0,1:2:0:0:
512,314,28050,2,0,P|505:239|415:199,1,165.749992412568,8|0,0:2|0:2,0:2:0:0:
446,217,28342,1,0,1:2:0:0:
237,372,28489,6,0,L|345:355,1,55.2499974708558,8|0,0:2|0:2,0:2:0:0:
152,233,28635,2,0,L|206:241,1,55.2499974708558,0|0,1:2|0:2,0:2:0:0:
496,60,28782,2,0,P|455:164|445:220,1,165.749992412568,0|0,1:2|0:2,0:2:0:0:
457,234,29074,5,0,1:2:0:0:
154,97,29221,1,0,1:2:0:0:
154,97,29513,5,0,1:2:0:0:
366,282,29660,2,0,P|353:183|349:162,1,101.999996887207,8|0,0:2|0:2,0:2:0:0:
388,107,30099,1,0,1:2:0:0:
388,107,30172,1,0,1:2:0:0:
388,107,30245,1,0,1:2:0:0:
159,297,30391,1,0,1:2:0:0:
159,297,30684,5,0,1:2:0:0:
444,384,30830,2,0,P|457:285|461:263,1,110.499994941712,8|0,0:2|0:2,0:2:0:0:
335,180,31123,2,0,P|343:235|350:290,1,110.499994941712,0|0,1:2|0:2,0:2:0:0:
104,366,31416,1,0,1:2:0:0:
358,97,31563,1,0,1:2:0:0:
358,97,31855,5,0,1:2:0:0:
146,282,32002,2,0,P|159:183|163:162,1,101.999996887207,8|0,0:2|0:2,0:2:0:0:
124,107,32441,1,0,1:2:0:0:
124,107,32514,1,0,1:2:0:0:
124,107,32587,1,0,1:2:0:0:
344,306,32733,1,0,1:2:0:0:
344,306,33026,5,0,1:2:0:0:
57,375,33172,2,0,P|93:367|146:360,1,55.2499974708558,8|0,0:2|1:2,0:2:0:0:
231,235,33318,1,0,1:2:0:0:
231,235,33391,1,0,1:2:0:0:
231,235,33464,2,0,P|256:246|283:253,1,55.2499974708558,8|0,0:2|1:2,0:2:0:0:
407,365,33611,2,0,P|474:337|480:332,1,55.2499974708558,0|0,1:2|1:2,0:2:0:0:
435,102,33757,6,0,P|348:84|317:133,1,110.499994941712,4|0,1:2|0:2,0:2:0:0:
488,256,34050,2,0,P|510:162|515:137,1,110.499994941712,8|0,0:2|1:2,0:2:0:0:
233,0,34342,2,0,P|255:94|262:158,1,110.499994941712,0|0,1:2|0:2,0:2:0:0:
156,300,34635,1,8,0:2:0:0:
22,90,34782,6,0,P|148:84|178:160,1,220.999989883423,0|0,1:2|1:2,0:2:0:0:
0,384,35221,1,8,0:2:0:0:
98,198,35367,1,0,1:2:0:0:
308,303,35513,2,0,P|201:284|129:284,1,165.749992412568,0|0,1:2|0:2,2:2:0:0:
68,338,35806,2,0,P|178:307|194:275,1,110.499994941712,8|0,0:2|0:2,0:2:0:0:
95,186,36099,5,4,1:2:0:0:
95,186,36245,1,0,0:2:0:0:
245,379,36391,1,8,0:2:0:0:
245,379,36537,1,0,0:2:0:0:
275,103,36684,2,0,P|260:156|250:210,1,110.499994941712,0|0,1:0|1:2,0:2:0:0:
169,64,36977,1,8,0:2:0:0:
499,238,37124,6,0,P|373:244|343:168,1,220.999989883423,0|0,1:2|1:2,0:2:0:0:
512,34,37562,2,0,P|497:73|492:121,1,55.2499974708558,8|0,0:2|0:2,0:2:0:0:
433,180,37708,2,0,P|426:153|415:127,1,55.2499974708558,8|0,0:2|0:2,0:2:0:0:
308,24,37855,1,8,0:2:0:0:
267,15,37928,1,8,0:2:0:0:
228,27,38001,1,8,0:2:0:0:
201,58,38074,1,8,0:2:0:0:
196,105,38148,1,8,0:2:0:0:
181,152,38221,1,8,0:2:0:0:
139,180,38294,1,8,0:2:0:0:
90,174,38367,1,8,0:2:0:0:
55,139,38440,6,0,P|70:62|83:22,1,110.499994941712,4|0,1:2|0:2,0:2:0:0:
219,233,38733,2,0,P|234:286|243:340,1,110.499994941712,12|0,0:2|0:2,0:2:0:0:
312,164,39025,1,0,1:2:0:0:
82,347,39172,1,0,1:2:0:0:
425,294,39318,2,0,P|371:278|317:269,1,110.499994941712,8|0,0:2|0:2,0:2:0:0:
403,190,39611,5,0,1:2:0:0:
383,104,39757,1,0,1:2:0:0:
512,266,39903,5,8,0:2:0:0:
492,352,40049,1,0,1:2:0:0:
294,39,40196,5,0,0:2:0:0:
400,204,40342,1,0,1:2:0:0:
475,0,40489,1,8,0:2:0:0:
250,195,40635,1,0,0:2:0:0:
0,35,40782,6,0,P|62:100|153:104,1,165.749992412568,0|0,1:2|0:2,0:2:0:0:
219,77,41074,2,0,P|135:64|66:69,1,110.499994941712,8|0,0:2|0:2,0:2:0:0:
453,318,41367,1,0,1:2:0:0:
475,229,41513,1,0,1:2:0:0:
279,270,41660,2,0,P|363:257|432:262,1,110.499994941712,8|0,0:2|0:2,0:2:0:0:
259,183,41952,5,8,0:2:0:0:
275,289,42099,1,8,0:2:0:0:
0,376,42245,5,8,0:2:0:0:
363,350,42392,1,12,0:2:0:0:
192,248,42830,5,2,0:2:0:0:
185,265,43123,2,0,P|127:247|59:312,1,127.5,6|0,1:2|0:2,0:2:0:0:
72,278,43416,1,10,0:2:0:0:
0,151,43562,2,0,P|69:160|93:155,1,85,2|0,0:2|1:2,0:2:0:0:
185,0,43855,5,2,1:2:0:0:
165,109,44001,1,10,0:2:0:0:
304,151,44147,2,0,P|264:102|154:118,1,170,2|0,1:2|1:2,0:2:0:0:
240,248,44586,2,0,P|312:237|340:235,1,85,10|0,0:2|0:2,0:2:0:0:
468,73,44879,2,0,P|425:68|383:60,1,85,2|0,1:2|1:2,0:2:0:0:
510,179,45172,2,0,B|454:185|454:185|365:136,1,127.5,10|0,0:2|0:2,0:2:0:0:
391,150,45464,2,0,P|405:209|405:251,1,85,2|0,1:2|0:2,0:2:0:0:
405,233,45757,5,10,0:2:0:0:
315,352,45903,2,0,P|266:337|199:333,1,85,2|0,0:2|1:2,0:2:0:0:
232,332,46196,5,0,1:2:0:0:
266,244,46342,1,8,0:2:0:0:
37,315,46489,1,0,1:2:0:0:
66,194,46635,5,0,0:2:0:0:
71,184,46782,1,0,1:2:0:0:
144,358,46928,2,0,B|127:313|127:313|141:243,1,85,8|0,0:2|0:2,0:2:0:0:
191,193,47221,1,0,1:2:0:0:
199,178,47367,1,0,1:2:0:0:
437,145,47513,6,0,P|369:137|308:126,1,127.5,10|0,0:2|0:2,0:2:0:0:
284,115,47806,2,2,B|302:150|302:150|300:195,1,85,0|0,1:2|0:2,0:2:0:0:
119,78,48099,1,10,0:2:0:0:
119,78,48245,2,0,P|173:76|237:65,1,85,2|0,0:2|1:2,0:2:0:0:
298,298,48538,1,2,1:2:0:0:
298,298,48684,2,0,P|216:274|131:267,1,170,10|0,0:2|0:2,0:2:0:0:
131,266,49123,1,0,1:2:0:0:
383,352,49269,6,0,B|424:357|424:357|458:385,1,85,10|0,0:2|0:2,0:2:0:0:
397,262,49562,2,2,B|433:240|433:240|476:243,1,85,0|0,1:2|1:2,0:2:0:0:
326,207,49855,2,0,B|341:168|341:168|377:144,1,85,10|0,0:2|0:2,0:2:0:0:
298,298,50147,6,0,L|198:287,1,85,2|0,1:2|0:2,0:2:0:0:
213,288,50440,1,10,0:2:0:0:
377,144,50586,2,0,L|477:133,1,85,2|0,0:2|1:2,0:2:0:0:
260,130,50879,2,0,B|218:115|218:115|169:130,1,85,2|8,1:2|0:2,0:2:0:0:
179,126,51172,1,2,1:2:0:0:
71,91,51318,5,8,0:2:0:0:
16,337,51464,1,8,0:2:0:0:
222,209,51611,5,8,0:2:0:0:
126,0,51757,1,8,0:2:0:0:
119,275,52050,6,0,P|124:305|129:323,1,42.5,0|0,1:2|0:2,0:2:0:0:
260,344,52196,2,0,P|297:281|310:173,1,152.999995330811,14|0,0:2|0:2,0:2:0:0:
345,116,52489,2,0,P|250:115|224:207,1,203.999993774414,6|8,1:2|0:2,0:2:0:0:
476,132,52928,5,2,0:2:0:0:
306,210,53074,1,0,1:2:0:0:
301,217,53221,1,0,1:2:0:0:
479,332,53367,2,0,P|485:282|501:234,1,101.999996887207,10|0,0:2|1:2,0:2:0:0:
218,106,53660,5,0,0:2:0:0:
400,218,53806,1,0,1:2:0:0:
474,26,53952,2,0,P|420:39|366:40,1,101.999996887207,10|0,0:2|0:2,0:2:0:0:
501,233,54245,2,0,P|447:220|393:219,1,101.999996887207,2|0,1:2|1:2,0:2:0:0:
172,228,54538,5,10,0:2:0:0:
361,134,54684,1,0,0:2:0:0:
39,128,54830,6,0,B|144:103|86:57|223:27,1,203.999993774414,2|8,1:2|0:2,0:2:0:0:
45,35,55269,5,0,0:2:0:0:
209,132,55416,1,0,1:2:0:0:
222,143,55562,1,0,1:2:0:0:
212,27,55708,5,8,0:2:0:0:
106,219,55855,1,0,1:2:0:0:
309,59,56001,6,0,P|317:144|326:185,1,101.999996887207,2|0,0:2|1:2,0:2:0:0:
496,319,56294,2,0,P|503:273|505:217,1,101.999996887207,10|0,0:2|0:2,0:2:0:0:
210,278,56586,5,2,1:2:0:0:
428,370,56733,1,0,1:2:0:0:
388,257,56879,5,10,0:2:0:0:
177,356,57025,1,0,0:2:0:0:
278,373,57172,6,0,P|288:293|317:199,1,152.999995330811,6|0,1:2|0:2,0:2:0:0:
307,223,57464,1,8,0:2:0:0:
495,127,57611,2,0,B|447:146|447:146|372:117,1,101.999996887207,2|0,0:2|1:2,0:2:0:0:
400,127,57903,1,0,1:2:0:0:
139,60,58050,2,0,B|187:79|187:79|262:50,1,101.999996887207,10|0,0:2|1:2,0:2:0:0:
313,7,58342,1,0,0:2:0:0:
322,2,58489,1,0,1:2:0:0:
61,26,58635,5,8,0:2:0:0:
137,198,58782,1,0,0:2:0:0:
226,71,58928,5,0,1:2:0:0:
233,60,59074,1,0,1:2:0:0:
14,138,59221,6,0,L|78:148,1,50.9999984436036,8|0,0:2|0:2,0:2:0:0:
204,281,59367,2,0,L|268:271,1,50.9999984436036,8|0,0:2|0:2,0:2:0:0:
109,358,59513,6,12,B|84:306|84:306|139:190,1,178.499994552612,4|0,1:2|0:2,0:2:0:0:
136,197,59806,1,2,0:2:0:0:
14,241,59952,5,2,0:2:0:0:
209,362,60099,1,0,1:2:0:0:
338,139,60245,6,0,B|365:201|365:201|314:370,1,237.999992736817,14|0,0:2|0:2,0:2:0:0:
431,0,60684,6,0,P|367:26|272:82,1,178.499994552612,10|0,0:2|0:2,0:2:0:0:
512,372,60977,6,0,P|444:336|344:293,1,178.499994552612,6|0,1:2|0:2,0:2:0:0:
91,275,61269,2,0,P|166:264|264:235,1,178.499994552612,6|0,1:2|0:2,0:2:0:0:
477,158,61562,2,0,P|366:180|335:117,1,178.499994552612,6|0,1:2|0:2,0:2:0:0:
337,138,61855,5,2,1:2:0:0:
213,365,62001,1,0,1:2:0:0:
213,365,62294,5,0,0:2:0:0:
248,254,62440,1,8,0:2:0:0:
187,155,62586,1,0,1:2:0:0:
183,170,62879,6,0,B|143:180|143:180|100:166,1,76.4999976654053,0|0,1:2|0:2,0:2:0:0:
109,169,63172,1,0,1:2:0:0:
52,15,63318,5,0,0:2:0:0:
18,119,63464,1,0,1:2:0:0:
158,63,63611,5,8,0:2:0:0:
183,170,63757,1,0,1:2:0:0:
297,0,63903,5,0,0:2:0:0:
264,103,64050,1,8,0:2:0:0:
383,172,64196,6,0,P|326:173|309:184,1,76.4999976654053,4|0,1:2|1:2,0:2:0:0:
421,276,64489,2,0,P|374:242|354:241,1,76.4999976654053,0|0,0:2|0:2,0:2:0:0:
387,380,64782,2,0,P|370:325|355:312,1,76.4999976654053,8|0,0:2|1:2,0:2:0:0:
204,282,65074,2,0,P|241:275|278:264,1,76.4999976654053,2|0,0:2|1:2,0:2:0:0:
457,189,65367,2,0,P|419:182|382:171,1,76.4999976654053,2|0,0:2|1:2,0:2:0:0:
296,98,65660,1,2,0:2:0:0:
296,98,65806,1,2,1:2:0:0:
197,106,65952,6,0,B|221:139|221:139|226:193,1,76.4999976654053,10|0,0:2|1:2,0:2:0:0:
382,171,66245,2,0,B|385:135|385:135|409:102,1,76.4999976654053,14|0,0:2|0:2,0:2:0:0:
337,21,66538,1,4,1:2:0:0:
505,32,66684,6,0,B|393:30|422:125|291:97,1,229.499992996216,6|8,1:2|0:2,0:2:0:0:
295,97,67269,1,0,1:2:0:0:
137,33,67416,1,2,0:2:0:0:
137,33,67562,2,0,L|226:27,1,76.4999976654053,2|0,1:2|0:2,0:2:0:0:
135,213,67855,2,0,L|58:207,1,76.4999976654053,0|0,1:2|0:2,0:2:0:0:
123,121,68147,5,0,1:2:0:0:
225,261,68294,1,8,0:2:0:0:
234,273,68440,1,0,1:2:0:0:
127,338,68586,1,0,0:2:0:0:
117,349,68733,1,8,0:2:0:0:
136,229,68879,5,6,1:2:0:0:
136,229,69025,2,0,B|251:197|188:138|329:138,1,191.249994163513,2|0,1:2|0:2,0:2:0:0:
298,139,69464,1,10,0:2:0:0:
449,254,69611,1,2,1:2:0:0:
495,190,69757,2,0,B|457:171|457:171|414:181,1,76.4999976654053,2|0,0:2|1:2,0:2:0:0:
336,229,70050,1,8,0:2:0:0:
332,236,70123,1,0,1:2:0:0:
330,244,70196,1,0,1:2:0:0:
331,252,70269,1,0,1:2:0:0:
351,320,70342,1,8,0:2:0:0:
351,328,70416,1,0,1:2:0:0:
349,336,70489,1,0,1:2:0:0:
345,343,70562,1,0,1:2:0:0:
339,348,70635,1,12,0:2:0:0:
64,262,70928,5,2,0:2:0:0:
69,272,71221,1,6,1:2:0:0:
113,350,71367,1,2,0:2:0:0:
206,154,71513,5,10,0:2:0:0:
177,292,71660,1,2,0:2:0:0:
290,263,71806,5,0,1:2:0:0:
34,141,71952,2,0,B|91:151|91:151|145:127,1,101.999996887207,2|8,1:2|0:2,0:2:0:0:
364,55,72245,1,2,0:2:0:0:
364,55,72391,2,0,B|307:65|307:65|253:41,1,101.999996887207,2|0,1:2|0:2,0:2:0:0:
210,150,72684,2,0,P|171:94|196:48,1,101.999996887207,10|0,0:2|0:2,0:2:0:0:
447,80,72977,2,0,L|436:183,1,101.999996887207,2|0,1:2|1:2,0:2:0:0:
325,256,73269,2,0,L|315:155,1,101.999996887207,8|0,0:2|0:2,0:2:0:0:
407,300,73562,5,2,1:2:0:0:
227,246,73708,1,0,0:2:0:0:
435,180,73855,5,10,0:2:0:0:
309,363,74001,2,0,P|285:334|221:341,1,101.999996887207,2|0,0:2|1:2,0:2:0:0:
230,342,74294,1,0,1:2:0:0:
8,261,74440,5,8,0:2:0:0:
151,296,74586,1,0,0:2:0:0:
96,214,74733,1,0,1:2:0:0:
86,205,74879,1,0,0:2:0:0:
51,338,75025,5,8,0:2:0:0:
203,221,75172,1,0,0:2:0:0:
44,26,75318,5,0,1:2:0:0:
2,170,75464,1,0,1:2:0:0:
155,78,75611,6,0,L|161:133,1,51,12|0,0:2|0:2,0:2:0:0:
160,128,75903,5,0,1:2:0:0:
370,66,76050,1,0,1:2:0:0:
425,146,76196,5,14,0:2:0:0:
386,164,76269,1,0,1:2:0:0:
344,163,76342,1,0,1:2:0:0:
308,140,76415,1,0,1:2:0:0:
286,103,76489,2,0,P|296:174|294:193,1,59.4999981842042,10|0,0:2|1:2,0:2:0:0:
463,310,76635,2,0,P|465:281|473:252,1,59.4999981842042,10|0,0:2|1:2,0:2:0:0:
362,7,76782,1,0,1:2:0:0:
362,7,76855,1,0,1:2:0:0:
362,7,76928,2,0,P|370:70|370:77,1,59.4999981842042,10|0,0:2|1:2,0:2:0:0:
205,161,77074,5,8,0:2:0:0:
162,158,77147,1,0,1:2:0:0:
123,174,77220,1,0,1:2:0:0:
97,208,77293,1,0,1:2:0:0:
90,250,77367,2,0,L|108:309,1,59.4999981842042,10|0,0:2|1:2,0:2:0:0:
249,349,77513,1,8,0:2:0:0:
249,349,77586,1,0,1:2:0:0:
249,349,77660,2,0,P|251:287|247:271,1,59.4999981842042,2|0,1:2|1:2,0:2:0:0:
353,174,77806,1,12,0:2:0:0:
353,174,77879,1,0,1:2:0:0:
353,174,77953,2,2,P|360:235|367:250,1,59.4999981842042,6|2,1:2|0:2,0:2:0:0:
0,48,78245,5,10,0:2:0:0:
45,10,78318,1,0,1:2:0:0:
103,9,78391,1,0,1:2:0:0:
150,43,78464,1,0,1:2:0:0:
167,99,78537,1,10,0:2:0:0:
212,136,78611,1,0,1:2:0:0:
270,137,78684,1,0,1:2:0:0:
317,103,78757,1,0,1:2:0:0:
334,47,78830,5,2,1:2:0:0:
262,59,78904,1,0,1:2:0:0:
225,121,78977,1,0,1:2:0:0:
229,194,79050,1,0,1:2:0:0:
273,251,79123,2,0,B|335:264|335:264|346:278|346:278|460:306,1,178.499994552612,12|0,0:2|0:2,0:2:0:0:
440,301,79416,1,4,1:2:0:0:
0,357,79708,5,2,0:2:0:0:
498,151,80001,1,2,0:2:0:0:
59,42,80294,1,2,0:2:0:0:
362,179,80586,6,0,B|282:159|282:159|245:168|245:168|129:150,1,191.250007295609,6|0,1:2|0:2,0:2:0:0:
25,247,80879,2,0,B|84:228|84:228|160:253,1,127.500004863739,10|0,0:2|0:2,0:2:0:0:
29,136,81172,5,2,1:2:0:0:
86,315,81318,1,0,1:2:0:0:
175,157,81464,5,10,0:2:0:0:
145,373,81611,2,0,P|258:340|403:328,1,255.000009727478,2|0,1:2|1:2,0:2:0:0:
493,167,82050,2,0,P|420:168|389:110,1,127.500004863739,10|0,0:2|0:2,0:2:0:0:
463,74,82342,5,2,1:2:0:0:
321,297,82489,1,0,1:2:0:0:
351,35,82635,2,0,L|377:241,1,191.250007295609,10|0,0:2|0:2,0:2:0:0:
374,224,82928,2,0,B|315:205|315:205|253:239,1,127.500004863739,2|0,1:2|0:2,0:2:0:0:
70,97,83221,1,10,0:2:0:0:
19,193,83367,2,0,B|78:212|78:212|140:178,1,127.500004863739,2|0,0:2|1:2,0:2:0:0:
135,181,83660,1,0,1:2:0:0:
231,34,83806,5,8,0:2:0:0:
177,267,83952,1,0,1:2:0:0:
143,30,84099,5,0,0:2:0:0:
262,328,84245,1,0,1:2:0:0:
20,350,84391,2,0,B|71:318|71:318|157:342,1,127.500004863739,8|0,0:2|0:2,0:2:0:0:
353,140,84684,2,0,L|218:125,1,127.500004863739,2|0,1:2|1:2,1:2:0:0:
298,41,84977,5,14,0:2:0:0:
491,173,85123,1,0,0:2:0:0:
447,40,85269,6,0,B|408:71|408:71|377:213,1,191.250007295609,6|0,1:2|0:2,0:2:0:0:
360,308,85562,2,0,B|419:283|419:283|498:303,1,127.500004863739,10|0,0:2|0:2,0:2:0:0:
480,298,85855,5,2,1:2:0:0:
265,219,86001,1,0,1:2:0:0:
434,148,86147,5,10,0:2:0:0:
199,325,86294,2,0,P|182:237|157:138,1,191.250007295609,2|0,1:2|0:2,0:2:0:0:
157,138,86586,1,0,1:2:0:0:
0,81,86733,2,0,B|60:99|60:99|129:51,1,127.500004863739,10|0,0:2|0:2,0:2:0:0:
246,74,87025,5,2,1:2:0:0:
60,200,87172,1,0,1:2:0:0:
420,331,87318,5,10,0:2:0:0:
163,245,87464,1,0,0:2:0:0:
220,345,87611,6,0,B|359:313|276:248|447:213,1,255.000009727478,2|8,1:2|0:2,0:2:0:0:
214,152,88050,2,0,P|120:147|75:136,1,127.500004863739,2|0,0:2|1:2,0:2:0:0:
87,139,88342,1,0,1:2:0:0:
309,191,88489,6,0,B|336:141|336:141|327:49,1,127.500004863739,10|0,0:2|1:2,0:2:0:0:
31,321,88782,2,0,B|1:270|1:270|13:179,1,127.500004863739,2|0,0:2|1:2,0:2:0:0:
249,32,89074,5,12,0:2:0:0:
93,250,89221,1,0,1:2:0:0:
19,90,89367,5,10,0:2:0:0:
57,62,89440,1,8,0:2:0:0:
104,60,89513,1,8,0:2:0:0:
145,83,89586,1,8,0:2:0:0:
167,124,89659,1,2,1:2:0:0:
184,172,89733,1,0,1:2:0:0:
219,203,89806,1,0,1:2:0:0:
266,210,89879,1,0,1:2:0:0:
309,191,89952,2,0,L|277:386,1,191.250007295609,6|0,1:2|0:2,0:2:0:0:
278,379,90245,1,12,0:2:0:0:
419,195,90391,5,2,0:2:0:0:
206,293,90538,1,2,1:2:0:0:
470,383,90684,1,0,1:2:0:0:
357,293,90830,5,10,0:2:0:0:
503,137,90977,2,0,B|437:113|437:113|358:126|358:126|249:94,1,255.000009727478,2|0,1:2|1:2,0:2:0:0:
110,68,91416,5,8,0:2:0:0:
350,30,91562,1,0,0:2:0:0:
213,15,91708,5,0,1:2:0:0:
314,199,91855,1,0,1:2:0:0:
61,201,92001,6,2,P|156:174|182:297,1,191.250007295609,8|0,0:2|0:2,0:2:0:0:
171,321,92294,2,0,P|94:306|29:312,1,127.500004863739,6|0,1:2|1:2,0:2:0:0:
45,308,92586,1,14,0:2:0:0:
0,81,92733,2,0,P|63:82|125:68,1,127.500004863739,2|0,0:2|1:2,0:2:0:0:
125,67,93025,1,0,1:2:0:0:
61,201,93172,1,10,0:2:0:0:
51,209,93318,1,2,1:2:0:0:
257,109,93464,5,0,0:2:0:0:
267,101,93610,1,0,1:2:0:0:
216,273,93757,6,0,B|180:221|180:221|187:146,1,127.500004863739,10|0,0:2|0:2,0:2:0:0:
369,21,94050,2,0,P|282:11|223:-3,1,127.500004863739,2|0,1:2|1:2,0:2:0:0:
415,195,94342,2,0,P|351:201|289:213,1,127.500004863739,14|0,0:2|0:2,0:2:0:0:
503,71,94635,5,6,1:2:0:0:
372,285,94782,1,0,0:2:0:0:
273,112,94928,1,8,0:2:0:0:
267,101,95074,1,0,0:2:0:0:
182,295,95221,5,0,1:2:0:0:
385,164,95367,1,0,1:2:0:0:
57,140,95513,5,8,0:2:0:0:
289,213,95660,1,0,1:2:0:0:
174,166,95806,5,0,0:2:0:0:
164,159,95952,1,0,1:2:0:0:
34,276,96099,6,0,B|91:252|91:252|157:277,1,127.500004863739,10|0,0:2|0:2,0:2:0:0:
435,343,96391,2,0,B|373:366|373:366|316:342,1,127.500004863739,2|0,1:2|1:2,0:2:0:0:
243,288,96684,1,10,0:2:0:0:
248,280,96830,1,0,0:2:0:0:
397,29,96977,6,0,B|299:116|327:214|410:263|519:209|493:136,1,361.250006890297,6|0,1:2|0:2,0:2:0:0:
422,132,97416,6,0,B|353:83|271:100|235:222|123:229|67:181|63:122|81:105,1,361.250006890297,6|0,1:2|0:2,0:2:0:0:
146,77,97855,5,14,0:2:0:0:
280,338,98001,2,0,B|389:331|407:255|381:207|337:188|306:234,1,216.750004134178,2|0,1:2|0:2,0:2:0:0:
333,212,98294,5,12,0:2:0:0:
35,363,98440,1,8,0:2:0:0:
294,19,98586,5,8,0:2:0:0:
251,257,98733,1,10,0:2:0:0:
233,225,98806,1,0,1:2:0:0:
203,206,98879,1,0,1:2:0:0:
167,205,98952,1,0,1:2:0:0:
135,221,99026,1,6,1:2:0:0:
103,237,99099,1,0,1:2:0:0:
67,236,99172,1,0,1:2:0:0:
37,217,99245,1,0,1:2:0:0:
21,182,99318,6,0,B|108:207|108:207|141:229|141:229|225:250,1,191.250007295609,6|0,1:2|0:2,0:2:0:0:
299,337,99611,2,0,L|145:358,1,127.500004863739,14|0,0:2|0:2,0:2:0:0:
41,69,99903,5,2,1:2:0:0:
172,354,100050,1,0,1:2:0:0:
0,314,100196,5,10,0:2:0:0:
219,131,100342,2,0,B|278:42|365:45|397:97|385:166|301:162,1,255.000009727478,2|0,1:2|1:2,0:2:0:0:
134,222,100782,2,0,B|120:182|120:182|138:88,1,127.500004863739,10|0,0:2|0:2,0:2:0:0:
5,160,101074,5,2,1:2:0:0:
228,23,101221,1,0,1:2:0:0:
0,14,101367,2,0,B|60:37|60:37|133:9,1,127.500004863739,10|0,0:2|0:2,0:2:0:0:
398,15,101660,6,0,B|376:45|376:45|352:161,1,127.500004863739,6|0,1:2|0:2,0:2:0:0:
271,93,101952,1,10,0:2:0:0:
400,225,102099,2,0,P|461:183|505:217,1,127.500004863739,2|0,0:2|1:2,0:2:0:0:
499,206,102391,1,0,1:2:0:0:
452,103,102538,1,8,0:2:0:0:
449,91,102684,1,0,1:2:0:0:
304,202,102830,5,0,0:2:0:0:
460,313,102977,1,0,1:2:0:0:
156,382,103123,5,8,0:2:0:0:
354,356,103269,1,0,0:2:0:0:
27,255,103416,6,0,B|62:303|130:311|172:234|122:206,1,191.250007295609,2|0,1:2|0:2,0:2:0:0:
68,24,103708,2,0,L|55:168,1,127.500004863739,10|0,0:2|0:2,0:2:0:0:
236,341,104001,6,0,B|223:273|223:273|231:241|231:241|218:140,1,191.250007295609,6|0,1:2|0:2,0:2:0:0:
151,43,104294,2,0,P|205:71|259:44,1,127.500004863739,14|0,0:2|0:2,0:2:0:0:
474,170,104586,5,2,1:2:0:0:
259,44,104733,1,0,1:2:0:0:
489,39,104879,5,10,0:2:0:0:
406,253,105025,2,0,B|365:283|301:240|287:154|372:71,1,255.000009727478,2|0,1:2|1:2,0:2:0:0:
423,374,105464,6,0,B|372:346|372:346|277:351,1,127.500004863739,10|0,0:2|0:2,0:2:0:0:
95,175,105757,2,0,B|159:181|159:181|219:150,1,127.500004863739,2|0,1:2|1:2,0:2:0:0:
142,80,106050,5,10,0:2:0:0:
27,281,106196,1,0,0:2:0:0:
267,278,106342,6,0,P|181:257|150:361,1,191.250007295609,2|0,1:2|0:2,0:2:0:0:
140,335,106635,1,8,0:2:0:0:
0,177,106782,1,2,0:2:0:0:
0,177,106928,2,0,P|68:193|126:153,1,127.500004863739,2|0,1:2|1:2,0:2:0:0:
57,78,107221,5,14,0:2:0:0:
53,69,107367,1,0,0:2:0:0:
218,54,107513,5,10,0:2:0:0:
390,159,107660,1,0,1:2:0:0:
182,315,107806,1,0,1:2:0:0:
453,71,107952,5,8,0:2:0:0:
268,170,108099,1,0,1:2:0:0:
504,330,108245,1,0,1:2:0:0:
360,40,108391,6,0,L|342:288,1,191.250007295609,12|0,0:2|0:2,0:2:0:0:
409,339,108684,2,0,B|359:323|359:323|330:327|330:327|282:311,1,127.500004863739,4|0,1:2|0:2,0:2:0:0:
37,236,108977,2,0,B|79:249|79:249|171:227,1,127.500004863739,10|0,0:2|0:2,0:2:0:0:
186,129,109269,5,2,1:2:0:0:
111,328,109416,1,0,1:2:0:0:
73,86,109562,5,10,0:2:0:0:
249,249,109708,1,0,1:2:0:0:
467,115,109855,6,0,B|407:135|407:135|281:99,1,191.250007295609,2|0,0:2|0:2,0:2:0:0:
283,99,110147,1,8,0:2:0:0:
411,44,110294,5,2,0:2:0:0:
351,269,110440,2,0,P|398:232|483:250,1,127.500004863739,2|0,1:2|1:2,0:2:0:0:
274,373,110733,2,0,P|254:306|248:236,1,127.500004863739,10|0,0:2|0:2,0:2:0:0:
164,338,111025,2,0,P|90:322|58:219,1,191.250007295609,6|0,1:2|0:2,0:2:0:0:
57,220,111318,1,12,0:2:0:0:
235,99,111464,1,0,0:2:0:0:
65,50,111611,5,0,1:2:0:0:
55,42,111757,1,0,1:2:0:0:
177,212,111903,1,8,0:2:0:0:
100,140,112050,6,0,B|203:127|203:127|251:177|251:177|355:190,1,255.000009727478,4|0,1:2|1:2,0:2:0:0:
465,106,112489,5,12,0:2:0:0:
387,270,112635,1,0,0:2:0:0:
292,3,112782,5,0,1:2:0:0:
332,187,112928,1,0,1:2:0:0:
210,90,113074,5,8,0:2:0:0:
116,362,113221,1,0,0:2:0:0:
49,300,113367,6,0,B|94:211|209:206|244:299|189:342,1,255.000009727478,6|8,1:2|0:2,0:2:0:0:
201,329,113806,1,0,0:2:0:0:
58,49,113952,5,2,1:2:0:0:
51,37,114099,1,0,1:2:0:0:
132,216,114245,1,8,0:2:0:0:
138,228,114391,1,0,1:2:0:0:
52,151,114538,6,0,B|113:121|113:121|180:135,1,127.500004863739,2|0,0:2|1:2,0:2:0:0:
171,133,114830,1,8,0:2:0:0:
398,46,114977,2,0,P|313:31|260:9,1,127.500004863739,2|0,0:2|1:2,0:2:0:0:
274,16,115269,1,0,1:2:0:0:
308,211,115416,5,10,0:2:0:0:
163,36,115562,1,0,0:2:0:0:
465,227,115708,6,0,L|489:37,1,191.250007295609,6|0,1:2|0:2,0:2:0:0:
489,37,116001,1,0,1:2:0:0:
75,340,116147,6,0,L|50:150,1,191.250007295609,14|0,0:2|0:2,0:2:0:0:
51,150,116440,1,0,1:2:0:0:
290,362,116586,5,10,0:2:0:0:
184,200,116733,1,0,1:2:0:0:
236,15,116879,1,0,1:2:0:0:
298,368,117025,5,8,0:2:0:0:
298,368,117099,1,8,0:2:0:0:
298,368,117172,1,8,0:2:0:0:
26,238,117318,1,8,0:2:0:0:
428,109,117464,1,0,0:2:0:0:
75,340,117611,5,0,1:2:0:0:
311,197,117757,1,0,1:2:0:0:
173,94,117903,1,0,1:2:0:0:
333,37,118050,5,12,0:2:0:0:
193,274,118196,1,0,1:2:0:0:
202,292,118342,1,0,1:2:0:0:
394,79,118489,5,8,0:2:0:0:
369,50,118562,1,8,0:2:0:0:
333,37,118635,1,8,0:2:0:0:
296,43,118708,1,8,0:2:0:0:
267,67,118781,1,8,0:2:0:0:
253,102,118854,5,0,1:2:0:0:
246,139,118928,1,0,1:2:0:0:
222,168,119001,1,0,1:2:0:0:
187,182,119074,1,0,1:2:0:0:
150,177,119147,1,0,1:2:0:0:
121,154,119221,2,0,B|112:191|112:191|126:233,1,63.7500024318696,8|0,0:2|1:2,0:2:0:0:
351,244,119367,2,0,B|359:219|359:219|350:182,1,63.7500024318696,8|0,0:2|1:2,0:2:0:0:
49,263,119513,5,8,0:2:0:0:
425,130,119660,1,12,0:2:0:0:
425,130,120098,1,10,0:2:0:0:
215,294,120391,6,0,P|265:359|347:352,1,170,6|8,1:2|0:2,0:2:0:0:
139,252,120830,2,0,P|130:293|133:336,1,85,2|0,0:2|1:2,0:2:0:0:
0,237,121123,1,2,1:2:0:0:
171,119,121269,1,10,0:2:0:0:
4,79,121415,6,0,P|80:136|167:107,1,170,2|0,1:2|1:2,0:2:0:0:
194,39,121854,2,0,P|266:28|294:26,1,85,10|0,0:2|0:2,0:2:0:0:
420,180,122147,1,2,1:2:0:0:
300,113,122294,1,0,1:2:0:0:
422,4,122440,2,0,P|414:45|409:87,1,85,10|0,0:2|0:2,0:2:0:0:
512,223,122732,6,0,P|508:180|497:139,1,85,2|0,1:2|0:2,0:2:0:0:
406,202,123025,1,10,0:2:0:0:
512,324,123171,2,0,P|470:314|428:307,1,85,2|0,0:2|1:2,0:2:0:0:
235,245,123464,1,0,1:2:0:0:
173,384,123611,1,8,0:2:0:0:
355,384,123757,2,0,P|348:342|338:300,1,85,0|0,1:2|0:2,0:2:0:0:
79,255,124050,5,0,1:2:0:0:
251,336,124196,2,0,P|257:294|276:147,1,170,8|0,0:2|1:2,0:2:0:0:
273,167,124635,1,0,1:2:0:0:
0,190,124781,2,0,P|68:182|129:171,1,127.5,10|0,0:2|0:2,0:2:0:0:
145,191,125074,6,0,B|147:146|147:146|129:111,1,85,6|0,1:2|0:2,0:2:0:0:
44,96,125367,1,10,0:2:0:0:
270,55,125513,2,0,P|216:53|152:42,1,85,2|0,0:2|1:2,0:2:0:0:
102,0,125806,1,2,1:2:0:0:
365,44,125952,2,0,P|375:122|303:157,1,170,10|0,0:2|0:2,0:2:0:0:
303,157,126391,5,0,1:2:0:0:
512,352,126538,2,0,P|493:313|465:281,1,85,10|0,0:2|0:2,0:2:0:0:
266,251,126830,2,0,P|308:253|349:245,1,85,2|0,1:2|0:2,0:2:0:0:
474,89,127123,2,0,P|450:124|436:164,1,85,10|0,0:2|0:2,0:2:0:0:
397,351,127415,6,0,P|321:338|242:336,1,127.5,2|0,1:2|0:2,0:2:0:0:
258,346,127708,1,10,0:2:0:0:
165,300,127854,2,0,P|172:352|176:400,1,85,2|0,0:2|1:2,0:2:0:0:
30,188,128147,2,2,P|22:240|19:288,1,85,2|14,1:2|0:2,0:2:0:0:
86,332,128440,1,2,0:2:0:0:
4,368,128586,5,8,0:2:0:0:
287,89,128732,1,8,0:2:0:0:
112,134,128879,5,8,0:2:0:0:
399,232,129025,1,8,0:2:0:0:
389,254,129318,6,0,P|394:284|399:302,1,42.5,0|0,1:2|1:2,1:2:0:0:
345,384,129464,2,0,P|408:347|516:334,1,152.999995330811,14|0,0:2|0:2,0:2:0:0:
512,238,129757,6,0,P|417:239|391:147,1,203.999993774414,6|8,1:2|0:2,0:2:0:0:
348,27,130196,1,2,0:2:0:0:
421,73,130342,1,0,1:2:0:0:
498,23,130489,1,0,1:2:0:0:
219,185,130635,6,0,B|221:129|221:129|244:69|345:39,1,203.999993774414,10|0,0:2|0:2,0:2:0:0:
334,42,131074,1,0,1:2:0:0:
17,93,131220,2,0,P|66:105|117:107,1,101.999996887207,10|0,0:2|0:2,0:2:0:0:
390,262,131513,2,0,P|340:250|290:248,1,101.999996887207,2|0,1:2|1:2,0:2:0:0:
109,199,131806,2,0,P|158:186|209:184,1,101.999996887207,10|0,0:2|0:2,0:2:0:0:
386,355,132099,6,0,P|503:329|508:249,1,203.999993774414,2|8,1:2|0:2,0:2:0:0:
443,114,132537,1,0,0:2:0:0:
436,199,132684,1,0,1:2:0:0:
512,244,132830,1,0,1:2:0:0:
512,164,132976,1,8,0:2:0:0:
371,369,133123,1,0,0:2:0:0:
157,274,133269,6,0,P|148:223|145:172,1,101.999996887207,2|0,0:2|1:2,0:2:0:0:
280,23,133562,2,0,P|240:55|197:83,1,101.999996887207,10|0,0:2|0:2,0:2:0:0:
0,52,133854,1,2,1:2:0:0:
238,176,134001,1,2,1:2:0:0:
10,328,134147,2,0,P|93:303|167:302,1,152.999995330811,10|0,0:2|0:2,0:2:0:0:
242,374,134440,6,0,P|252:294|369:279,1,203.999993774414,6|8,1:2|0:2,0:2:0:0:
512,126,134879,1,2,0:2:0:0:
435,324,135025,1,2,1:2:0:0:
309,161,135172,1,0,1:2:0:0:
512,288,135318,5,10,0:2:0:0:
317,384,135464,1,0,1:2:0:0:
317,384,135757,5,0,1:2:0:0:
439,241,135903,2,0,P|440:148|439:129,1,101.999996887207,8|0,0:2|0:2,0:2:0:0:
346,73,136196,1,0,1:2:0:0:
483,26,136342,1,0,1:2:0:0:
207,0,136489,2,0,P|220:109|220:161,1,152.999995330811,8|0,0:2|0:2,0:2:0:0:
166,240,136782,6,8,B|191:189|191:189|240:160|341:160,1,178.499994552612,6|0,1:2|0:2,0:2:0:0:
324,175,137074,1,2,1:2:0:0:
85,191,137220,1,2,0:2:0:0:
177,376,137367,1,0,1:2:0:0:
395,370,137513,2,0,B|445:207|445:207|418:145,1,237.999992736817,14|0,0:2|0:2,0:2:0:0:
416,52,137952,6,0,P|352:78|416:153,1,178.499994552612,6|0,1:2|0:2,0:2:0:0:
183,22,138245,6,0,P|192:107|268:147,1,178.499994552612,6|0,1:2|0:2,0:2:0:0:
0,156,138537,6,0,P|75:145|173:116,1,178.499994552612,6|0,1:2|0:2,0:2:0:0:
307,248,138830,6,0,P|249:232|191:217,1,118.999996368408,2|0,1:2|0:2,0:2:0:0:
114,263,139123,5,6,1:2:0:0:
417,384,139269,2,0,P|397:284|392:233,1,127.500004863739,2|0,1:2|0:2,0:2:0:0:
394,258,139708,1,8,0:2:0:0:
324,331,139854,1,0,1:2:0:0:
512,0,140147,6,0,P|492:100|487:151,1,127.500004863739,2|0,1:2|1:2,0:2:0:0:
417,41,140586,1,0,0:2:0:0:
512,210,140732,1,0,1:2:0:0:
297,215,140879,1,8,0:2:0:0:
297,215,141025,2,0,L|278:125,1,63.7500024318696,0|0,1:2|0:2,0:2:0:0:
220,106,141318,1,8,0:2:0:0:
299,70,141464,5,4,1:2:0:0:
94,209,141611,2,0,P|111:111|134:33,1,170,4|0,1:2|0:2,0:2:0:0:
16,99,142050,1,8,0:2:0:0:
244,354,142197,2,0,P|227:256|204:178,1,170,0|2,1:2|1:2,0:2:0:0:
28,281,142635,6,0,P|64:291|137:301,1,85,2|0,0:2|1:2,0:2:0:0:
286,169,142928,2,0,P|322:179|395:189,1,85,2|0,0:2|1:2,0:2:0:0:
416,348,143221,1,10,0:2:0:0:
416,348,143367,1,0,1:2:0:0:
502,358,143513,2,0,B|498:320|498:320|471:282,1,85,14|0,0:2|0:2,0:2:0:0:
405,360,143806,1,2,1:2:0:0:
511,119,143952,6,0,P|501:192|316:255,1,255,6|8,1:2|0:2,0:2:0:0:
352,268,144537,1,0,1:2:0:0:
351,15,144684,1,2,0:2:0:0:
428,43,144830,2,0,P|432:75|435:131,1,85,2|0,1:2|0:2,0:2:0:0:
169,96,145123,5,0,1:2:0:0:
92,123,145269,2,0,P|86:166|84:208,1,85,0|0,0:2|1:2,0:2:0:0:
264,261,145562,1,8,0:2:0:0:
9,314,145708,1,0,1:2:0:0:
187,359,145854,1,0,0:2:0:0:
0,174,146001,1,8,0:2:0:0:
317,365,146147,5,6,1:2:0:0:
253,272,146293,2,0,P|258:207|276:82,1,170,6|0,1:2|0:2,0:2:0:0:
211,39,146732,1,10,0:2:0:0:
470,175,146879,1,0,1:2:0:0:
470,175,147025,2,0,B|432:156|384:167,1,85,2|2,0:2|0:2,0:2:0:0:
152,289,147318,5,8,0:2:0:0:
183,358,147416,5,0,1:2:0:0:
254,380,147513,5,0,1:2:0:0:
321,347,147610,5,8,0:2:0:0:
352,280,147708,5,0,1:2:0:0:
417,246,147806,5,0,1:2:0:0:
491,275,147903,5,12,0:2:0:0:
491,275,148196,5,2,0:2:0:0:
78,58,148489,5,14,0:2:0:0:
176,221,148635,1,2,0:2:0:0:
247,58,148781,5,10,0:2:0:0:
89,87,148928,1,2,0:2:0:0:
272,238,149074,1,2,1:2:0:0:
0,191,149220,2,0,P|58:174|103:167,1,101.999996887207,2|8,1:2|0:2,0:2:0:0:
252,346,149513,5,2,0:2:0:0:
252,346,149586,1,2,0:2:0:0:
252,346,149660,2,0,P|193:329|149:322,1,101.999996887207,2|0,1:2|0:2,0:2:0:0:
390,158,149952,2,0,P|381:208|366:256,1,101.999996887207,10|0,0:2|0:2,0:2:0:0:
301,184,150245,1,2,1:2:0:0:
301,184,150391,1,0,1:2:0:0:
512,384,150538,2,0,P|497:335|488:285,1,101.999996887207,10|0,0:2|0:2,0:2:0:0:
318,96,150830,5,2,1:2:0:0:
460,291,150976,1,0,0:2:0:0:
491,57,151123,1,10,0:2:0:0:
284,199,151269,2,0,P|179:167|153:78,1,203.999993774414,2|0,0:2|1:2,0:2:0:0:
218,9,151708,2,0,P|141:3|94:-4,1,101.999996887207,8|0,0:2|0:2,0:2:0:0:
16,174,152001,6,0,P|92:168|139:160,1,101.999996887207,0|0,1:2|0:2,0:2:0:0:
331,284,152294,2,0,P|254:278|207:270,1,101.999996887207,8|0,0:2|0:2,0:2:0:0:
41,384,152586,1,0,1:2:0:0:
198,194,152732,1,0,1:2:0:0:
402,384,152879,2,0,L|398:358,6,25.4999992218018,8|0|0|0|0|0|0,0:2|0:2|0:2|0:2|0:2|0:2|0:2,0:2:0:0:
308,384,153171,5,4,1:2:0:0:
502,206,153318,1,0,1:2:0:0:
302,45,153464,5,10,0:2:0:0:
285,85,153537,1,0,1:2:0:0:
292,129,153610,1,0,1:2:0:0:
321,162,153683,1,0,1:2:0:0:
364,174,153757,2,0,L|431:164,1,59.4999981842042,10|0,0:2|1:2,0:2:0:0:
512,250,153903,2,0,L|444:240,1,59.4999981842042,10|0,0:2|1:2,0:2:0:0:
277,298,154050,5,0,1:2:0:0:
303,302,154123,1,0,1:2:0:0:
329,307,154196,2,0,L|309:226,1,59.4999981842042,10|0,0:2|1:2,0:2:0:0:
511,63,154342,2,0,L|497:121,1,59.4999981842042,8|0,0:2|1:2,0:2:0:0:
243,201,154489,5,0,1:2:0:0:
217,192,154562,1,0,1:2:0:0:
186,184,154635,2,0,P|118:192|99:197,1,59.4999981842042,10|0,0:2|1:2,0:2:0:0:
53,152,154782,2,0,P|-7:182|-23:193,1,59.4999981842042,0|0,0:2|1:2,0:2:0:0:
186,349,154928,5,2,1:2:0:0:
179,341,155001,1,0,1:2:0:0:
171,334,155074,2,0,P|179:266|184:247,1,59.4999981842042,12|0,0:2|1:2,0:2:0:0:
362,173,155221,2,0,P|384:119|367:64,1,118.999996368408,10|0,0:2|0:2,0:2:0:0:
72,0,155513,5,2,1:2:0:0:
82,57,155586,1,0,1:2:0:0:
126,95,155659,1,0,1:2:0:0:
184,96,155732,1,0,1:2:0:0:
231,61,155806,1,10,0:2:0:0:
277,25,155879,1,0,1:2:0:0:
335,27,155952,1,2,1:2:0:0:
379,65,156025,1,0,1:2:0:0:
390,122,156099,5,10,0:2:0:0:
404,117,156172,1,0,1:2:0:0:
418,113,156245,1,0,1:2:0:0:
432,109,156318,1,0,1:2:0:0:
447,107,156391,2,0,L|431:199,1,59.4999981842042,12|0,0:2|1:2,0:2:0:0:
502,221,156538,2,8,L|518:313,1,59.4999981842042,12|8,0:2|1:2,0:2:0:0:
329,354,156684,2,0,P|323:308|424:260,1,170,4|0,1:2|0:2,0:2:0:0:
384,258,157855,6,0,B|348:282|348:282|275:280|218:264,1,165.749992412568,6|0,1:2|0:2,0:2:0:0:
154,232,158147,2,0,B|217:211|278:259,1,110.499994941712,10|0,0:2|0:2,0:2:0:0:
485,347,158440,2,2,B|443:383|380:362,1,110.499994941712,0|0,1:2|1:2,0:2:0:0:
322,189,158733,1,10,0:2:0:0:
90,300,158879,6,0,B|63:278|68:215|68:215|95:160|95:160|93:116|75:95,1,220.999989883423,2|0,1:2|1:2,0:2:0:0:
8,148,159318,1,10,0:2:0:0:
8,148,159464,1,0,0:2:0:0:
261,122,159611,1,2,1:2:0:0:
102,0,159757,1,0,1:2:0:0:
318,197,159903,2,0,P|395:148|395:82,1,165.749992412568,10|0,0:2|0:2,0:2:0:0:
369,0,160196,6,0,P|373:71|389:134,1,110.499994941712,2|0,1:2|0:2,0:2:0:0:
198,317,160489,1,10,0:2:0:0:
198,317,160635,2,0,P|229:215|237:183,1,110.499994941712,2|2,0:2|1:2,0:2:0:0:
0,305,160928,1,0,1:2:0:0:
153,199,161074,1,8,0:2:0:0:
29,21,161221,2,0,P|56:160|68:243,1,220.999989883423,0|0,1:2|1:2,0:2:0:0:
5,308,161660,1,8,0:2:0:0:
5,308,161806,1,0,0:2:0:0:
143,103,161952,2,0,P|198:98|253:94,1,110.499994941712,2|0,1:2|0:2,0:2:0:0:
429,226,162245,2,0,P|373:221|318:217,1,110.499994941712,10|0,0:2|0:2,0:2:0:0:
512,0,162537,6,0,B|473:31|473:31|448:79|460:169,1,165.749992412568,6|0,1:2|0:2,0:2:0:0:
512,212,162830,2,0,P|511:264|488:322,1,110.499994941712,10|0,0:2|0:2,0:2:0:0:
328,376,163123,1,2,1:2:0:0:
399,302,163269,1,0,1:2:0:0:
495,333,163415,1,10,0:2:0:0:
228,353,163562,6,0,P|140:336|-9:314,1,220.999989883423,2|0,1:2|1:2,0:2:0:0:
5,324,163928,1,2,0:2:0:0:
0,334,164001,2,0,B|129:304,1,110.499994941712,10|0,0:2|0:2,0:2:0:0:
283,160,164293,5,2,1:2:0:0:
150,118,164440,1,0,1:2:0:0:
312,384,164586,5,10,0:2:0:0:
512,308,164732,1,0,0:2:0:0:
351,246,164879,6,0,L|325:27,1,220.999989883423,2|8,1:2|0:2,0:2:0:0:
424,344,165318,2,0,P|442:253|451:224,1,110.499994941712,2|0,0:2|1:2,0:2:0:0:
512,187,165611,1,0,1:2:0:0:
314,359,165757,2,0,P|259:354|204:354,1,110.499994941712,10|0,0:2|1:2,0:2:0:0:
262,69,166050,6,0,P|244:160|235:189,1,110.499994941712,10|0,0:2|1:2,0:2:0:0:
104,281,166342,1,12,0:2:0:0:
393,167,166489,1,4,0:2:0:0:
0,139,166635,5,10,0:2:0:0:
38,111,166708,1,8,0:2:0:0:
85,109,166781,1,8,0:2:0:0:
126,132,166854,1,8,0:2:0:0:
148,173,166927,1,2,1:2:0:0:
165,221,167001,1,0,1:2:0:0:
200,252,167074,1,0,1:2:0:0:
247,259,167147,1,0,1:2:0:0:
290,240,167220,6,0,B|308:199|308:199|251:66|251:66|270:11,1,220.999989883423,6|8,1:2|0:2,0:2:0:0:
492,161,167659,1,2,0:2:0:0:
384,187,167806,1,0,1:2:0:0:
482,152,167952,1,0,1:2:0:0:
387,176,168098,1,10,0:2:0:0:
457,247,168245,6,0,P|446:319|306:351,1,220.999989883423,2|0,1:2|1:2,0:2:0:0:
168,355,168684,1,8,0:2:0:0:
248,297,168830,1,0,0:2:0:0:
10,239,168976,1,0,1:2:0:0:
242,317,169123,1,0,1:2:0:0:
130,21,169269,2,0,P|135:103|154:184,1,165.749992412568,10|0,0:2|0:2,0:2:0:0:
224,243,169562,6,0,P|238:208|249:131,1,110.499994941712,6|0,1:2|0:2,0:2:0:0:
31,80,169854,1,10,0:2:0:0:
330,232,170001,2,0,P|393:233|423:96,1,220.999989883423,2|0,0:2|1:2,0:2:0:0:
357,64,170440,1,8,0:2:0:0:
353,50,170586,1,0,0:2:0:0:
498,187,170732,5,0,1:2:0:0:
508,178,170878,1,0,1:2:0:0:
367,315,171025,2,0,P|312:323|263:347,1,110.499994941712,10|0,0:2|0:2,0:2:0:0:
125,129,171318,2,0,P|38:119|-21:105,1,110.499994941712,2|0,1:2|0:2,0:2:0:0:
150,384,171610,2,0,P|177:326|173:271,1,110.499994941712,14|0,0:2|0:2,0:2:0:0:
281,134,171903,5,2,1:2:0:0:
325,206,172049,1,0,0:2:0:0:
255,244,172196,1,8,0:2:0:0:
211,172,172342,1,0,0:2:0:0:
423,99,172489,5,0,1:2:0:0:
360,328,172635,1,0,1:2:0:0:
106,239,172782,1,8,0:2:0:0:
184,35,172928,1,0,1:2:0:0:
325,206,173074,5,0,0:2:0:0:
212,173,173221,1,0,1:2:0:0:
14,329,173367,6,0,P|81:324|137:330,1,110.499994941712,10|0,0:2|0:2,0:2:0:0:
476,361,173660,2,0,P|409:366|353:360,1,110.499994941712,2|0,1:2|0:2,0:2:0:0:
222,384,173952,5,10,0:2:0:0:
306,256,174098,5,0,0:2:0:0:
87,37,174245,6,0,B|105:114|214:168|297:119|325:21|221:54|180:49|199:149|278:165,1,318.750012159348,6|0,1:2|0:2,0:2:0:0:
450,253,174684,2,0,B|431:175|322:121|239:170|211:268|315:235|357:241|338:141|259:125,1,318.750012159348,6|0,1:2|0:2,0:2:0:0:
233,308,175123,1,14,0:2:0:0:
229,325,175562,5,8,0:2:0:0:
0,94,175708,1,8,0:2:0:0:
323,11,175854,1,8,0:2:0:0:
156,284,176001,5,10,0:2:0:0:
179,247,176074,1,0,1:2:0:0:
216,229,176147,1,0,1:2:0:0:
257,231,176220,1,0,1:2:0:0:
293,253,176294,1,14,0:2:0:0:
329,275,176367,1,0,1:2:0:0:
370,277,176440,1,0,1:2:0:0:
407,258,176513,1,0,1:2:0:0:
429,218,176586,6,0,P|422:160|413:104,1,110.499994941712,6|0,1:2|0:2,0:2:0:0:
198,10,176879,2,0,P|206:83|216:137,1,110.499994941712,14|0,0:2|0:2,0:2:0:0:
512,121,177172,1,2,1:2:0:0:
312,159,177318,1,0,1:2:0:0:
430,346,177465,1,10,0:2:0:0:
166,384,177611,6,0,B|139:362|144:299|144:299|171:244|171:244|169:200|150:178,1,220.999989883423,2|0,1:2|1:2,0:2:0:0:
8,177,178050,2,0,P|67:237|103:228,1,110.499994941712,10|0,0:2|0:2,0:2:0:0:
290,69,178343,1,2,1:2:0:0:
290,69,178489,1,0,1:2:0:0:
222,326,178635,2,0,P|287:281|374:292,1,165.749992412568,10|0,0:2|0:2,0:2:0:0:
457,320,178928,6,0,P|386:316|323:300,1,110.499994941712,2|0,1:2|0:2,0:2:0:0:
281,232,179221,1,10,0:2:0:0:
509,56,179367,2,0,P|494:109|477:161,1,110.499994941712,2|0,0:2|1:2,0:2:0:0:
512,242,179660,1,0,1:2:0:0:
284,91,179806,1,8,0:2:0:0:
347,307,179953,6,0,P|374:168|386:85,1,220.999989883423,0|0,1:2|1:2,0:2:0:0:
431,13,180392,1,8,0:2:0:0:
431,13,180538,1,0,0:2:0:0:
128,75,180684,1,2,1:2:0:0:
157,103,180757,1,0,1:2:0:0:
193,125,180830,1,0,1:2:0:0:
232,137,180903,1,0,1:2:0:0:
273,140,180976,1,10,0:2:0:0:
370,101,181123,1,0,0:2:0:0:
477,380,181269,6,4,B|438:349|438:349|413:300|425:211,1,165.749992412568,6|0,1:2|0:2,0:2:0:0:
461,161,181562,2,0,P|460:213|437:271,1,110.499994941712,6|0,0:2|0:2,0:2:0:0:
328,347,181855,1,2,1:2:0:0:
257,273,182001,1,0,1:2:0:0:
225,369,182147,1,10,0:2:0:0:
1,206,182294,6,0,P|89:189|238:167,1,220.999989883423,2|0,1:2|1:2,0:2:0:0:
224,182,182660,1,2,0:2:0:0:
230,192,182733,2,0,B|101:162,1,110.499994941712,10|0,0:2|0:2,0:2:0:0:
133,47,183025,5,2,1:2:0:0:
0,5,183172,1,0,1:2:0:0:
407,191,183318,5,10,0:2:0:0:
162,273,183464,1,0,0:2:0:0:
424,98,183611,6,0,L|453:334,1,220.999989883423,2|8,1:2|0:2,0:2:0:0:
343,384,184050,2,0,P|361:293|370:264,1,110.499994941712,2|0,0:2|1:2,0:2:0:0:
512,113,184343,1,0,1:2:0:0:
237,47,184489,1,14,0:2:0:0:
237,47,184782,5,10,0:2:0:0:
258,196,184928,1,0,1:2:0:0:
279,345,185074,1,0,1:2:0:0:
51,109,185221,5,8,0:2:0:0:
352,182,185367,1,0,1:2:0:0:
93,361,185513,1,0,1:2:0:0:
433,54,185660,6,0,P|437:168|471:281,1,220.999989883423,12|0,0:2|1:2,0:2:0:0:
467,271,186099,1,0,0:2:0:0:
494,370,186245,6,8,P|433:349|383:342,1,101.999996887207,10|0,0:2|0:2,0:2:0:0:
265,289,186538,2,0,P|315:280|363:263,1,101.999996887207,2|0,1:2|1:2,0:2:0:0:
302,381,186830,1,10,1:2:0:0:
302,381,186977,1,0,1:2:0:0:
131,116,187123,6,0,P|123:217|111:319,1,203.999993774414,2|8,1:2|0:2,0:2:0:0:
16,35,187562,2,0,P|30:125|35:156,1,101.999996887207,2|0,0:2|1:2,0:2:0:0:
13,221,187855,1,0,1:2:0:0:
200,26,188001,2,0,L|203:76,1,50.9999984436036,10|0,0:2|0:2,0:2:0:0:
279,195,188147,2,0,L|275:144,1,50.9999984436036,0|0,0:2|0:2,0:2:0:0:
351,71,188294,6,0,P|444:91|453:186,1,203.999993774414,6|0,1:2|1:2,0:2:0:0:
512,323,188733,1,0,0:2:0:0:
512,323,188806,1,0,0:2:0:0:
512,323,188879,2,0,P|464:304|414:295,1,101.999996887207,0|0,1:2|1:2,0:2:0:0:
339,351,189172,1,12,0:2:0:0:
115,88,189318,6,0,P|139:187|151:289,1,203.999993774414,4|0,1:2|1:2,0:2:0:0:
226,357,189757,2,0,P|171:365|122:389,1,101.999996887207,12|0,0:2|0:2,0:2:0:0:
0,177,190050,2,0,P|61:189|125:196,1,101.999996887207,0|0,1:2|1:2,0:2:0:0:
402,297,190342,2,0,P|350:281|302:273,1,101.999996887207,8|0,0:2|0:2,0:2:0:0:
463,89,190635,5,6,1:2:0:0:
512,160,190781,1,0,0:2:0:0:
451,89,190928,1,8,0:2:0:0:
510,175,191074,1,0,0:2:0:0:
173,247,191221,5,2,1:2:0:0:
411,169,191367,1,0,1:2:0:0:
183,262,191514,1,8,0:2:0:0:
420,183,191660,1,0,0:2:0:0:
29,191,191806,5,2,1:2:0:0:
282,254,191953,1,0,1:2:0:0:
202,10,192099,1,8,0:2:0:0:
103,325,192245,6,0,P|98:270|102:223,1,101.999996887207,2|0,0:2|1:2,0:2:0:0:
147,142,192538,1,0,1:2:0:0:
75,97,192684,1,10,0:2:0:0:
471,259,192977,6,0,P|484:156|506:38,1,203.999993774414,6|0,1:2|1:2,0:2:0:0:
251,384,193416,2,0,P|238:281|216:163,1,203.999993774414,14|0,0:2|1:2,0:2:0:0:
380,306,193855,2,0,P|238:284|155:300,1,203.999993774414,10|0,0:2|0:0,0:0:0:0:
315,242,194294,5,8,0:2:0:0:
315,242,194367,1,8,0:2:0:0:
315,242,194440,1,8,0:2:0:0:
110,353,194586,1,8,0:2:0:0:
265,313,194733,2,0,B|228:297|228:297|211:256|211:256|127:216,1,178.499994552612,8|0,0:2|0:2,0:2:0:0:
39,98,195318,6,0,B|35:131|35:131|43:161,1,63.75,4|0,1:2|0:2,0:2:0:0:
126,215,196489,2,0,B|139:185|139:185|134:154,1,63.75,6|0,1:2|0:2,0:2:0:0:
134,154,197660,1,6,1:2:0:0:
201,108,197952,1,2,0:2:0:0:
277,138,198245,1,10,0:2:0:0:
512,95,198538,5,2,0:2:0:0:
334,205,198684,2,0,B|361:196|361:196|396:203,1,50.9999984436036,2|0,1:2|0:2,0:2:0:0:
383,200,198977,1,2,0:2:0:0:
512,95,199123,2,0,B|484:99|484:99|399:77,1,101.999996887207,2|8,1:2|0:2,0:2:0:0:
412,80,199708,6,0,P|424:111|415:151,1,50.9999984436036,2|0,0:2|0:2,0:2:0:0:
336,112,200001,2,0,B|301:127|301:127|244:106,1,76.4999976654053,2|0,1:2|0:2,0:2:0:0:
264,113,200294,1,2,0:2:0:0:
58,54,200586,2,0,L|62:121,1,50.9999984436036,10|0,0:2|0:2,0:2:0:0:
45,204,200879,5,2,0:2:0:0:
45,204,201025,2,0,B|66:186|66:186|102:188,1,50.9999984436036,2|0,1:2|0:2,0:2:0:0:
205,74,201318,1,2,0:2:0:0:
205,74,201464,2,0,B|181:75|181:75|160:57,1,50.9999984436036,2|0,1:2|0:2,0:2:0:0:
394,271,201757,1,12,0:2:0:0:
384,288,202050,5,2,0:2:0:0:
309,344,202342,2,0,B|298:321|298:321|299:281,1,50.9999984436036,6|0,1:2|0:2,0:2:0:0:
478,232,202635,2,0,B|486:256|486:256|483:281,1,50.9999984436036,2|0,0:2|0:2,0:2:0:0:
483,281,202928,1,10,0:2:0:0:
259,193,203221,5,2,0:2:0:0:
259,193,203367,2,0,P|210:184|161:212,1,101.999996887207,2|0,1:2|0:2,0:2:0:0:
49,303,203806,6,0,P|98:302|125:274,1,76.4999976654053,2|0,1:2|0:2,0:2:0:0:
8,176,204099,2,0,P|47:204|86:198,1,76.4999976654053,10|0,0:2|0:2,0:2:0:0:
89,64,204391,2,0,P|104:110|138:128,1,76.4999976654053,2|0,0:2|0:2,0:2:0:0:
165,207,204684,2,0,B|260:182|238:251|343:217,1,178.499994552612,2|0,1:2|0:2,0:2:0:0:
337,218,205269,1,10,0:2:0:0:
342,222,205708,5,0,1:2:0:0:
498,113,205855,1,0,1:2:0:0:
399,288,206147,5,0,1:2:0:0:
432,187,206440,1,12,0:2:0:0:
380,94,206733,1,0,1:2:0:0:
460,352,207025,6,0,P|418:313|299:337,1,178.499994552612,2|0,1:2|0:2,0:2:0:0:
306,329,207611,1,8,0:2:0:0:
199,230,207903,1,2,0:2:0:0:
199,230,208050,1,2,1:2:0:0:
199,230,208196,2,0,B|194:258|194:258|203:291,1,50.9999984436036,2|0,0:2|0:2,0:2:0:0:
129,167,208489,2,0,L|18:160,1,101.999996887207,2|8,1:2|0:2,0:2:0:0:
70,255,208928,5,2,0:2:0:0:
73,264,209074,1,2,0:2:0:0:
231,39,209367,6,0,P|210:88|215:138,1,101.999996887207,2|0,1:2|0:2,0:2:0:0:
345,95,209806,1,2,0:2:0:0:
345,95,209952,2,0,P|313:108|292:133,1,50.9999984436036,10|0,0:2|0:2,0:2:0:0:
365,180,210245,1,2,0:2:0:0:
273,199,210391,5,2,1:2:0:0:
339,350,210538,1,10,0:2:0:0:
504,116,210830,5,8,0:2:0:0:
467,318,210977,1,8,0:2:0:0:
505,214,211123,5,8,0:2:0:0:
457,201,211196,1,0,1:2:0:0:
420,232,211269,1,0,1:2:0:0:
384,265,211342,1,0,1:2:0:0:
336,253,211416,2,0,L|381:246,1,38.2499988327027,8|0,0:2|0:2,0:2:0:0:
258,320,211708,6,0,B|205:337|205:337|117:309,1,127.5,6|0,1:2|0:2,0:2:0:0:
53,342,212001,2,0,P|60:300|34:262,1,85,8|0,0:2|0:2,0:2:0:0:
188,243,212294,5,0,1:2:0:0:
5,173,212440,1,0,1:2:0:0:
179,146,212586,5,8,0:2:0:0:
105,46,212733,1,0,1:2:0:0:
98,154,212879,6,0,B|139:137|139:137|195:149,1,85,2|0,0:2|1:2,0:2:0:0:
331,69,213172,1,8,0:2:0:0:
331,69,213318,2,0,L|224:52,1,85,2|0,0:2|1:2,0:2:0:0:
273,247,213611,1,0,1:2:0:0:
273,247,213757,2,0,L|380:230,1,85,10|0,0:2|0:2,0:2:0:0:
247,55,214050,5,2,1:2:0:0:
298,152,214196,1,0,0:2:0:0:
461,21,214342,5,10,0:2:0:0:
400,160,214489,1,2,0:2:0:0:
167,146,214635,5,2,1:2:0:0:
357,71,214782,1,0,1:2:0:0:
477,228,214928,5,8,0:2:0:0:
292,170,215074,1,0,1:2:0:0:
0,256,215221,5,8,0:2:0:0:
25,222,215294,1,8,0:2:0:0:
62,201,215367,1,8,0:2:0:0:
104,198,215440,1,0,1:2:0:0:
143,212,215513,1,0,1:2:0:0:
174,241,215586,1,0,1:2:0:0:
190,279,215660,1,0,1:2:0:0:
215,312,215733,1,0,1:2:0:0:
252,333,215806,1,0,1:2:0:0:
294,336,215879,1,0,1:2:0:0:
333,322,215952,1,0,1:2:0:0:
364,293,216025,1,0,1:2:0:0:
384,253,216099,2,0,B|391:185|391:185|421:144|421:144|436:85,1,178.499994552612,12|0,0:2|0:2,0:2:0:0:
435,86,216391,5,4,1:2:0:0:
282,219,216538,1,0,0:2:0:0:
237,18,216684,5,8,0:2:0:0:
476,211,216830,1,0,0:2:0:0:
331,43,216977,5,0,1:2:0:0:
349,140,217123,1,0,1:2:0:0:
74,359,217269,5,8,0:2:0:0:
95,262,217415,1,0,0:2:0:0:
10,88,217562,5,0,1:2:0:0:
208,29,217708,1,0,0:2:0:0:
55,170,217855,5,8,0:2:0:0:
199,199,218001,1,0,0:2:0:0:
140,113,218147,5,0,1:2:0:0:
132,93,218294,1,0,1:2:0:0:
285,258,218440,5,8,0:2:0:0:
351,246,218513,1,8,0:2:0:0:
417,235,218586,1,8,0:2:0:0:
408,117,218733,5,4,1:2:0:0:
347,333,218879,1,0,0:2:0:0:
269,74,219025,5,8,0:2:0:0:
304,154,219172,1,0,0:2:0:0:
145,177,219318,5,0,1:2:0:0:
417,235,219464,1,0,1:2:0:0:
240,259,219611,5,8,0:2:0:0:
361,60,219757,1,0,0:2:0:0:
82,269,219903,5,0,1:2:0:0:
32,51,220050,1,0,0:2:0:0:
0,206,220196,5,8,0:2:0:0:
207,110,220342,1,0,0:2:0:0:
96,185,220489,5,0,1:2:0:0:
115,101,220635,1,0,1:2:0:0:
334,155,220782,5,8,0:2:0:0:
377,339,220928,1,0,0:2:0:0:
218,236,221074,5,4,1:2:0:0:
448,262,221221,1,0,0:2:0:0:
151,339,221367,5,8,0:2:0:0:
336,259,221513,1,0,0:2:0:0:
116,242,221660,5,0,1:2:0:0:
90,149,221806,1,0,1:2:0:0:
291,344,221952,5,8,0:2:0:0:
425,152,222098,1,0,0:2:0:0:
468,360,222245,5,0,1:2:0:0:
228,181,222391,1,0,0:2:0:0:
512,193,222538,5,8,0:2:0:0:
316,175,222684,1,0,0:2:0:0:
464,57,222830,5,0,1:2:0:0:
379,86,222977,1,0,1:2:0:0:
125,29,223123,5,8,0:2:0:0:
277,81,223269,1,0,0:2:0:0:
219,2,223416,5,0,1:2:0:0:
48,156,223562,2,0,B|98:136|98:136|132:142|132:142|191:126,1,136,12|0,0:2|1:2,0:2:0:0:
28,53,223855,5,0,1:2:0:0:
232,286,224001,2,0,B|272:220|272:220|264:155,1,136,8|0,0:2|1:2,0:2:0:0:
367,273,224294,5,0,1:2:0:0:
0,281,224440,2,0,P|21:203|131:209,1,204,8|0,0:2|0:2,0:2:0:0:
415,356,224733,2,0,P|306:354|297:304,1,136,8|0,0:2|0:2,0:2:0:0:
97,288,225025,1,8,0:2:0:0:
130,284,225098,1,0,1:2:0:0:
164,281,225171,1,0,1:2:0:0:
198,278,225244,1,0,1:2:0:0:
232,275,225317,1,0,1:2:0:0:
266,272,225390,1,0,1:2:0:0:
300,268,225464,2,0,B|284:236|284:236|291:196,1,68,0|0,1:2|1:2,0:2:0:0:
468,147,225611,2,0,B|485:174|485:174|483:209,1,68,0|0,1:2|1:2,0:2:0:0:
230,130,225757,6,0,P|324:112|377:193,1,204,4|0,1:2|0:2,0:2:0:0:
377,193,226050,5,8,0:2:0:0:
432,41,226196,1,0,0:2:0:0:
289,204,226342,5,0,1:2:0:0:
209,11,226489,1,0,1:2:0:0:
312,107,226635,5,8,0:2:0:0:
332,103,226708,1,0,0:2:0:0:
352,100,226782,1,0,0:2:0:0:
243,303,226928,2,0,B|169:257|169:257|86:268|86:268|-23:235,1,272,0|8,1:2|0:2,0:2:0:0:
53,51,227367,1,0,0:2:0:0:
53,51,227513,2,0,B|97:100|97:100|96:184,1,136,0|0,1:2|1:2,0:2:0:0:
167,382,227806,2,0,B|149:313|149:313|179:234,1,136,8|0,0:2|0:2,0:2:0:0:
456,206,228099,6,0,P|345:185|236:201,1,204,4|0,1:2|0:2,0:2:0:0:
255,195,228391,1,8,0:2:0:0:
355,66,228538,1,0,0:2:0:0:
355,66,228684,2,0,P|274:53|217:110,1,136,0|0,1:2|1:2,0:2:0:0:
261,312,228977,2,0,P|324:328|380:293,1,136,8|0,0:2|0:2,0:2:0:0:
239,103,229269,6,0,P|367:93|379:194,1,204,0|0,1:2|0:2,0:2:0:0:
391,144,229562,5,8,0:2:0:0:
460,21,229708,1,0,0:2:0:0:
294,188,229855,5,0,1:2:0:0:
194,0,230001,1,0,1:2:0:0:
120,349,230147,6,0,B|70:279|70:279|90:140,1,204,8|0,0:2|0:2,0:2:0:0:
199,103,230440,6,0,P|158:129|148:131,1,34,4|0,1:2|0:2,0:2:0:0:
172,73,230513,2,0,P|154:118|148:126,1,34,0|0,0:2|0:2,0:2:0:0:
130,67,230586,2,0,P|143:113|142:123,1,34,0|0,0:2|0:2,0:2:0:0:
86,162,230733,5,8,0:2:0:0:
320,53,230879,1,0,0:2:0:0:
353,200,231025,5,0,1:2:0:0:
247,176,231172,1,0,1:2:0:0:
395,282,231318,5,8,0:2:0:0:
481,257,231464,1,0,0:2:0:0:
288,336,231611,5,0,1:2:0:0:
278,343,231757,1,0,0:2:0:0:
366,375,231903,5,8,0:2:0:0:
370,380,232049,1,0,0:2:0:0:
434,148,232196,5,0,1:2:0:0:
464,344,232342,1,0,1:2:0:0:
341,96,232489,5,8,0:2:0:0:
289,244,232635,1,0,0:2:0:0:
431,68,232782,6,0,P|389:11|255:77,1,204,4|0,1:2|0:2,0:2:0:0:
272,36,233074,1,8,0:2:0:0:
92,236,233221,2,0,P|189:222|361:181,1,272,0|0,0:2|1:2,0:2:0:0:
15,171,233660,2,0,P|78:121|128:145,1,136,8|0,0:2|0:2,0:2:0:0:
23,38,233952,5,0,1:2:0:0:
290,257,234099,2,0,B|218:244|218:244|174:256|174:256|75:231,1,204,12|0,0:2|0:2,0:2:0:0:
91,235,234391,1,8,0:2:0:0:
328,372,234538,1,8,0:2:0:0:
344,320,234611,1,0,1:2:0:0:
389,290,234684,1,0,1:2:0:0:
442,300,234757,1,0,1:2:0:0:
484,358,234830,1,0,1:2:0:0:
484,358,234903,1,0,1:2:0:0:
484,358,234977,1,0,1:2:0:0:
484,358,235050,1,0,1:2:0:0:
484,358,235123,6,0,B|470:278|470:278|437:236|437:236|423:153,1,204,4|0,1:2|0:2,0:2:0:0:
425,167,235416,5,8,0:2:0:0:
225,226,235562,1,0,0:2:0:0:
423,60,235708,5,0,1:2:0:0:
275,152,235855,1,0,1:2:0:0:
52,87,236001,5,8,0:2:0:0:
325,232,236147,1,0,0:2:0:0:
123,6,236294,6,0,B|158:64|158:64|156:132,1,136,0|0,1:2|0:2,0:2:0:0:
255,59,236586,5,8,0:2:0:0:
70,194,236733,1,0,0:2:0:0:
230,243,236879,5,0,1:2:0:0:
225,226,237025,1,0,1:2:0:0:
33,334,237172,2,0,P|94:298|174:331,1,136,8|0,0:2|0:2,0:2:0:0:
441,318,237464,2,0,P|348:278|357:171,1,204,4|0,1:2|0:2,0:2:0:0:
346,186,237757,5,8,0:2:0:0:
256,364,237903,1,0,0:2:0:0:
438,217,238050,5,0,1:2:0:0:
512,384,238196,1,0,1:2:0:0:
207,159,238342,5,8,0:2:0:0:
437,109,238489,1,0,0:2:0:0:
346,294,238635,6,0,P|245:257|122:229,1,204,0|0,1:2|0:2,1:2:0:0:
151,234,238928,1,8,0:2:0:0:
52,36,239074,1,0,0:2:0:0:
0,122,239221,6,0,B|74:131|74:131|138:99,1,136,0|0,1:2|1:2,0:2:0:0:
225,17,239513,1,8,0:2:0:0:
223,30,239660,1,0,0:2:0:0:
377,19,239806,6,0,B|334:70|334:70|318:210,1,204,4|0,1:2|0:2,0:2:0:0:
323,209,240099,5,8,0:2:0:0:
495,152,240245,1,0,0:2:0:0:
426,263,240391,5,0,1:2:0:0:
181,160,240538,1,0,1:2:0:0:
56,360,240684,5,8,0:2:0:0:
351,346,240830,1,0,0:2:0:0:
151,384,240977,6,0,L|137:233,1,136,0|0,1:2|0:2,0:2:0:0:
423,44,241269,2,0,L|410:179,1,136,8|0,0:2|0:2,0:2:0:0:
26,106,241562,2,0,B|84:63|84:63|184:67,1,136,0|0,1:2|1:2,0:2:0:0:
449,267,241855,2,0,B|385:269|385:269|327:226,1,136,8|0,0:2|0:2,0:2:0:0:
251,23,242147,6,0,L|232:257,1,204,4|0,1:2|0:2,0:2:0:0:
234,226,242440,5,10,0:2:0:0:
233,382,242586,2,0,P|291:341|377:365,1,136,2|0,0:2|1:2,0:2:0:0:
512,182,242879,2,2,P|445:187|392:147,1,136,0|8,0:2|0:2,1:2:0:0:
93,169,243172,1,2,0:2:0:0:
93,169,243318,2,0,P|190:151|232:262,1,204,14|0,0:2|0:2,0:2:0:0:
221,364,243611,6,0,P|120:325|142:249,1,204,6|0,1:2|0:2,0:2:0:0:
242,78,243903,2,0,P|131:53|15:18,1,204,6|0,1:2|0:2,0:2:0:0:
311,282,244196,2,0,P|422:257|538:222,1,204,6|0,1:2|0:2,0:2:0:0:
499,243,244489,5,6,1:2:0:0:
432,35,244635,2,0,B|385:88|385:88|416:232,1,203.999993774414,2|0,1:2|0:2,0:2:0:0:
311,282,245074,1,8,0:2:0:0:
267,369,245220,2,0,P|220:316|258:198,1,203.999993774414,0|0,1:2|0:2,0:2:0:0:
26,35,245806,6,0,B|62:96|62:96|74:159|77:232,1,203.999993774414,0|0,1:2|1:2,0:2:0:0:
23,308,246245,1,8,0:2:0:0:
75,243,246391,1,0,1:2:0:0:
152,273,246538,1,0,0:2:0:0:
324,118,246684,1,8,0:2:0:0:
351,349,246830,1,0,1:2:0:0:
351,349,246977,6,0,P|467:348|485:251,1,203.999993774414,4|0,1:2|0:2,0:2:0:0:
246,187,247416,2,0,P|310:201|348:219,1,101.999996887207,8|0,0:2|1:2,0:2:0:0:
409,283,247708,1,2,0:2:0:0:
219,3,247855,2,0,P|164:24|188:149,1,203.999993774414,2|0,1:2|1:2,0:2:0:0:
139,214,248294,2,0,P|202:199|244:199,1,101.999996887207,2|0,0:2|0:2,0:2:0:0:
415,156,248586,2,0,P|366:141|319:121,1,101.999996887207,10|0,0:2|1:2,0:2:0:0:
118,358,248879,6,2,P|162:309|196:285,1,101.999996887207,0|0,0:2|0:2,0:2:0:0:
31,159,249172,1,6,1:2:0:0:
210,368,249318,2,0,P|314:360|322:239,1,203.999993774414,0|0,1:2|0:2,0:2:0:0:
512,240,249757,5,8,0:2:0:0:
512,240,249903,2,0,P|408:232|400:111,2,203.999993774414,0|0|0,1:2|1:2|1:2,0:2:0:0:
480,47,250635,2,0,P|419:61|358:70,1,101.999996887207,0|0,0:2|1:2,0:2:0:0:
290,206,250928,1,8,0:2:0:0:
216,181,251074,1,0,1:2:0:0:
149,232,251221,1,0,1:2:0:0:
0,65,251367,1,10,0:2:0:0:
225,258,251513,6,0,P|225:98|231:43,1,203.999993774414,2|0,1:2|0:2,0:2:0:0:
229,54,251952,1,0,0:2:0:0:
24,170,252099,2,0,P|91:159|152:155,1,101.999996887207,10|0,0:2|1:2,0:2:0:0:
293,344,252391,2,0,P|243:339|193:330,1,101.999996887207,2|2,0:2|0:2,0:2:0:0:
488,80,252684,5,8,0:2:0:0:
510,152,252782,5,0,1:2:0:0:
459,209,252879,5,0,1:2:0:0:
387,221,252977,5,8,0:2:0:0:
345,282,253074,5,0,1:2:0:0:
373,348,253172,5,0,1:2:0:0:
449,375,253269,5,8,0:2:0:0:
449,375,253562,5,2,0:2:0:0:
133,151,253855,5,6,1:2:0:0:
176,221,254001,1,2,0:2:0:0:
223,74,254147,5,10,0:2:0:0:
214,152,254294,1,2,0:2:0:0:
284,122,254440,1,2,1:2:0:0:
43,82,254586,2,0,P|101:99|146:106,1,101.999996887207,2|8,1:2|0:2,0:2:0:0:
292,231,254879,5,2,0:2:0:0:
292,231,254952,1,2,0:2:0:0:
292,231,255026,2,0,P|351:214|395:207,1,101.999996887207,2|0,1:2|0:2,0:2:0:0:
415,15,255318,2,0,P|406:65|391:113,1,101.999996887207,10|0,0:2|0:2,0:2:0:0:
479,167,255611,1,2,1:2:0:0:
479,167,255757,1,2,1:2:0:0:
512,277,255904,2,0,P|497:228|488:178,1,101.999996887207,10|0,0:2|0:2,0:2:0:0:
344,326,256196,5,2,1:2:0:0:
430,320,256342,1,0,0:2:0:0:
480,384,256489,1,10,0:2:0:0:
241,369,256635,2,0,P|262:336|272:161,1,203.999993774414,2|0,0:2|1:2,0:2:0:0:
201,214,257074,2,0,P|124:208|77:201,1,101.999996887207,8|0,0:2|0:2,0:2:0:0:
13,340,257367,6,0,P|89:334|136:326,1,101.999996887207,0|0,1:2|0:2,0:2:0:0:
205,124,257660,2,0,P|128:118|81:110,1,101.999996887207,8|0,0:2|0:2,0:2:0:0:
99,6,257952,1,0,1:2:0:0:
269,172,258098,1,0,1:2:0:0:
393,25,258245,2,0,L|389:-1,6,25.4999992218018,12|0|0|0|0|0|0,0:2|0:2|0:2|0:2|0:2|0:2|0:2,0:2:0:0:
299,27,258537,5,0,1:2:0:0:
502,206,258684,1,0,1:2:0:0:
265,366,258830,5,10,0:2:0:0:
248,326,258903,1,0,1:2:0:0:
255,282,258976,1,0,1:2:0:0:
284,249,259049,1,0,1:2:0:0:
327,237,259123,2,0,L|394:247,1,59.4999981842042,10|0,0:2|1:2,0:2:0:0:
435,310,259269,2,0,L|494:319,1,59.4999981842042,10|0,0:2|1:2,0:2:0:0:
170,366,259416,5,0,1:2:0:0:
144,370,259489,1,0,1:2:0:0:
118,375,259562,2,0,L|138:294,1,59.4999981842042,10|0,0:2|1:2,0:2:0:0:
32,144,259708,2,0,L|18:202,1,59.4999981842042,8|0,0:2|1:2,0:2:0:0:
206,249,259855,5,0,1:2:0:0:
180,240,259928,1,0,1:2:0:0:
149,232,260001,2,0,P|81:240|62:245,1,59.4999981842042,10|0,0:2|1:2,0:2:0:0:
0,339,260148,2,0,P|25:325|52:314,1,59.4999981842042,8|0,0:2|1:2,0:2:0:0:
280,148,260294,5,2,1:2:0:0:
272,155,260367,1,0,1:2:0:0:
265,163,260440,2,0,P|197:155|178:150,1,59.4999981842042,12|0,0:2|1:2,0:2:0:0:
0,51,260587,2,0,P|55:55|154:94,1,118.999996368408,10|0,0:2|0:2,0:2:0:0:
283,247,260879,5,10,0:2:0:0:
329,281,260952,1,0,1:2:0:0:
386,269,261025,1,0,1:2:0:0:
414,219,261098,1,0,1:2:0:0:
399,168,261172,1,2,1:2:0:0:
380,113,261245,1,0,1:2:0:0:
408,63,261318,1,2,1:2:0:0:
465,51,261391,1,0,1:2:0:0:
511,85,261464,5,0,1:2:0:0:
450,100,261537,1,0,1:2:0:0:
388,96,261610,1,0,1:2:0:0:
330,74,261683,1,0,1:2:0:0:
281,36,261757,1,12,0:2:0:0:
0,323,262050,6,0,P|77:305|166:287,1,170,4|2,1:2|0:2,0:2:0:0:
336,333,263221,6,0,B|376:421|471:415|570:346|525:121|356:135|300:299|204:375|-2:368|10:118|145:112|244:185|244:185|212:188|196:198,1,867.000016536713,6|0,1:2|0:2,0:2:0:0:
428,106,265269,5,2,0:2:0:0:
428,106,265562,2,2,B|472:182|581:143|531:-51|309:28|309:28|399:146|305:247|305:247|331:215|340:187|321:122,1,722.500013780594,4|0,1:2|0:2,0:2:0:0:
264,109,267318,5,2,0:2:0:0:
264,109,267611,5,2,0:2:0:0:
28,48,267903,6,0,B|-34:114|15:207|85:223|122:201|142:181|163:160|222:168|268:222|273:260|386:349|152:544|-113:337|55:125|210:240|286:319|205:386,1,748,6|0,1:2|0:2,0:2:0:0:
442,335,269660,6,0,P|381:315|304:305,1,136,6|2,1:2|0:2,0:2:0:0:
244,123,270245,2,4,P|368:147|387:242,2,229.499992996216,6|2|2,0:2|0:2|0:2,1:2:0:0:
245,140,271416,1,2,1:2:0:0:
103,97,271562,1,10,0:2:0:0:
103,97,271855,5,8,0:2:0:0:
103,97,271928,1,8,0:2:0:0:
103,97,272001,1,10,0:2:0:0:
161,155,272147,1,0,1:2:0:0:
245,140,272294,1,2,1:2:0:0:
300,79,272440,1,0,1:2:0:0:
281,0,272586,5,6,1:2:0:0:
512,160,272733,2,0,L|428:144,1,85,2|0,2:2|0:2,0:2:0:0:
487,74,273025,5,2,1:2:0:0:
217,232,273172,2,0,L|300:216,1,85,10|0,0:2|0:2,0:2:0:0:
245,140,273464,5,2,1:2:0:0:
512,328,273611,2,0,P|471:316|428:312,1,85,2|0,1:2|0:2,0:2:0:0:
485,236,273903,5,0,1:2:0:0:
248,384,274050,2,0,P|268:306|277:274,1,85,0|0,1:2|0:2,0:2:0:0:
340,368,274342,5,8,0:2:0:0:
340,368,274489,1,0,1:2:0:0:
179,318,274635,1,2,0:2:0:0:
179,318,274782,1,2,0:2:0:0:
30,381,274928,6,0,P|44:286|56:199,1,170,6|0,1:2|0:2,0:2:0:0:
0,143,275367,1,2,1:2:0:0:
201,229,275513,2,2,P|182:162|176:107,1,85,8|0,0:2|0:2,0:2:0:0:
90,0,275806,1,2,1:2:0:0:
90,0,275952,2,0,P|71:67|65:122,1,85,2|0,1:2|0:2,0:2:0:0:
68,82,276391,6,0,P|185:85|247:96,2,170,2|14|10,1:2|0:2|0:2,0:2:0:0:
68,82,277050,1,0,0:2:0:0:
68,82,277123,1,0,0:2:0:0:
68,82,277196,1,0,0:2:0:0:
68,82,277269,5,6,1:2:0:0:
120,168,277416,1,0,0:2:0:0:
204,168,277562,1,8,0:2:0:0:
204,168,277708,1,0,0:2:0:0:
462,297,277855,5,0,1:2:0:0:
417,222,278002,1,0,1:2:0:0:
333,222,278148,1,8,0:2:0:0:
333,222,278294,1,0,0:2:0:0:
204,168,278440,5,0,1:2:0:0:
247,241,278586,1,0,1:2:0:0:
327,219,278733,1,10,0:2:0:0:
286,151,278879,1,0,0:2:0:0:
141,360,279025,5,2,1:2:0:0:
365,54,279172,1,0,1:2:0:0:
379,361,279318,1,2,1:2:0:0:
147,54,279465,1,0,1:2:0:0:
314,304,279611,6,0,P|458:305|518:315,1,170,6|0,1:2|0:2,0:2:0:0:
224,90,280050,2,0,P|80:89|20:79,1,170,14|0,0:2|0:2,0:2:0:0:
54,85,280489,1,10,0:2:0:0:
111,371,280635,2,0,P|178:327|163:248,1,170,2|8,1:2|0:2,0:2:0:0:
12,236,281074,1,8,0:2:0:0:
283,317,281221,1,8,0:2:0:0:
249,30,281367,6,0,L|239:84,1,55.2499974708558,10|0,0:2|1:2,0:2:0:0:
165,116,281513,2,0,L|155:170,1,55.2499974708558,0|0,1:2|1:2,0:2:0:0:
434,350,281660,2,0,L|424:295,1,55.2499974708558,14|0,0:2|1:2,0:2:0:0:
350,264,281806,2,0,L|340:209,1,55.2499974708558,0|0,1:2|1:2,0:2:0:0:
512,24,281952,6,0,P|502:111|391:136,1,165.749992412568,2|0,1:2|1:2,1:2:0:0:
360,133,282245,2,0,P|421:121|486:145,1,110.499994941712,10|0,0:2|1:2,0:2:0:0:
283,317,282538,2,0,P|222:329|157:305,1,110.499994941712,10|0,0:2|1:2,0:2:0:0:
38,112,282830,1,10,0:2:0:0:
82,375,282977,2,0,P|103:266|131:159,1,220.999989883423,2|0,1:2|1:2,0:2:0:0:
8,23,283416,5,10,0:2:0:0:
212,220,283562,1,0,1:2:0:0:
334,23,283708,5,10,0:2:0:0:
310,129,283855,1,0,1:2:0:0:
512,315,284001,5,10,0:2:0:0:
401,102,284147,1,0,1:2:0:0:
401,102,284221,1,0,1:2:0:0:
401,102,284294,2,8,P|322:96|205:92,1,165.749992412568,2|0,0:2|0:2,0:2:0:0:
125,78,284586,2,0,P|178:95|232:107,1,110.499994941712,10|2,0:2|1:2,0:2:0:0:
512,42,284879,2,0,P|459:25|405:13,1,110.499994941712,8|0,0:2|1:2,0:2:0:0:
188,224,285172,2,0,P|240:207|294:195,1,110.499994941712,8|0,0:2|1:2,0:2:0:0:
498,344,285465,6,0,P|421:320|267:286,1,220.999989883423,8|8,0:2|0:2,0:2:0:0:
99,384,285903,1,0,1:2:0:0:
99,384,285977,5,0,1:2:0:0:
99,384,286050,2,0,P|107:329|111:274,1,110.499994941712,10|0,0:2|1:2,0:2:0:0:
7,141,286342,1,10,0:2:0:0:
200,329,286489,1,0,1:2:0:0:
200,329,286563,1,0,1:2:0:0:
200,329,286636,5,14,0:2:0:0:
0,282,286782,1,0,0:2:0:0:
177,91,286928,2,0,P|149:190|129:238,1,110.499994941712,10|0,0:2|1:2,0:2:0:0:
71,112,287221,5,8,0:2:0:0:
405,70,287367,1,0,1:2:0:0:
297,342,287513,2,0,P|279:289|266:235,1,110.499994941712,10|2,0:2|1:2,0:2:0:0:
488,46,287806,5,8,0:2:0:0:
465,131,287952,1,0,1:2:0:0:
512,343,288099,5,10,0:2:0:0:
305,156,288245,1,0,1:2:0:0:
427,283,288391,5,10,0:2:0:0:
404,198,288537,1,0,1:2:0:0:
70,384,288684,2,0,P|89:292|106:227,1,110.499994941712,14|0,0:2|0:2,0:2:0:0:
0,64,288977,6,0,P|36:160|167:170,1,220.999989883423,6|8,1:2|0:2,0:2:0:0:
207,349,289416,1,2,0:2:0:0:
207,349,289489,1,2,0:2:0:0:
207,349,289562,6,0,P|213:300|228:211,1,110.499994941712,2|0,1:2|1:2,0:2:0:0:
366,64,289855,2,0,P|372:113|387:202,1,110.499994941712,10|0,0:2|0:2,0:2:0:0:
151,79,290147,1,6,0:2:0:0:
299,255,290294,1,0,1:2:0:0:
454,106,290440,1,0,1:2:0:0:
103,338,290586,5,8,0:2:0:0:
315,135,290733,1,0,1:2:0:0:
443,384,290879,1,0,1:2:0:0:
315,135,291025,1,12,0:2:0:0:
315,135,291172,1,8,0:2:0:0:
195,356,291318,6,0,P|186:322|167:234,1,110.499994941712,4|0,1:2|0:2,0:2:0:0:
0,173,291611,6,0,P|49:182|97:200,1,101.999996887207,10|0,0:2|0:2,0:2:0:0:
195,7,291904,2,0,P|146:24|96:33,1,101.999996887207,2|0,1:2|1:2,0:2:0:0:
92,113,292196,1,10,0:2:0:0:
92,113,292343,1,0,1:2:0:0:
261,292,292489,6,0,P|272:191|281:90,1,203.999993774414,2|8,0:2|0:2,0:2:0:0:
367,364,292928,6,0,P|359:313|351:263,1,101.999996887207,2|0,0:2|1:2,0:2:0:0:
186,191,293221,1,0,1:2:0:0:
390,25,293367,2,0,P|382:75|374:125,1,101.999996887207,10|0,0:2|0:2,0:2:0:0:
512,91,293660,6,0,P|503:185|410:206,1,203.999993774414,6|8,1:2|0:2,0:2:0:0:
288,72,294099,1,0,0:2:0:0:
430,289,294245,1,0,1:2:0:0:
200,374,294391,5,0,1:2:0:0:
350,265,294538,1,8,0:2:0:0:
512,382,294684,6,0,P|413:358|311:346,1,203.999993774414,4|0,1:2|1:2,0:2:0:0:
185,195,295123,2,0,P|130:203|81:227,1,101.999996887207,12|0,0:2|0:2,0:2:0:0:
134,384,295416,1,0,1:2:0:0:
266,195,295562,1,0,1:2:0:0:
0,72,295708,2,0,P|8:122|23:170,1,101.999996887207,8|0,0:2|0:2,0:2:0:0:
295,103,296001,5,6,1:2:0:0:
266,195,296147,1,0,0:2:0:0:
308,102,296294,1,8,0:2:0:0:
279,194,296440,1,0,0:2:0:0:
119,137,296587,5,2,1:2:0:0:
447,189,296733,1,0,1:2:0:0:
129,152,296880,1,8,0:2:0:0:
456,203,297026,1,0,1:2:0:0:
214,9,297172,5,2,1:2:0:0:
260,310,297319,1,0,1:2:0:0:
443,54,297465,1,8,0:2:0:0:
139,170,297611,6,0,P|83:174|28:169,1,110.499994941712,2|0,0:2|1:2,0:2:0:0:
0,87,297904,5,0,1:2:0:0:
0,87,298050,1,10,0:2:0:0:
512,273,298343,6,0,P|411:254|322:244,1,152.999995330811,6|0,1:2|0:2,0:2:0:0:
361,247,298635,1,0,1:2:0:0:
13,349,298782,2,0,P|113:367|179:376,1,152.999995330811,14|0,0:2|1:2,0:2:0:0:
163,374,299074,1,0,1:2:0:0:
260,310,299221,1,14,0:2:0:0:
260,310,299660,5,8,0:2:0:0:
260,310,299733,1,8,0:2:0:0:
260,310,299806,1,8,0:2:0:0:
101,118,299952,1,8,0:2:0:0:
146,189,300099,1,8,0:2:0:0:
226,161,300245,1,0,1:2:0:0:
228,80,300391,1,0,1:2:0:0:
149,47,300538,5,0,1:2:0:0:
347,287,300684,2,0,P|395:276|476:274,1,110.499994941712,12|0,0:2|0:2,0:2:0:0:
507,207,300977,1,0,1:2:0:0:
165,287,301123,2,0,P|117:276|36:274,1,110.499994941712,12|0,0:2|0:2,0:2:0:0:
5,207,301416,1,0,1:2:0:0:
253,380,301562,2,0,B|275:342|275:342|250:310|250:310|258:259,1,127.5,12|0,0:2|0:2,0:2:0:0:
256,267,301855,5,8,0:2:0:0:
377,47,302001,1,8,0:2:0:0:
110,364,302147,5,8,0:2:0:0:
38,26,302294,1,8,0:2:0:0:
197,69,302440,5,0,0:2:0:0:
72,154,302586,1,0,1:2:0:0:
93,149,302660,1,0,1:2:0:0:
113,154,302733,1,12,0:2:0:0:
338,313,302879,1,0,0:2:0:0:
316,74,303025,6,4,B|286:108|286:108|268:220,1,152.999995330811,4|0,0:2|0:2,1:2:0:0:
268,214,303318,5,8,0:2:0:0:
473,156,303464,1,0,0:2:0:0:
431,254,303611,5,0,1:2:0:0:
185,86,303757,1,0,1:2:0:0:
170,276,303903,5,8,0:2:0:0:
354,186,304050,1,0,0:2:0:0:
250,11,304196,2,0,L|271:247,1,203.999993774414,0|8,1:2|0:2,0:2:0:0:
279,318,304635,5,0,0:2:0:0:
135,188,304782,2,0,B|95:159|95:159|27:171,1,101.999996887207,0|0,1:2|1:2,0:2:0:0:
383,121,305074,5,8,0:2:0:0:
76,263,305221,1,0,0:2:0:0:
203,370,305367,6,0,L|395:349,1,152.999995330811,4|0,1:2|0:2,0:2:0:0:
355,353,305660,1,8,0:2:0:0:
445,224,305806,1,0,0:2:0:0:
468,330,305952,5,0,1:2:0:0:
304,248,306099,1,0,1:2:0:0:
501,128,306245,5,8,0:2:0:0:
379,176,306391,1,0,0:2:0:0:
108,60,306538,6,0,P|169:81|165:224,1,203.999993774414,0|8,1:2|0:2,0:2:0:0:
90,160,306977,1,0,0:2:0:0:
251,25,307123,2,0,B|299:49|299:49|385:33,1,101.999996887207,0|0,1:2|1:2,0:2:0:0:
459,238,307416,5,8,0:2:0:0:
346,40,307562,1,0,0:2:0:0:
501,138,307708,6,0,B|436:128|436:128|385:148|385:148|287:136,1,203.999993774414,4|8,1:2|0:2,0:2:0:0:
479,16,308147,1,0,0:2:0:0:
293,244,308294,5,0,1:2:0:0:
232,92,308440,1,0,1:2:0:0:
118,319,308586,5,8,0:2:0:0:
206,190,308733,1,0,0:2:0:0:
374,341,308879,6,0,P|297:328|189:326,1,152.999995330811,0|0,1:2|0:2,0:2:0:0:
17,245,309172,2,0,P|75:235|129:221,1,101.999996887207,8|0,0:2|0:2,0:2:0:0:
75,13,309464,5,0,1:2:0:0:
142,131,309611,1,0,1:2:0:0:
387,78,309757,2,0,P|336:88|323:214,1,152.999995330811,8|0,0:2|0:2,0:2:0:0:
349,250,310050,2,0,P|412:232|514:224,1,152.999995330811,4|0,1:2|0:2,0:2:0:0:
292,332,310342,2,0,L|146:322,1,101.999996887207,8|0,0:2|0:2,0:2:0:0:
213,62,310635,5,0,1:2:0:0:
112,240,310782,1,0,1:2:0:0:
48,109,310928,5,8,0:2:0:0:
45,100,311074,1,0,0:2:0:0:
258,235,311221,5,0,1:2:0:0:
130,161,311367,2,0,B|176:142|176:142|245:157,1,101.999996887207,12|0,0:2|0:2,0:2:0:0:
381,85,311660,5,8,0:2:0:0:
377,110,311733,1,8,0:2:0:0:
373,135,311806,1,8,0:2:0:0:
306,28,311952,5,0,1:2:0:0:
409,211,312099,1,0,1:2:0:0:
477,145,312245,1,0,1:2:0:0:
308,195,312391,6,0,L|313:252,1,50.9999984436036,4|0,1:2|0:2,0:2:0:0:
486,322,312538,2,0,L|496:217,1,101.999996887207,4|0,1:2|0:2,0:2:0:0:
495,220,312830,1,0,1:2:0:0:
364,348,312977,5,8,0:2:0:0:
229,261,313123,1,0,1:2:0:0:
282,333,313269,5,0,1:2:0:0:
114,356,313416,1,0,1:2:0:0:
82,256,313562,6,0,P|149:262|169:248,1,50.9999984436036,4|0,1:2|0:2,0:2:0:0:
217,75,313708,2,0,P|151:60|100:98,1,101.999996887207,4|0,0:2|0:2,0:2:0:0:
122,73,314001,1,0,1:2:0:0:
229,358,314147,6,0,B|244:305|244:305|217:230,1,101.999996887207,8|0,0:2|0:2,0:2:0:0:
28,151,314440,2,12,B|57:169|57:169|218:158,1,152.999995330811,4|0,1:2|0:2,0:2:0:0:
302,205,314733,6,0,B|288:180|288:180|295:147,1,50.9999984436036,4|0,1:2|0:2,0:2:0:0:
409,64,314879,2,0,L|399:173,1,101.999996887207,4|0,1:2|0:2,0:2:0:0:
410,177,315172,1,0,1:2:0:0:
410,177,315245,1,0,1:2:0:0:
410,177,315318,2,0,B|464:163|464:163|524:185,1,101.999996887207,8|0,0:2|0:2,0:2:0:0:
497,68,315611,5,0,0:2:0:0:
451,250,315757,1,0,0:2:0:0:
309,329,315903,6,0,P|360:318|372:321,1,50.9999984436036,4|0,1:2|0:2,0:2:0:0:
228,260,316050,2,0,P|178:269|134:245,1,101.999996887207,4|0,1:2|0:2,0:2:0:0:
135,246,316342,1,0,0:2:0:0:
70,57,316489,5,0,1:2:0:0:
73,82,316562,1,0,1:2:0:0:
76,107,316635,1,0,1:2:0:0:
81,131,316708,1,0,1:2:0:0:
87,157,316782,2,0,B|139:133|139:133|204:152,1,101.999996887207,8|0,0:2|0:2,0:2:0:0:
231,248,317074,5,12,0:2:0:0:
330,94,317221,2,0,P|290:97|235:58,1,101.999996887207,0|0,1:2|0:2,0:2:0:0:
302,175,317513,1,0,1:2:0:0:
2,275,317660,2,0,P|71:236|149:272,1,152.999995330811,0|0,1:2|0:2,0:2:0:0:
207,367,317952,2,0,P|195:309|197:288,1,50.9999984436036,8|0,0:2|0:2,0:2:0:0:
382,214,318099,2,0,P|379:272|355:335,1,101.999996887207,0|0,1:2|0:2,0:2:0:0:
462,149,318391,1,0,1:2:0:0:
470,273,318538,5,8,0:2:0:0:
302,175,318685,1,0,1:2:0:0:
263,249,318830,6,0,P|224:203|222:192,1,50.9999984436036,0|0,1:2|0:2,0:2:0:0:
153,239,318977,2,0,P|149:178|154:168,1,50.9999984436036,0|0,1:2|1:2,1:2:0:0:
287,12,319123,6,0,P|226:48|223:141,1,152.999995330811,8|0,0:2|0:2,0:2:0:0:
371,109,319416,6,0,L|308:101,1,50.9999984436036,0|0,1:2|0:2,0:2:0:0:
13,50,319562,2,0,L|155:30,1,101.999996887207,0|8,1:2|0:2,0:2:0:0:
72,142,319855,5,0,1:2:0:0:
59,332,320001,2,0,B|112:317|112:317|145:326|145:326|223:311,1,152.999995330811,0|0,1:2|0:2,0:2:0:0:
207,313,320294,1,8,0:2:0:0:
463,332,320440,2,0,P|428:244|336:262,1,203.999993774414,0|0,1:2|1:2,0:2:0:0:
315,384,320879,6,0,P|296:346|299:316,1,50.9999984436036,12|0,0:2|1:2,0:2:0:0:
75,161,321025,1,0,1:2:0:0:
105,201,321098,1,0,1:2:0:0:
154,214,321171,1,0,0:2:0:0:
201,197,321244,1,8,0:2:0:0:
228,154,321317,1,8,0:2:0:0:
245,109,321391,1,8,0:2:0:0:
285,79,321464,1,8,0:2:0:0:
335,79,321537,1,8,0:2:0:0:
378,108,321611,2,0,L|371:170,1,50.9999984436036,8|8,0:2|0:2,0:2:0:0:
127,352,321757,6,0,L|105:200,1,152.999995330811,4|0,1:2|0:2,0:2:0:0:
105,201,322050,5,12,0:2:0:0:
392,261,322196,1,0,0:2:0:0:
139,106,322342,5,0,1:2:0:0:
130,99,322489,1,0,1:2:0:0:
326,10,322635,5,8,0:2:0:0:
245,183,322782,2,0,P|295:106|371:157,1,203.999993774414,0|0,1:2|1:2,0:2:0:0:
496,279,323221,2,0,P|434:264|375:263,1,101.999996887207,8|0,0:2|0:2,0:2:0:0:
300,337,323513,5,0,1:2:0:0:
318,229,323660,1,0,1:2:0:0:
145,203,323806,2,0,P|210:192|256:178,1,101.999996887207,8|0,0:2|0:2,0:2:0:0:
343,26,324099,6,0,L|316:239,1,203.999993774414,4|8,1:2|0:2,0:2:0:0:
318,229,324538,1,0,0:2:0:0:
229,63,324684,5,0,1:2:0:0:
422,178,324830,1,0,1:2:0:0:
277,311,324977,6,0,B|324:326|324:326|369:299,1,101.999996887207,8|0,0:2|1:2,0:2:0:0:
369,299,325196,1,0,0:2:0:0:
369,299,325269,1,8,0:2:0:0:
271,145,325416,1,8,0:2:0:0:
144,334,325562,5,8,0:2:0:0:
414,82,325708,1,12,0:2:0:0:
256,192,326440,5,14,1:2:0:0:
256,192,326513,12,0,334635,0:2:0:0:
