osu file format v14

[General]
AudioFilename: audio.mp3
AudioLeadIn: 0
PreviewTime: 162179
Countdown: 0
SampleSet: Soft
StackLeniency: 0.7
Mode: 0
LetterboxInBreaks: 0
WidescreenStoryboard: 0

[Editor]
Bookmarks: 651,18622,36877,54990,72962,91075,109330,127443,145556,163528,181641,199896,217867,227066,238245,257490,262018,266547,271075,275603,280132,284660,289188,293858,302915,321028
DistanceSpacing: 0.5
BeatDivisor: 4
GridSize: 32
TimelineZoom: 2.559999

[Metadata]
Title:Sequentia
TitleUnicode:Sequentia
Artist:Asriel
ArtistUnicode:Asriel
Creator:Deca
Version:Damnation
Source:11eyes -罪と罰と贖いの少女-
Tags:luscent co2021 corsace ro32 tb tiebreaker kokomi sequence ending elfensjon 黒瀬圭亮 keisuke kurose sin damnation and the atonement girl tsumi to batsu to aganai no shoujo japanese rock instrumental anime イレブンアイズ
BeatmapID:3168834
BeatmapSetID:1550720

[Difficulty]
HPDrainRate:6
CircleSize:4
OverallDifficulty:9
ApproachRate:9.3
SliderMultiplier:1.62
SliderTickRate:1

[Events]
//Background and Video events
0,0,"71356119_p0.jpg",0,0
//Break Periods
2,111789,117827
//Storyboard Layer 0 (Background)
//Storyboard Layer 1 (Fail)
//Storyboard Layer 2 (Pass)
//Storyboard Layer 3 (Foreground)
//Storyboard Layer 4 (Overlay)
//Storyboard Sound Samples

[TimingPoints]
646,283.018867924528,4,2,1,50,1,0
646,-166.666666666667,4,2,1,50,0,0
8570,304.568527918781,4,2,1,50,1,0
8570,-166.666666666667,4,2,1,50,0,0
8875,283.018867924528,4,2,1,75,1,0
9158,-90.9090909090909,4,2,1,75,0,0
9724,280.373831775701,4,2,1,75,1,0
10144,-90.9090909090909,4,2,1,75,0,0
11966,283.018867924528,4,2,1,75,1,0
11966,-90.9090909090909,4,2,1,75,0,0
27815,-90.9090909090909,4,2,1,75,0,0
36871,-111.111111111111,4,2,1,55,0,0
41400,-99.9999999999999,4,2,1,65,0,0
43664,280.373831775701,4,2,1,65,1,0
44785,285.714285714286,4,2,1,65,1,0
45927,284.36018957346,4,2,1,55,1,0
45927,-111.111111111111,4,2,1,55,0,0
47633,279.06976744186,4,2,1,55,1,0
47633,-111.111111111111,4,2,1,55,0,0
48191,283.018867924528,4,2,1,55,1,0
48191,-111.111111111111,4,2,1,55,0,0
49323,279.06976744186,4,2,1,55,1,0
49602,-111.111111111111,4,2,1,55,0,0
49881,284.36018957346,4,2,1,55,1,0
50023,-111.111111111111,4,2,1,55,0,0
50449,281.69014084507,4,2,1,55,1,0
50449,-100,4,2,1,65,0,0
52702,285.714285714285,4,2,1,65,1,0
54987,287.081339712918,4,2,1,65,1,0
55274,-133.333333333333,4,2,1,50,0,0
56996,271.493212669683,4,2,1,50,1,0
56996,-133.333333333333,4,2,1,50,0,0
57267,283.018867924528,4,2,1,50,1,0
57267,-133.333333333333,4,2,1,50,0,0
61795,280.373831775701,4,2,1,50,1,0
61795,-133.333333333333,4,2,1,50,0,0
64037,283.018867924528,4,2,1,50,1,0
64037,-100,4,2,1,70,0,0
72669,-166.666666666667,4,2,1,80,0,0
72952,-90.9090909090909,4,2,1,80,0,0
81584,-71.4285714285714,4,2,1,80,0,0
82008,-90.9090909090909,4,2,1,80,0,0
84131,246.913580246914,4,2,1,80,1,0
84254,300,4,2,1,80,1,0
84254,-90.9090909090909,4,2,1,80,0,0
84554,283.018867924528,4,2,1,80,1,0
84695,283.018867924528,4,2,1,80,1,0
84695,-90.9090909090909,4,2,1,80,0,0
85544,283.018867924528,4,2,1,80,1,0
85544,-90.9090909090909,4,2,1,80,0,0
90638,289.855072463768,4,2,1,80,1,0
90927,312.5,4,2,1,80,1,0
91083,281.69014084507,4,2,1,80,1,0
91083,-90.9090909090909,4,2,1,80,0,0
91223,281.69014084507,4,2,1,80,1,0
92209,-90.9090909090909,4,2,1,80,0,0
93476,283.018867924528,4,2,1,80,1,0
93476,-90.9090909090909,4,2,1,80,0,0
108051,-166.666666666667,4,2,1,80,0,0
119372,-90.9090909090909,4,2,1,75,0,0
125315,-90.9090909090909,4,2,1,75,0,0
126023,322.58064516129,4,2,1,75,1,0
126345,275.229357798165,4,2,1,75,1,0
127445,283.018867924528,4,2,1,55,1,0
127445,-111.111111111111,4,2,1,55,0,0
131690,285.714285714286,4,2,1,55,1,0
131975,284.36018957346,4,2,1,65,1,0
135387,283.018867924528,4,2,1,65,1,0
135670,270.27027027027,4,2,1,65,1,0
135940,259.74025974026,4,2,1,65,1,0
136070,260.869565217391,4,2,1,65,1,0
136330,331.491712707182,4,2,1,65,1,0
136495,284.36018957346,4,2,1,55,1,0
136495,-100,4,2,1,55,0,0
139907,283.018867924528,4,2,1,55,1,0
140756,267.857142857143,4,2,1,55,1,0
141023,283.018867924528,4,2,1,65,1,0
141023,-100,4,2,1,65,0,0
144419,279.06976744186,4,2,1,65,1,0
144977,292.682926829268,4,2,1,65,1,0
145562,283.018867924528,4,2,1,65,1,0
145834,-133.333333333333,4,2,1,70,0,0
152071,276.497695852535,4,2,1,70,1,0
152347,287.081339712918,4,2,1,70,1,0
152347,-133.333333333333,4,2,1,70,0,0
153495,275.229357798165,4,2,1,70,1,0
153770,-100,4,2,1,70,0,0
154045,248.96265560166,4,2,1,70,1,0
154169,283.018867924528,4,2,1,70,1,0
154595,312.5,4,2,1,70,1,0
154595,-90.9090909090909,4,2,1,75,0,0
154907,281.69014084507,4,2,1,70,1,0
155752,281.69014084507,4,2,1,70,1,0
159132,283.018867924528,4,2,1,70,1,0
163235,-166.666666666667,4,2,1,70,0,0
163518,-90.9090909090909,4,2,1,80,0,0
167622,-166.666666666667,4,2,1,80,0,0
168047,-90.9090909090909,4,2,1,80,0,0
175971,275.229357798165,4,2,1,80,1,0
175971,-90.9090909090909,4,2,1,80,0,0
176246,270.27027027027,4,2,1,80,1,0
176651,320.855614973262,4,2,1,80,1,0
176971,287.081339712919,4,2,1,80,1,0
177258,273.972602739726,4,2,1,80,1,0
177258,-200,4,2,1,80,0,0
177284,-200,4,2,1,5,0,0
177531,280.373831775701,4,2,1,80,1,0
177531,-76.9230769230769,4,2,1,80,0,0
178091,280.373831775701,4,2,1,80,1,0
178231,-90.9090909090909,4,2,1,80,0,0
178651,283.018867924528,4,2,1,80,1,0
178651,-90.9090909090909,4,2,1,80,0,0
179500,283.018867924528,4,2,1,80,1,0
180490,-90.9090909090909,4,2,1,80,0,0
184028,-90.9090909090909,4,2,1,80,0,0
185443,288.461538461538,4,2,1,80,1,0
185443,-90.9090909090909,4,2,1,80,0,0
186308,288.461538461538,4,2,1,80,1,0
186596,283.018867924528,4,2,1,80,1,0
186596,-90.9090909090909,4,2,1,80,0,0
187445,283.018867924528,4,2,1,80,1,0
187445,-90.9090909090909,4,2,1,80,0,0
193388,281.69014084507,4,2,1,80,1,0
193951,-90.9090909090909,4,2,1,80,0,0
194233,281.69014084507,4,2,1,80,1,0
194233,-90.9090909090909,4,2,1,80,0,0
194796,222.222222222222,4,2,1,80,1,0
194907,295.566502463054,4,2,1,80,1,0
195056,287.081339712919,4,2,1,80,1,0
195199,-90.9090909090909,4,2,1,80,0,0
195630,283.018867924528,4,2,1,80,1,0
195630,-90.9090909090909,4,2,1,80,0,0
196479,283.018867924528,4,2,1,80,1,0
196762,275.229357798164,4,2,1,80,1,0
197174,300,4,2,1,80,1,0
197474,309.278350515464,4,2,1,80,1,0
197474,-90.9090909090909,4,2,1,80,0,0
197937,283.018867924528,4,2,1,80,1,0
197937,-90.9090909090909,4,2,1,80,0,0
198644,-133.333333333333,4,2,1,80,0,0
199352,279.06976744186,4,2,1,80,1,0
199910,283.018867924528,4,2,1,55,1,0
199910,-133.333333333333,4,2,1,55,0,0
210664,275.229357798165,4,2,1,55,1,0
211214,281.69014084507,4,2,1,55,1,0
211214,-133.333333333333,4,2,1,55,0,0
212904,-133.333333333333,4,2,1,55,0,0
213467,284.36018957346,4,2,1,55,1,0
213467,-133.333333333333,4,2,1,55,0,0
215741,276.497695852535,4,2,1,55,1,0
215741,-133.333333333333,4,2,1,55,0,0
216293,283.018867924528,4,2,1,55,1,0
217142,279.06976744186,4,2,1,55,1,0
217142,-100,4,2,1,55,0,0
217700,284.36018957346,4,2,1,55,1,0
217842,-66.6666666666667,4,2,1,80,0,0
217984,284.36018957346,4,2,1,80,1,0
218268,-83.3333333333333,4,2,1,80,0,0
222391,-66.6666666666667,4,2,1,80,0,0
222818,-83.3333333333333,4,2,1,80,0,0
225662,281.69014084507,4,2,1,80,1,0
225662,-83.3333333333333,4,2,1,80,0,0
225943,281.69014084507,4,2,1,80,1,0
226929,-66.6666666666667,4,2,1,80,0,0
227352,-83.3333333333333,4,2,1,80,0,0
229042,283.018867924528,4,2,1,80,1,0
229183,-83.3333333333333,4,2,1,80,0,0
229325,283.018867924528,4,2,1,80,1,0
229608,-83.3333333333333,4,2,1,80,0,0
230315,-66.6666666666667,4,2,1,80,0,0
230669,-83.3333333333333,4,2,1,80,0,0
231447,-66.6666666666667,4,2,1,80,0,0
231872,-83.3333333333333,4,2,1,80,0,0
232579,-66.6666666666667,4,2,1,80,0,0
233004,-83.3333333333333,4,2,1,80,0,0
234277,301.507537688442,4,2,1,80,1,0
234427,279.06976744186,4,2,1,80,1,0
234706,244.897959183673,4,2,1,80,1,0
234828,283.018867924528,4,2,1,80,1,0
234828,-83.3333333333333,4,2,1,80,0,0
235252,292.682926829268,4,2,1,80,1,0
235252,-83.3333333333333,4,2,1,80,0,0
235692,301.507537688442,4,2,1,80,1,0
235993,284.36018957346,4,2,1,80,1,0
237272,283.018867924528,4,2,1,80,1,0
238262,-200,4,2,1,50,0,0
246187,-133.333333333333,4,2,1,60,0,0
251705,265.486725663717,4,2,1,60,1,0
251837,279.06976744186,4,2,1,70,1,0
251837,-111.111111111111,4,2,1,70,0,0
251976,279.06976744186,4,2,1,70,1,0
252255,-111.111111111111,4,2,1,70,0,0
252813,283.018867924528,4,2,1,70,1,0
252813,-111.111111111111,4,2,1,70,0,0
253096,283.018867924528,4,2,1,70,1,0
253379,-111.111111111111,4,2,1,70,0,0
255077,287.081339712919,4,2,1,70,1,0
255364,287.081339712919,4,2,1,80,1,0
255364,-111.111111111111,4,2,1,80,0,0
256943,283.018867924528,4,2,1,80,1,0
257226,269.058295964126,4,2,1,80,1,0
257226,-166.666666666666,4,2,1,80,0,0
257495,283.018867924528,4,2,1,80,1,0
257495,-83.3333333333333,4,2,1,80,0,0
257636,283.018867924528,4,2,1,80,1,0
257919,-83.3333333333333,4,2,1,80,0,0
265560,281.69014084507,4,2,1,80,1,0
265560,-83.3333333333333,4,2,1,80,0,0
267813,283.018867924528,4,2,1,80,1,0
267813,-83.3333333333333,4,2,1,80,0,0
270926,304.568527918782,4,2,1,80,1,0
271078,281.69014084507,4,2,1,80,1,0
271078,-83.3333333333333,4,2,1,80,0,0
271218,281.69014084507,4,2,1,80,1,0
272203,-83.3333333333333,4,2,1,80,0,0
275162,292.682926829268,4,2,1,80,1,0
275162,-83.3333333333333,4,2,1,80,0,0
275601,283.018867924528,4,2,1,80,1,0
275601,-83.3333333333333,4,2,1,80,0,0
275742,283.018867924528,4,2,1,80,1,0
276025,-83.3333333333333,4,2,1,80,0,0
279280,280.373831775701,4,2,1,80,1,0
279280,-83.3333333333333,4,2,1,80,0,0
279560,276.497695852535,4,2,1,80,1,0
279698,280.373831775701,4,2,1,80,1,0
279698,-83.3333333333333,4,2,1,80,0,0
280118,283.018867924528,4,2,1,80,1,0
280118,-83.3333333333333,4,2,1,80,0,0
280259,283.018867924528,4,2,1,80,1,0
281108,-83.3333333333333,4,2,1,80,0,0
284645,-71.4285714285714,4,2,1,80,0,0
285919,-83.3333333333333,4,2,1,80,0,0
286909,-71.4285714285714,4,2,1,80,0,0
289174,-83.3333333333333,4,2,1,80,0,0
291013,294.117647058824,4,2,1,80,1,0
291013,-83.3333333333333,4,2,1,80,0,0
291454,303.030303030303,4,2,1,80,1,0
291454,-83.3333333333333,4,2,1,80,0,0
292211,273.972602739726,4,2,1,80,1,0
292484,283.018867924528,4,2,1,80,1,0
292484,-83.3333333333333,4,2,1,80,0,0
292625,277.777777777778,4,2,1,80,1,0
292625,-166.666666666667,4,2,1,80,0,0
292763,277.777777777778,4,2,1,80,1,0
293875,283.018867924528,4,2,1,80,1,0
293875,-90.9090909090909,4,2,1,80,0,0
297271,275.229357798165,4,2,1,80,1,0
298234,-90.9090909090909,4,2,1,80,0,0
298647,284.36018957346,4,2,1,80,1,0
299357,-90.9090909090909,4,2,1,80,0,0
299784,283.018867924528,4,2,1,80,1,0
299784,-90.9090909090909,4,2,1,80,0,0
300633,283.018867924528,4,2,1,80,1,0
300916,-90.9090909090909,4,2,1,80,0,0
311670,352.941176470588,4,2,1,80,1,0
311846,352.941176470588,4,2,1,80,1,0
311846,-322.58064516129,4,2,1,80,0,0
312375,-400,4,2,2,75,0,0
312957,-400,4,2,1,70,0,0
313523,-400,4,2,2,65,0,0
314089,-400,4,2,2,60,0,0
314655,-400,4,2,1,55,0,0
315221,-400,4,2,2,50,0,0
315787,-400,4,2,1,45,0,0
316353,-400,4,2,2,40,0,0
316919,-400,4,2,1,35,0,0
317485,-400,4,2,2,30,0,0
318051,-400,4,2,1,25,0,0
318617,-400,4,2,2,20,0,0
319183,-400,4,2,1,15,0,0
319749,-400,4,2,2,10,0,0
320315,-400,4,2,1,5,0,0

[Colours]
Combo1 : 172,150,199
Combo2 : 237,167,177
Combo3 : 158,165,226
Combo4 : 152,175,186

[HitObjects]
237,245,646,6,0,L|215:139,2,97.1999970336915,2|0|0,0:0|0:0|0:0,0:0:0:0:
258,276,1495,1,0,0:0:0:0:
258,276,1636,2,0,P|205:283|154:292,1,97.1999970336915,2|0,0:0|0:0,0:0:0:0:
326,336,2061,1,0,0:0:0:0:
424,266,2344,1,2,0:0:0:0:
349,216,2627,1,0,0:0:0:0:
378,136,2910,6,0,P|362:81|345:30,2,97.1999970336915,2|0|0,0:0|0:0|0:0,0:0:0:0:
417,140,3759,1,0,0:0:0:0:
417,140,3900,2,0,P|478:155|526:162,1,97.1999970336915,2|0,0:0|0:0,0:0:0:0:
325,118,4325,1,0,0:0:0:0:
252,208,4608,1,2,0:0:0:0:
170,161,4891,1,0,0:0:0:0:
111,235,5174,6,0,P|126:292|134:334,2,97.1999970336915,2|0|0,0:0|0:0|0:0,0:0:0:0:
96,209,6023,1,0,0:0:0:0:
96,209,6164,2,0,P|43:197|-21:182,1,97.1999970336915,2|0,0:0|0:0,0:0:0:0:
87,109,6589,1,0,0:0:0:0:
200,198,6872,1,2,0:0:0:0:
244,100,7155,1,0,0:0:0:0:
325,151,7438,6,0,P|332:190|346:259,1,97.1999970336915,2|0,0:0|0:0,0:0:0:0:
300,310,8004,1,0,0:0:0:0:
195,268,8287,1,0,0:0:0:0:
195,148,8570,2,0,P|189:108|184:92,1,48.5999985168458,2|0,0:0|0:0,0:0:0:0:
86,104,8875,5,10,0:0:0:0:
61,120,8945,1,0,1:0:0:0:
46,147,9016,1,0,3:0:0:0:
45,176,9087,1,0,3:0:0:0:
57,204,9158,2,0,L|114:220,1,44.5500013595581,8|0,0:0|3:0,0:0:0:0:
136,291,9299,2,0,L|178:278,1,44.5500013595581,0|0,1:0|3:0,0:0:0:0:
248,224,9441,1,8,0:0:0:0:
347,323,9582,6,2,B|312:238|386:243|342:147,1,178.200005438233,6|0,1:2|1:0,0:1:0:0:
316,61,10004,1,10,0:0:0:0:
510,222,10144,2,0,P|458:263|407:256,1,89.1000027191163,2|0,0:0|1:0,0:0:0:0:
241,210,10424,1,2,1:2:0:0:
406,83,10565,1,8,0:0:0:0:
168,12,10705,6,0,B|156:57|156:57|169:108,1,89.1000027191163,2|0,1:1|0:0,0:0:0:0:
233,305,10985,1,0,1:0:0:0:
136,237,11125,5,10,0:0:0:0:
329,277,11266,1,0,0:0:0:0:
163,368,11406,5,2,1:2:0:0:
257,204,11546,1,0,1:0:0:0:
46,179,11686,6,0,L|32:282,1,89.1000027191163,10|0,0:2|0:0,0:0:0:0:
472,188,11966,6,2,P|483:126|456:36,1,133.650004078674,6|0,1:2|0:0,0:1:0:0:
439,26,12249,1,8,0:0:0:0:
147,92,12390,2,2,P|135:154|175:278,1,178.200005438233,2|0,1:2|1:0,0:1:0:0:
468,375,12815,5,10,0:0:0:0:
411,289,12956,2,0,P|356:277|317:271,1,89.1000027191163,2|0,1:0|0:0,0:0:0:0:
399,162,13239,2,2,B|306:135|325:209|214:170,1,178.200005438233,0|0,1:0|0:0,0:1:0:0:
60,209,13664,1,0,1:0:0:0:
253,93,13805,1,0,1:0:0:0:
74,5,13947,1,8,0:0:0:0:
205,250,14088,6,2,B|190:181|190:181|149:158|149:158|131:92,1,178.200005438233,6|0,1:2|1:0,0:1:0:0:
117,294,14513,1,10,0:0:0:0:
263,107,14654,1,0,0:0:0:0:
319,214,14796,5,0,1:0:0:0:
134,99,14937,1,0,1:0:0:0:
305,12,15079,1,8,0:0:0:0:
229,213,15220,6,2,P|207:274|181:397,1,178.200005438233,2|0,1:2|1:0,0:1:0:0:
317,300,15645,2,0,P|375:322|436:345,1,89.1000027191163,10|0,0:0|0:0,0:0:0:0:
128,214,15928,1,2,1:2:0:0:
351,120,16069,1,0,1:0:0:0:
153,0,16211,1,10,0:0:0:0:
419,40,16352,6,2,P|442:100|431:185,1,133.650004078674,6|0,1:2|0:0,0:1:0:0:
435,198,16635,1,2,1:2:0:0:
397,299,16777,1,10,0:0:0:0:
339,220,16918,1,0,0:0:0:0:
293,335,17060,5,0,1:0:0:0:
491,277,17201,1,0,1:0:0:0:
328,125,17343,1,8,0:0:0:0:
130,183,17484,6,2,P|94:254|103:363,1,178.200005438233,2|0,1:2|1:0,0:1:0:0:
394,315,17909,2,0,P|402:281|378:229,1,89.1000027191163,10|0,0:0|0:0,0:0:0:0:
246,1,18192,5,10,0:0:0:0:
212,29,18263,1,8,0:3:0:0:
204,72,18333,1,8,0:0:0:0:
225,110,18404,1,8,0:3:0:0:
265,128,18475,1,10,0:0:0:0:
288,167,18546,1,8,0:3:0:0:
271,210,18616,2,2,P|253:282|237:387,1,178.200005438233,6|0,1:2|1:0,0:1:0:0:
13,150,19041,5,8,0:0:0:0:
174,310,19182,1,0,0:0:0:0:
357,214,19324,1,0,1:0:0:0:
357,214,19465,1,0,1:0:0:0:
109,103,19607,6,0,P|100:152|106:207,1,89.1000027191163,10|0,0:0|0:0,0:0:0:0:
358,305,19890,2,0,P|408:315|459:335,1,89.1000027191163,2|0,1:2|0:0,0:0:0:0:
324,62,20173,2,0,P|280:75|219:80,1,89.1000027191163,10|0,0:0|0:0,0:0:0:0:
318,374,20456,5,2,1:2:0:0:
403,158,20598,1,0,1:0:0:0:
174,221,20739,1,10,0:0:0:0:
482,247,20881,6,2,P|500:128|487:40,1,178.200005438233,6|0,1:2|1:0,0:1:0:0:
405,0,21305,1,8,0:0:0:0:
405,0,21447,1,0,0:0:0:0:
257,263,21588,5,0,1:0:0:0:
403,158,21730,1,0,1:0:0:0:
222,74,21871,2,0,P|226:138|241:187,1,89.1000027191163,10|0,0:0|0:0,0:0:0:0:
433,301,22154,2,0,P|387:278|329:273,1,89.1000027191163,2|0,1:2|0:0,0:0:0:0:
93,261,22437,1,8,0:0:0:0:
78,171,22579,1,0,0:0:0:0:
161,318,22720,5,2,1:1:0:0:
14,229,22862,1,0,1:0:0:0:
144,110,23003,1,8,0:0:0:0:
87,336,23145,6,0,P|43:342|-4:354,1,89.1000027191163,2|0,1:1|0:0,0:0:0:0:
257,381,23428,1,0,1:0:0:0:
350,272,23569,2,0,P|362:219|358:162,1,89.1000027191163,8|0,0:0|0:0,0:0:0:0:
221,65,23852,1,0,1:0:0:0:
136,155,23994,2,0,P|185:177|238:181,1,89.1000027191163,0|8,1:0|0:0,0:0:0:0:
498,227,24277,6,2,P|514:142|501:47,1,178.200005438233,0|0,1:0|1:0,0:1:0:0:
308,125,24701,1,10,0:0:0:0:
435,160,24842,1,0,0:0:0:0:
271,3,24984,1,2,1:2:0:0:
219,181,25125,1,0,1:0:0:0:
405,90,25267,5,2,0:2:0:0:
123,113,25409,2,2,P|104:217|116:290,1,178.200005438233,6|0,1:2|1:0,0:1:0:0:
228,364,25833,1,8,0:0:0:0:
340,291,25975,2,0,P|385:291|442:302,1,89.1000027191163,0|0,1:0|0:0,0:0:0:0:
49,332,26258,5,0,1:0:0:0:
187,211,26399,1,8,0:0:0:0:
36,138,26541,2,0,P|29:195|34:239,1,89.1000027191163,2|0,1:1|0:0,0:0:0:0:
246,289,26824,1,0,1:0:0:0:
305,216,26966,2,0,P|310:159|303:107,1,89.1000027191163,14|0,0:0|0:0,0:0:0:0:
89,25,27249,5,8,1:2:0:0:
89,25,27390,1,8,1:2:0:0:
305,216,27815,5,6,1:0:0:0:
94,173,27956,1,0,0:0:0:0:
256,287,28098,1,2,0:0:0:0:
165,100,28239,1,0,1:0:0:0:
73,336,28381,5,10,0:1:0:0:
201,207,28522,1,0,0:0:0:0:
33,124,28664,1,2,0:0:0:0:
184,313,28805,6,0,P|284:324|374:346,1,178.200005438233,2|2,1:0|1:0,0:0:0:0:
512,315,29230,1,2,1:0:0:0:
512,315,29372,1,0,0:0:0:0:
339,240,29513,5,14,0:2:0:0:
463,374,29655,1,0,0:0:0:0:
432,180,29796,5,0,0:0:0:0:
279,285,29937,1,0,0:0:0:0:
488,239,30079,5,6,1:0:0:0:
428,48,30220,1,2,1:0:0:0:
266,158,30362,1,2,0:0:0:0:
432,180,30503,1,0,1:0:0:0:
344,96,30645,5,10,0:1:0:0:
226,227,30786,1,0,0:0:0:0:
73,128,30928,1,2,0:0:0:0:
277,24,31069,6,2,P|220:99|142:97,1,178.200005438233,0|0,1:0|1:0,0:1:0:0:
0,271,31494,2,0,P|45:260|103:261,1,89.1000027191163,2|0,1:0|0:0,0:0:0:0:
287,340,31777,1,14,0:0:0:0:
287,340,32059,5,8,0:0:0:0:
299,180,32201,1,8,0:0:0:0:
210,372,32342,5,6,1:0:0:0:
363,265,32484,1,0,0:0:0:0:
214,183,32625,1,0,0:0:0:0:
369,364,32767,5,2,1:0:0:0:
383,140,32908,1,10,0:1:0:0:
169,246,33050,1,0,0:0:0:0:
472,172,33191,5,2,0:0:0:0:
278,110,33333,1,0,1:0:0:0:
428,275,33475,6,0,P|477:259|526:232,1,89.1000027191163,2|0,0:2|1:0,0:0:0:0:
163,53,33758,2,0,P|155:103|160:160,1,89.1000027191163,2|0,1:2|0:0,0:0:0:0:
308,353,34041,2,0,P|343:302|358:243,1,89.1000027191163,10|0,0:1|0:0,0:0:0:0:
28,243,34324,2,0,P|76:278|125:291,1,89.1000027191163,2|0,0:2|0:0,0:0:0:0:
357,200,34607,6,2,P|334:110|262:49,1,178.200005438233,0|0,1:1|0:1,0:1:0:0:
0,162,35032,1,2,1:0:0:0:
0,162,35173,2,0,L|111:154,1,89.1000027191163,8|0,0:0|0:0,0:0:0:0:
268,156,35456,1,2,0:1:0:0:
176,16,35598,2,0,P|167:70|176:121,1,89.1000027191163,0|2,1:0|0:1,0:0:0:0:
291,337,35881,1,0,1:0:0:0:
406,309,36022,2,0,P|411:265|401:200,1,89.1000027191163,0|0,1:0|0:0,0:0:0:0:
498,107,36305,5,10,0:0:0:0:
245,232,36447,1,8,0:0:0:0:
497,292,36588,6,0,P|493:258|481:231,1,44.5500013595581,10|8,0:0|0:0,0:0:0:0:
305,125,36730,2,0,P|314:92|336:52,1,44.5500013595581,8|8,0:0|0:0,0:0:0:0:
405,0,36871,6,0,B|378:68|442:64|395:161,1,145.799995550537,6|8,1:0|0:0,0:0:0:0:
172,164,37296,2,0,P|205:137|313:127,1,145.799995550537,2|0,1:2|3:0,0:0:0:0:
497,292,37720,1,8,0:0:0:0:
497,292,37861,2,0,P|455:259|359:243,1,145.799995550537,0|0,1:0|1:0,0:0:0:0:
133,323,38286,6,0,P|119:284|106:251,1,72.8999977752686,10|0,0:0|0:0,0:0:0:0:
272,294,38569,2,0,P|245:325|223:353,1,72.8999977752686,2|0,1:2|0:0,0:0:0:0:
171,191,38852,2,0,P|211:198|246:203,1,72.8999977752686,10|0,0:0|0:0,0:0:0:0:
160,24,39135,6,0,P|184:83|275:100,1,145.799995550537,2|8,1:2|0:0,0:0:0:0:
412,170,39560,1,2,1:2:0:0:
508,107,39701,2,0,P|445:92|418:77,1,72.8999977752686,2|0,1:2|3:0,0:0:0:0:
326,0,39984,2,0,P|339:32|350:77,1,72.8999977752686,8|0,0:0|3:2,0:0:0:0:
217,309,40267,1,0,1:0:0:0:
217,309,40409,2,0,P|201:275|204:229,1,72.8999977752686,8|10,0:0|0:0,0:0:0:0:
216,69,40691,1,2,0:0:0:0:
139,34,40833,2,0,P|123:68|126:114,1,72.8999977752686,0|2,1:0|3:2,0:0:0:0:
130,109,41399,5,6,1:1:0:0:
278,188,41541,1,0,0:0:0:0:
205,323,41682,1,8,0:1:0:0:
61,256,41824,1,2,0:0:0:0:
186,189,41965,5,2,1:0:0:0:
35,104,42107,1,0,1:0:0:0:
176,21,42249,1,8,0:0:0:0:
130,109,42390,1,2,1:0:0:0:
130,109,42673,5,0,1:0:0:0:
278,78,42815,1,8,0:0:0:0:
306,226,42956,1,0,0:0:0:0:
158,257,43098,2,0,P|171:211|183:161,1,81,2|0,1:0|1:0,0:0:0:0:
385,27,43381,2,0,P|369:83|356:131,1,81,10|0,0:0|0:0,0:0:0:0:
512,263,43664,6,2,P|492:237|374:187,1,162,2|8,1:2|0:0,0:1:0:0:
305,286,44084,1,2,0:0:0:0:
209,151,44224,1,2,1:0:0:0:
362,104,44365,1,0,1:0:0:0:
216,243,44505,1,8,0:0:0:0:
383,341,44645,1,2,1:0:0:0:
383,341,44927,5,0,1:0:0:0:
300,200,45070,1,8,0:0:0:0:
186,322,45213,1,0,0:0:0:0:
390,242,45356,5,0,1:0:0:0:
185,142,45499,1,8,0:0:0:0:
314,96,45642,5,10,0:3:0:0:
431,58,45785,1,8,0:3:0:0:
117,61,45927,6,0,P|96:102|97:209,1,145.799995550537,6|8,1:2|0:0,0:0:0:0:
280,365,46353,2,0,P|298:320|285:204,1,145.799995550537,2|0,1:2|1:0,0:0:0:0:
129,280,46780,1,8,0:0:0:0:
129,280,46922,2,0,P|175:261|222:253,1,72.8999977752686,0|0,1:0|0:0,0:0:0:0:
275,92,47205,5,0,1:0:0:0:
206,150,47347,2,0,P|236:179|283:182,1,72.8999977752686,10|0,0:0|0:0,0:0:0:0:
259,3,47633,2,0,P|218:14|192:53,1,72.8999977752686,2|0,1:2|0:0,0:0:0:0:
359,122,47912,2,0,P|369:81|348:39,1,72.8999977752686,10|0,0:0|0:0,0:0:0:0:
339,226,48191,6,0,B|389:212|389:212|426:229|426:229|500:206,1,145.799995550537,2|8,1:2|0:0,0:0:0:0:
154,300,48757,1,2,1:2:0:0:
50,202,48898,1,0,1:0:0:0:
181,94,49040,2,0,P|189:151|212:258,1,145.799995550537,8|2,0:0|0:0,0:0:0:0:
358,344,49461,1,0,1:0:0:0:
358,344,49602,2,0,P|317:322|267:323,1,72.8999977752686,8|2,0:0|0:0,0:0:0:0:
134,360,49881,1,8,0:0:0:0:
56,310,50023,2,0,P|85:289|128:275,1,72.8999977752686,0|2,1:0|0:0,0:0:0:0:
130,268,50449,5,6,1:1:0:0:
319,183,50589,1,0,0:0:0:0:
141,80,50730,1,8,0:1:0:0:
237,254,50871,1,2,0:0:0:0:
217,114,51012,5,2,1:0:0:0:
109,160,51153,1,0,1:0:0:0:
66,46,51294,1,8,0:0:0:0:
174,0,51435,1,2,1:0:0:0:
174,0,51717,5,0,1:0:0:0:
198,197,51857,1,8,0:0:0:0:
13,126,51998,1,0,0:0:0:0:
215,94,52139,2,0,P|262:87|305:89,1,81,2|0,1:0|1:0,0:0:0:0:
167,285,52420,2,0,P|214:292|257:290,1,81,10|0,0:0|0:0,0:0:0:0:
198,197,52702,6,2,B|111:179|122:240|18:207,1,162,2|8,1:2|0:0,0:1:0:0:
348,183,53130,2,2,P|355:233|457:249,1,162,2|0,1:2|1:0,0:1:0:0:
256,370,53559,2,0,B|272:330|272:330|258:278,2,81,10|2|2,0:0|1:0|0:0,0:0:0:0:
166,278,53988,5,0,1:0:0:0:
348,183,54131,1,10,0:1:0:0:
158,83,54273,1,0,0:0:0:0:
236,171,54416,5,10,0:1:0:0:
236,171,54488,1,8,0:0:0:0:
236,171,54559,1,8,0:0:0:0:
59,217,54701,1,2,1:1:0:0:
312,300,54844,5,0,1:0:0:0:
168,257,54987,1,6,0:1:0:0:
494,248,55274,6,0,P|485:322|480:385,1,121.500004634857,2|0,0:0|0:0,0:0:0:0:
404,188,55848,1,2,0:0:0:0:
98,157,56135,6,0,P|157:148|236:144,1,121.500004634857,2|0,0:0|0:0,0:0:0:0:
311,67,56565,1,2,0:0:0:0:
201,0,56709,2,0,P|208:47|213:76,1,60.7500023174287,4|0,0:3|0:0,0:0:0:0:
268,216,56996,1,2,1:2:0:0:
268,216,57131,1,0,0:0:0:0:
490,120,57267,6,0,P|429:130|363:134,1,121.500004634857,2|0,1:2|0:0,0:0:0:0:
4,282,57833,2,0,P|71:306|129:331,1,121.500004634857,4|0,0:3|0:0,0:0:0:0:
204,373,58399,1,2,0:0:0:0:
225,190,58682,1,0,0:0:0:0:
225,190,58823,1,2,0:0:0:0:
74,0,59318,5,0,0:0:0:0:
7,56,59531,2,0,P|-1:116|7:176,1,121.500004634857,2|0,1:2|0:0,0:0:0:0:
94,257,60097,1,4,0:3:0:0:
237,115,60380,1,0,0:0:0:0:
12,261,60663,5,2,0:0:0:0:
243,195,60946,1,0,0:0:0:0:
90,154,61229,5,4,0:3:0:0:
296,290,61512,1,2,0:0:0:0:
499,223,61795,6,0,P|501:153|508:70,1,121.500004634857,2|0,1:2|0:0,0:0:0:0:
504,101,62355,1,8,0:0:0:0:
408,280,62636,1,2,1:2:0:0:
226,21,63196,5,12,0:0:0:0:
226,21,63477,1,0,1:0:0:0:
54,160,63617,1,8,0:0:0:0:
86,187,63687,1,8,0:0:0:0:
126,199,63757,1,8,0:0:0:0:
168,198,63827,1,8,0:0:0:0:
207,181,63897,1,8,0:0:0:0:
247,168,63967,1,8,0:0:0:0:
282,178,64037,6,0,P|290:235|286:288,1,81,4|0,1:2|0:0,0:0:0:0:
47,256,64320,2,0,P|119:336|185:310,1,162,10|2,0:0|1:2,0:0:0:0:
259,384,64744,1,0,1:0:0:0:
359,320,64886,2,0,P|409:314|473:315,1,81,10|0,0:2|0:0,0:0:0:0:
503,211,65169,6,0,P|511:154|509:103,1,81,2|0,1:2|0:0,0:0:0:0:
346,74,65452,1,8,0:0:0:0:
233,210,65593,2,0,B|314:194|312:236|394:220,1,162,2|0,1:2|0:0,0:0:0:0:
97,173,66018,1,10,0:0:0:0:
265,303,66159,1,0,0:0:0:0:
171,116,66300,6,0,P|161:64|157:12,1,81,6|0,1:2|0:0,0:0:0:0:
77,258,66583,2,0,P|37:272|-10:284,1,81,10|0,0:0|0:0,0:0:0:0:
189,219,66866,1,2,1:2:0:0:
189,219,67008,1,0,1:0:0:0:
13,187,67149,5,8,0:0:0:0:
189,346,67291,2,0,P|278:328|415:322,1,162,2|0,1:2|1:0,0:0:0:0:
495,284,67716,1,10,0:0:0:0:
415,375,67857,1,0,0:0:0:0:
392,144,67999,5,2,1:2:0:0:
299,257,68140,1,0,1:0:0:0:
506,208,68282,2,0,P|509:155|504:112,1,81,10|0,0:0|0:0,0:0:0:0:
135,23,68565,6,0,P|208:88|285:75,1,162,6|8,1:2|0:0,0:0:0:0:
318,161,68989,1,0,0:0:0:0:
384,16,69130,1,0,1:0:0:0:
384,16,69272,1,0,1:0:0:0:
219,169,69414,6,0,B|213:211|213:211|224:264,1,81,10|0,0:0|0:0,0:0:0:0:
426,212,69697,2,0,B|432:170|432:170|421:117,1,81,0|0,1:0|0:0,0:0:0:0:
95,195,69980,5,8,0:0:0:0:
300,293,70121,1,0,1:0:0:0:
81,276,70263,5,8,0:3:0:0:
346,224,70404,1,0,1:0:0:0:
160,131,70546,5,8,0:0:0:0:
305,369,70687,1,0,1:0:0:0:
1,96,70829,6,0,P|-14:176|6:270,1,162,10|0,0:0|1:0,0:0:0:0:
416,250,71253,2,0,P|350:196|240:176,1,162,10|0,0:3|1:0,0:0:0:0:
157,206,71678,1,2,1:2:0:0:
179,222,71820,1,0,0:0:0:0:
158,89,71961,5,10,0:0:0:0:
64,171,72103,1,8,1:0:0:0:
291,295,72244,5,10,0:0:0:0:
261,75,72386,1,8,1:0:0:0:
261,75,72669,2,0,L|274:129,1,48.5999985168458
334,196,72952,6,2,B|433:174|403:238|521:201,1,178.200005438233,6|0,1:2|1:0,0:1:0:0:
385,297,73376,2,0,P|400:330|392:380,1,89.1000027191163,8|0,0:0|0:0,0:0:0:0:
160,171,73659,1,2,1:2:0:0:
358,72,73800,1,0,1:0:0:0:
303,327,73942,1,8,0:0:0:0:
75,210,74084,6,0,P|66:128|115:20,1,178.200005438233,2|0,1:2|1:0,0:1:0:0:
414,126,74508,2,0,P|422:171|407:240,1,89.1000027191163,10|0,0:0|0:0,0:0:0:0:
223,384,74791,5,2,1:2:0:0:
4,270,74933,1,0,1:0:0:0:
303,327,75074,5,8,0:0:0:0:
152,107,75216,2,2,B|140:188|207:197|189:283,1,178.200005438233,6|0,1:2|1:0,0:1:0:0:
330,185,75640,2,0,P|294:164|247:158,1,89.1000027191163,8|0,0:0|0:0,0:0:0:0:
101,248,75923,1,2,1:2:0:0:
370,268,76065,1,0,1:0:0:0:
169,380,76207,1,10,0:2:0:0:
169,380,76348,1,0,0:0:0:0:
441,331,76489,6,0,P|461:281|456:226,1,89.1000027191163,2|0,1:2|0:0,0:0:0:0:
168,190,76772,2,0,P|156:160|164:84,1,89.1000027191163,10|0,0:0|0:0,0:0:0:0:
278,0,77055,1,10,0:1:0:0:
356,384,77197,1,10,1:1:0:0:
356,384,77480,6,2,P|343:318|319:197,1,178.200005438233,6|0,1:2|0:0,0:1:0:0:
69,234,77904,2,0,P|114:251|164:277,1,89.1000027191163,8|0,0:1|0:0,0:0:0:0:
130,87,78187,2,0,P|93:115|38:141,1,89.1000027191163,0|0,1:0|0:0,0:0:0:0:
232,210,78470,2,0,P|223:155|218:96,1,89.1000027191163,10|0,0:0|0:0,0:0:0:0:
146,177,78753,5,2,1:2:0:0:
88,0,78895,1,0,1:0:0:0:
304,0,79036,2,0,B|312:43|312:43|293:91,1,89.1000027191163,8|0,0:0|0:0,0:0:0:0:
479,315,79320,2,0,P|417:286|287:262,1,178.200005438233,2|8,1:2|0:0,0:0:0:0:
64,213,79744,2,0,P|106:200|172:193,1,89.1000027191163,6|0,1:1|0:0,0:0:0:0:
344,184,80027,5,0,1:0:0:0:
137,78,80169,1,10,0:0:0:0:
137,78,80310,1,0,0:0:0:0:
275,269,80452,5,0,1:0:0:0:
206,0,80593,1,2,1:2:0:0:
209,5,80735,1,8,0:0:0:0:
166,283,80876,5,0,1:0:0:0:
319,0,81017,1,2,0:0:0:0:
319,0,81159,1,0,1:0:0:0:
81,235,81301,6,0,P|53:248|19:259,2,44.5500013595581,8|0|2,0:0|0:0|0:1,0:0:0:0:
422,50,81584,6,0,P|409:88|402:122,1,56.6999982696534,8|0,0:0|0:0,0:0:0:0:
136,129,81725,2,0,P|151:167|157:199,1,56.6999982696534,2|0,1:0|0:0,0:0:0:0:
278,384,81866,5,8,0:0:0:0:
278,384,81937,1,8,0:0:0:0:
278,384,82008,2,2,B|242:291|332:311|281:194,1,178.200005438233,6|0,1:2|1:0,0:1:0:0:
108,307,82433,2,0,P|171:271|209:263,1,89.1000027191163,8|0,0:0|0:0,0:0:0:0:
401,255,82716,5,0,1:0:0:0:
195,165,82857,1,0,1:0:0:0:
437,70,82999,1,10,0:0:0:0:
288,213,83140,1,0,0:0:0:0:
477,315,83282,6,0,P|493:272|491:198,1,89.1000027191163,2|0,1:2|0:0,0:0:0:0:
306,11,83565,2,0,P|290:68|295:120,1,89.1000027191163,10|0,0:0|0:0,0:0:0:0:
112,316,83848,2,0,P|178:283|271:264,1,133.650004078674,2|0,1:2|0:0,0:0:0:0:
279,273,84131,1,8,0:0:0:0:
200,1,84254,6,2,P|181:61|66:88,1,178.200005438233,6|0,1:2|0:0,0:1:0:0:
262,169,84695,2,0,P|302:179|368:201,1,89.1000027191163,10|0,0:0|0:0,0:0:0:0:
154,254,84978,1,0,1:2:0:0:
308,49,85120,1,2,1:2:0:0:
51,33,85261,1,8,0:0:0:0:
264,279,85403,5,2,1:2:0:0:
86,199,85544,1,0,0:0:0:0:
193,51,85685,1,0,1:0:0:0:
370,146,85827,2,0,P|388:196|387:259,1,89.1000027191163,10|0,0:0|0:0,0:0:0:0:
185,345,86110,5,10,0:0:0:0:
158,309,86180,1,8,0:0:0:0:
152,266,86251,1,8,0:0:0:0:
168,224,86322,1,8,0:0:0:0:
201,196,86393,1,10,0:0:0:0:
238,168,86463,1,8,0:0:0:0:
253,121,86534,6,0,P|246:67|234:20,1,89.1000027191163,6|2,1:1|0:0,0:0:0:0:
306,274,86817,1,0,1:0:0:0:
390,231,86959,2,0,P|411:184|410:127,1,89.1000027191163,8|2,0:0|0:0,0:0:0:0:
166,113,87242,1,0,1:0:0:0:
370,24,87383,1,0,1:0:0:0:
182,233,87525,5,10,0:0:0:0:
102,275,87666,2,2,P|52:265|43:148,1,178.200005438233,0|0,1:0|1:0,0:1:0:0:
207,0,88091,2,0,P|257:10|266:127,1,178.200005438233,10|0,0:2|1:0,0:0:0:0:
231,268,88515,1,0,1:0:0:0:
373,376,88656,1,8,0:0:0:0:
481,216,88798,6,2,P|476:155|413:20,1,178.200005438233,4|0,1:2|1:0,0:1:0:0:
169,118,89223,1,8,0:0:0:0:
169,118,89293,1,8,0:0:0:0:
169,118,89364,2,0,P|171:161|186:222,1,89.1000027191163,8|0,0:0|1:0,0:0:0:0:
379,257,89647,1,0,1:0:0:0:
262,80,89789,1,8,0:0:0:0:
123,313,89930,6,2,P|77:286|50:159,1,178.200005438233,2|0,1:2|0:0,0:1:0:0:
320,0,90355,2,0,P|343:37|340:111,1,89.1000027191163,10|0,0:2|0:0,0:0:0:0:
242,384,90638,5,10,0:3:0:0:
215,339,90710,1,8,0:3:0:0:
239,296,90782,1,8,0:3:0:0:
263,254,90855,1,8,0:3:0:0:
238,210,90927,1,10,0:3:0:0:
36,55,91083,6,2,P|97:121|201:92,1,178.200005438233,6|0,1:2|0:0,0:1:0:0:
338,198,91505,1,8,0:0:0:0:
263,60,91645,1,0,0:0:0:0:
319,282,91786,1,2,1:2:0:0:
508,169,91927,1,0,1:0:0:0:
219,244,92068,5,8,0:0:0:0:
440,346,92209,2,0,P|452:295|452:233,1,89.1000027191163,2|0,1:0|0:0,0:0:0:0:
89,134,92490,1,0,1:0:0:0:
28,203,92632,2,0,P|26:253|37:311,1,89.1000027191163,10|0,0:0|0:0,0:0:0:0:
305,377,92913,5,2,1:2:0:0:
333,134,93054,1,0,1:0:0:0:
124,222,93195,5,10,0:2:0:0:
243,261,93335,1,0,0:0:0:0:
208,0,93476,6,2,P|172:96|184:179,1,178.200005438233,2|8,1:2|0:0,0:1:0:0:
480,301,93900,2,2,P|505:202|484:105,1,178.200005438233,2|0,1:2|1:0,0:1:0:0:
142,268,94325,1,8,0:0:0:0:
226,286,94466,2,0,P|273:298|330:325,1,89.1000027191163,2|0,1:0|0:0,0:0:0:0:
58,275,94749,5,0,1:0:0:0:
242,168,94891,1,8,0:0:0:0:
232,384,95032,1,0,0:0:0:0:
69,195,95174,6,0,P|62:144|65:95,1,89.1000027191163,2|0,1:2|1:0,0:0:0:0:
98,23,95457,1,8,0:0:0:0:
390,237,95598,2,2,P|462:178|487:62,1,178.200005438233,6|0,1:2|1:0,0:1:0:0:
169,198,96022,1,8,0:0:0:0:
338,332,96164,1,0,0:0:0:0:
242,152,96305,5,0,1:0:0:0:
231,370,96447,1,0,1:0:0:0:
327,183,96589,2,0,P|333:129|332:67,1,89.1000027191163,10|0,0:0|0:0,0:0:0:0:
16,324,96872,6,0,P|113:285|224:296,1,178.200005438233,2|8,1:2|0:0,0:0:0:0:
193,178,97296,1,0,1:0:0:0:
280,265,97438,1,2,1:2:0:0:
191,61,97579,1,0,1:0:0:0:
60,191,97721,1,8,0:0:0:0:
410,156,97862,6,0,P|414:99|409:53,1,89.1000027191163,6|0,1:1|0:0,0:0:0:0:
322,38,98145,1,0,1:0:0:0:
474,246,98287,2,0,P|496:197|511:137,1,89.1000027191163,8|0,0:0|0:0,0:0:0:0:
476,13,98570,5,0,1:0:0:0:
295,124,98711,1,2,1:2:0:0:
512,85,98853,1,8,0:0:0:0:
214,61,98994,6,2,P|200:150|206:243,1,178.200005438233,6|0,1:2|1:0,0:1:0:0:
1,331,99419,2,0,P|51:316|110:314,1,89.1000027191163,8|0,0:0|0:0,0:0:0:0:
316,370,99702,1,8,0:0:0:0:
316,370,99773,1,8,0:0:0:0:
316,370,99843,2,0,P|330:322|332:264,1,89.1000027191163,2|0,1:2|0:0,0:0:0:0:
381,14,100126,6,2,P|306:71|310:160,1,178.200005438233,6|0,1:2|1:0,0:1:0:0:
440,340,100551,1,8,0:0:0:0:
440,340,100693,1,0,0:0:0:0:
474,112,100834,1,0,1:0:0:0:
474,112,100976,1,0,1:0:0:0:
231,228,101117,1,10,0:0:0:0:
231,228,101259,1,0,1:0:0:0:
378,218,101400,5,0,0:0:0:0:
124,175,101542,1,0,1:0:0:0:
308,309,101683,5,10,0:0:0:0:
249,95,101825,1,0,0:0:0:0:
54,251,101966,6,0,P|92:266|174:265,1,89.1000027191163,2|0,1:2|0:0,0:0:0:0:
0,187,102249,1,8,0:0:0:0:
214,364,102391,6,2,P|231:254|263:137,1,178.200005438233,2|0,1:2|1:0,0:1:0:0:
389,56,102815,1,8,0:0:0:0:
302,32,102957,1,0,0:0:0:0:
338,236,103098,5,0,1:0:0:0:
457,131,103240,1,0,1:0:0:0:
195,20,103381,2,0,P|202:76|203:130,1,89.1000027191163,10|0,0:0|0:0,0:0:0:0:
512,274,103664,6,0,P|425:288|363:350,1,178.200005438233,2|8,1:2|0:0,0:0:0:0:
142,189,104089,1,0,0:0:0:0:
53,250,104230,2,0,P|101:272|166:282,1,89.1000027191163,2|0,1:2|1:0,0:0:0:0:
267,332,104513,1,8,0:0:0:0:
411,210,104655,6,2,P|420:92|410:-7,1,178.200005438233,6|0,1:2|1:0,0:1:0:0:
0,128,105079,1,8,0:0:0:0:
142,189,105221,1,0,0:0:0:0:
260,67,105362,1,0,1:0:0:0:
112,3,105504,1,0,1:0:0:0:
174,287,105645,5,8,0:0:0:0:
317,129,105787,1,0,1:0:0:0:
76,71,105928,2,0,P|71:129|81:185,1,89.1000027191163,0|0,0:0|1:0,0:0:0:0:
58,278,106211,1,8,0:0:0:0:
238,155,106353,1,0,0:0:0:0:
266,384,106494,1,2,1:0:0:0:
266,384,106636,1,0,1:0:0:0:
154,181,106777,5,8,0:0:0:0:
374,210,106919,2,2,P|460:174|516:103,1,178.200005438233,2|0,1:2|1:0,0:1:0:0:
73,34,107343,2,0,P|71:98|93:152,1,89.1000027191163,10|0,0:0|0:0,0:0:0:0:
241,293,107626,5,10,0:0:0:0:
223,247,107696,1,8,0:0:0:0:
230,198,107767,1,8,0:0:0:0:
254,155,107839,1,8,0:0:0:0:
264,106,107909,1,10,0:0:0:0:
250,71,107980,1,8,0:0:0:0:
232,57,108051,2,0,B|197:174|303:172|265:309,1,242.999992584229,6|0,1:2|0:0,0:0:0:0:
232,368,109042,1,0,0:0:0:0:
232,368,109325,1,0,1:0:0:0:
256,192,109466,12,0,111589,0:0:0:0:
457,223,118381,5,6,1:0:0:0:
260,263,118523,1,0,0:0:0:0:
399,152,118664,5,0,0:0:0:0:
333,335,118806,1,2,1:2:0:0:
237,113,118947,5,10,0:1:0:0:
353,232,119089,1,0,0:0:0:0:
188,316,119230,1,2,0:0:0:0:
72,197,119372,6,0,P|47:122|77:18,1,178.200005438233,2|2,1:0|1:0,0:0:0:0:
213,213,119796,1,2,1:0:0:0:
213,213,119938,1,0,0:0:0:0:
120,296,120079,5,14,0:2:0:0:
321,239,120221,1,0,0:0:0:0:
160,124,120362,5,2,0:0:0:0:
237,302,120504,1,0,0:0:0:0:
72,176,120645,5,6,1:0:0:0:
257,94,120787,1,2,1:0:0:0:
189,222,120928,1,0,0:0:0:0:
129,38,121070,1,0,1:0:0:0:
318,179,121211,5,10,0:1:0:0:
168,116,121353,1,0,0:0:0:0:
296,5,121494,1,2,0:0:0:0:
411,145,121636,6,2,L|374:329,1,178.200005438233,0|0,1:0|1:0,0:1:0:0:
162,225,122060,2,0,B|205:214|205:214|252:229,1,89.1000027191163,2|0,1:0|0:0,0:0:0:0:
504,252,122344,5,14,0:0:0:0:
283,114,122485,1,0,0:0:0:0:
194,316,122627,5,8,0:0:0:0:
422,186,122768,1,8,0:0:0:0:
198,14,122910,5,6,1:0:0:0:
330,199,123051,1,2,1:0:0:0:
101,112,123192,5,2,0:0:0:0:
248,190,123334,1,2,1:2:0:0:
21,227,123476,5,10,0:1:0:0:
174,235,123617,1,0,0:0:0:0:
40,358,123759,5,2,0:0:0:0:
141,310,123900,1,0,1:0:0:0:
106,193,124042,6,0,P|83:141|77:74,1,89.1000027191163,2|0,0:2|1:0,0:0:0:0:
428,124,124325,2,0,P|424:182|404:227,1,89.1000027191163,2|0,1:2|0:0,0:0:0:0:
189,209,124608,2,0,P|240:180|282:177,1,89.1000027191163,10|0,0:1|0:0,0:0:0:0:
496,349,124891,2,0,P|451:337|413:296,1,89.1000027191163,2|0,0:2|0:0,0:0:0:0:
152,40,125174,5,2,1:1:0:0:
152,40,125315,2,2,P|108:87|101:227,1,178.200005438233,0|0,0:0|1:0,0:1:0:0:
437,234,125740,2,0,P|428:147|379:74,1,178.200005438233,10|2,0:0|0:2,0:1:0:0:
135,339,126184,5,0,1:0:0:0:
135,339,126264,1,8,0:0:0:0:
135,339,126345,1,2,1:2:0:0:
311,226,126482,1,8,0:0:0:0:
138,122,126620,1,0,1:0:0:0:
290,327,126757,1,8,0:0:0:0:
44,365,126895,5,10,0:0:0:0:
239,161,127033,1,8,0:0:0:0:
18,67,127170,1,10,0:0:0:0:
168,257,127308,1,8,0:0:0:0:
388,214,127445,6,0,P|407:147|405:63,1,145.799995550537,6|8,1:0|0:0,0:0:0:0:
120,23,127869,2,0,P|102:94|114:190,1,145.799995550537,2|0,1:2|0:0,0:0:0:0:
240,300,128294,1,8,0:0:0:0:
240,300,128435,2,0,P|268:256|276:195,1,72.8999977752686,0|0,1:0|0:0,0:0:0:0:
26,268,128718,5,0,1:0:0:0:
26,268,128860,2,0,L|98:262,1,72.8999977752686,10|0,0:0|0:0,0:0:0:0:
340,293,129143,1,2,1:2:0:0:
185,223,129284,1,0,0:0:0:0:
307,373,129426,2,0,P|356:366|409:365,1,72.8999977752686,10|0,0:0|0:0,0:0:0:0:
506,171,129709,6,0,P|439:228|351:202,1,145.799995550537,2|8,1:2|0:0,0:0:0:0:
289,110,130133,1,0,0:0:0:0:
231,170,130275,2,0,L|244:266,1,72.8999977752686,2|0,1:2|1:0,0:0:0:0:
57,99,130558,2,0,L|47:26,1,72.8999977752686,8|0,0:0|0:0,0:0:0:0:
7,246,130841,6,0,P|40:232|76:225,1,72.8999977752686,2|0,0:0|1:0,0:0:0:0:
286,337,131123,1,8,0:0:0:0:
231,170,131265,1,2,0:0:0:0:
127,293,131406,1,8,0:0:0:0:
316,261,131548,2,0,P|327:219|330:180,1,72.8999977752686,0|2,1:0|0:0,0:0:0:0:
329,189,131975,5,6,1:1:0:0:
483,254,132117,1,0,0:0:0:0:
232,244,132259,5,8,0:1:0:0:
415,195,132401,1,2,0:0:0:0:
150,112,132543,6,0,P|150:162|160:216,1,81,2|0,1:0|1:0,0:0:0:0:
264,115,132828,1,8,0:0:0:0:
29,248,132970,2,0,P|112:272|183:336,1,162,2|0,1:0|1:0,0:0:0:0:
52,125,133396,1,8,0:0:0:0:
52,125,133538,1,0,0:0:0:0:
174,203,133681,5,2,1:0:0:0:
275,102,133823,1,0,1:0:0:0:
161,0,133965,2,0,P|157:57|168:106,1,81,10|0,0:0|0:0,0:0:0:0:
462,255,134249,6,2,P|503:168|503:63,1,162,2|8,1:2|0:0,0:1:0:0:
391,28,134676,1,2,0:0:0:0:
295,116,134818,2,0,P|347:140|412:143,1,81,2|0,1:0|1:0,0:0:0:0:
198,286,135102,1,8,0:0:0:0:
118,232,135245,2,0,P|114:182|117:142,1,81,2|0,1:0|0:0,0:0:0:0:
122,367,135528,5,0,1:0:0:0:
32,304,135670,1,8,0:0:0:0:
282,210,135805,1,0,0:0:0:0:
265,321,135940,1,0,1:0:0:0:
47,208,136069,1,8,0:0:0:0:
47,208,136135,1,8,0:3:0:0:
47,208,136200,2,0,P|36:148|36:109,1,81,10|8,0:3|0:3,0:0:0:0:
111,4,136495,6,0,P|190:63|258:45,1,162,6|8,1:2|0:0,0:0:0:0:
373,149,136921,1,2,1:2:0:0:
180,222,137063,2,0,P|174:163|167:117,1,81
433,71,137348,1,8,0:0:0:0:
471,141,137490,2,0,P|473:189|466:243,1,81,0|0,1:0|0:0,0:0:0:0:
307,338,137774,5,0,1:0:0:0:
307,338,137916,2,0,P|352:351|399:367,1,81,10|0,0:0|0:0,0:0:0:0:
107,245,138201,2,0,P|64:250|17:259,1,81,2|0,1:2|0:0,0:0:0:0:
314,237,138485,2,0,P|330:188|336:132,1,81,10|0,0:0|0:0,0:0:0:0:
12,14,138769,6,0,P|78:73|168:53,1,162,2|8,1:2|0:0,0:0:0:0:
240,144,139196,1,0,0:0:0:0:
258,34,139338,1,2,1:2:0:0:
135,149,139480,1,0,1:0:0:0:
314,237,139622,2,0,P|322:185|317:125,1,81,8|0,0:0|0:0,0:0:0:0:
56,349,139907,5,0,0:0:0:0:
211,244,140049,1,0,1:0:0:0:
55,169,140190,2,0,P|67:222|76:277,1,81,8|0,0:0|0:0,0:0:0:0:
268,360,140473,5,8,0:0:0:0:
450,259,140614,1,0,1:0:0:0:
450,259,141023,5,6,1:1:0:0:
271,101,141164,1,0,0:0:0:0:
334,288,141306,5,8,0:1:0:0:
383,78,141447,1,2,0:0:0:0:
245,208,141589,5,2,1:0:0:0:
468,153,141730,1,0,1:0:0:0:
149,137,141872,5,8,0:0:0:0:
366,182,142013,1,2,1:0:0:0:
366,182,142296,5,0,1:0:0:0:
210,55,142438,1,8,0:0:0:0:
153,269,142579,1,0,0:0:0:0:
254,182,142721,1,2,1:0:0:0:
27,223,142862,5,0,1:0:0:0:
231,355,143004,1,10,0:0:0:0:
186,203,143145,1,0,0:0:0:0:
39,321,143287,6,2,P|95:334|141:352,1,81,2|0,1:2|0:0,0:1:0:0:
341,241,143570,1,8,0:0:0:0:
341,241,143711,1,2,1:2:0:0:
68,153,143853,6,0,P|107:121|148:70,1,81,0|0,0:0|1:0,0:0:0:0:
414,292,144136,1,10,0:0:0:0:
414,292,144277,1,2,1:0:0:0:
269,264,144419,5,2,0:0:0:0:
505,245,144558,1,0,1:0:0:0:
371,357,144698,5,10,0:1:0:0:
432,141,144837,1,0,0:0:0:0:
269,264,144977,5,10,0:1:0:0:
281,172,145123,1,8,0:0:0:0:
158,302,145269,5,2,1:1:0:0:
131,112,145416,1,0,1:0:0:0:
22,221,145562,5,6,0:1:0:0:
265,261,145845,6,0,P|281:319|296:390,1,121.500004634857,2|0,0:0|0:0,0:0:0:0:
397,163,146411,1,2,0:0:0:0:
397,163,146552,2,0,P|369:196|235:171,1,182.250006952286
109,61,147260,2,0,P|131:136|148:194,1,121.500004634857,4|2,0:3|1:2,0:0:0:0:
139,269,147684,1,0,0:0:0:0:
60,209,147826,2,0,P|15:204|-17:200,1,60.7500023174287,2|0,1:2|0:0,0:0:0:0:
62,296,148109,2,0,P|43:352|38:379,1,60.7500023174287
274,248,148392,5,4,0:3:0:0:
274,248,148533,2,0,P|303:199|274:98,1,121.500004634857
372,32,148958,2,0,L|398:168,1,121.500004634857,2|0,0:0|0:0,0:0:0:0:
416,243,149382,1,2,0:0:0:0:
147,156,149807,5,0,0:0:0:0:
75,209,150090,2,0,P|49:156|66:78,1,121.500004634857,2|0,1:2|0:0,0:0:0:0:
222,39,150656,2,0,P|258:109|239:193,1,121.500004634857,4|0,0:3|0:0,0:0:0:0:
173,293,151222,5,2,0:0:0:0:
386,186,151505,1,0,0:0:0:0:
334,330,151788,5,4,0:3:0:0:
172,201,152071,1,2,0:0:0:0:
385,35,152347,6,0,L|411:120,1,60.7500023174287,2|0,1:2|0:0,0:0:0:0:
241,74,152634,2,0,L|261:149,1,60.7500023174287,0|0,1:0|0:0,0:0:0:0:
99,142,152921,6,0,L|68:221,1,60.7500023174287,8|0,0:0|0:0,0:0:0:0:
325,199,153208,2,0,L|294:278,1,60.7500023174287,2|0,1:2|0:0,0:0:0:0:
183,366,153495,5,0,0:0:0:0:
183,366,153770,2,0,P|176:310|167:257,1,81,12|0,0:0|0:0,0:0:0:0:
146,203,154045,1,0,1:0:0:0:
265,286,154169,1,8,0:0:0:0:
297,313,154239,1,8,0:0:0:0:
337,325,154310,1,8,0:0:0:0:
379,324,154381,1,8,0:0:0:0:
418,307,154452,1,8,0:0:0:0:
458,294,154522,1,8,0:0:0:0:
494,301,154595,6,0,P|503:357|497:414,1,89.1000027191163,4|0,1:2|0:0,0:0:0:0:
392,123,154907,2,0,P|431:186|525:173,1,162,10|2,0:0|1:2,0:0:0:0:
330,44,155329,1,0,1:0:0:0:
505,8,155470,2,0,P|489:79|489:124,1,81,10|0,0:2|0:0,0:0:0:0:
293,130,155752,6,0,P|235:115|212:90,1,81,2|0,1:2|0:0,0:0:0:0:
330,384,156033,1,8,0:0:0:0:
417,335,156174,2,0,P|457:326|532:208,1,162,2|0,1:2|0:0,0:0:0:0:
243,250,156597,1,10,0:0:0:0:
413,123,156737,1,0,0:0:0:0:
265,21,156878,6,0,P|285:80|287:129,1,81,6|0,1:2|0:0,0:0:0:0:
133,301,157160,2,0,P|138:233|146:205,1,81,10|0,0:0|0:0,0:0:0:0:
348,229,157442,1,2,1:2:0:0:
348,229,157582,1,0,1:0:0:0:
148,135,157723,1,8,0:0:0:0:
64,363,157864,2,0,P|150:323|246:323,1,162,2|0,1:2|1:0,0:0:0:0:
419,278,158287,2,0,B|435:237|435:237|424:182,1,81,10|0,0:0|0:0,0:0:0:0:
309,129,158568,5,2,1:2:0:0:
491,54,158709,1,0,1:0:0:0:
251,53,158850,2,0,P|197:44|162:37,1,81,10|0,0:0|0:0,0:0:0:0:
343,212,159132,6,0,B|339:300|289:272|282:370,1,162,6|8,1:2|0:0,0:0:0:0:
444,263,159556,1,0,0:0:0:0:
245,238,159698,2,0,P|188:246|128:259,1,81,0|0,1:0|1:0,0:0:0:0:
416,128,159981,2,0,P|466:152|524:169,1,81,10|0,0:0|0:0,0:0:0:0:
193,112,160264,5,0,1:0:0:0:
193,112,160405,1,0,3:0:0:0:
299,153,160547,5,8,0:0:0:0:
125,25,160688,1,0,1:0:0:0:
133,180,160830,5,8,0:3:0:0:
329,70,160971,1,0,1:0:0:0:
53,105,161113,5,8,0:0:0:0:
361,231,161254,1,0,1:0:0:0:
95,376,161396,6,0,P|66:324|54:203,1,162,10|0,0:0|1:0,0:0:0:0:
439,10,161820,2,0,P|476:84|474:195,1,162,10|0,0:3|1:0,0:0:0:0:
268,295,162245,1,2,1:2:0:0:
279,262,162386,1,0,0:0:0:0:
388,130,162528,5,10,0:0:0:0:
154,234,162669,1,8,1:0:0:0:
436,328,162811,5,10,0:0:0:0:
145,110,162952,1,8,1:0:0:0:
145,110,163235,2,0,L|210:119,1,48.5999985168458
440,206,163518,6,2,B|375:217|368:183|292:194,1,133.650004078674,6|0,1:2|0:0,0:1:0:0:
278,205,163801,1,0,1:0:0:0:
60,90,163943,2,0,P|64:146|62:205,1,89.1000027191163,8|0,0:0|0:0,0:0:0:0:
206,374,164226,1,2,1:2:0:0:
177,195,164367,1,0,1:0:0:0:
31,301,164509,1,8,0:0:0:0:
300,299,164650,6,0,P|288:196|288:127,1,133.650004078674,2|0,1:2|0:0,0:1:0:0:
293,132,164933,1,0,1:0:0:0:
97,256,165075,2,0,P|163:269|215:285,1,89.1000027191163,10|0,0:0|0:0,0:0:0:0:
70,28,165358,2,0,P|43:79|57:165,1,133.650004078674,2|0,1:2|0:0,0:0:0:0:
63,178,165641,1,8,0:0:0:0:
360,130,165782,6,2,B|280:145|267:91|174:110,1,178.200005438233,6|0,1:2|1:0,0:1:0:0:
493,206,166207,2,0,P|506:138|524:91,1,89.1000027191163,8|0,0:0|0:0,0:0:0:0:
330,47,166490,1,2,1:2:0:0:
279,233,166632,1,0,1:0:0:0:
427,164,166773,1,10,0:2:0:0:
185,107,166915,1,0,0:0:0:0:
383,302,167056,6,0,P|429:296|492:292,1,89.1000027191163,2|0,1:2|0:0,0:0:0:0:
169,374,167339,2,0,P|94:326|70:256,1,133.650004078674,10|0,0:0|0:0,0:0:0:0:
75,254,167622,5,10,0:1:0:0:
264,270,167764,2,0,P|227:272|173:276,1,72.8999977752686,10|0,1:1|0:0,0:0:0:0:
4,309,168047,6,2,P|-7:220|12:138,1,133.650004078674,6|0,1:2|0:0,0:1:0:0:
12,138,168330,1,0,0:0:0:0:
216,199,168471,2,0,P|173:195|114:190,1,89.1000027191163,8|0,0:1|0:0,0:0:0:0:
330,101,168754,2,0,P|373:97|432:92,1,89.1000027191163,0|0,1:0|0:0,0:0:0:0:
155,98,169037,2,0,P|142:46|141:-9,1,89.1000027191163,10|0,0:0|0:0,0:0:0:0:
353,191,169320,6,0,P|408:248|412:317,1,133.650004078674,2|0,1:2|0:0,0:0:0:0:
410,334,169603,1,8,0:0:0:0:
507,147,169745,1,0,0:0:0:0:
218,270,169886,2,0,P|273:276|329:286,1,89.1000027191163,2|0,1:2|0:0,0:0:0:0:
21,224,170169,1,8,0:0:0:0:
157,352,170311,6,0,P|199:274|199:195,1,133.650004078674,6|0,1:1|0:0,0:0:0:0:
198,196,170594,1,0,1:0:0:0:
6,122,170735,1,10,0:0:0:0:
40,313,170877,1,0,0:0:0:0:
268,152,171018,5,0,1:0:0:0:
83,175,171160,1,2,1:2:0:0:
338,249,171301,5,8,0:0:0:0:
399,36,171443,1,0,1:0:0:0:
165,268,171584,6,0,P|209:261|253:259,1,89.1000027191163,2|0,0:0|1:0,0:0:0:0:
383,350,171867,1,8,0:0:0:0:
383,350,172009,1,2,0:1:0:0:
512,206,172150,5,8,0:0:0:0:
453,219,172221,1,8,0:0:0:0:
411,187,172292,1,10,0:0:0:0:
365,179,172363,1,8,0:0:0:0:
339,193,172433,1,8,0:0:0:0:
20,225,172575,6,2,P|111:205|140:104,1,178.200005438233,6|0,1:2|1:0,0:1:0:0:
147,314,172999,1,8,0:0:0:0:
27,300,173141,1,0,0:0:0:0:
248,212,173282,1,0,1:0:0:0:
285,367,173424,1,0,1:0:0:0:
158,188,173565,6,0,P|154:135|160:84,1,89.1000027191163,10|0,0:0|0:0,0:0:0:0:
377,320,173848,2,0,P|441:309|487:287,1,89.1000027191163,2|0,1:2|0:0,0:0:0:0:
278,29,174132,2,0,P|253:68|240:129,1,89.1000027191163,10|0,0:0|0:0,0:0:0:0:
500,233,174415,2,0,P|513:149|511:97,1,133.650004078674,2|0,1:2|0:0,0:0:0:0:
503,63,174698,1,8,0:0:0:0:
271,219,174839,6,2,P|324:223|377:237,1,89.1000027191163,6|0,1:2|0:0,0:1:0:0:
218,359,175122,1,0,0:0:0:0:
108,279,175264,2,0,P|98:224|101:163,1,89.1000027191163,10|0,0:0|0:0,0:0:0:0:
222,30,175547,1,0,1:2:0:0:
90,69,175688,2,0,P|140:105|206:112,1,89.1000027191163,2|8,1:2|0:0,0:0:0:0:
418,181,175971,6,0,P|425:74|419:16,1,133.650004078674,2|0,1:2|0:0,0:0:0:0:
420,13,176246,1,0,1:0:0:0:
280,266,176381,1,10,0:0:0:0:
243,106,176516,1,0,0:0:0:0:
508,250,176651,5,10,0:0:0:0:
508,250,176731,1,8,0:0:0:0:
508,250,176811,1,8,0:0:0:0:
190,354,176971,1,10,0:0:0:0:
190,354,177258,6,0,P|144:349|117:348,1,60.75
81,363,177531,6,0,P|50:297|54:231,1,105.299995179749,8|0,0:0|0:0,0:0:0:0:
306,244,177811,2,0,P|228:277|149:254,1,157.949992769623,0|0,1:0|0:0,0:0:0:0:
143,244,178091,1,10,0:0:0:0:
275,78,178231,2,2,P|280:132|281:181,1,89.1000027191163,0|0,1:0|0:0,0:1:0:0:
219,361,178511,1,0,1:0:0:0:
191,151,178651,1,10,0:2:0:0:
387,252,178792,1,0,0:0:0:0:
47,237,178934,5,0,1:0:0:0:
50,205,179004,1,0,1:0:0:0:
53,173,179075,1,0,1:0:0:0:
57,141,179146,1,0,1:0:0:0:
62,110,179217,1,8,0:0:0:0:
338,100,179358,6,2,P|285:157|178:141,1,178.200005438233,4|0,1:2|1:0,0:1:0:0:
204,259,179783,1,8,0:0:0:0:
418,176,179924,1,8,0:0:0:0:
243,75,180066,5,0,1:0:0:0:
73,35,180207,1,0,1:0:0:0:
231,37,180349,1,8,0:0:0:0:
11,93,180490,6,2,P|2:177|19:249,1,133.650004078674,2|0,1:2|0:0,0:1:0:0:
22,253,180773,1,0,0:0:0:0:
286,252,180915,2,0,P|214:185|122:188,1,178.200005438233,10|10,0:2|0:3,0:0:0:0:
184,286,181339,1,8,0:3:0:0:
394,162,181481,1,10,0:3:0:0:
86,327,181622,6,2,B|97:229|19:258|46:142,1,178.200005438233,6|0,1:2|0:0,0:1:0:0:
169,73,182047,1,8,0:0:0:0:
68,0,182188,1,0,0:0:0:0:
138,182,182330,1,2,1:2:0:0:
296,38,182471,1,0,1:0:0:0:
219,207,182613,5,8,0:0:0:0:
344,324,182754,2,0,P|324:277|315:223,1,89.1000027191163,2|0,1:0|0:0,0:0:0:0:
65,128,183037,1,0,1:0:0:0:
22,193,183179,2,0,P|19:246|8:302,1,89.1000027191163,10|0,0:0|0:0,0:0:0:0:
225,224,183462,5,2,1:2:0:0:
382,165,183603,1,0,1:0:0:0:
320,14,183745,1,10,0:2:0:0:
169,64,183886,1,0,0:0:0:0:
436,258,184028,6,2,P|474:212|467:103,1,133.650004078674,2|0,1:2|0:0,0:1:0:0:
469,94,184311,1,8,0:0:0:0:
161,180,184452,2,2,P|117:250|127:361,1,178.200005438233,2|0,1:2|1:0,0:1:0:0:
332,162,184877,1,8,0:0:0:0:
266,93,185018,2,0,P|209:88|156:75,1,89.1000027191163,2|0,1:0|0:0,0:0:0:0:
286,316,185301,1,0,1:0:0:0:
360,261,185443,2,0,P|423:241|463:233,1,89.1000027191163,8|0,0:0|0:0,0:0:0:0:
250,186,185731,5,2,1:2:0:0:
393,69,185875,1,0,1:0:0:0:
232,0,186019,1,8,0:0:0:0:
95,104,186164,2,2,P|74:192|85:274,1,133.650004078674,6|0,1:2|0:0,0:1:0:0:
85,264,186452,1,0,1:0:0:0:
437,308,186596,2,0,P|395:280|335:275,1,89.1000027191163,8|0,0:0|0:0,0:0:0:0:
276,267,186879,5,0,1:0:0:0:
300,373,187020,1,0,1:0:0:0:
168,254,187162,1,10,0:0:0:0:
331,172,187303,1,0,0:0:0:0:
134,165,187445,6,0,P|123:103|150:29,1,89.1000027191163,2|0,1:2|0:0,0:0:0:0:
387,18,187728,2,0,P|396:66|385:126,1,89.1000027191163,8|0,0:0|1:0,0:0:0:0:
438,247,188011,5,2,1:2:0:0:
253,113,188152,1,0,1:0:0:0:
479,72,188294,1,8,0:0:0:0:
256,229,188435,6,0,P|187:248|158:246,1,89.1000027191163,6|0,1:1|0:0,0:0:0:0:
99,207,188718,1,0,1:0:0:0:
346,279,188860,2,0,P|295:320|256:333,1,89.1000027191163,8|0,0:0|0:0,0:0:0:0:
92,331,189143,5,0,1:0:0:0:
223,141,189284,1,2,1:2:0:0:
12,213,189426,1,8,0:0:0:0:
312,199,189567,2,2,P|329:125|315:-8,1,178.200005438233,6|0,1:2|1:0,0:1:0:0:
431,143,189992,2,0,P|479:129|531:119,1,89.1000027191163,8|0,0:0|0:0,0:0:0:0:
287,311,190275,5,8,0:0:0:0:
287,311,190346,1,8,0:0:0:0:
287,311,190416,2,0,P|351:293|394:287,1,89.1000027191163,2|0,1:2|0:0,0:0:0:0:
209,214,190699,2,2,B|100:187|139:260|9:211,1,178.200005438233,6|0,1:2|1:0,0:1:0:0:
230,123,191124,5,8,0:0:0:0:
230,123,191265,1,0,0:0:0:0:
139,331,191407,1,0,1:0:0:0:
139,331,191548,1,0,1:0:0:0:
373,289,191690,1,10,0:0:0:0:
373,289,191831,1,0,1:0:0:0:
201,218,191973,5,0,0:0:0:0:
460,359,192114,1,0,1:0:0:0:
382,125,192256,5,10,0:0:0:0:
271,351,192397,1,0,0:0:0:0:
116,170,192539,6,0,P|105:121|114:63,1,89.1000027191163,2|0,1:2|0:0,0:0:0:0:
178,35,192822,1,8,0:0:0:0:
117,283,192963,2,2,P|173:246|293:234,1,178.200005438233,2|0,1:2|1:0,0:1:0:0:
471,254,193388,1,8,0:0:0:0:
357,336,193528,1,0,0:0:0:0:
505,126,193669,5,0,1:0:0:0:
327,56,193810,1,0,1:0:0:0:
387,214,193951,2,0,P|393:167|401:103,1,89.1000027191163,10|0,0:0|0:0,0:0:0:0:
172,45,194233,6,0,P|132:113|157:233,1,178.200005438233,2|8,1:2|0:0,0:0:0:0:
118,367,194655,1,0,0:0:0:0:
84,275,194796,2,0,P|29:261|6:240,1,81,2|0,1:2|1:0,0:0:0:0:
227,126,195056,1,8,0:0:0:0:
338,285,195199,2,2,B|439:264|406:328|514:295,1,178.200005438233,6|0,1:2|1:0,0:1:0:0:
363,127,195630,5,8,0:0:0:0:
213,254,195771,1,0,0:0:0:0:
72,127,195913,1,0,1:0:0:0:
222,0,196054,1,0,1:0:0:0:
183,345,196196,5,8,0:0:0:0:
21,207,196337,1,0,1:0:0:0:
270,68,196479,2,0,P|276:129|261:172,1,81,0|0,0:0|1:0,0:0:0:0:
325,311,196762,1,8,0:0:0:0:
148,162,196899,1,0,0:0:0:0:
392,96,197037,5,2,1:0:0:0:
392,96,197174,1,0,1:0:0:0:
174,272,197324,1,8,0:0:0:0:
66,242,197474,2,2,P|42:176|54:56,1,178.200005438233,2|0,1:2|1:0,0:1:0:0:
391,192,197937,2,0,B|406:238|406:238|376:291,1,89.1000027191163,10|0,0:0|0:0,0:0:0:0:
195,352,198220,5,10,0:0:0:0:
213,306,198290,1,8,0:0:0:0:
206,257,198361,1,8,0:0:0:0:
182,214,198432,1,8,0:0:0:0:
172,165,198503,1,10,0:0:0:0:
186,130,198573,1,8,0:0:0:0:
204,116,198644,2,0,B|239:237|132:237|167:355,1,242.999992584229,6|0,1:2|0:0,0:0:0:0:
185,376,199352,1,8,0:3:0:0:
508,277,199910,6,0,B|393:255|394:351|274:318,1,243.000009269715,4|8,3:2|0:0,0:0:0:0:
92,256,200759,1,0,3:0:0:0:
92,256,201042,2,0,P|85:168|109:94,1,121.500004634857,0|0,0:0|3:0,0:0:0:0:
330,138,201608,2,0,P|286:179|227:192,1,121.500004634857,8|0,0:0|0:0,0:0:0:0:
168,125,202032,1,0,0:0:0:0:
97,348,202174,6,0,P|168:302|288:302,1,182.250006952286,2|0,3:2|0:0,0:0:0:0:
340,327,202740,1,8,0:0:0:0:
498,253,203023,1,0,0:0:0:0:
498,253,203164,1,0,0:0:0:0:
498,253,203306,2,0,P|507:164|495:65,2,182.250006952286,2|0|0,3:2|0:0|1:0,0:0:0:0:
249,216,204438,6,0,B|174:246|144:179|119:117|15:154,1,243.000009269715,2|8,3:2|0:0,0:0:0:0:
36,233,205287,1,0,0:0:0:0:
36,233,205428,1,0,0:0:0:0:
36,233,205570,2,0,B|114:253|135:183|152:118|260:142,1,243.000009269715,2|8,3:2|0:0,0:0:0:0:
502,96,206702,6,0,P|432:120|320:-18,1,243.000009269715,4|8,3:0|0:0,0:0:0:0:
220,217,207551,1,0,3:0:0:0:
220,217,207645,1,0,0:0:0:0:
220,217,207740,1,0,0:0:0:0:
220,217,207834,2,0,P|275:226|347:247,1,121.500004634857,2|0,3:2|1:0,0:0:0:0:
422,273,208400,1,8,0:0:0:0:
337,138,208542,1,8,0:3:0:0:
302,326,208683,1,0,3:0:0:0:
503,255,208825,1,0,3:0:0:0:
221,202,208966,6,0,P|215:311|222:388,2,182.250006952286,4|2|2,3:2|0:0|0:0,0:0:0:0:
4,251,210098,2,0,P|65:260|132:278,1,121.500004634857,2|0,3:2|3:0,0:0:0:0:
226,119,210664,1,8,0:0:0:0:
438,256,211214,6,0,P|359:262|294:179,2,182.250006952286,4|0|2,3:3|0:0|0:0,0:0:0:0:
500,164,212340,1,0,3:0:0:0:
388,176,212481,1,8,0:0:0:0:
511,191,212622,1,2,3:2:0:0:
329,0,212904,2,0,P|338:63|331:120,1,121.500004634857,10|0,0:0|3:0,0:0:0:0:
275,200,213326,1,0,0:0:0:0:
56,119,213467,6,0,P|109:75|239:79,2,182.250006952286,4|0|0,3:2|0:0|0:0,0:0:0:0:
141,354,214604,2,0,P|149:263|166:168,2,182.250006952286,2|0|0,3:2|0:0|0:0,0:0:0:0:
305,235,215741,6,0,P|294:165|288:102,1,121.500004634857,2|0,3:2|0:0,0:0:0:0:
482,173,216293,1,10,0:0:0:0:
330,256,216576,5,0,3:0:0:0:
488,186,216717,1,8,0:0:0:0:
221,226,217000,5,0,3:0:0:0:
493,199,217142,2,0,P|504:117|489:30,1,162,12|2,0:0|1:0,0:0:0:0:
291,323,217560,1,2,1:0:0:0:
291,323,217842,6,2,B|248:324|248:324|222:349|222:349|176:315|176:315|151:334|151:334|122:356|53:350,1,243.000009269715,6|0,1:2|0:0,0:1:0:0:
361,244,218268,2,0,P|378:187|403:118,1,97.1999970336915,8|0,0:0|0:0,0:0:0:0:
411,332,218553,1,2,1:2:0:0:
211,156,218695,1,0,1:0:0:0:
457,59,218837,1,8,0:0:0:0:
159,239,218979,6,2,B|133:215|85:203|85:203|120:166|132:104,1,194.399994067383,0|0,1:0|0:0,0:1:0:0:
309,23,219406,2,0,P|324:75|340:131,1,97.1999970336915,8|0,0:0|0:0,0:0:0:0:
373,350,219690,1,0,1:0:0:0:
467,150,219832,1,0,1:0:0:0:
244,158,219974,1,8,0:0:0:0:
495,237,220117,6,2,B|494:210|480:180|480:180|521:132|521:132|499:94|499:38,1,194.399994067383,6|0,1:2|0:0,0:1:0:0:
321,235,220543,2,0,P|303:288|294:346,1,97.1999970336915,8|0,0:0|0:0,0:0:0:0:
285,88,220827,1,0,1:0:0:0:
400,248,220970,1,0,1:0:0:0:
185,347,221112,1,8,0:0:0:0:
70,187,221254,6,2,P|50:112|86:29,1,145.799995550537,0|0,1:0|0:0,0:1:0:0:
97,23,221538,1,0,1:0:0:0:
186,209,221681,2,0,P|174:255|169:283,1,48.5999985168458,8|0,0:0|0:0,0:0:0:0:
343,57,221822,5,0,1:0:0:0:
343,57,221893,1,0,1:0:0:0:
343,57,221965,2,2,B|389:47|389:47|432:63|432:63|500:49,1,145.799995550537,0|0,1:0|0:0,0:1:0:0:
506,50,222249,1,8,0:0:0:0:
372,296,222391,6,2,B|387:322|387:322|289:285|289:285|321:225|327:201|329:148,1,243.000009269715,6|0,1:2|1:0,0:1:0:0:
52,155,222818,2,0,P|115:131|169:123,1,97.1999970336915,8|0,0:0|0:0,0:0:0:0:
417,159,223102,1,0,1:0:0:0:
211,20,223244,1,2,1:0:0:0:
211,20,223315,1,0,1:0:0:0:
211,20,223387,2,0,P|225:57|228:91,1,48.5999985168458,8|0,0:0|0:0,0:0:0:0:
201,244,223529,6,2,B|89:214|119:305|0:266,1,194.399994067383,2|0,1:2|1:0,0:1:0:0:
91,159,223955,2,0,P|108:203|121:245,1,48.5999985168458,8|0,0:0|0:0,0:0:0:0:
312,241,224098,2,0,P|294:274|281:324,1,48.5999985168458,2|0,0:1|0:0,0:0:0:0:
167,346,224240,1,0,1:0:0:0:
216,133,224382,2,0,P|225:77|247:8,1,97.1999970336915,0|8,1:0|0:0,0:0:0:0:
496,124,224666,5,6,1:0:0:0:
510,158,224737,1,0,0:2:0:0:
501,199,224809,1,0,0:2:0:0:
467,230,224880,1,0,0:2:0:0:
413,233,224951,1,0,1:2:0:0:
365,194,225022,1,0,0:2:0:0:
302,182,225093,1,8,0:2:0:0:
248,206,225164,1,0,0:2:0:0:
218,257,225235,1,0,0:2:0:0:
230,305,225306,1,0,0:2:0:0:
264,330,225377,1,0,1:2:0:0:
298,326,225448,1,0,0:2:0:0:
316,303,225519,1,0,1:2:0:0:
312,279,225590,1,0,0:2:0:0:
301,266,225662,1,8,0:2:0:0:
287,262,225732,1,0,0:2:0:0:
271,265,225802,5,0,1:2:0:0:
227,283,225873,1,0,0:2:0:0:
182,267,225943,1,0,0:2:0:0:
160,225,226014,1,0,0:2:0:0:
173,180,226084,1,0,1:2:0:0:
213,155,226154,1,0,0:2:0:0:
252,118,226225,1,8,0:2:0:0:
273,80,226295,1,0,0:2:0:0:
259,37,226366,1,0,1:2:0:0:
231,20,226436,1,0,0:2:0:0:
199,29,226506,6,0,P|168:37|127:45,1,40.5,0|0,1:0|0:0,0:0:0:0:
340,167,226647,2,0,P|379:177|413:195,1,40.5,0|0,1:0|0:0,0:0:0:0:
241,290,226788,1,8,0:0:0:0:
107,115,226929,6,2,B|58:112|19:85|19:85|64:170|56:234,1,243.000009269715,6|0,1:2|1:0,0:1:0:0:
309,242,227352,1,10,0:2:0:0:
17,372,227492,1,0,0:0:0:0:
366,301,227633,1,2,1:0:0:0:
133,271,227773,1,0,1:0:0:0:
133,271,227844,1,0,1:0:0:0:
133,271,227915,1,10,0:2:0:0:
314,361,228056,1,0,1:0:0:0:
183,121,228197,6,0,P|190:176|195:224,1,97.1999970336915,2|0,0:1|1:0,0:0:0:0:
436,262,228477,1,10,0:2:0:0:
487,146,228618,1,0,0:0:0:0:
440,28,228760,1,2,1:1:0:0:
465,268,228901,5,0,1:0:0:0:
326,60,229042,1,10,0:1:0:0:
278,362,229183,6,2,B|314:329|358:317|358:317|352:247|375:146,1,194.399994067383,6|0,1:2|1:0,0:1:0:0:
10,249,229608,2,0,P|73:258|123:271,1,97.1999970336915,8|0,0:0|0:0,0:0:0:0:
266,97,229891,1,0,1:0:0:0:
218,92,229961,1,0,0:0:0:0:
176,117,230032,1,0,1:0:0:0:
162,163,230103,1,0,0:0:0:0:
177,208,230174,2,0,P|215:200|245:197,1,48.5999985168458,8|0,0:0|0:0,0:0:0:0:
17,133,230315,6,2,B|64:141|106:155|106:155|205:107|276:131,1,243.000009269715,2|0,1:2|1:0,0:1:0:0:
355,194,230669,2,2,P|360:110|386:33,1,145.799995550537,0|0,0:1|0:0,0:1:0:0:
293,372,231023,1,2,1:0:0:0:
464,243,231164,1,0,1:0:0:0:
237,161,231306,1,10,0:1:0:0:
493,329,231447,6,2,B|477:282|504:238|504:238|487:196|487:196|512:145|494:94,1,243.000009269715,6|0,1:2|1:0,0:1:0:0:
235,266,231872,2,0,P|175:249|128:202,1,97.1999970336915,8|0,0:0|0:0,0:0:0:0:
28,0,232155,6,2,P|38:56|64:119,1,97.1999970336915,2|0,1:2|0:0,0:1:0:0:
0,209,232367,2,2,P|54:181|117:154,1,97.1999970336915,10|0,0:2|0:0,0:1:0:0:
198,149,232579,6,2,B|264:137|334:170|334:170|399:137|408:92|408:92|362:120|333:120,1,303.750011587143,0|0,1:0|0:0,0:1:0:0:
343,124,233004,1,10,0:1:0:0:
461,256,233145,1,0,3:3:0:0:
374,28,233287,1,2,1:0:0:0:
246,217,233428,1,0,1:0:0:0:
509,144,233570,1,10,0:1:0:0:
120,76,233711,6,2,P|182:133|273:118,1,145.799995550537,6|0,1:2|0:0,0:1:0:0:
261,130,233994,1,2,1:0:0:0:
93,274,234136,1,8,0:0:0:0:
381,197,234277,1,8,0:3:0:0:
252,366,234427,5,2,1:0:0:0:
229,321,234496,1,0,1:0:0:0:
262,279,234566,1,10,0:2:0:0:
240,238,234636,1,8,0:0:0:0:
251,215,234706,1,10,0:1:0:0:
0,182,234828,6,2,P|79:189|158:200,1,145.799995550537,6|0,1:2|0:0,0:1:0:0:
170,218,235111,1,0,1:0:0:0:
454,48,235252,2,0,P|365:50|309:92,1,145.799995550537,8|0,0:0|0:0,0:0:0:0:
298,106,235544,1,8,0:0:0:0:
438,302,235692,5,8,0:0:0:0:
499,257,235767,1,8,0:0:0:0:
512,193,235842,1,8,0:0:0:0:
496,152,235918,1,8,0:0:0:0:
473,131,235993,5,8,1:0:0:0:
159,229,238262,6,0,B|118:134|234:53|234:53|207:122|248:172,1,324,2|0,0:0|0:0,0:0:0:0:
69,137,239535,2,0,P|134:123|324:99,1,243,2|0,0:0|0:0,0:0:0:0:
403,304,240667,6,0,B|396:349|396:349|484:284|484:284|446:237|414:155,1,283.5,2|0,0:0|0:0,0:0:0:0:
368,30,241800,2,0,B|360:104|311:78|310:150,1,121.5,2|0,0:0|0:0,0:0:0:0:
259,238,242366,2,0,P|317:220|351:212,1,81,2|0,0:0|0:0,0:0:0:0:
207,117,242932,6,0,B|199:91|199:91|60:52|60:52|109:110|92:160,1,283.5,2|0,0:0|0:0,0:0:0:0:
43,250,244064,2,0,B|163:218|127:340|270:294,1,243,2|0,0:0|0:0,0:0:0:0:
400,155,245196,2,0,P|433:203|318:201,1,243,2|0,3:2|0:0,0:0:0:0:
255,41,246187,6,0,P|242:132|225:247,1,182.250006952286,6|8,3:2|0:3,0:0:0:0:
195,332,246895,1,10,3:3:0:0:
138,242,247036,1,0,3:0:0:0:
270,288,247178,1,8,3:3:0:0:
104,366,247319,2,0,P|73:326|63:243,1,121.500004634857,6|0,3:2|0:0,0:0:0:0:
132,58,247743,6,0,P|102:79|76:89,1,60.7500023174287,0|0,3:0|0:0,0:0:0:0:
208,168,248026,2,0,P|204:131|209:104,1,60.7500023174287,0|0,3:0|0:0,0:0:0:0:
74,178,248309,2,0,P|107:193|128:210,1,60.7500023174287,2|0,3:2|0:0,0:0:0:0:
130,44,248592,6,0,P|95:69|65:81,1,60.7500023174287,2|0,3:2|0:0,0:0:0:0:
220,173,248875,2,0,P|216:130|221:98,1,60.7500023174287,2|0,3:2|0:0,0:0:0:0:
62,185,249158,2,0,P|101:203|127:224,1,60.7500023174287,2|0,3:2|0:0,0:0:0:0:
137,131,249441,5,8,0:0:0:0:
384,243,249583,2,0,P|337:243|253:292,1,121.500004634857,6|0,3:2|0:0,0:0:0:0:
423,155,250007,6,0,P|393:134|367:124,1,60.7500023174287,0|0,3:0|0:0,0:0:0:0:
499,45,250290,2,0,P|495:82|500:109,1,60.7500023174287,8|0,3:0|0:0,0:0:0:0:
365,35,250573,2,0,P|398:20|419:3,1,60.7500023174287,2|0,3:2|0:0,0:0:0:0:
421,169,250856,6,0,P|386:144|356:132,1,60.7500023174287,2|0,3:2|0:0,0:0:0:0:
511,40,251139,2,0,P|507:83|512:115,1,60.7500023174287,0|0,3:0|0:0,0:0:0:0:
353,28,251422,2,0,P|392:10|418:-11,1,60.7500023174287,2|0,3:2|0:0,0:0:0:0:
430,85,251705,5,8,0:0:0:0:
256,234,251837,2,0,B|237:177|281:148|247:81,1,145.799995550537,6|0,3:2|0:0,0:0:0:0:
199,318,252255,2,0,P|163:342|137:365,1,72.8999977752686,8|0,0:0|0:0,0:0:0:0:
316,323,252534,1,0,3:0:0:0:
165,224,252674,1,0,3:0:0:0:
345,153,252813,1,8,0:0:0:0:
114,133,252954,6,0,P|83:191|80:288,1,145.799995550537,0|0,3:0|0:0,0:0:0:0:
328,260,253379,2,0,P|292:249|240:237,1,72.8999977752686,10|0,0:0|0:0,0:0:0:0:
405,297,253662,2,0,P|395:349|389:385,1,72.8999977752686,2|0,3:2|3:0,0:0:0:0:
475,237,253945,1,8,0:0:0:0:
368,154,254086,6,0,B|356:111|356:111|367:80|367:80|342:-6,1,145.799995550537,6|0,3:2|3:0,0:0:0:0:
163,199,254511,2,0,P|150:260|143:301,1,72.8999977752686,8|0,0:0|0:0,0:0:0:0:
326,256,254794,5,8,0:0:0:0:
98,111,254935,1,8,0:3:0:0:
57,275,255077,5,2,1:2:0:0:
308,131,255220,1,8,3:0:0:0:
64,37,255364,5,8,0:0:0:0:
0,101,255507,2,0,P|-5:139|9:182,1,72.8999977752686,8|0,1:3|0:0,0:0:0:0:
387,290,255794,5,8,0:0:0:0:
445,231,255938,2,0,P|453:191|423:146,1,72.8999977752686,10|0,1:3|0:0,0:0:0:0:
25,261,256225,6,0,P|68:278|104:303,1,72.8999977752686,8|0,0:0|0:0,0:0:0:0:
312,370,256512,5,10,0:0:0:0:
89,182,256655,1,8,1:0:0:0:
411,87,256799,5,8,0:0:0:0:
212,303,256943,1,8,1:0:0:0:
212,303,257226,2,0,P|218:272|222:235,1,48.5999985168458
478,208,257495,6,2,B|412:222|399:180|337:188,1,145.799995550537,6|0,1:2|0:0,0:1:0:0:
312,198,257778,1,0,1:0:0:0:
24,81,257919,2,0,P|87:136|174:114,1,145.799995550537,8|0,0:0|0:0,0:0:0:0:
165,119,258202,1,2,1:2:0:0:
1,208,258344,1,0,1:0:0:0:
261,257,258485,1,8,0:0:0:0:
120,372,258626,6,0,P|117:310|110:255,1,97.1999970336915,2|0,1:2|0:0,0:1:0:0:
435,273,258909,1,0,1:0:0:0:
234,148,259051,2,0,P|185:207|196:289,1,145.799995550537,10|0,0:0|0:0,0:0:0:0:
199,296,259334,1,2,1:2:0:0:
473,153,259475,1,0,1:0:0:0:
333,180,259617,1,8,0:0:0:0:
505,196,259758,6,2,P|503:89|505:44,1,145.799995550537,6|0,1:2|0:0,0:1:0:0:
503,21,260041,1,0,1:0:0:0:
370,244,260183,1,8,0:0:0:0:
257,73,260324,1,0,0:0:0:0:
142,134,260466,1,2,1:2:0:0:
152,147,260607,1,0,1:0:0:0:
186,24,260749,5,10,0:2:0:0:
50,69,260890,1,0,0:0:0:0:
237,239,261032,5,2,1:2:0:0:
303,89,261173,1,0,0:0:0:0:
73,214,261315,6,0,P|79:289|80:375,1,145.799995550537,10|0,0:0|0:0,0:0:0:0:
82,384,261598,1,10,0:1:0:0:
455,279,261739,1,10,1:1:0:0:
455,279,262022,6,2,B|370:273|415:232|320:225,1,145.799995550537,6|0,1:2|0:0,0:1:0:0:
296,223,262305,1,0,0:0:0:0:
460,180,262447,2,0,L|482:56,1,97.1999970336915,8|0,0:1|0:0,0:0:0:0:
317,325,262730,2,0,L|211:367,1,97.1999970336915,0|0,1:0|0:0,0:0:0:0:
260,72,263013,2,0,L|369:141,1,97.1999970336915,10|0,0:0|0:0,0:0:0:0:
242,221,263296,5,2,1:2:0:0:
406,40,263437,1,0,1:0:0:0:
188,6,263579,2,0,P|171:69|174:129,1,97.1999970336915,8|0,0:0|0:0,0:0:0:0:
156,210,263862,2,0,B|75:198|91:250|5:227,1,145.799995550537,2|0,1:2|0:0,0:0:0:0:
0,197,264145,1,8,0:0:0:0:
293,311,264286,6,0,L|466:356,1,145.799995550537,6|0,1:1|0:0,0:0:0:0:
472,355,264569,1,0,1:0:0:0:
309,191,264711,1,10,0:0:0:0:
309,191,264852,1,0,0:0:0:0:
509,205,264994,5,0,1:0:0:0:
218,237,265135,1,2,1:2:0:0:
218,237,265277,1,8,0:0:0:0:
492,64,265418,5,0,1:0:0:0:
192,336,265560,1,2,0:0:0:0:
192,336,265700,1,0,1:0:0:0:
408,12,265841,6,0,P|397:63|389:121,1,97.1999970336915,8|2,0:0|0:1,0:0:0:0:
144,58,266123,1,8,0:0:0:0:
157,104,266193,1,8,0:0:0:0:
137,143,266264,1,10,0:0:0:0:
118,183,266334,1,8,0:0:0:0:
128,230,266405,1,8,0:0:0:0:
425,203,266545,6,2,P|358:269|265:256,1,194.399994067383,6|0,1:2|1:0,0:1:0:0:
1,264,266968,1,8,0:0:0:0:
202,333,267108,1,0,0:0:0:0:
211,175,267249,5,0,1:0:0:0:
94,197,267391,1,0,1:0:0:0:
321,363,267532,5,10,0:0:0:0:
288,123,267672,1,0,0:0:0:0:
91,292,267813,6,0,P|115:347|129:395,1,97.1999970336915,2|0,1:2|0:0,0:0:0:0:
432,215,268096,2,0,P|381:230|320:241,1,97.1999970336915,10|0,0:0|0:0,0:0:0:0:
14,27,268379,2,0,P|72:81|154:62,1,145.799995550537,2|0,1:2|0:0,0:0:0:0:
160,54,268662,1,8,0:0:0:0:
39,187,268803,6,2,P|100:201|159:221,1,97.1999970336915,6|0,1:2|0:0,0:1:0:0:
330,130,269086,1,0,0:0:0:0:
239,74,269228,2,0,P|231:130|241:191,1,97.1999970336915,10|0,0:0|0:0,0:0:0:0:
338,357,269511,1,0,1:2:0:0:
419,137,269652,1,2,1:2:0:0:
175,274,269794,1,8,0:0:0:0:
509,275,269935,6,0,P|497:167|499:93,1,145.799995550537,2|0,1:2|0:0,0:0:0:0:
497,96,270218,1,0,1:0:0:0:
308,328,270360,2,0,P|260:347|204:365,1,97.1999970336915,10|0,0:0|0:0,0:0:0:0:
164,93,270643,1,10,0:0:0:0:
210,107,270713,1,8,0:0:0:0:
242,143,270784,1,8,0:0:0:0:
264,184,270854,1,8,0:0:0:0:
259,235,270925,1,10,0:0:0:0:
127,384,271078,6,0,B|101:278|176:317|149:192,1,194.399994067383,6|0,1:1|1:0,0:0:0:0:
114,90,271500,1,8,0:0:0:0:
60,198,271641,1,2,0:0:0:0:
221,91,271782,1,0,1:0:0:0:
50,0,271923,1,0,1:0:0:0:
241,229,272063,5,10,0:0:0:0:
356,153,272203,2,2,P|379:107|353:5,1,145.799995550537,0|0,1:0|0:0,0:1:0:0:
323,7,272485,1,0,1:0:0:0:
402,244,272626,2,0,L|504:271,1,97.1999970336915,10|0,0:2|0:0,0:0:0:0:
314,268,272908,1,0,1:0:0:0:
426,365,273049,1,0,1:0:0:0:
449,171,273190,1,8,0:0:0:0:
172,49,273330,6,2,P|131:124|151:255,1,194.399994067383,4|0,1:2|1:0,0:1:0:0:
264,141,273753,2,0,B|311:126|311:126|360:146,1,97.1999970336915,8|0,0:0|0:0,0:0:0:0:
229,223,274034,1,0,1:0:0:0:
430,146,274175,1,0,1:0:0:0:
258,6,274316,1,8,0:0:0:0:
347,252,274457,2,2,B|432:281|404:234|498:253,1,145.799995550537,2|0,1:2|0:0,0:1:0:0:
503,272,274738,1,0,0:0:0:0:
238,328,274879,2,0,P|172:342|128:352,1,97.1999970336915,10|0,0:2|0:0,0:0:0:0:
148,192,275161,5,10,0:3:0:0:
148,192,275235,1,8,0:3:0:0:
148,192,275308,2,0,P|159:153|166:119,1,48.5999985168458,8|8,0:3|0:3,0:0:0:0:
310,17,275454,5,10,0:3:0:0:
310,17,275527,1,8,0:3:0:0:
310,17,275601,2,2,B|272:111|342:118|312:206,1,194.399994067383,6|0,1:2|0:0,0:1:0:0:
16,340,276025,2,0,P|49:281|135:280,1,145.799995550537,8|0,0:0|0:0,0:0:0:0:
144,290,276308,1,2,1:2:0:0:
14,183,276450,1,0,1:0:0:0:
244,225,276591,1,8,0:0:0:0:
104,75,276733,6,0,P|99:137|102:181,1,97.1999970336915,2|0,1:0|0:0,0:0:0:0:
281,352,277016,1,0,1:0:0:0:
375,296,277157,2,0,B|387:237|379:186,1,97.1999970336915,10|0,0:0|0:0,0:0:0:0:
326,117,277440,1,2,1:2:0:0:
512,66,277582,1,0,1:0:0:0:
387,0,277723,1,10,0:2:0:0:
453,179,277865,1,0,0:0:0:0:
303,95,278006,6,2,L|148:113,1,145.799995550537,2|0,1:2|0:0,0:1:0:0:
132,133,278289,1,8,0:0:0:0:
219,309,278431,2,2,B|136:329|118:279|24:300,1,194.399994067383,2|0,1:2|1:0,0:1:0:0:
459,187,278855,2,0,P|414:280|403:385,1,194.399994067383,8|0,1:0|0:0,0:0:0:0:
58,103,279280,2,0,P|145:85|193:36,1,145.799995550537,0|0,1:0|0:0,0:0:0:0:
188,11,279560,1,0,0:0:0:0:
299,203,279698,6,0,P|242:195|172:195,1,97.1999970336915,2|0,1:2|1:0,0:0:0:0:
389,121,279978,1,8,0:0:0:0:
298,313,280118,2,2,P|368:272|511:265,1,194.399994067383,6|0,1:2|1:0,0:1:0:0:
219,280,280542,1,8,0:0:0:0:
352,384,280684,1,0,0:0:0:0:
389,188,280825,5,0,1:0:0:0:
208,365,280966,1,0,1:0:0:0:
273,175,281108,2,0,P|279:121|280:56,1,97.1999970336915,10|0,0:0|0:0,0:0:0:0:
92,288,281391,6,0,P|53:263|22:206,1,97.1999970336915,2|0,1:2|0:0,0:0:0:0:
364,221,281674,2,0,P|332:268|287:290,1,97.1999970336915,8|0,0:0|1:0,0:0:0:0:
162,181,281957,1,2,1:2:0:0:
392,82,282099,1,0,1:0:0:0:
175,0,282240,1,8,0:0:0:0:
298,157,282381,2,0,B|383:157|359:197|471:190,1,145.799995550537,6|0,1:1|0:0,0:0:0:0:
472,181,282665,1,0,1:0:0:0:
252,238,282806,2,0,P|242:291|235:341,1,97.1999970336915,8|0,0:0|0:0,0:0:0:0:
329,56,283089,5,0,1:0:0:0:
361,272,283231,1,2,1:2:0:0:
168,179,283372,1,8,0:0:0:0:
416,21,283514,2,2,P|436:66|402:126,1,97.1999970336915,6|0,1:2|0:0,0:1:0:0:
311,162,283797,1,0,1:0:0:0:
133,282,283938,2,0,P|121:330|142:384,1,97.1999970336915,8|0,0:0|0:0,0:0:0:0:
443,221,284221,6,0,P|401:210|373:207,1,48.5999985168458,8|0,0:0|0:0,0:0:0:0:
176,187,284363,1,2,1:2:0:0:
176,187,284434,1,0,1:0:0:0:
176,187,284504,2,0,P|227:178|254:175,1,48.5999985168458,0|0,1:0|0:0,0:0:0:0:
61,12,284645,6,2,B|35:110|101:91|79:205,1,170.09999480896,6|0,1:2|0:0,0:1:0:0:
78,220,284929,1,0,1:0:0:0:
197,62,285070,1,8,0:0:0:0:
0,157,285212,1,0,0:0:0:0:
269,316,285353,5,0,1:0:0:0:
167,182,285495,1,0,1:0:0:0:
187,356,285636,1,10,0:0:0:0:
240,142,285778,1,0,1:0:0:0:
23,270,285919,6,0,P|81:273|137:281,1,97.1999970336915,0|0,0:0|1:0,0:0:0:0:
390,305,286202,1,10,0:0:0:0:
234,222,286343,1,0,0:0:0:0:
332,375,286485,2,0,P|384:377|439:387,1,97.1999970336915,2|0,1:2|0:0,0:0:0:0:
510,314,286768,1,8,0:0:0:0:
286,142,286909,6,2,P|349:209|453:197,1,170.09999480896,2|0,1:2|0:0,0:1:0:0:
449,193,287192,1,0,1:0:0:0:
200,302,287334,1,8,0:0:0:0:
200,302,287475,1,0,0:0:0:0:
196,124,287616,5,0,1:0:0:0:
277,346,287758,1,0,1:0:0:0:
298,69,287899,5,10,0:0:0:0:
253,221,288041,1,0,0:0:0:0:
0,156,288183,6,0,B|35:165|61:161|61:161|98:187|98:187|132:188|166:198,1,170.09999480896,2|0,1:2|0:0,0:0:0:0:
179,211,288466,1,8,0:0:0:0:
215,2,288607,1,0,0:0:0:0:
33,251,288749,2,0,B|48:288|45:319|45:319|66:384,1,113.399996539307,2|0,1:2|1:0,0:0:0:0:
271,250,289032,2,0,P|314:264|338:274,1,56.6999982696534,8|0,0:0|0:0,0:0:0:0:
512,125,289174,6,2,B|430:106|449:167|327:116,1,145.799995550537,6|0,1:2|0:0,0:1:0:0:
346,124,289457,1,0,1:0:0:0:
180,244,289598,2,0,P|157:206|152:142,1,97.1999970336915,8|0,0:0|0:0,0:0:0:0:
259,84,289881,1,0,1:0:0:0:
432,222,290022,1,0,1:0:0:0:
226,332,290164,1,8,0:0:0:0:
75,191,290306,2,0,P|72:79|117:6,1,194.399994067383,0|0,1:0|1:0,0:0:0:0:
292,163,290730,2,0,P|315:222|326:271,1,97.1999970336915,8|0,0:0|0:0,0:0:0:0:
365,344,291013,5,2,1:0:0:0:
414,173,291160,1,0,1:0:0:0:
213,125,291307,1,8,0:0:0:0:
475,254,291454,2,2,P|500:200|481:69,1,194.399994067383,2|0,1:2|1:0,0:1:0:0:
296,229,291908,2,0,P|280:281|268:332,1,97.1999970336915,10|0,0:0|0:0,0:0:0:0:
134,267,292211,1,10,0:0:0:0:
399,143,292347,1,8,0:0:0:0:
399,143,292416,1,8,0:0:0:0:
399,143,292484,2,0,P|352:133|317:126,1,48.5999985168458,10|8,0:0|0:0,0:0:0:0:
163,16,292625,6,0,B|165:114|220:109|220:207,1,194.399994067383,6|0,1:2|0:0,0:0:0:0:
189,352,293319,1,8,0:0:0:0:
171,342,293875,6,0,P|125:354|63:355,1,89.1000027191163,6|0,1:2|0:0,0:0:0:0:
339,208,294158,2,0,P|358:266|360:308,1,89.1000027191163,8|0,0:0|0:0,0:0:0:0:
84,190,294441,1,0,1:0:0:0:
269,259,294582,1,0,1:0:0:0:
12,253,294724,1,8,0:0:0:0:
197,49,294865,6,0,P|166:130|172:221,1,178.200005438233,2|2,1:0|1:0,0:0:0:0:
415,106,295290,1,8,0:0:0:0:
262,87,295431,1,2,0:1:0:0:
441,190,295573,5,0,1:0:0:0:
475,9,295714,1,2,1:0:0:0:
235,164,295856,1,8,0:0:0:0:
452,220,295997,6,2,B|377:202|360:260|266:234,1,178.200005438233,6|0,1:2|1:0,0:1:0:0:
104,304,296422,2,0,P|147:314|187:333,1,89.1000027191163,10|0,0:1|0:0,0:0:0:0:
166,131,296705,1,0,1:0:0:0:
80,215,296846,1,0,1:0:0:0:
283,245,296988,2,0,P|271:187|263:130,1,89.1000027191163,8|2,0:0|0:1,0:0:0:0:
0,191,297271,5,0,1:0:0:0:
104,304,297408,1,2,1:0:0:0:
198,209,297546,1,8,0:0:0:0:
361,270,297683,1,2,3:1:0:0:
419,192,297821,5,0,1:0:0:0:
473,312,297959,1,2,1:0:0:0:
512,97,298096,1,8,0:0:0:0:
227,75,298234,6,2,P|296:138|385:118,1,178.200005438233,0|0,1:0|1:0,0:1:0:0:
201,231,298647,1,10,0:1:0:0:
205,235,298789,1,0,0:0:0:0:
105,44,298931,1,0,1:0:0:0:
109,48,299073,1,0,1:0:0:0:
1,162,299215,1,8,0:0:0:0:
231,120,299357,6,0,P|226:61|227:21,1,89.1000027191163,2|0,1:0|0:0,0:0:0:0:
101,255,299642,1,2,1:0:0:0:
315,274,299784,2,0,P|370:281|414:292,1,89.1000027191163,8|2,0:0|0:1,0:0:0:0:
482,127,300067,1,0,1:0:0:0:
310,195,300208,1,2,1:0:0:0:
512,226,300350,1,8,0:0:0:0:
244,7,300491,6,2,P|250:75|251:156,1,133.650004078674,6|0,1:2|0:0,0:1:0:0:
247,168,300774,1,2,1:0:0:0:
55,281,300916,2,0,P|107:262|166:258,1,89.1000027191163,10|0,0:1|0:0,0:0:0:0:
345,229,301199,1,0,1:0:0:0:
345,229,301340,1,0,1:0:0:0:
78,123,301482,2,0,P|127:133|178:156,1,89.1000027191163,8|2,0:0|0:1,0:0:0:0:
378,326,301764,5,0,1:0:0:0:
319,133,301906,1,2,1:0:0:0:
209,267,302047,5,8,0:0:0:0:
487,193,302189,1,2,3:1:0:0:
219,31,302331,5,8,0:0:0:0:
214,75,302401,1,8,0:0:0:0:
228,116,302472,1,8,0:0:0:0:
261,146,302543,1,8,0:0:0:0:
291,179,302614,1,8,0:0:0:0:
303,221,302684,1,8,0:0:0:0:
299,266,302755,2,0,P|285:329|280:376,1,89.1000027191163,6|0,1:1|0:0,0:0:0:0:
169,186,303038,1,0,1:0:0:0:
386,303,303180,2,0,P|445:309|519:209,1,178.200005438233,10|0,0:0|1:0,0:0:0:0:
305,135,303604,5,0,1:0:0:0:
187,302,303746,1,8,0:0:0:0:
64,165,303887,2,0,P|49:116|45:63,1,89.1000027191163,2|0,1:1|0:0,0:0:0:0:
273,42,304170,1,2,1:2:0:0:
408,132,304312,2,0,P|403:203|361:302,1,178.200005438233,8|0,0:0|1:0,0:0:0:0:
197,174,304736,1,2,1:2:0:0:
434,47,304878,1,8,0:0:0:0:
241,284,305019,6,2,B|134:275|190:230|46:220,1,178.200005438233,6|2,1:2|1:2,0:1:0:0:
309,180,305444,1,10,0:0:0:0:
175,99,305585,1,0,0:0:0:0:
347,42,305727,1,0,1:0:0:0:
215,172,305868,1,0,1:0:0:0:
370,274,306010,1,10,0:0:0:0:
509,158,306151,2,2,P|502:102|452:-18,1,178.200005438233,2|2,1:2|1:2,0:1:0:0:
281,239,306576,6,0,P|263:295|251:331,1,89.1000027191163,8|2,0:0|0:0,0:0:0:0:
99,153,306858,1,0,1:2:0:0:
99,153,306929,1,0,1:0:0:0:
99,153,307000,1,0,1:0:0:0:
295,29,307142,1,10,0:2:0:0:
377,261,307284,6,2,B|430:278|430:278|494:255|504:166,1,178.200005438233,6|2,1:2|1:2,0:1:0:0:
254,338,307708,2,0,P|213:344|151:365,1,89.1000027191163,10|0,0:0|0:0,0:0:0:0:
276,223,307991,1,0,1:0:0:0:
129,118,308133,1,0,1:0:0:0:
354,28,308274,1,8,0:0:0:0:
183,227,308416,6,2,B|201:171|201:171|242:146|242:146|268:56,1,178.200005438233,2|2,1:2|1:2,0:1:0:0:
298,237,308840,2,0,P|344:248|398:266,1,89.1000027191163,8|2,0:0|0:2,0:0:0:0:
161,331,309123,1,0,1:0:0:0:
161,331,309194,1,0,1:0:0:0:
161,331,309265,1,2,1:2:0:0:
26,157,309406,1,8,0:0:0:0:
251,56,309548,6,0,P|229:124|216:181,1,89.1000027191163,6|0,1:2|0:0,0:0:0:0:
85,266,309831,2,0,P|39:285|0:306,1,89.1000027191163,2|8,1:0|0:0,0:0:0:0:
329,177,310114,2,2,B|428:182|390:234|512:243,1,178.200005438233,6|0,1:2|1:0,0:1:0:0:
369,354,310538,1,4,1:2:0:0:
194,209,310679,1,0,0:0:0:0:
423,111,310821,1,8,0:0:0:0:
262,311,310963,6,0,P|222:315|144:346,1,89.1000027191163,2|0,1:0|1:0,0:0:0:0:
136,349,311175,1,0,1:0:0:0:
136,349,311246,1,2,1:0:0:0:
407,215,311387,1,10,0:3:0:0:
73,131,311529,5,10,1:3:0:0:
436,307,311670,1,10,0:3:0:0:
291,18,311846,6,0,B|140:0|22:122|38:311|155:414|279:399|411:380|476:285|482:107|349:37|349:37|275:87|280:187|280:187|194:167|130:211,1,1305.71994819837,6|0,1:2|0:0,0:0:0:0:
