osu file format v14

[General]
AudioFilename: audio.mp3
AudioLeadIn: 0
PreviewTime: 111744
Countdown: 0
SampleSet: Soft
StackLeniency: 0.4
Mode: 0
LetterboxInBreaks: 0
WidescreenStoryboard: 0

[Editor]
Bookmarks: 9696,28040,45238,95176,158994,312948
DistanceSpacing: 0.6
BeatDivisor: 4
GridSize: 8
TimelineZoom: 2.1

[Metadata]
Title:Nights of Blood
TitleUnicode:Nights of Blood
Artist:Asriel
ArtistUnicode:Asriel
Creator:gazimal
Version:Abyss
Source:
Tags:Ragnarok Asriel COMPLETE BOX kokomi japanese j-rock rock Xanadu Mushocup 2024 MSC2024
BeatmapID:4497567
BeatmapSetID:2137183

[Difficulty]
HPDrainRate:6
CircleSize:4.2
OverallDifficulty:9.4
ApproachRate:9.7
SliderMultiplier:1.8
SliderTickRate:1

[Events]
//Background and Video events
0,0,"BG.png",0,0
//Break Periods
//Storyboard Layer 0 (Background)
//Storyboard Layer 1 (Fail)
//Storyboard Layer 2 (Pass)
//Storyboard Layer 3 (Foreground)
//Storyboard Layer 4 (Overlay)
//Storyboard Sound Samples

[TimingPoints]
525,382.165605095541,3,2,0,40,1,0
9696,-100,3,2,1,40,0,0
10079,-333.333333333333,3,2,1,40,0,0
18868,-166.666666666667,3,2,1,40,0,0
20302,-166.666666666667,3,2,1,5,0,0
20397,-166.666666666667,3,2,1,40,0,0
21448,-166.666666666667,3,2,1,5,0,0
21544,-166.666666666667,3,2,1,40,0,0
23359,-166.666666666667,3,2,1,5,0,0
23454,-166.666666666667,3,2,1,40,0,0
23837,-333.333333333334,3,2,1,40,0,0
41703,-166.666666666667,3,2,1,5,0,0
41798,-166.666666666667,3,2,1,40,0,0
41894,-166.666666666667,3,2,1,5,0,0
42945,-166.666666666667,3,2,1,40,0,0
43900,-250.000000000001,3,2,1,40,0,0
44474,-500,3,2,1,40,0,0
45238,500,3,2,1,40,1,0
45238,-500,3,2,1,40,0,0
46738,618.556701030928,3,2,1,40,1,0
50449,272.727272727273,4,2,2,50,1,0
50449,-500,4,2,2,50,0,0
52494,-100,4,2,2,50,0,0
52630,272.727272727273,3,2,2,70,1,0
52630,-66.6666666666667,4,2,2,70,0,0
52834,-166.666666666667,3,2,1,5,0,0
52902,-66.6666666666667,4,2,2,70,0,0
53175,-66.6666666666667,4,2,1,70,0,0
53448,-66.6666666666667,4,2,2,70,0,0
53652,-166.666666666667,3,2,1,5,0,0
53720,-250,3,2,2,70,0,0
54266,-66.6666666666667,3,2,2,70,0,0
54470,-166.666666666667,3,2,1,5,0,0
54539,-66.6666666666667,3,2,2,70,0,0
54811,-66.6666666666667,3,2,1,70,0,0
55084,-66.6666666666667,3,2,2,70,0,0
55289,-166.666666666667,3,2,1,5,0,0
55357,-250,3,2,2,70,0,0
55902,-58.8235294117647,3,2,2,70,0,0
56107,-166.666666666667,3,2,1,5,0,0
56175,-58.8235294117647,3,2,2,70,0,0
56448,-58.8235294117647,3,2,1,70,0,0
56720,-58.8235294117647,3,2,2,70,0,0
56925,-166.666666666667,3,2,1,5,0,0
56993,-250,3,2,2,70,0,0
57539,-55.5555555555556,3,2,2,70,0,0
57743,-166.666666666667,3,2,1,5,0,0
57811,-55.5555555555556,3,2,1,70,0,0
58357,-250,3,2,1,70,0,0
59176,272.727272727273,4,2,1,65,1,0
59380,-166.666666666667,3,2,1,5,0,0
59448,-62.5,4,2,2,65,0,0
59653,-166.666666666667,3,2,1,5,0,0
59721,-62.5,4,2,2,65,0,0
60130,-100,4,2,2,65,0,0
60471,-166.666666666667,3,2,1,5,0,0
60539,-83.3333333333333,4,2,2,65,0,0
60948,-100,4,2,2,65,0,0
61085,-76.9230769230769,4,2,2,65,0,0
61289,-166.666666666667,3,2,1,5,0,0
61357,-66.6666666666667,4,2,2,65,0,0
61562,-166.666666666667,3,2,1,5,0,0
61630,-100,4,2,2,65,0,0
61835,-166.666666666667,3,2,1,5,0,0
61903,-100,4,2,2,65,0,0
62039,-83.3333333333333,4,2,2,65,0,0
62448,-66.6666666666667,4,2,2,65,0,0
62653,-166.666666666667,3,2,1,5,0,0
62721,-100,4,2,2,65,0,0
62857,-76.9230769230769,4,2,2,65,0,0
63471,-166.666666666667,3,2,1,5,0,0
63539,-58.8235294117647,4,2,2,65,0,0
63744,-166.666666666667,3,2,1,5,0,0
63812,-66.6666666666667,4,2,2,65,0,0
64016,-166.666666666667,3,2,1,5,0,0
64085,-100,4,2,2,65,0,0
64221,-83.3333333333333,4,2,2,65,0,0
65653,-166.666666666667,3,2,1,5,0,0
65721,-66.6666666666667,4,2,2,65,0,0
65926,-166.666666666667,3,2,1,5,0,0
65994,-76.9230769230769,4,2,2,65,0,0
66744,-166.666666666667,3,2,1,5,0,0
66812,-76.9230769230769,4,2,2,65,0,0
67016,-76.9230769230769,4,2,1,65,0,0
67562,-166.666666666667,3,2,1,5,0,0
67630,-76.9230769230769,4,2,1,65,0,0
67903,-55.5555555555556,4,2,1,75,0,0
68107,-166.666666666667,3,2,1,5,0,0
68176,-55.5555555555556,4,2,2,75,0,0
68994,-71.4285714285714,4,2,2,75,0,0
70289,-166.666666666667,3,2,1,5,0,0
70357,-71.4285714285714,4,2,2,75,0,0
72266,-83.3333333333333,4,2,2,75,0,0
72471,-166.666666666667,3,2,1,5,0,0
72539,-83.3333333333333,4,2,2,75,0,0
72676,-166.666666666667,3,2,1,5,0,0
72812,-83.3333333333333,4,2,2,75,0,0
73357,-71.4285714285714,4,2,2,75,0,0
74448,-55.5555555555556,4,2,2,75,0,0
74653,-166.666666666667,3,2,1,5,0,0
74721,-55.5555555555556,4,2,2,75,0,0
75266,-71.4285714285714,4,2,2,75,0,0
75539,-66.6666666666667,4,2,2,75,0,0
75744,-166.666666666667,3,2,1,5,0,0
75812,-76.9230769230769,4,2,2,75,0,0
75948,-58.8235294117647,4,2,2,75,0,0
76153,-166.666666666667,3,2,1,5,0,0
76221,-58.8235294117647,4,2,2,75,0,0
76357,-100,4,2,1,75,0,0
76630,-100,4,2,2,55,0,0
76903,-100,4,2,1,55,0,0
77312,-133.333333333333,4,2,1,55,0,0
77721,-62.5,4,2,1,70,0,0
77926,-166.666666666667,3,2,1,5,0,0
77994,-62.5,4,2,3,70,0,0
78403,-83.3333333333333,4,2,1,70,0,0
78539,-83.3333333333333,4,2,2,70,0,0
78676,-83.3333333333333,4,2,1,70,0,0
78812,-83.3333333333333,4,2,2,70,0,0
79357,-83.3333333333333,4,2,3,70,0,0
79903,-66.6666666666667,4,2,1,70,0,0
80107,-166.666666666667,3,2,1,5,0,0
80176,-83.3333333333333,4,2,2,70,0,0
80448,-83.3333333333333,4,2,3,70,0,0
80721,-83.3333333333333,4,2,2,70,0,0
81812,-100,4,2,3,70,0,0
82016,-166.666666666667,3,2,1,5,0,0
82085,-66.6666666666667,4,2,1,70,0,0
82289,-166.666666666667,3,2,1,5,0,0
82357,-66.6666666666667,4,2,3,70,0,0
82562,-166.666666666667,3,2,1,5,0,0
82630,-66.6666666666667,4,2,3,70,0,0
82903,-100,4,2,3,70,0,0
83039,-66.6666666666667,4,2,1,70,0,0
83176,-66.6666666666667,4,2,2,70,0,0
83380,-66.6666666666667,4,2,2,5,0,0
83448,-83.3333333333333,4,2,2,70,0,0
83721,-100,4,2,3,70,0,0
83994,-71.4285714285714,4,2,3,70,0,0
84266,-62.5,4,2,1,70,0,0
84471,-166.666666666667,3,2,1,5,0,0
84539,-83.3333333333333,4,2,3,70,0,0
84676,-66.6666666666667,4,2,1,70,0,0
84812,-66.6666666666667,4,2,2,70,0,0
84948,-83.3333333333333,4,2,1,70,0,0
85085,-83.3333333333333,4,2,2,70,0,0
85221,-83.3333333333333,4,2,1,70,0,0
85357,-83.3333333333333,4,2,2,70,0,0
85562,-166.666666666667,3,2,1,5,0,0
85630,-83.3333333333333,4,2,2,70,0,0
85903,-83.3333333333333,4,2,3,70,0,0
86176,-100,4,2,1,70,0,0
86380,-166.666666666667,3,2,1,5,0,0
86448,-55.5555555555556,4,2,1,70,0,0
86653,-166.666666666667,3,2,1,5,0,0
86721,-66.6666666666667,4,2,3,70,0,0
87130,-83.3333333333333,4,2,1,70,0,0
87266,-83.3333333333333,4,2,2,70,0,0
87403,-83.3333333333333,4,2,1,70,0,0
87539,-83.3333333333333,4,2,2,70,0,0
88085,-83.3333333333333,4,2,3,70,0,0
88630,-58.8235294117647,4,2,1,70,0,0
88835,-166.666666666667,3,2,1,5,0,0
88903,-58.8235294117647,4,2,2,70,0,0
89176,-58.8235294117647,4,2,3,70,0,0
89448,-83.3333333333333,4,2,2,70,0,0
89994,-83.3333333333333,4,2,3,70,0,0
90812,-62.5,4,2,1,70,0,0
91016,-166.666666666667,3,2,1,5,0,0
91085,-83.3333333333333,4,2,3,70,0,0
91221,-83.3333333333333,4,2,1,70,0,0
91357,-83.3333333333333,4,2,2,70,0,0
91494,-83.3333333333333,4,2,1,70,0,0
91630,-83.3333333333333,4,2,2,70,0,0
91766,-83.3333333333333,4,2,1,70,0,0
91903,-71.4285714285714,4,2,2,70,0,0
92107,-166.666666666667,3,2,1,5,0,0
92176,-71.4285714285714,4,2,2,70,0,0
92448,-83.3333333333333,4,2,3,70,0,0
92721,-66.6666666666667,4,2,3,70,0,0
92994,-55.5555555555556,4,2,1,70,0,0
93198,-166.666666666667,3,2,1,5,0,0
93266,-100,4,2,3,70,0,0
93403,-76.9230769230769,4,2,1,70,0,0
93539,-76.9230769230769,4,2,2,70,0,0
93676,-83.3333333333333,4,2,1,70,0,0
93812,-83.3333333333333,4,2,2,70,0,0
93948,-83.3333333333333,4,2,1,70,0,0
94289,-166.666666666667,3,2,1,5,0,0
94357,-83.3333333333333,4,2,2,70,0,0
94630,-83.3333333333333,4,2,3,70,0,0
95176,-66.6666666666667,4,2,1,65,0,0
95380,-166.666666666667,3,2,1,5,0,0
95448,-66.6666666666667,4,2,3,65,0,0
95585,-83.3333333333333,4,2,1,65,0,0
95994,-83.3333333333333,4,2,2,65,0,0
96130,-83.3333333333333,4,2,1,65,0,0
96471,-166.666666666667,3,2,1,5,0,0
96539,-83.3333333333333,4,2,2,65,0,0
96744,-166.666666666667,3,2,1,5,0,0
96812,-83.3333333333333,4,2,3,65,0,0
97085,-333.333333333333,4,2,3,65,0,0
97289,-166.666666666667,3,2,1,5,0,0
97357,-66.6666666666667,4,2,1,65,0,0
97562,-166.666666666667,3,2,1,5,0,0
97630,-66.6666666666667,4,2,3,65,0,0
97766,-83.3333333333333,4,2,1,65,0,0
98176,-83.3333333333333,4,2,2,65,0,0
98312,-83.3333333333333,4,2,1,65,0,0
98653,-166.666666666667,3,2,1,5,0,0
98721,-100,4,2,2,65,0,0
98994,-100,4,2,3,65,0,0
99266,-333.333333333333,4,2,3,65,0,0
99471,-166.666666666667,3,2,1,5,0,0
99539,-66.6666666666667,4,2,1,65,0,0
99744,-166.666666666667,3,2,1,5,0,0
99812,-66.6666666666667,4,2,3,65,0,0
99948,-66.6666666666667,4,2,1,65,0,0
100221,-83.3333333333333,4,2,1,65,0,0
100357,-83.3333333333333,4,2,2,65,0,0
100494,-83.3333333333333,4,2,1,65,0,0
100903,-83.3333333333333,4,2,2,65,0,0
101176,-83.3333333333333,4,2,3,65,0,0
101448,-333.333333333333,4,2,2,65,0,0
101653,-166.666666666667,3,2,1,5,0,0
101721,-66.6666666666667,4,2,1,65,0,0
101926,-166.666666666667,3,2,1,5,0,0
101994,-66.6666666666667,4,2,2,65,0,0
102130,-66.6666666666667,4,2,1,65,0,0
102539,-83.3333333333333,4,2,2,65,0,0
102812,-83.3333333333333,4,2,1,65,0,0
103085,-83.3333333333333,4,2,2,65,0,0
103630,-133.333333333333,4,2,2,65,0,0
103903,-55.5555555555556,4,2,2,65,0,0
104107,-166.666666666667,3,2,1,5,0,0
104176,-83.3333333333333,4,2,2,65,0,0
104380,-166.666666666667,3,2,1,5,0,0
104448,-83.3333333333333,4,2,1,65,0,0
104721,-83.3333333333333,4,2,3,65,0,0
104857,-83.3333333333333,4,2,1,65,0,0
105266,-83.3333333333333,4,2,3,65,0,0
105812,-333.333333333333,4,2,3,65,0,0
106016,-166.666666666667,3,2,1,5,0,0
106085,-66.6666666666667,4,2,1,65,0,0
106289,-166.666666666667,3,2,1,5,0,0
106357,-66.6666666666667,4,2,2,65,0,0
106630,-66.6666666666667,4,2,1,65,0,0
106903,-76.9230769230769,4,2,2,65,0,0
107176,-76.9230769230769,4,2,1,65,0,0
107380,-166.666666666667,3,2,1,5,0,0
107448,-100,4,2,2,65,0,0
107721,-100,4,2,3,65,0,0
107789,-100,4,2,1,65,0,0
107994,-333.333333333333,4,2,2,65,0,0
108198,-166.666666666667,3,2,1,5,0,0
108266,-66.6666666666667,4,2,1,65,0,0
108471,-166.666666666667,3,2,1,5,0,0
108539,-83.3333333333333,4,2,1,65,0,0
108948,-133.333333333333,4,2,1,65,0,0
109085,-83.3333333333333,4,2,1,65,0,0
109221,-66.6666666666667,4,2,1,65,0,0
109562,-166.666666666667,3,2,1,5,0,0
109630,-66.6666666666667,4,2,1,65,0,0
109835,-166.666666666667,3,2,1,5,0,0
109903,-80,4,2,1,65,0,0
110107,-166.666666666667,3,2,1,5,0,0
110176,-100,4,2,1,65,0,0
110380,-166.666666666667,3,2,1,5,0,0
110448,-1000,4,2,1,65,0,0
111539,-133.333333333333,4,2,1,65,0,0
112357,-399.999999999997,4,2,1,65,0,0
112562,-166.666666666667,3,2,1,5,0,0
112630,-58.8235294117647,4,2,1,80,0,0
112835,-166.666666666667,3,2,1,5,0,0
112903,-83.3333333333333,4,2,3,80,0,0
113176,-83.3333333333333,4,2,1,80,0,0
113448,-83.3333333333333,4,2,3,80,0,0
113585,-83.3333333333333,4,2,1,80,0,0
113721,-71.4285714285714,4,2,1,80,0,0
113926,-166.666666666667,3,2,1,5,0,0
113994,-83.3333333333333,4,2,3,80,0,0
114812,-52.6315789473684,4,2,1,80,0,0
115016,-166.666666666667,3,2,1,5,0,0
115085,-66.6666666666667,4,2,2,80,0,0
115630,-83.3333333333333,4,2,3,80,0,0
115766,-83.3333333333333,4,2,1,80,0,0
116107,-166.666666666667,3,2,1,5,0,0
116176,-83.3333333333333,4,2,2,80,0,0
116312,-100,4,2,2,80,0,0
116448,-83.3333333333333,4,2,3,80,0,0
116857,-83.3333333333333,4,2,1,80,0,0
117266,-83.3333333333333,4,2,2,80,0,0
117812,-71.4285714285714,4,2,3,80,0,0
118016,-166.666666666667,3,2,1,5,0,0
118085,-83.3333333333333,4,2,1,80,0,0
118357,-83.3333333333333,4,2,3,80,0,0
119107,-166.666666666667,3,2,1,5,0,0
119176,-66.6666666666667,4,2,1,80,0,0
119380,-166.666666666667,3,2,1,5,0,0
119448,-100,4,2,2,80,0,0
119585,-76.9230769230769,4,2,1,80,0,0
119994,-76.9230769230769,4,2,3,80,0,0
120266,-62.5,4,2,3,80,0,0
120471,-62.5,4,2,1,80,0,0
120539,-71.4285714285714,4,2,1,80,0,0
120812,-83.3333333333333,4,2,1,80,0,0
121357,-55.5555555555556,4,2,1,85,0,0
121562,-166.666666666667,3,2,1,5,0,0
121630,-55.5555555555556,4,2,2,85,0,0
122448,-55.5555555555556,4,2,3,85,0,0
122721,-55.5555555555556,4,2,2,85,0,0
122857,-55.5555555555556,4,2,1,85,0,0
122994,-55.5555555555556,4,2,2,85,0,0
123266,-100,4,2,3,85,0,0
123471,-166.666666666667,3,2,1,5,0,0
123539,-58.8235294117647,4,2,3,85,0,0
123744,-166.666666666667,3,2,1,5,0,0
123812,-58.8235294117647,4,2,2,85,0,0
124085,-58.8235294117647,4,2,3,85,0,0
124357,-58.8235294117647,4,2,2,85,0,0
124630,-58.8235294117647,4,2,3,85,0,0
124903,-58.8235294117647,4,2,2,85,0,0
125176,-58.8235294117647,4,2,3,85,0,0
125448,-58.8235294117647,4,2,2,85,0,0
125721,-58.8235294117647,4,2,1,85,0,0
125926,-166.666666666667,3,2,1,5,0,0
125994,-58.8235294117647,4,2,2,85,0,0
127016,-166.666666666667,3,2,1,5,0,0
127085,-58.8235294117647,4,2,3,85,0,0
127903,-58.8235294117647,4,2,1,85,0,0
128107,-166.666666666667,3,2,1,5,0,0
128176,-58.8235294117647,4,2,3,85,0,0
128994,-52.6315789473684,4,2,1,85,0,0
129198,-166.666666666667,3,2,1,5,0,0
129266,-100,4,2,1,85,0,0
129403,-55.5555555555556,4,2,1,85,0,0
129607,-166.666666666667,3,2,1,5,0,0
129676,-83.3333333333333,4,2,1,85,0,0
130016,-166.666666666667,3,2,1,5,0,0
130085,-62.5,4,2,1,80,0,0
130289,-166.666666666667,3,2,1,5,0,0
130357,-83.3333333333333,4,2,2,80,0,0
130630,-83.3333333333333,4,2,1,80,0,0
130903,-100,4,2,3,80,0,0
131039,-100,4,2,1,80,0,0
131176,-76.9230769230769,4,2,1,80,0,0
131380,-166.666666666667,3,2,1,5,0,0
131448,-83.3333333333333,4,2,3,80,0,0
132198,-166.666666666667,3,2,1,5,0,0
132266,-66.6666666666667,4,2,3,80,0,0
132471,-166.666666666667,3,2,1,5,0,0
132539,-83.3333333333333,4,2,2,80,0,0
132812,-83.3333333333333,4,2,1,80,0,0
133085,-83.3333333333333,4,2,2,80,0,0
133357,-71.4285714285714,4,2,1,80,0,0
133562,-166.666666666667,3,2,1,5,0,0
133630,-71.4285714285714,4,2,2,80,0,0
133766,-83.3333333333333,4,2,2,80,0,0
133903,-83.3333333333333,4,2,3,80,0,0
134176,-333.333333333333,4,2,2,80,0,0
134380,-166.666666666667,3,2,1,5,0,0
134448,-62.5,4,2,1,80,0,0
134653,-166.666666666667,3,2,1,5,0,0
134721,-76.9230769230769,4,2,2,80,0,0
134994,-100,4,2,1,80,0,0
135266,-100,4,2,3,80,0,0
135471,-166.666666666667,3,2,1,5,0,0
135539,-100,4,2,3,80,0,0
135744,-166.666666666667,3,2,1,5,0,0
135812,-83.3333333333333,4,2,3,80,0,0
136562,-166.666666666667,3,2,1,5,0,0
136630,-58.8235294117647,4,2,3,80,0,0
136835,-166.666666666667,3,2,1,5,0,0
136903,-83.3333333333333,4,2,2,80,0,0
137721,-58.8235294117647,4,2,2,80,0,0
137789,-58.8235294117647,4,2,1,80,0,0
137994,-66.6666666666667,4,2,1,80,0,0
138266,-76.9230769230769,4,2,1,80,0,0
138812,-58.8235294117647,4,2,1,80,0,0
139016,-166.666666666667,3,2,1,5,0,0
139085,-66.6666666666667,4,2,2,80,0,0
139630,-83.3333333333333,4,2,2,80,0,0
139903,-83.3333333333333,4,2,1,80,0,0
140107,-166.666666666667,3,2,1,5,0,0
140176,-83.3333333333333,4,2,2,80,0,0
140312,-83.3333333333333,4,2,1,80,0,0
140448,-83.3333333333333,4,2,2,80,0,0
140721,-83.3333333333333,4,2,3,80,0,0
140994,-52.6315789473684,4,2,1,80,0,0
141198,-166.666666666667,3,2,1,5,0,0
141266,-71.4285714285714,4,2,2,80,0,0
141539,-71.4285714285714,4,2,1,80,0,0
141812,-71.4285714285714,4,2,2,80,0,0
142085,-71.4285714285714,4,2,1,80,0,0
142289,-166.666666666667,3,2,1,5,0,0
142357,-71.4285714285714,4,2,2,80,0,0
142630,-83.3333333333333,4,2,3,80,0,0
142903,-83.3333333333333,4,2,2,80,0,0
143176,-62.5,4,2,1,80,0,0
143380,-166.666666666667,3,2,1,5,0,0
143448,-71.4285714285714,4,2,2,80,0,0
143653,-166.666666666667,3,2,1,5,0,0
143721,-71.4285714285714,4,2,2,80,0,0
143994,-83.3333333333333,4,2,2,80,0,0
144266,-71.4285714285714,4,2,2,80,0,0
144471,-166.666666666667,3,2,1,5,0,0
144539,-71.4285714285714,4,2,2,80,0,0
144676,-83.3333333333333,4,2,2,80,0,0
145085,-83.3333333333333,4,2,3,80,0,0
145357,-62.5,4,2,1,80,0,0
145562,-166.666666666667,3,2,1,5,0,0
145630,-100,4,2,1,80,0,0
145766,-58.8235294117647,4,2,1,80,0,0
145971,-166.666666666667,3,2,1,5,0,0
146039,-100,4,2,1,80,0,0
146176,-71.4285714285714,4,2,1,80,0,0
146653,-166.666666666667,3,2,1,5,0,0
146721,-100,4,2,1,80,0,0
146857,-58.8235294117647,4,2,1,80,0,0
147062,-166.666666666667,3,2,1,5,0,0
147130,-76.9230769230769,4,2,1,80,0,0
147812,-76.9230769230769,4,2,1,55,0,0
148085,-100,4,2,1,55,0,0
148357,-200,4,2,1,55,0,0
148630,-62.5,4,2,1,70,0,0
148835,-166.666666666667,3,2,1,5,0,0
148903,-71.4285714285714,4,2,3,70,0,0
149176,-83.3333333333333,4,2,3,70,0,0
149312,-83.3333333333333,4,2,1,70,0,0
149448,-83.3333333333333,4,2,2,70,0,0
149585,-83.3333333333333,4,2,1,70,0,0
149721,-83.3333333333333,4,2,2,70,0,0
150266,-83.3333333333333,4,2,3,70,0,0
150539,-76.9230769230769,4,2,3,70,0,0
150812,-62.5,4,2,1,70,0,0
151016,-166.666666666667,3,2,1,5,0,0
151085,-76.9230769230769,4,2,2,70,0,0
151357,-76.9230769230769,4,2,3,70,0,0
151630,-83.3333333333333,4,2,2,70,0,0
151903,-66.6666666666667,4,2,2,70,0,0
152721,-200,4,2,3,70,0,0
152926,-166.666666666667,3,2,1,5,0,0
152994,-66.6666666666667,4,2,1,70,0,0
153198,-166.666666666667,3,2,1,5,0,0
153266,-100,4,2,3,70,0,0
153403,-83.3333333333333,4,2,1,70,0,0
153539,-83.3333333333333,4,2,2,70,0,0
153676,-83.3333333333333,4,2,1,70,0,0
153812,-83.3333333333333,4,2,2,70,0,0
153948,-83.3333333333333,4,2,1,70,0,0
154085,-66.6666666666667,4,2,2,70,0,0
154289,-166.666666666667,3,2,1,5,0,0
154357,-66.6666666666667,4,2,2,70,0,0
154630,-83.3333333333333,4,2,3,70,0,0
154903,-71.4285714285714,4,2,3,70,0,0
155176,-66.6666666666667,4,2,1,70,0,0
155380,-166.666666666667,3,2,1,5,0,0
155448,-83.3333333333333,4,2,3,70,0,0
155585,-62.5,4,2,1,70,0,0
155721,-62.5,4,2,2,70,0,0
155857,-83.3333333333333,4,2,1,70,0,0
155994,-83.3333333333333,4,2,2,70,0,0
156130,-83.3333333333333,4,2,1,70,0,0
156266,-66.6666666666667,4,2,2,70,0,0
156471,-166.666666666667,3,2,1,5,0,0
156539,-66.6666666666667,4,2,2,70,0,0
156812,-100,4,2,3,70,0,0
157085,-100,4,2,1,70,0,0
157289,-166.666666666667,3,2,1,5,0,0
157357,-52.6315789473684,4,2,1,70,0,0
157562,-166.666666666667,3,2,1,5,0,0
157630,-76.9230769230769,4,2,3,70,0,0
158039,-76.9230769230769,4,2,1,70,0,0
158176,-76.9230769230769,4,2,2,70,0,0
158312,-76.9230769230769,4,2,1,70,0,0
158448,-76.9230769230769,4,2,2,70,0,0
158994,-76.9230769230769,4,2,3,70,0,0
159539,-52.6315789473684,4,2,1,70,0,0
159744,-166.666666666667,3,2,1,5,0,0
159812,-52.6315789473684,4,2,2,70,0,0
160085,-52.6315789473684,4,2,3,70,0,0
160357,-83.3333333333333,4,2,2,70,0,0
160903,-83.3333333333333,4,2,3,70,0,0
161721,-62.5,4,2,1,70,0,0
161926,-166.666666666667,3,2,1,5,0,0
161994,-100,4,2,3,70,0,0
162130,-66.6666666666667,4,2,1,70,0,0
162266,-66.6666666666667,4,2,2,70,0,0
162403,-83.3333333333333,4,2,1,70,0,0
162539,-83.3333333333333,4,2,2,70,0,0
162676,-83.3333333333333,4,2,1,70,0,0
162812,-66.6666666666667,4,2,2,70,0,0
163016,-166.666666666667,3,2,1,5,0,0
163085,-83.3333333333333,4,2,2,70,0,0
163357,-83.3333333333333,4,2,3,70,0,0
163630,-62.5,4,2,3,70,0,0
163903,-52.6315789473684,4,2,1,70,0,0
164107,-166.666666666667,3,2,1,5,0,0
164176,-100,4,2,3,70,0,0
164312,-55.5555555555556,4,2,1,70,0,0
164448,-55.5555555555556,4,2,2,70,0,0
164585,-83.3333333333333,4,2,1,70,0,0
164721,-83.3333333333333,4,2,2,70,0,0
164857,-83.3333333333333,4,2,1,70,0,0
164994,-66.6666666666667,4,2,1,70,0,0
165198,-166.666666666667,3,2,1,5,0,0
165266,-66.6666666666667,4,2,2,70,0,0
165539,-66.6666666666667,4,2,1,70,0,0
165812,-133.333333333333,4,2,1,70,0,0
166085,-62.5,4,2,1,65,0,0
166289,-166.666666666667,3,2,1,5,0,0
166357,-62.5,4,2,1,65,0,0
166903,-500,4,2,1,65,0,0
167176,-500,4,2,2,65,0,0
167721,-62.5,4,2,2,65,0,0
167926,-166.666666666667,3,2,1,5,0,0
167994,-62.5,4,2,2,65,0,0
168130,-62.5,4,2,1,65,0,0
168539,-500,4,2,1,65,0,0
168812,-500,4,2,2,65,0,0
169221,-500,4,2,1,65,0,0
169357,-62.5,4,2,1,65,0,0
169562,-166.666666666667,3,2,1,5,0,0
169630,-62.5,4,2,1,65,0,0
170176,-500,4,2,1,65,0,0
170448,-500,4,2,2,65,0,0
170721,-500,4,2,3,65,0,0
170994,-62.5,4,2,3,65,0,0
171198,-166.666666666667,3,2,1,5,0,0
171266,-62.5,4,2,3,65,0,0
171403,-62.5,4,2,1,65,0,0
171948,-100,4,2,1,65,0,0
172085,-200,4,2,1,65,0,0
172630,-200,4,2,1,60,0,0
173448,-133.333333333333,4,2,1,60,0,0
173653,-166.666666666667,3,2,1,5,0,0
173721,-133.333333333333,4,2,1,60,0,0
175221,-200,4,2,1,60,0,0
175630,-133.333333333333,4,2,1,60,0,0
175835,-166.666666666667,3,2,1,5,0,0
175903,-133.333333333333,4,2,1,60,0,0
177403,-200,4,2,1,60,0,0
177812,-133.333333333333,4,2,1,60,0,0
178016,-166.666666666667,3,2,1,5,0,0
178085,-133.333333333333,4,2,1,60,0,0
179585,-200,4,2,1,60,0,0
179994,-133.333333333333,4,2,1,60,0,0
181357,-100,4,2,1,60,0,0
181766,-133.333333333333,4,2,1,60,0,0
183948,-200,4,2,1,60,0,0
187016,-133.333333333333,4,2,1,60,0,0
188994,-1000,4,2,1,60,0,0
189539,-40,4,2,3,70,0,0
189573,-166.666666666667,3,2,1,5,0,0
189676,-1000,3,2,1,50,0,0
189948,-55.5555555555556,4,2,1,75,0,0
190153,-166.666666666667,3,2,1,5,0,0
190221,-100,4,2,1,75,0,0
190357,-58.8235294117647,4,2,2,75,0,0
190562,-166.666666666667,3,2,1,5,0,0
190630,-58.8235294117647,4,2,2,75,0,0
191176,-71.4285714285714,4,2,2,75,0,0
191380,-166.666666666667,3,2,1,5,0,0
191448,-83.3333333333333,4,2,2,75,0,0
191585,-71.4285714285714,4,2,2,75,0,0
191789,-166.666666666667,3,2,1,5,0,0
191857,-71.4285714285714,4,2,2,75,0,0
192130,-71.4285714285714,4,2,1,75,0,0
192266,-62.5,4,2,1,75,0,0
192471,-166.666666666667,3,2,1,5,0,0
192539,-71.4285714285714,4,2,2,75,0,0
193085,-200,4,2,2,75,0,0
193357,-55.5555555555556,4,2,2,75,0,0
193562,-166.666666666667,3,2,1,5,0,0
193630,-83.3333333333333,4,2,2,75,0,0
193766,-83.3333333333333,4,2,3,75,0,0
193903,-83.3333333333333,4,2,3,75,0,0
193971,-83.3333333333333,4,2,1,75,0,0
194176,-62.5,4,2,3,75,0,0
194244,-62.5,4,2,1,75,0,0
194312,-52.6315789473684,4,2,1,85,0,0
194516,-166.666666666667,3,2,1,5,0,0
194585,-52.6315789473684,4,2,1,85,0,0
194721,-66.6666666666667,4,2,3,85,0,0
194857,-66.6666666666667,4,2,1,85,0,0
194994,-62.5,4,2,3,85,0,0
195130,-62.5,4,2,1,85,0,0
195266,-62.5,4,2,3,85,0,0
195403,-52.6315789473684,4,2,1,85,0,0
195607,-166.666666666667,3,2,1,5,0,0
195676,-58.8235294117647,4,2,1,85,0,0
195812,-58.8235294117647,4,2,3,85,0,0
195948,-58.8235294117647,4,2,1,85,0,0
196085,-52.6315789473684,4,2,3,85,0,0
196221,-52.6315789473684,4,2,1,85,0,0
196357,-52.6315789473684,4,2,3,85,0,0
196494,-52.6315789473684,4,2,1,85,0,0
196698,-166.666666666667,3,2,1,5,0,0
196766,-52.6315789473684,4,2,1,85,0,0
196903,-83.3333333333333,4,2,3,85,0,0
197039,-83.3333333333333,4,2,1,85,0,0
197176,-58.8235294117647,4,2,3,85,0,0
197312,-58.8235294117647,4,2,1,85,0,0
197448,-58.8235294117647,4,2,3,85,0,0
197585,-52.6315789473684,4,2,1,85,0,0
197789,-166.666666666667,3,2,1,5,0,0
197857,-52.6315789473684,4,2,1,85,0,0
197994,-62.5,4,2,3,85,0,0
198130,-62.5,4,2,1,85,0,0
198266,-50,4,2,3,85,0,0
198539,-71.4285714285714,4,2,3,85,0,0
198676,-50,4,2,1,75,0,0
198880,-166.666666666667,3,2,1,5,0,0
198948,-83.3333333333333,4,2,1,75,0,0
199085,-58.8235294117647,4,2,3,75,0,0
199289,-166.666666666667,3,2,1,5,0,0
199357,-55.5555555555556,4,2,3,75,0,0
199494,-55.5555555555556,4,2,1,75,0,0
199630,-55.5555555555556,4,2,2,75,0,0
199766,-55.5555555555556,4,2,1,75,0,0
200107,-166.666666666667,3,2,1,5,0,0
200176,-55.5555555555556,4,2,3,75,0,0
200448,-83.3333333333333,4,2,3,75,0,0
200585,-55.5555555555556,4,2,1,75,0,0
200721,-55.5555555555556,4,2,2,75,0,0
200857,-55.5555555555556,4,2,1,75,0,0
201198,-166.666666666667,3,2,1,5,0,0
201266,-55.5555555555556,4,2,3,75,0,0
201812,-100,4,2,3,75,0,0
201948,-58.8235294117647,4,2,1,75,0,0
202357,-58.8235294117647,4,2,3,75,0,0
202494,-58.8235294117647,4,2,1,75,0,0
202630,-83.3333333333333,4,2,3,75,0,0
202766,-83.3333333333333,4,2,1,75,0,0
202903,-83.3333333333333,4,2,3,75,0,0
203039,-83.3333333333333,4,2,1,75,0,0
203176,-55.5555555555556,4,2,1,75,0,0
203380,-166.666666666667,3,2,1,5,0,0
203448,-62.5,4,2,2,75,0,0
203994,-71.4285714285714,4,2,2,75,0,0
204266,-83.3333333333333,4,2,1,75,0,0
204539,-66.6666666666667,4,2,3,75,0,0
204812,-66.6666666666667,4,2,2,75,0,0
204880,-166.666666666667,3,2,1,5,0,0
204948,-83.3333333333333,4,2,2,75,0,0
205085,-66.6666666666667,4,2,3,75,0,0
205289,-166.666666666667,3,2,1,5,0,0
205357,-58.8235294117647,4,2,1,75,0,0
205562,-166.666666666667,3,2,1,5,0,0
205630,-200,4,2,1,75,0,0
205903,-133.333333333333,4,2,1,75,0,0
206176,-55.5555555555556,4,2,1,75,0,0
207539,-62.5,4,2,1,65,0,0
207744,-166.666666666667,3,2,1,5,0,0
207812,-62.5,4,2,3,65,0,0
207948,-83.3333333333333,4,2,1,65,0,0
208357,-83.3333333333333,4,2,2,65,0,0
208494,-83.3333333333333,4,2,1,65,0,0
208903,-83.3333333333333,4,2,2,65,0,0
209176,-83.3333333333333,4,2,3,65,0,0
209448,-200,4,2,3,65,0,0
209653,-166.666666666667,3,2,1,5,0,0
209721,-66.6666666666667,4,2,1,65,0,0
209926,-166.666666666667,3,2,1,5,0,0
209994,-66.6666666666667,4,2,3,65,0,0
210130,-83.3333333333333,4,2,1,65,0,0
210539,-83.3333333333333,4,2,2,65,0,0
210676,-83.3333333333333,4,2,1,65,0,0
211085,-83.3333333333333,4,2,2,65,0,0
211357,-83.3333333333333,4,2,3,65,0,0
211630,-333.333333333333,4,2,3,65,0,0
211835,-166.666666666667,3,2,1,5,0,0
211903,-66.6666666666667,4,2,1,65,0,0
212107,-166.666666666667,3,2,1,5,0,0
212176,-66.6666666666667,4,2,3,65,0,0
212312,-83.3333333333333,4,2,1,65,0,0
212721,-83.3333333333333,4,2,2,65,0,0
212857,-83.3333333333333,4,2,1,65,0,0
212994,-76.9230769230769,4,2,1,65,0,0
213198,-166.666666666667,3,2,1,5,0,0
213266,-83.3333333333333,4,2,2,65,0,0
213539,-83.3333333333333,4,2,3,65,0,0
214016,-166.666666666667,3,2,1,5,0,0
214085,-83.3333333333333,4,2,1,65,0,0
214289,-166.666666666667,3,2,1,5,0,0
214357,-83.3333333333333,4,2,2,65,0,0
214494,-83.3333333333333,4,2,1,65,0,0
214903,-83.3333333333333,4,2,3,65,0,0
215176,-66.6666666666667,4,2,1,65,0,0
215380,-166.666666666667,3,2,1,5,0,0
215448,-66.6666666666667,4,2,1,65,0,0
216266,-58.8235294117647,4,2,1,65,0,0
216471,-166.666666666667,3,2,1,5,0,0
216539,-83.3333333333333,4,2,2,65,0,0
216812,-83.3333333333333,4,2,1,65,0,0
217085,-83.3333333333333,4,2,3,65,0,0
217221,-83.3333333333333,4,2,1,65,0,0
217357,-66.6666666666667,4,2,1,65,0,0
217562,-166.666666666667,3,2,1,5,0,0
217630,-83.3333333333333,4,2,3,65,0,0
218176,-333.333333333333,4,2,3,65,0,0
218380,-166.666666666667,3,2,1,5,0,0
218448,-66.6666666666667,4,2,1,65,0,0
218653,-166.666666666667,3,2,1,5,0,0
218721,-66.6666666666667,4,2,2,65,0,0
218994,-66.6666666666667,4,2,1,65,0,0
219266,-83.3333333333333,4,2,2,65,0,0
219539,-83.3333333333333,4,2,1,65,0,0
219744,-166.666666666667,3,2,1,5,0,0
219812,-83.3333333333333,4,2,2,65,0,0
220085,-83.3333333333333,4,2,3,65,0,0
220494,-83.3333333333333,4,2,1,65,0,0
220630,-66.6666666666667,4,2,1,65,0,0
220835,-166.666666666667,3,2,1,5,0,0
220903,-83.3333333333333,4,2,3,65,0,0
221448,-100,4,2,2,65,0,0
221585,-83.3333333333333,4,2,2,65,0,0
221994,-83.3333333333333,4,2,1,65,0,0
223903,-133.333333333333,4,2,1,65,0,0
224516,-133.333333333333,4,2,1,5,0,0
224585,-133.333333333333,4,2,1,65,0,0
224994,-111.111111111111,4,2,1,60,0,0
226016,-166.666666666667,3,2,1,5,0,0
226085,-999.99999999999,4,2,1,60,0,0
227176,-104.712041884817,4,2,1,60,0,0
228198,-104.712041884817,4,2,1,5,0,0
228266,-333.333333333333,4,2,1,60,0,0
229357,-111.111111111111,4,2,1,60,0,0
231539,-333.333333333332,4,2,1,70,0,0
231744,-166.666666666667,3,2,1,5,0,0
231812,-58.8235294117647,4,2,1,70,0,0
232016,-166.666666666667,3,2,1,5,0,0
232085,-58.8235294117647,4,2,1,70,0,0
232357,-83.3333333333333,4,2,1,70,0,0
232766,-83.3333333333333,4,2,1,80,0,0
233721,-50,4,2,1,80,0,0
233926,-166.666666666667,3,2,1,5,0,0
233994,-83.3333333333333,4,2,2,80,0,0
234812,-76.9230769230769,4,2,1,80,0,0
235016,-166.666666666667,3,2,1,5,0,0
235085,-100,4,2,2,80,0,0
235221,-76.9230769230769,4,2,1,80,0,0
235357,-76.9230769230769,4,2,2,80,0,0
235426,-166.666666666667,3,2,1,5,0,0
235494,-100,4,2,2,80,0,0
235630,-133.333333333333,4,2,3,80,0,0
235835,-166.666666666667,3,2,1,5,0,0
235903,-58.8235294117647,4,2,1,80,0,0
236107,-166.666666666667,3,2,1,5,0,0
236176,-76.9230769230769,4,2,2,80,0,0
236448,-76.9230769230769,4,2,1,80,0,0
236721,-76.9230769230769,4,2,2,80,0,0
236994,-76.9230769230769,4,2,1,80,0,0
237266,-76.9230769230769,4,2,2,80,0,0
237539,-76.9230769230769,4,2,3,80,0,0
237812,-76.9230769230769,4,2,2,80,0,0
238016,-166.666666666667,3,2,1,5,0,0
238085,-66.6666666666667,4,2,2,80,0,0
238289,-166.666666666667,3,2,1,5,0,0
238357,-83.3333333333333,4,2,2,80,0,0
239176,-76.9230769230769,4,2,2,80,0,0
239380,-166.666666666667,3,2,1,5,0,0
239448,-76.9230769230769,4,2,3,80,0,0
239994,-83.3333333333333,4,2,3,80,0,0
240266,-55.5555555555556,4,2,1,80,0,0
240471,-166.666666666667,3,2,1,5,0,0
240539,-55.5555555555556,4,2,3,80,0,0
240812,-55.5555555555556,4,2,1,80,0,0
241085,-83.3333333333333,4,2,3,80,0,0
241357,-52.6315789473684,4,2,1,80,0,0
241562,-166.666666666667,3,2,1,5,0,0
241630,-83.3333333333333,4,2,1,80,0,0
241766,-52.6315789473684,4,2,1,80,0,0
241971,-166.666666666667,3,2,1,5,0,0
242039,-83.3333333333333,4,2,1,80,0,0
242448,-50,4,2,1,80,0,0
242653,-166.666666666667,3,2,1,5,0,0
242721,-83.3333333333333,4,2,2,80,0,0
242994,-71.4285714285714,4,2,1,80,0,0
243198,-166.666666666667,3,2,1,5,0,0
243266,-71.4285714285714,4,2,3,80,0,0
243403,-71.4285714285714,4,2,1,80,0,0
243744,-166.666666666667,3,2,1,5,0,0
243812,-71.4285714285714,4,2,3,80,0,0
244357,-200,4,2,3,80,0,0
244562,-166.666666666667,3,2,1,5,0,0
244630,-66.6666666666667,4,2,3,80,0,0
244835,-166.666666666667,3,2,1,5,0,0
244903,-66.6666666666667,4,2,2,80,0,0
245176,-66.6666666666667,4,2,1,80,0,0
245448,-83.3333333333333,4,2,3,80,0,0
245585,-83.3333333333333,4,2,1,80,0,0
245721,-71.4285714285714,4,2,1,80,0,0
245926,-166.666666666667,3,2,1,5,0,0
245994,-71.4285714285714,4,2,2,80,0,0
246130,-83.3333333333333,4,2,2,80,0,0
246335,-166.666666666667,3,2,1,5,0,0
246403,-83.3333333333333,4,2,2,80,0,0
246539,-250,4,2,3,80,0,0
246744,-166.666666666667,3,2,1,5,0,0
246812,-66.6666666666667,4,2,1,80,0,0
247016,-166.666666666667,3,2,1,5,0,0
247085,-76.9230769230769,4,2,2,80,0,0
247630,-83.3333333333333,4,2,3,80,0,0
247903,-66.6666666666667,4,2,1,80,0,0
248107,-166.666666666667,3,2,1,5,0,0
248176,-83.3333333333333,4,2,2,80,0,0
248312,-55.5555555555556,4,2,1,80,0,0
248448,-55.5555555555556,4,2,3,80,0,0
248516,-166.666666666667,3,2,1,5,0,0
248585,-83.3333333333333,4,2,3,80,0,0
248721,-333.333333333333,4,2,3,80,0,0
248926,-166.666666666667,3,2,1,5,0,0
248994,-62.5,4,2,1,80,0,0
249198,-166.666666666667,3,2,1,5,0,0
249266,-83.3333333333333,4,2,3,80,0,0
249403,-62.5,4,2,1,80,0,0
249812,-62.5,4,2,2,80,0,0
250221,-62.5,4,2,1,80,0,0
250766,-83.3333333333333,4,2,1,80,0,0
251176,-52.6315789473684,4,2,1,80,0,0
251380,-166.666666666667,3,2,1,5,0,0
251448,-83.3333333333333,4,2,2,80,0,0
252266,-83.3333333333333,4,2,1,80,0,0
252471,-166.666666666667,3,2,1,5,0,0
252539,-100,4,2,2,80,0,0
252676,-66.6666666666667,4,2,1,80,0,0
252812,-66.6666666666667,4,2,2,80,0,0
252880,-166.666666666667,3,2,1,5,0,0
252948,-66.6666666666667,4,2,2,80,0,0
253085,-90.9090909090909,4,2,3,80,0,0
253289,-166.666666666667,3,2,1,5,0,0
253357,-62.5,4,2,1,80,0,0
253562,-166.666666666667,3,2,1,5,0,0
253630,-62.5,4,2,2,80,0,0
253766,-62.5,4,2,1,80,0,0
254176,-76.9230769230769,4,2,3,80,0,0
254448,-76.9230769230769,4,2,1,80,0,0
254653,-166.666666666667,3,2,1,5,0,0
254721,-76.9230769230769,4,2,2,80,0,0
254994,-66.6666666666667,4,2,3,80,0,0
255266,-66.6666666666667,4,2,2,80,0,0
255471,-166.666666666667,3,2,1,5,0,0
255539,-41.6666666666667,4,2,1,90,0,0
255744,-166.666666666667,3,2,1,5,0,0
255812,-41.6666666666667,4,2,2,90,0,0
257312,-71.4285714285714,4,2,1,90,0,0
257448,-71.4285714285714,4,2,2,90,0,0
257721,-125,4,2,1,90,0,0
257857,-100,4,2,1,90,0,0
257994,-83.3333333333333,4,2,1,90,0,0
258130,-71.4285714285714,4,2,1,90,0,0
258266,-62.5,4,2,1,90,0,0
258403,-71.4285714285714,4,2,1,90,0,0
258539,-83.3333333333333,4,2,4,90,0,0
258676,-100,4,2,1,90,0,0
258948,-55.5555555555556,4,2,1,90,0,0
259153,-166.666666666667,3,2,1,5,0,0
259221,-83.3333333333333,4,2,1,90,0,0
259630,-333.333333333333,4,2,1,90,0,0
259835,-166.666666666667,3,2,1,5,0,0
259903,-55.5555555555556,4,2,1,80,0,0
260107,-166.666666666667,3,2,1,5,0,0
260176,-55.5555555555556,4,2,3,80,0,0
260312,-71.4285714285714,4,2,1,80,0,0
260721,-71.4285714285714,4,2,2,80,0,0
260857,-71.4285714285714,4,2,1,80,0,0
260994,-66.6666666666667,4,2,1,80,0,0
261198,-166.666666666667,3,2,1,5,0,0
261266,-100,4,2,3,80,0,0
261539,-76.9230769230769,4,2,3,80,0,0
262085,-62.5,4,2,1,80,0,0
262289,-166.666666666667,3,2,1,5,0,0
262357,-76.9230769230769,4,2,3,80,0,0
262494,-66.6666666666667,4,2,1,80,0,0
262766,-76.9230769230769,4,2,1,80,0,0
262903,-76.9230769230769,4,2,2,80,0,0
263039,-76.9230769230769,4,2,1,80,0,0
263380,-166.666666666667,3,2,1,5,0,0
263448,-76.9230769230769,4,2,2,80,0,0
263721,-83.3333333333333,4,2,3,80,0,0
263994,-250,4,2,3,80,0,0
264198,-166.666666666667,3,2,1,5,0,0
264266,-66.6666666666667,4,2,1,80,0,0
264471,-166.666666666667,3,2,1,5,0,0
264539,-66.6666666666667,4,2,3,80,0,0
264676,-76.9230769230769,4,2,1,80,0,0
265085,-76.9230769230769,4,2,2,80,0,0
265221,-76.9230769230769,4,2,1,80,0,0
265357,-66.6666666666667,4,2,1,80,0,0
265562,-166.666666666667,3,2,1,5,0,0
265630,-76.9230769230769,4,2,3,80,0,0
266448,-55.5555555555556,4,2,1,80,0,0
266653,-166.666666666667,3,2,1,5,0,0
266721,-83.3333333333333,4,2,3,80,0,0
266857,-76.9230769230769,4,2,1,80,0,0
267130,-83.3333333333333,4,2,1,80,0,0
267266,-83.3333333333333,4,2,2,80,0,0
267403,-83.3333333333333,4,2,1,80,0,0
267539,-71.4285714285714,4,2,1,80,0,0
267744,-166.666666666667,3,2,1,5,0,0
267812,-71.4285714285714,4,2,2,80,0,0
268085,-66.6666666666667,4,2,3,80,0,0
268357,-333.333333333333,4,2,3,80,0,0
268562,-166.666666666667,3,2,1,5,0,0
268630,-55.5555555555556,4,2,1,80,0,0
268835,-166.666666666667,3,2,1,5,0,0
268903,-55.5555555555556,4,2,3,80,0,0
269039,-76.9230769230769,4,2,1,80,0,0
269448,-76.9230769230769,4,2,2,80,0,0
269585,-76.9230769230769,4,2,1,80,0,0
269926,-166.666666666667,3,2,1,5,0,0
269994,-90.9090909090909,4,2,2,80,0,0
270266,-76.9230769230769,4,2,3,80,0,0
270744,-166.666666666667,3,2,1,5,0,0
270812,-76.9230769230769,4,2,1,80,0,0
271016,-166.666666666667,3,2,1,5,0,0
271085,-76.9230769230769,4,2,3,80,0,0
271221,-83.3333333333333,4,2,1,80,0,0
271630,-83.3333333333333,4,2,2,80,0,0
271766,-83.3333333333333,4,2,1,80,0,0
272176,-83.3333333333333,4,2,2,80,0,0
272448,-83.3333333333333,4,2,3,80,0,0
272994,-62.5,4,2,1,80,0,0
273198,-166.666666666667,3,2,1,5,0,0
273266,-62.5,4,2,2,80,0,0
273812,-83.3333333333333,4,2,3,80,0,0
274085,-66.6666666666667,4,2,1,80,0,0
274289,-166.666666666667,3,2,1,5,0,0
274357,-90.9090909090909,4,2,2,80,0,0
274494,-90.9090909090909,4,2,1,80,0,0
274630,-90.9090909090909,4,2,2,80,0,0
274903,-90.9090909090909,4,2,3,80,0,0
275107,-166.666666666667,3,2,1,5,0,0
275176,-66.6666666666667,4,2,1,80,0,0
275380,-166.666666666667,3,2,1,5,0,0
275448,-90.9090909090909,4,2,2,80,0,0
276198,-166.666666666667,3,2,1,5,0,0
276266,-90.9090909090909,4,2,1,80,0,0
276471,-166.666666666667,3,2,1,5,0,0
276539,-90.9090909090909,4,2,2,80,0,0
276812,-90.9090909090909,4,2,3,80,0,0
277016,-166.666666666667,3,2,1,5,0,0
277085,-76.9230769230769,4,2,3,80,0,0
277289,-166.666666666667,3,2,1,5,0,0
277357,-62.5,4,2,1,85,0,0
277562,-166.666666666667,3,2,1,5,0,0
277630,-62.5,4,2,3,85,0,0
277766,-62.5,4,2,1,85,0,0
277903,-66.6666666666667,4,2,3,85,0,0
278176,-76.9230769230769,4,2,3,85,0,0
278721,-76.9230769230769,4,2,2,85,0,0
278994,-76.9230769230769,4,2,3,85,0,0
279266,-250,4,2,3,85,0,0
279471,-166.666666666667,3,2,1,5,0,0
279539,-62.5,4,2,1,85,0,0
279744,-166.666666666667,3,2,1,5,0,0
279812,-83.3333333333333,4,2,3,85,0,0
280630,-71.4285714285714,4,2,3,85,0,0
280835,-166.666666666667,3,2,1,5,0,0
280903,-71.4285714285714,4,2,2,85,0,0
281244,-166.666666666667,3,2,1,5,0,0
281312,-71.4285714285714,4,2,2,85,0,0
281448,-333.333333333333,4,2,3,85,0,0
281653,-166.666666666667,3,2,1,5,0,0
281721,-62.5,4,2,1,85,0,0
281926,-166.666666666667,3,2,1,5,0,0
281994,-62.5,4,2,3,85,0,0
282130,-76.9230769230769,4,2,1,85,0,0
282266,-76.9230769230769,4,2,2,85,0,0
282403,-76.9230769230769,4,2,1,85,0,0
282539,-76.9230769230769,4,2,2,85,0,0
282676,-66.6666666666667,4,2,1,85,0,0
282880,-166.666666666667,3,2,1,5,0,0
282948,-66.6666666666667,4,2,1,85,0,0
283085,-66.6666666666667,4,2,3,85,0,0
283630,-333.333333333333,4,2,3,85,0,0
283835,-166.666666666667,3,2,1,5,0,0
283903,-55.5555555555556,4,2,3,85,0,0
284107,-166.666666666667,3,2,1,5,0,0
284176,-100,4,2,3,85,0,0
284312,-76.9230769230769,4,2,1,85,0,0
284448,-76.9230769230769,4,2,2,85,0,0
284585,-76.9230769230769,4,2,1,85,0,0
284721,-76.9230769230769,4,2,2,85,0,0
284857,-58.8235294117647,4,2,1,85,0,0
285062,-166.666666666667,3,2,1,5,0,0
285130,-76.9230769230769,4,2,1,85,0,0
285266,-100,4,2,2,85,0,0
286016,-100,4,2,2,5,0,0
286085,-66.6666666666667,4,2,2,85,0,0
286289,-166.666666666667,3,2,1,5,0,0
286357,-83.3333333333333,4,2,2,85,0,0
286903,-66.6666666666667,4,2,3,85,0,0
287107,-166.666666666667,3,2,1,5,0,0
287176,-66.6666666666667,4,2,3,85,0,0
287380,-166.666666666667,3,2,1,5,0,0
287448,-83.3333333333333,4,2,3,85,0,0
287994,-333.333333333333,4,2,3,85,0,0
288198,-166.666666666667,3,2,1,5,0,0
288266,-66.6666666666667,4,2,1,85,0,0
288539,-66.6666666666667,4,2,2,85,0,0
289085,-71.4285714285714,4,2,2,85,0,0
289357,-76.9230769230769,4,2,1,85,0,0
289562,-166.666666666667,3,2,1,5,0,0
289630,-76.9230769230769,4,2,2,85,0,0
289766,-76.9230769230769,4,2,1,85,0,0
289903,-76.9230769230769,4,2,2,85,0,0
289971,-166.666666666667,3,2,1,5,0,0
290039,-76.9230769230769,4,2,2,85,0,0
290176,-76.9230769230769,4,2,3,85,0,0
290448,-66.6666666666667,4,2,1,85,0,0
290653,-166.666666666667,3,2,1,5,0,0
290721,-100,4,2,2,85,0,0
291471,-166.666666666667,3,2,1,5,0,0
291539,-83.3333333333333,4,2,2,85,0,0
291744,-166.666666666667,3,2,1,5,0,0
291812,-83.3333333333333,4,2,3,85,0,0
292630,-66.6666666666667,4,2,1,85,0,0
292835,-166.666666666667,3,2,1,5,0,0
292903,-66.6666666666667,4,2,1,90,0,0
293721,-58.8235294117647,4,2,1,90,0,0
293926,-166.666666666667,3,2,1,5,0,0
293994,-83.3333333333333,4,2,1,90,0,0
294130,-58.8235294117647,4,2,1,90,0,0
294335,-166.666666666667,3,2,1,5,0,0
294403,-83.3333333333333,4,2,1,90,0,0
294539,-250,4,2,1,90,0,0
294744,-166.666666666667,3,2,1,5,0,0
294812,272.727272727273,3,2,1,65,1,0
294812,-83.3333333333333,3,2,1,65,0,0
295153,-166.666666666667,3,2,1,5,0,0
295221,-200,3,2,1,65,0,0
295630,-100,3,2,1,65,0,0
296175,-200,3,2,1,65,0,0
296448,-90.9090909090909,3,2,1,65,0,0
296789,-166.666666666667,3,2,1,5,0,0
296857,-90.9090909090909,3,2,1,65,0,0
297266,-100,3,2,1,65,0,0
297471,-166.666666666667,3,2,1,5,0,0
297539,-80,3,2,1,65,0,0
297744,-166.666666666667,3,2,1,5,0,0
297812,-66.6666666666667,3,2,1,65,0,0
298016,-166.666666666667,3,2,1,5,0,0
298084,-83.3333333333333,3,2,1,65,0,0
298493,-100,3,2,1,65,0,0
298698,-166.666666666667,3,2,1,5,0,0
298766,-100,3,2,1,65,0,0
299312,-166.666666666667,3,2,1,5,0,0
299380,-100,3,2,1,65,0,0
299448,-166.666666666667,3,2,1,65,0,0
299721,-90.9090909090909,3,2,1,65,0,0
299926,-166.666666666667,3,2,1,5,0,0
299993,-111.111111111111,3,2,1,65,0,0
300539,-100,3,2,1,65,0,0
300744,-166.666666666667,3,2,1,5,0,0
300812,-80,3,2,1,65,0,0
301016,-166.666666666667,3,2,1,5,0,0
301084,-66.6666666666667,3,2,1,65,0,0
301289,-166.666666666667,3,2,1,5,0,0
301357,-83.3333333333333,3,2,1,65,0,0
301766,-111.111111111111,3,2,1,65,0,0
301971,-166.666666666667,3,2,1,5,0,0
302039,-111.111111111111,3,2,1,65,0,0
302175,-83.3333333333333,3,2,1,65,0,0
302653,-166.666666666667,3,2,1,65,0,0
302993,-90.909090909091,3,2,1,65,0,0
303335,-166.666666666667,3,2,1,5,0,0
303403,-90.909090909091,3,2,1,65,0,0
303812,-58.8235294117647,3,2,1,65,0,0
304016,-166.666666666667,3,2,1,5,0,0
304084,-58.8235294117647,3,2,1,65,0,0
304289,-166.666666666667,3,2,1,5,0,0
304357,-58.8235294117647,3,2,1,65,0,0
304562,-166.666666666667,3,2,1,5,0,0
304630,-58.8235294117647,3,2,1,65,0,0
305039,-333.333333333333,3,2,1,65,0,0
305244,-166.666666666667,3,2,1,5,0,0
305312,-333.333333333333,3,2,1,65,0,0
305448,-66.6666666666667,3,2,1,65,0,0
305857,-166.666666666667,3,2,1,65,0,0
306266,-83.3333333333334,3,2,1,65,0,0
306880,-166.666666666667,3,2,1,5,0,0
306948,-133.333333333333,3,2,1,65,0,0
307084,-58.8235294117647,3,2,1,65,0,0
307289,-166.666666666667,3,2,1,5,0,0
307357,-58.8235294117647,3,2,1,65,0,0
307902,-158.730158730159,3,2,1,65,0,0
307971,-158.730158730159,3,2,1,5,0,0
312948,-158.730158730159,3,2,1,35,0,0

[Colours]
Combo1 : 128,128,128
Combo2 : 196,0,0

[HitObjects]
256,192,9696,5,2,2:2:0:0:
256,192,10079,2,0,L|250:218,2,26.9999991760254
174,107,10842,5,2,2:2:0:0:
174,107,11225,2,0,L|179:133,1,26.9999991760254
111,180,11607,2,0,L|105:153,2,26.9999991760254,2|2|2,2:2|2:2|2:2,0:0:0:0:
59,365,12372,6,0,L|32:359,2,26.9999991760254
164,319,13136,5,2,0:0:0:0:
164,319,13518,2,0,L|137:313,1,26.9999991760254
259,381,13900,2,0,L|232:375,2,26.9999991760254,2|2|2,2:2|2:2|2:2,0:0:0:0:
333,330,14665,6,0,L|338:356,2,26.9999991760254
408,277,15429,5,2,2:2:0:0:
408,277,15811,2,0,L|413:303,2,26.9999991760254
499,193,16575,5,2,2:2:0:0:
499,193,16957,2,0,L|493:219,2,26.9999991760254
449,125,17531,1,0,0:0:0:0:
342,203,17722,5,2,2:2:0:0:
342,203,18104,2,0,P|325:182|316:156,1,53.9999983520508,2|2,2:2|2:2,0:0:0:0:
356,35,18868,6,0,P|305:54|253:67,1,107.999996704102,2|0,2:2|0:0,0:0:0:0:
397,108,19442,1,0,0:0:0:0:
397,108,19633,2,0,P|422:115|448:124,1,53.9999983520508
316,156,20015,6,0,P|276:170|238:179,1,80.9999975280763,2|0,2:2|0:0,0:0:0:0:
241,186,20397,2,0,P|267:179|295:170,1,53.9999983520508
178,120,20779,1,2,2:2:0:0:
178,120,20970,1,2,2:2:0:0:
126,207,21161,6,0,P|150:239|168:275,1,80.9999975280763,2|0,2:2|0:0,0:0:0:0:
175,274,21544,2,0,P|162:247|150:226,1,53.9999983520508
79,328,21926,1,0,0:0:0:0:
79,328,22117,1,0,0:0:0:0:
186,384,22308,6,0,P|207:368|233:360,1,53.9999983520508,2|0,2:2|0:0,0:0:0:0:
290,259,22690,2,0,P|316:264|337:281,1,53.9999983520508,2|0,2:2|0:0,0:0:0:0:
451,261,23072,2,0,P|451:301|434:337,1,80.9999975280763,2|0,2:2|0:0,0:0:0:0:
434,337,23454,5,2,2:2:0:0:
337,281,23837,6,0,P|329:269|326:256,2,26.9999991760254
372,195,24410,1,0,0:0:0:0:
247,231,24601,5,2,2:2:0:0:
247,231,24983,2,0,P|253:219|262:209,2,26.9999991760254
326,256,25556,1,0,0:0:0:0:
245,128,25747,5,2,2:2:0:0:
245,128,26130,2,0,P|258:127|271:130,2,26.9999991760254
262,209,26703,1,0,0:0:0:0:
333,74,26894,5,2,2:2:0:0:
333,74,27658,2,0,P|340:85|343:98,1,26.9999991760254,2|0,2:2|0:0,0:0:0:0:
337,281,28040,5,2,2:2:0:0:
247,231,28232,1,0,0:0:0:0:
245,128,28423,1,2,2:2:0:0:
333,74,28614,1,0,0:0:0:0:
333,74,28805,1,2,2:2:0:0:
333,74,29187,5,2,2:2:0:0:
334,176,29379,1,0,0:0:0:0:
246,230,29570,1,2,2:2:0:0:
155,180,29761,1,0,0:0:0:0:
155,180,29952,1,2,2:2:0:0:
155,180,30333,5,2,2:2:0:0:
242,128,30525,1,0,0:0:0:0:
333,177,30716,1,2,2:2:0:0:
335,281,30907,1,0,0:0:0:0:
335,281,31098,1,2,2:2:0:0:
335,281,31480,5,2,2:2:0:0:
248,229,31672,1,0,0:0:0:0:
157,278,31863,1,2,2:2:0:0:
155,382,32054,1,0,0:0:0:0:
155,382,32245,1,2,2:2:0:0:
155,382,32626,5,2,2:2:0:0:
243,332,32818,1,0,0:0:0:0:
246,229,33009,1,2,2:2:0:0:
157,175,33200,1,0,0:0:0:0:
157,175,33391,1,2,2:2:0:0:
157,175,33773,5,2,2:2:0:0:
156,276,33965,1,0,0:0:0:0:
244,330,34156,1,2,2:2:0:0:
335,280,34347,1,0,0:0:0:0:
335,280,34538,1,2,2:2:0:0:
335,280,34919,5,2,2:2:0:0:
416,332,35111,1,0,0:0:0:0:
507,283,35302,1,2,2:2:0:0:
509,179,35493,1,0,0:0:0:0:
509,179,35684,1,2,2:2:0:0:
509,179,36066,5,2,2:2:0:0:
419,142,36257,1,2,2:2:0:0:
419,142,36353,1,2,0:0:0:0:
419,142,36448,1,2,2:2:0:0:
357,200,36639,1,2,2:2:0:0:
297,177,36830,1,2,2:2:0:0:
257,208,37021,1,2,2:2:0:0:
191,147,37212,5,2,2:2:0:0:
134,225,37403,1,2,2:2:0:0:
134,225,37499,1,2,0:0:0:0:
134,225,37595,1,2,2:2:0:0:
63,184,37786,1,0,0:0:0:0:
23,213,37977,1,2,2:2:0:0:
0,194,38168,1,0,0:0:0:0:
103,101,38359,5,2,2:2:0:0:
14,115,38550,1,0,0:0:0:0:
0,194,38742,1,2,2:2:0:0:
64,237,38933,1,0,0:0:0:0:
115,235,39124,1,2,2:2:0:0:
131,217,39315,1,0,0:0:0:0:
169,32,39505,5,2,2:2:0:0:
258,46,39696,1,0,0:0:0:0:
272,125,39888,1,2,2:2:0:0:
208,168,40079,1,0,0:0:0:0:
157,166,40270,1,2,2:2:0:0:
141,148,40461,1,0,0:0:0:0:
201,96,40652,5,2,2:2:0:0:
272,125,40843,1,0,0:0:0:0:
338,83,41034,1,0,0:0:0:0:
323,9,41225,1,0,0:0:0:0:
399,138,41416,6,0,P|408:155|423:169,1,40.4999987640381,2|0,2:2|0:0,0:0:0:0:
423,169,41798,6,0,B|434:146|466:133|466:133|368:122|322:201|322:201|325:208|325:208|383:196|411:240,1,323.999990112305,2|2,2:2|0:0,0:0:0:0:
354,299,43900,6,0,L|347:276,2,18,2|2|2,0:0|0:0|0:0,0:0:0:0:
453,374,44474,6,0,L|441:338,1,36,2|2,0:0|0:0,0:0:0:0:
512,235,45238,6,0,L|502:270,2,36,2|2|2,0:0|0:0|0:0,0:0:0:0:
256,192,46738,5,2,2:2:0:0:
256,192,46892,12,0,49830,0:0:0:0:
249,158,50449,6,0,L|263:228,2,72,2|2|2,2:2|2:2|2:2,0:0:0:0:
164,248,51812,5,0,3:3:0:0:
415,138,52085,1,8,2:2:0:0:
425,133,52153,1,8,2:2:0:0:
435,128,52221,1,8,2:2:0:0:
268,73,52358,1,0,3:3:0:0:
390,255,52494,2,0,L|399:210,1,45,8|0,2:2|0:0,0:0:0:0:
350,77,52630,6,0,L|307:275,1,202.500007724762,4|0,3:2|0:0,0:0:0:0:
291,347,52903,1,8,2:2:0:0:
508,253,53039,1,0,3:3:0:0:
508,253,53176,1,8,2:3:0:0:
425,362,53312,1,4,2:3:0:0:
239,186,53448,6,0,B|196:120|115:133|115:133|103:171|59:179,1,202.500007724762,14|0,3:2|0:0,0:0:0:0:
44,107,53720,2,0,P|34:91|20:81,2,36,2|0|2,2:2|0:0|2:2,0:0:0:0:
27,237,54130,1,0,0:0:0:0:
259,293,54266,6,0,B|335:281|319:194|319:194|313:244|269:259,1,202.500007724762,4|0,3:2|0:0,0:0:0:0:
199,253,54539,1,8,2:2:0:0:
425,362,54676,1,0,3:3:0:0:
425,362,54812,1,8,2:3:0:0:
457,256,54948,1,4,2:3:0:0:
273,384,55084,6,0,L|238:184,1,202.500007724762,14|0,3:2|0:0,0:0:0:0:
162,168,55357,2,0,L|126:160,2,36,2|0|2,2:2|0:0|2:2,0:0:0:0:
287,120,55766,1,0,0:0:0:0:
38,304,55902,6,0,B|-41:281|-20:189|58:189|58:189|67:221|110:229,1,229.500004377365,4|0,3:2|0:0,0:0:0:0:
172,253,56175,1,8,2:2:0:0:
98,34,56311,1,0,3:3:0:0:
98,34,56448,1,8,2:3:0:0:
205,94,56584,1,4,2:3:0:0:
13,136,56720,6,0,L|237:183,1,229.500004377365,14|0,3:2|0:0,0:0:0:0:
319,229,56993,2,0,L|311:193,1,36,2|0,2:2|0:0,0:0:0:0:
405,245,57266,2,0,L|397:209,1,36,2|0,2:2|0:0,0:0:0:0:
477,91,57539,6,0,B|502:96|543:95|543:95|370:133,1,242.999992584229,4|0,3:2|0:0,0:0:0:0:
293,118,57811,1,8,3:3:0:0:
310,38,57948,1,8,3:3:0:0:
254,263,58084,1,4,3:3:0:0:
237,183,58221,1,4,3:3:0:0:
316,318,58357,6,0,L|306:364,2,36,6|2|2,3:2|2:2|2:2,0:0:0:0:
405,245,58766,1,2,2:2:0:0:
163,214,58902,6,0,L|166:231,1,18,2|0,1:2|0:0,0:0:0:0:
87,233,59039,2,0,L|90:250,1,18,0|0,1:1|0:0,0:0:0:0:
22,328,59176,6,0,B|11:312|-21:310|-21:310|31:296|51:340,1,135,4|0,3:2|0:0,0:0:0:0:
130,365,59448,2,0,B|185:405|234:358|234:358|259:301|324:320,1,216,10|0,2:2|0:0,0:0:0:0:
376,362,59721,1,0,3:3:0:0:
506,150,59857,1,0,3:3:0:0:
276,237,59994,1,10,2:2:0:0:
405,245,60130,2,0,L|414:200,1,45
446,66,60266,6,0,B|446:27|494:16|494:16|461:35|454:64,1,135,0|0,3:3|0:0,0:0:0:0:
362,110,60539,1,10,2:2:0:0:
259,44,60676,2,0,P|311:33|364:21,1,107.999996704102,0|2,3:3|2:2,0:0:0:0:
414,200,60948,2,0,L|369:190,1,45,0|0,3:3|0:0,0:0:0:0:
143,155,61085,2,0,B|102:114|127:66|182:62|182:62|187:95|222:111,1,175.499991966248,10|0,2:2|0:0,0:0:0:0:
273,126,61357,6,0,B|299:158|285:204|248:203|247:206|246:209|202:203|170:245|194:275,1,202.500007724762,4|0,3:2|0:0,0:0:0:0:
223,356,61630,2,0,B|265:347|265:300|265:300|253:336|225:344,1,135,10|0,2:2|0:0,0:0:0:0:
142,332,61903,2,0,P|125:314|118:283,1,45,0|0,3:3|0:0,0:0:0:0:
143,155,62039,2,0,P|91:165|37:177,1,107.999996704102,0|10,3:3|2:2,0:0:0:0:
259,44,62312,2,0,L|311:55,1,53.9999983520508
483,139,62448,6,0,B|492:97|462:33|387:65|387:65|384:104|343:126,1,202.500007724762,0|0,3:3|0:0,0:0:0:0:
373,186,62721,2,0,L|382:230,1,45,10|0,2:2|0:0,0:0:0:0:
273,126,62857,2,0,L|297:240,1,116.999994644165,0|2,3:3|2:2,0:0:0:0:
483,139,63130,1,0,3:3:0:0:
270,335,63266,2,0,B|215:324|222:258|222:258|234:305|266:312,1,175.499991966248,10|0,2:2|0:0,0:0:0:0:
345,305,63539,6,0,L|119:264,1,229.500004377365,4|0,3:2|0:0,0:0:0:0:
34,263,63812,2,0,B|43:313|1:349|1:349|45:315|100:335,1,202.500007724762,10|0,2:2|0:0,0:0:0:0:
154,384,64085,2,0,P|169:368|175:346,1,45,0|0,3:3|0:0,0:0:0:0:
81,193,64221,2,0,P|57:147|69:95,1,107.999996704102,0|10,3:3|2:2,0:0:0:0:
188,0,64494,1,0,0:0:0:0:
293,102,64630,6,0,P|240:111|187:124,1,107.999996704102,0|0,3:3|0:0,0:0:0:0:
71,22,64903,2,0,P|98:26|119:43,1,53.9999983520508,10|0,2:2|0:0,0:0:0:0:
275,201,65039,2,0,P|325:213|360:176,1,107.999996704102,0|2,3:3|2:2,0:0:0:0:
272,24,65312,1,0,3:3:0:0:
512,66,65448,2,0,B|505:6|441:13|441:13|482:29|488:65,1,161.999995056153,10|0,2:2|0:0,0:0:0:0:
420,83,65721,6,0,L|462:281,1,202.500007724762,4|0,3:2|0:0,0:0:0:0:
499,367,65994,2,0,L|384:342,1,116.999994644165,10|0,2:2|0:0,0:0:0:0:
203,384,66266,1,0,3:3:0:0:
336,276,66403,1,0,3:3:0:0:
174,194,66539,2,0,B|197:265|259:255|259:255|264:223|298:210,1,175.499991966248,10|0,2:2|0:0,0:0:0:0:
370,198,66812,5,12,3:2:0:0:
371,184,66880,2,0,P|351:155|324:141,1,58.4999973220826,8|0,2:2|0:0,0:0:0:0:
369,61,67016,1,8,2:3:0:0:
356,51,67085,1,4,2:3:0:0:
343,46,67153,2,0,P|308:55|287:77,1,58.4999973220826,0|0,3:3|0:0,0:0:0:0:
220,0,67289,1,8,2:3:0:0:
204,2,67358,1,4,2:3:0:0:
191,9,67426,2,0,P|171:51|225:96,1,116.999994644165,0|0,3:3|0:0,0:0:0:0:
294,211,67630,5,8,2:2:0:0:
236,198,67698,1,8,2:2:0:0:
179,186,67766,1,8,2:2:0:0:
122,174,67834,1,8,2:2:0:0:
65,162,67903,6,0,B|46:187|9:210|9:210|178:156,1,242.999992584229,4|0,3:2|0:0,0:0:0:0:
214,96,68176,5,10,2:2:0:0:
292,346,68312,1,0,0:0:0:0:
331,143,68448,5,10,2:2:0:0:
171,378,68585,1,0,3:3:0:0:
414,282,68721,5,10,2:2:0:0:
122,175,68857,1,0,0:0:0:0:
357,19,68994,6,0,L|330:142,1,125.999996154785,10|0,2:2|0:0,0:0:0:0:
75,302,69266,5,10,2:2:0:0:
294,211,69403,1,0,3:3:0:0:
29,112,69539,5,10,2:2:0:0:
306,216,69676,1,0,3:3:0:0:
171,378,69812,6,0,L|144:254,1,125.999996154785,10|0,2:2|0:0,0:0:0:0:
169,73,70085,6,0,B|130:17|54:36|54:36|92:49|102:88,1,188.999994232178,4|0,3:2|0:0,0:0:0:0:
122,175,70357,5,10,2:2:0:0:
353,84,70494,1,0,0:0:0:0:
242,27,70630,5,10,2:2:0:0:
474,176,70766,1,0,3:3:0:0:
207,303,70903,5,10,2:2:0:0:
271,104,71039,1,0,0:0:0:0:
434,281,71176,6,0,L|310:254,1,125.999996154785,10|0,2:2|0:0,0:0:0:0:
122,175,71448,5,10,2:2:0:0:
171,378,71585,1,0,3:3:0:0:
326,159,71721,5,10,2:2:0:0:
168,384,71857,1,0,3:3:0:0:
0,292,71994,6,0,L|124:265,1,125.999996154785,10|0,2:2|0:0,0:0:0:0:
431,157,72266,6,0,B|443:101|370:93|370:93|408:122|406:163,1,161.999995056153,4|0,3:2|0:0,0:0:0:0:
326,159,72539,2,0,P|249:154|224:82,1,161.999995056153,10|0,2:2|0:0,0:0:0:0:
247,12,72812,5,10,2:2:0:0:
118,181,72948,1,0,3:3:0:0:
60,78,73085,5,10,2:2:0:0:
266,277,73221,2,0,L|277:224,1,53.9999983520508
223,82,73357,6,0,L|196:205,1,125.999996154785,10|0,2:2|0:0,0:0:0:0:
408,373,73630,5,10,2:2:0:0:
326,159,73766,1,0,3:3:0:0:
211,373,73903,5,10,2:2:0:0:
331,147,74039,1,0,3:3:0:0:
483,307,74176,6,0,L|359:280,1,125.999996154785,10|0,2:2|0:0,0:0:0:0:
71,292,74448,6,0,B|50:297|27:321|27:321|43:239|125:229|125:229|135:258|170:266,1,242.999992584229,4|0,3:2|0:0,0:0:0:0:
235,266,74721,5,10,2:2:0:0:
86,146,74857,1,0,0:0:0:0:
300,63,74994,5,10,2:2:0:0:
21,197,75130,1,0,3:3:0:0:
180,383,75266,6,0,L|153:259,1,125.999996154785,10|0,2:2|0:0,0:0:0:0:
353,158,75539,6,0,B|415:148|427:86|383:51|383:51|387:95|356:122,1,202.500007724762,4|0,3:2|0:0,0:0:0:0:
276,200,75812,2,0,P|290:224|329:240,1,58.4999973220826,8|0,2:2|0:0,0:0:0:0:
300,63,75948,6,0,L|75:110,1,229.500004377365,4|0,3:2|0:0,0:0:0:0:
13,70,76221,1,0,3:3:0:0:
153,259,76357,2,0,L|162:214,1,45,10|0,2:2|0:0,0:0:0:0:
212,3,76494,5,2,3:2:0:0:
219,9,76766,5,2,0:0:0:0:
219,9,76835,1,2,0:2:0:0:
219,9,76903,1,2,2:2:0:0:
300,63,77039,1,2,2:2:0:0:
212,106,77176,1,2,2:2:0:0:
129,50,77312,6,0,L|121:16,1,33.7500012874604,2|0,2:2|0:0,0:0:0:0:
49,87,77448,2,0,L|41:53,1,33.7500012874604,2|0,2:2|0:0,0:0:0:0:
294,157,77585,1,2,2:2:0:0:
123,275,77721,6,0,B|118:219|156:182|216:182|216:182|223:187|223:187|234:225|271:232,1,216,4|0,3:2|0:0,0:0:0:0:
350,235,77994,2,0,B|340:283|296:295|296:295|327:278|332:241,1,144,10|0,2:2|0:0,0:0:0:0:
300,63,78266,1,10,2:2:0:0:
482,139,78403,2,0,L|376:116,1,107.999996704102,2|10,3:2|2:2,0:0:0:0:
121,16,78676,5,2,2:2:0:0:
121,16,78744,1,2,0:0:0:0:
121,16,78812,2,0,L|143:121,1,107.999996704102,10|0,2:2|0:0,0:0:0:0:
60,356,79085,1,10,2:2:0:0:
258,228,79221,1,0,3:3:0:0:
119,200,79357,2,0,L|130:252,1,53.9999983520508,10|0,2:2|0:0,0:0:0:0:
243,145,79494,1,0,3:3:0:0:
33,207,79630,2,0,L|11:102,1,107.999996704102,10|0,2:2|0:0,0:0:0:0:
259,38,79903,6,0,B|286:30|301:3|301:3|383:-20|433:60,1,202.500007724762,6|0,3:2|0:0,0:0:0:0:
461,130,80176,2,0,B|497:124|497:81|497:81|483:111|462:116,1,107.999996704102,10|0,2:2|0:0,0:0:0:0:
258,228,80448,1,10,2:2:0:0:
446,207,80585,1,0,3:3:0:0:
385,113,80721,2,0,L|362:218,1,107.999996704102,10|0,2:2|0:0,0:0:0:0:
272,384,80994,6,0,L|377:361,1,107.999996704102,10|0,2:2|0:0,0:0:0:0:
258,228,81266,1,10,2:2:0:0:
117,372,81403,1,0,3:3:0:0:
53,212,81539,1,10,2:2:0:0:
261,305,81676,1,0,3:3:0:0:
31,373,81812,2,0,P|44:312|108:290,1,135,10|0,2:2|0:0,0:0:0:0:
141,214,82085,6,0,B|187:198|210:140|169:88|169:88|174:128|150:153,1,202.500007724762,6|0,3:2|0:0,0:0:0:0:
92,108,82357,2,0,L|290:150,1,202.500007724762,10|0,2:2|0:0,0:0:0:0:
358,191,82630,2,0,B|336:225|347:256|347:256|333:225|292:225,1,135.000005149842,10|0,2:2|3:3,0:0:0:0:
216,19,82903,2,0,L|260:28,1,45,10|0,2:2|0:0,0:0:0:0:
424,64,83039,5,2,2:2:0:0:
424,64,83107,1,2,2:2:0:0:
424,64,83176,2,0,B|441:44|478:28|478:28|347:72,1,202.500007724762,10|0,2:2|0:0,0:0:0:0:
290,150,83448,2,0,L|184:127,1,107.999996704102,10|0,2:2|3:3,0:0:0:0:
9,192,83721,2,0,L|0:147,1,45,10|0,2:2|0:0,0:0:0:0:
168,43,83857,1,0,3:3:0:0:
85,150,83994,2,0,L|58:26,1,125.999996154785,10|0,2:2|0:0,0:0:0:0:
157,212,84266,6,0,B|122:302|35:272|35:272|67:263|81:232,1,216,6|0,3:2|0:0,0:0:0:0:
184,127,84539,2,0,P|211:139|229:161,1,53.9999983520508,10|0,2:2|0:0,0:0:0:0:
392,298,84676,2,0,B|433:311|456:274|447:277|472:232|514:251,1,135.000005149842,2|10,2:2|2:2,0:0:0:0:
347,371,84948,2,0,P|323:352|314:323,1,53.9999983520508,2|0,3:2|0:0,0:0:0:0:
364,184,85085,1,10,2:2:0:0:
165,219,85221,5,2,2:2:0:0:
165,219,85289,1,2,2:2:0:0:
165,219,85357,2,0,L|323:252,1,161.999995056153,10|0,2:2|0:0,0:0:0:0:
392,298,85630,1,10,2:2:0:0:
292,117,85766,1,0,3:3:0:0:
512,44,85903,2,0,L|500:96,1,53.9999983520508,10|0,2:2|0:0,0:0:0:0:
352,45,86039,1,0,3:3:0:0:
446,1,86176,2,0,L|417:133,1,135,10|0,2:2|0:0,0:0:0:0:
363,185,86448,6,0,B|386:195|398:223|398:223|455:245|487:169|487:169|460:211|421:206,1,242.999992584229,4|0,3:2|0:0,0:0:0:0:
323,252,86721,2,0,B|304:259|293:274|293:274|176:248,1,135.000005149842,10|0,2:2|0:0,0:0:0:0:
2,203,86994,1,10,2:2:0:0:
71,124,87130,2,0,L|93:229,1,107.999996704102,2|10,3:2|2:2,0:0:0:0:
272,186,87403,5,2,2:2:0:0:
272,186,87471,1,2,2:2:0:0:
272,186,87539,2,0,L|166:163,1,107.999996704102,10|0,2:2|0:0,0:0:0:0:
283,102,87812,1,10,2:2:0:0:
360,316,87948,1,0,3:3:0:0:
227,384,88085,2,0,L|238:331,1,53.9999983520508,10|0,2:2|0:0,0:0:0:0:
27,308,88221,1,0,3:3:0:0:
93,229,88357,2,0,L|115:334,1,107.999996704102,10|0,2:2|0:0,0:0:0:0:
111,60,88630,6,0,B|112:7|61:-22|3:-6|3:-6|-7:51|48:66,1,229.500004377365,6|0,3:2|0:0,0:0:0:0:
166,163,88903,2,0,B|215:156|229:102|229:102|181:95|172:135,1,153.000002918243,10|0,2:2|0:0,0:0:0:0:
6,224,89176,1,10,2:2:0:0:
198,252,89312,1,0,3:3:0:0:
71,123,89448,2,0,L|93:229,1,107.999996704102,10|0,2:2|0:0,0:0:0:0:
135,384,89721,6,0,L|29:361,1,107.999996704102,10|0,2:2|0:0,0:0:0:0:
280,254,89994,1,10,2:2:0:0:
309,350,90130,1,0,3:3:0:0:
506,197,90266,1,10,2:2:0:0:
445,384,90403,1,0,3:3:0:0:
302,106,90539,1,10,2:2:0:0:
302,106,90812,6,0,B|336:113|353:146|353:146|433:166|484:77,1,216,6|0,3:2|0:0,0:0:0:0:
474,13,91085,2,0,P|447:16|426:33,1,53.9999983520508,10|0,2:2|0:0,0:0:0:0:
280,179,91221,2,0,P|220:175|203:118,1,107.999996704102,2|10,2:2|2:2,0:0:0:0:
136,8,91494,2,0,L|124:60,1,53.9999983520508,2|0,3:2|0:0,0:0:0:0:
215,47,91630,1,10,2:2:0:0:
32,105,91766,5,2,2:2:0:0:
32,105,91835,1,2,2:2:0:0:
32,105,91903,2,0,L|71:289,1,188.999994232178,10|0,2:2|0:0,0:0:0:0:
69,384,92176,2,0,B|24:384|14:337|14:337|35:363|63:361,1,125.999996154785,10|0,2:2|3:3,0:0:0:0:
192,321,92448,2,0,L|139:332,1,53.9999983520508,10|0,2:2|0:0,0:0:0:0:
256,192,92585,1,0,3:3:0:0:
352,338,92721,2,0,B|332:366|286:370|268:335|268:335|271:307|256:285,1,135.000005149842,10|0,2:2|0:0,0:0:0:0:
394,132,92994,6,0,B|478:122|505:22|456:-31|378:-2|397:63,1,242.999992584229,6|0,3:2|0:0,0:0:0:0:
476,139,93266,2,0,P|491:155|511:165,1,45,10|0,2:2|0:0,0:0:0:0:
320,87,93403,2,0,L|205:111,1,116.999994644165,2|10,2:2|2:2,0:0:0:0:
150,239,93676,2,0,L|161:186,1,53.9999983520508,2|0,3:2|0:0,0:0:0:0:
0,119,93812,1,10,2:2:0:0:
53,0,93948,5,2,2:2:0:0:
53,0,94016,1,2,2:2:0:0:
53,0,94085,2,0,L|86:158,1,161.999995056153,4|0,3:2|0:0,0:0:0:0:
31,214,94357,1,10,2:2:0:0:
31,214,94630,5,10,2:2:0:0:
192,18,94766,1,8,2:2:0:0:
293,247,94903,1,10,2:2:0:0:
0,119,95039,1,8,2:2:0:0:
276,0,95176,6,0,L|233:198,1,202.500007724762,6|0,3:2|0:0,0:0:0:0:
216,270,95448,1,10,2:2:0:0:
417,215,95585,2,0,P|378:176|329:153,1,107.999996704102,2|0,2:2|3:3,0:0:0:0:
414,351,95857,2,0,P|438:341|458:314,1,53.9999983520508,2|0,3:2|0:0,0:0:0:0:
512,238,95994,1,10,2:2:0:0:
284,326,96130,5,2,2:2:0:0:
284,326,96198,1,2,2:2:0:0:
284,326,96266,2,0,B|272:352|232:358|232:358|275:370|310:350|306:290,1,161.999995056153,0|0,3:3|0:0,0:0:0:0:
216,270,96539,2,0,P|147:224|171:153,1,161.999995056153,10|0,2:2|0:0,0:0:0:0:
218,100,96812,1,2,3:2:0:0:
111,23,96948,1,0,3:3:0:0:
12,141,97085,6,0,L|21:187,1,40.4999987640381,10|0,2:2|0:0,0:0:0:0:
21,181,97357,6,0,B|39:95|136:117|136:117|140:147|165:157,1,202.500007724762,6|0,3:2|0:0,0:0:0:0:
241,177,97630,1,10,2:2:0:0:
323,77,97766,2,0,L|217:99,1,107.999996704102,2|0,2:2|3:3,0:0:0:0:
338,0,98039,2,0,L|390:11,1,53.9999983520508,2|0,3:2|0:0,0:0:0:0:
512,39,98176,1,10,2:2:0:0:
439,247,98312,5,2,2:2:0:0:
439,247,98380,1,2,2:2:0:0:
439,247,98448,2,0,L|405:88,1,161.999995056153,0|0,3:3|0:0,0:0:0:0:
490,112,98721,2,0,L|508:200,1,90,10|0,2:2|0:0,0:0:0:0:
370,353,98994,1,2,3:2:0:0:
512,281,99130,1,0,3:3:0:0:
341,248,99266,6,0,L|301:239,1,40.4999987640381,10|0,2:2|0:0,0:0:0:0:
276,169,99539,6,0,B|243:179|231:206|231:206|149:225|115:145,1,202.500007724762,6|0,3:2|0:0,0:0:0:0:
99,70,99812,1,10,2:2:0:0:
61,227,99948,2,0,B|47:278|-1:275|-1:275|33:261|41:236,1,135.000005149842,2|0,2:2|3:3,0:0:0:0:
175,94,100221,2,0,P|204:99|232:120,1,53.9999983520508,2|0,3:2|0:0,0:0:0:0:
301,239,100357,1,10,2:2:0:0:
487,124,100494,5,2,2:2:0:0:
487,124,100562,1,2,2:2:0:0:
487,124,100630,2,0,L|275:168,2,215.999993408203,0|10|2,3:3|2:2|3:2,0:0:0:0:
404,223,101312,1,0,3:3:0:0:
300,88,101448,6,0,L|308:48,1,40.4999987640381,10|0,2:2|0:0,0:0:0:0:
228,38,101721,6,0,B|184:-22|104:-4|104:-4|94:40|37:43,1,202.500007724762,6|0,3:2|0:0,0:0:0:0:
0,1,101994,1,10,2:2:0:0:
92,123,102130,1,2,2:2:0:0:
92,123,102198,1,2,2:2:0:0:
92,123,102266,2,0,B|132:117|148:73|148:73|128:104|92:108,1,135.000005149842,0|0,3:3|3:3,0:0:0:0:
0,218,102539,2,0,P|52:229|99:256,1,107.999996704102,10|0,2:2|0:0,0:0:0:0:
236,384,102812,5,2,3:2:0:0:
312,330,102948,1,0,0:0:0:0:
213,293,103085,1,10,2:2:0:0:
408,362,103221,1,0,0:0:0:0:
310,230,103357,1,2,3:2:0:0:
310,230,103494,1,0,3:3:0:0:
486,178,103630,6,0,L|478:211,1,33.7500012874604,4|0,2:3|0:0,0:0:0:0:
406,132,103766,2,0,L|398:165,1,33.7500012874604,4|0,2:3|0:0,0:0:0:0:
231,120,103903,6,0,B|226:38|314:14|373:60|373:60|344:73|332:105,1,242.999992584229,4|0,3:2|0:0,0:0:0:0:
242,195,104176,2,0,B|201:211|167:175|177:173|143:127|96:141,1,161.999995056153,10|0,2:2|0:0,0:0:0:0:
87,227,104448,2,0,B|81:241|55:251|55:251|100:250|105:199,1,107.999996704102,2|0,3:2|3:3,0:0:0:0:
0,122,104721,1,10,2:2:0:0:
77,34,104857,5,2,2:2:0:0:
77,34,104926,1,2,2:2:0:0:
77,34,104994,2,0,L|99:139,1,107.999996704102,0|0,3:3|0:0,0:0:0:0:
145,380,105266,2,0,P|91:368|39:357,1,107.999996704102,10|0,2:2|0:0,0:0:0:0:
213,277,105539,1,2,3:2:0:0:
266,384,105676,1,0,3:3:0:0:
367,301,105812,6,0,L|327:309,1,40.4999987640381,10|0,2:2|0:0,0:0:0:0:
288,237,106085,6,0,B|291:149|387:165|387:165|395:202|430:213,1,202.500007724762,6|0,3:2|0:0,0:0:0:0:
461,146,106357,2,0,B|502:129|505:80|505:80|489:120|467:125,1,135.000005149842,10|0,2:2|0:0,0:0:0:0:
367,301,106630,1,2,3:2:0:0:
497,218,106766,1,0,3:3:0:0:
431,61,106903,2,0,L|316:85,1,116.999994644165,10|0,2:2|0:0,0:0:0:0:
98,216,107176,6,0,P|24:178|36:96,1,175.499991966248,2|0,3:2|0:0,0:0:0:0:
63,24,107448,2,0,P|100:47|114:92,1,90,10|0,2:2|0:0,0:0:0:0:
48,289,107721,1,2,3:2:0:0:
36,291,107789,1,8,2:3:0:0:
25,293,107857,1,4,2:3:0:0:
14,296,107925,1,4,2:3:0:0:
3,298,107994,6,0,L|11:258,1,40.4999987640381,10|0,2:2|0:0,0:0:0:0:
0,182,108266,6,0,L|198:224,1,202.500007724762,6|0,3:2|0:0,0:0:0:0:
287,220,108539,2,0,B|290:183|250:173|250:173|272:195|272:223,1,107.999996704102,8|0,2:2|0:0,0:0:0:0:
303,363,108812,1,4,3:2:0:0:
495,301,108948,2,0,L|502:267,1,33.7500012874604,0|0,3:2|0:0,0:0:0:0:
420,216,109085,2,0,L|408:268,1,53.9999983520508,8|0,2:2|0:0,0:0:0:0:
164,147,109221,6,0,B|104:123|87:28|154:-15|244:1|268:65|268:65|244:79|231:115,1,337.500012874604,4|0,3:2|0:0,0:0:0:0:
198,224,109630,6,0,P|105:247|1:276,1,202.500007724762,0|0,3:3|0:0,0:0:0:0:
34,181,109903,2,0,P|114:201|197:223,1,168.75,0|0,3:3|0:0,0:0:0:0:
164,147,110176,2,0,P|84:167|0:189,1,135,0|0,3:3|0:0,0:0:0:0:
104,126,110448,6,0,P|135:136|163:146,1,63,4|0,3:2|0:0,0:0:0:0:
256,192,111539,6,0,L|248:158,1,33.7500012874604,8|0,2:2|0:0,0:0:0:0:
220,13,111676,5,0,3:3:0:0:
211,18,111948,1,0,3:3:0:0:
342,107,112221,6,0,L|334:140,1,33.7500012874604,8|0,2:2|0:0,0:0:0:0:
188,239,112357,6,0,L|196:272,1,33.75,0|0,3:3|0:0,0:0:0:0:
131,339,112630,6,0,B|162:342|193:360|193:360|355:307,1,229.500004377365,6|0,3:2|0:0,0:0:0:0:
431,283,112903,2,0,B|427:243|381:240|381:240|410:257|415:279,1,107.999996704102,10|0,2:2|0:0,0:0:0:0:
395,384,113176,1,2,3:2:0:0:
512,250,113312,1,0,3:3:0:0:
248,159,113448,1,10,2:2:0:0:
356,316,113585,5,2,2:2:0:0:
356,316,113653,1,2,2:2:0:0:
356,316,113721,2,0,L|397:131,1,188.999994232178,0|0,3:3|0:0,0:0:0:0:
373,51,113994,2,0,L|478:28,1,107.999996704102,10|0,2:2|3:3,0:0:0:0:
248,159,114266,2,0,L|234:96,1,53.9999983520508,2|0,2:2|0:0,0:0:0:0:
396,131,114403,1,0,3:3:0:0:
174,257,114539,1,10,2:2:0:0:
174,257,114812,6,0,B|101:219|101:219|273:275,1,256.499993150711,6|0,3:2|0:0,0:0:0:0:
356,316,115085,2,0,B|413:333|441:289|441:289|430:262|444:235,1,135.000005149842,10|0,2:2|0:0,0:0:0:0:
316,111,115357,1,0,3:3:0:0:
478,27,115494,1,0,3:3:0:0:
462,155,115630,2,0,P|445:133|421:121,1,53.9999983520508,10|0,2:2|0:0,0:0:0:0:
356,14,115766,2,0,P|329:17|307:32,1,53.9999983520508,2|0,2:2|0:0,0:0:0:0:
186,140,115903,6,0,B|160:143|147:162|147:162|70:166|63:94,1,161.999995056153,2|0,3:2|0:0,0:0:0:0:
59,22,116176,1,10,2:2:0:0:
42,214,116312,2,0,P|21:199|7:175,1,45,0|0,3:3|0:0,0:0:0:0:
131,52,116448,2,0,L|236:74,1,107.999996704102,2|0,2:2|3:3,0:0:0:0:
216,267,116721,2,0,L|204:214,1,53.9999983520508,10|0,2:2|0:0,0:0:0:0:
363,22,116857,5,2,2:2:0:0:
363,22,116926,1,2,2:2:0:0:
363,22,116994,2,0,L|318:233,2,215.999993408203,4|10|0,3:2|2:2|3:3,0:0:0:0:
236,74,117676,1,0,3:3:0:0:
496,222,117812,2,0,B|507:205|529:186|529:186|510:143|447:119|406:162,1,188.999994232178,10|0,2:2|0:0,0:0:0:0:
412,293,118085,6,0,P|463:310|512:331,1,107.999996704102,2|0,3:2|0:0,0:0:0:0:
317,233,118357,2,0,P|287:236|249:248,1,53.9999983520508,10|0,2:2|0:0,0:0:0:0:
96,303,118494,1,0,3:3:0:0:
276,383,118630,2,0,P|244:340|192:331,1,107.999996704102,2|0,2:2|3:3,0:0:0:0:
18,199,118903,2,0,B|78:194|72:125|72:125|60:169|22:176,1,161.999995056153,10|0,2:2|0:0,0:0:0:0:
0,110,119176,6,0,L|198:152,1,202.500007724762,6|0,3:2|0:0,0:0:0:0:
283,162,119448,2,0,L|273:117,1,45,10|0,2:2|0:0,0:0:0:0:
432,32,119585,2,0,P|375:34|345:81,1,116.999994644165,2|0,2:2|3:3,0:0:0:0:
476,246,119857,1,0,3:3:0:0:
384,174,119994,2,0,L|362:289,1,116.999994644165,10|0,2:2|0:0,0:0:0:0:
221,384,120266,5,8,3:2:0:0:
208,370,120335,1,8,2:2:0:0:
195,356,120403,2,0,L|265:341,1,72,8|0,2:2|1:1,0:0:0:0:
110,284,120539,1,10,3:3:0:0:
101,275,120607,1,8,2:3:0:0:
92,266,120676,2,0,L|153:252,1,62.9999980773926,8|8,2:3|2:3,0:0:0:0:
13,384,120812,1,6,2:3:0:0:
6,377,120880,1,4,2:3:0:0:
0,372,120948,2,0,L|52:360,1,53.9999983520508,4|4,2:3|2:3,0:0:0:0:
261,202,121085,5,10,2:2:0:0:
313,213,121153,1,8,2:2:0:0:
366,224,121221,1,8,2:2:0:0:
419,235,121289,1,8,2:2:0:0:
472,246,121357,6,0,B|541:204|541:204|377:264,1,242.999992584229,4|0,3:2|0:0,0:0:0:0:
319,288,121630,5,10,2:2:0:0:
230,83,121766,1,0,0:0:0:0:
152,263,121903,5,10,2:2:0:0:
320,37,122039,1,0,3:3:0:0:
226,218,122176,5,10,2:2:0:0:
136,0,122312,1,0,0:0:0:0:
422,101,122448,6,0,L|388:259,1,161.999995056153,10|0,2:2|0:0,0:0:0:0:
146,183,122721,5,10,2:2:0:0:
385,337,122857,1,2,3:2:0:0:
52,359,122994,5,10,2:2:0:0:
319,288,123130,1,0,3:3:0:0:
97,114,123266,6,0,B|71:68|26:86|26:86|56:89|74:116,1,135,10|0,2:2|0:0,0:0:0:0:
146,183,123539,6,0,P|253:195|309:102,1,229.500004377365,4|0,3:2|0:0,0:0:0:0:
292,28,123812,5,10,2:2:0:0:
512,177,123948,1,0,0:0:0:0:
212,121,124085,5,10,2:2:0:0:
460,35,124221,1,0,3:3:0:0:
391,259,124357,5,10,2:2:0:0:
309,102,124494,1,0,0:0:0:0:
299,304,124630,5,10,2:2:0:0:
375,168,124767,1,0,0:0:0:0:
429,355,124903,5,10,2:2:0:0:
391,259,125039,1,0,3:3:0:0:
245,377,125176,5,10,2:2:0:0:
492,268,125312,1,0,3:3:0:0:
255,188,125448,5,10,2:2:0:0:
299,304,125585,1,0,0:0:0:0:
46,384,125721,6,0,L|93:159,1,229.500004377365,6|0,3:2|0:0,0:0:0:0:
111,88,125994,5,10,2:2:0:0:
0,170,126130,1,0,0:0:0:0:
237,181,126266,5,10,2:2:0:0:
49,8,126403,1,0,3:3:0:0:
345,27,126539,5,10,2:2:0:0:
92,159,126676,1,0,0:0:0:0:
418,286,126812,6,0,B|425:234|381:184|312:207|312:207|297:253|250:256,1,229.500004377365,10|0,2:2|0:0,0:0:0:0:
190,248,127085,5,10,2:2:0:0:
234,356,127221,1,0,3:3:0:0:
412,107,127357,5,10,2:2:0:0:
336,304,127494,1,0,3:3:0:0:
194,72,127630,5,10,2:2:0:0:
237,181,127766,1,0,0:0:0:0:
492,6,127903,6,0,L|267:53,1,229.500004377365,6|0,3:2|0:0,0:0:0:0:
194,72,128176,5,10,2:2:0:0:
137,0,128312,1,0,0:0:0:0:
31,214,128448,5,10,2:2:0:0:
97,84,128585,1,0,3:3:0:0:
201,343,128721,5,10,2:2:0:0:
137,158,128857,1,0,0:0:0:0:
2,322,128994,6,0,B|3:350|-20:380|-20:380|34:308|98:288|98:288|113:306|145:307,1,256.499993150711,6|0,3:2|0:0,0:0:0:0:
133,381,129266,2,0,P|110:380|90:371,1,45,10|0,2:2|0:0,0:0:0:0:
149,234,129403,2,0,B|189:227|212:184|212:184|266:162|341:201|341:281,1,242.999992584229,0|0,3:3|0:0,0:0:0:0:
359,324,129676,2,0,P|386:313|406:283,1,53.9999983520508,0|0,3:3|0:0,0:0:0:0:
413,84,129812,2,0,B|358:63|378:1|378:1|378:47|398:54,1,161.999995056153,10|0,2:2|0:0,0:0:0:0:
496,66,130085,6,0,B|519:90|523:138|468:162|465:152|416:149|386:184|404:221,1,216,6|0,3:2|0:0,0:0:0:0:
401,294,130357,2,0,P|453:306|503:327,1,107.999996704102,10|0,2:2|0:0,0:0:0:0:
332,173,130630,1,2,3:2:0:0:
133,306,130766,1,0,3:3:0:0:
230,374,130903,2,0,L|220:329,1,45,10|0,2:2|0:0,0:0:0:0:
137,158,131039,5,2,2:2:0:0:
137,158,131107,1,2,2:2:0:0:
137,158,131176,2,0,B|65:126|37:191|37:191|57:214|51:252,1,175.499991966248,0|0,3:3|0:0,0:0:0:0:
30,339,131448,2,0,P|79:318|132:305,1,107.999996704102,10|0,2:2|3:3,0:0:0:0:
333,254,131721,2,0,P|307:249|284:236,1,53.9999983520508,2|0,2:2|0:0,0:0:0:0:
220,330,131857,1,0,3:3:0:0:
332,173,131994,2,0,B|371:128|326:86|326:86|340:122|325:146,1,161.999995056153,10|0,2:2|0:0,0:0:0:0:
255,120,132266,6,0,L|453:162,1,202.500007724762,4|0,3:2|0:0,0:0:0:0:
498,256,132539,2,0,B|479:258|465:271|465:271|418:271|408:217,1,107.999996704102,10|0,2:2|0:0,0:0:0:0:
415,72,132812,1,2,3:2:0:0:
512,96,132948,1,0,3:3:0:0:
358,0,133085,2,0,P|303:11|252:22,1,107.999996704102,10|0,2:2|0:0,0:0:0:0:
42,159,133357,6,0,B|93:156|127:112|107:60|107:60|98:102|65:113,1,188.999994232178,2|0,3:2|0:0,0:0:0:0:
31,50,133630,1,10,2:2:0:0:
202,131,133766,2,0,L|254:119,1,53.9999983520508,0|0,3:3|0:0,0:0:0:0:
415,72,133903,2,0,P|359:99|358:146,1,107.999996704102,2|0,2:2|3:3,0:0:0:0:
410,343,134176,6,0,L|449:334,1,40.4999987640381,10|0,2:2|0:0,0:0:0:0:
512,246,134448,6,0,L|300:290,1,216,6|0,3:2|0:0,0:0:0:0:
223,326,134721,2,0,B|233:337|235:359|235:359|249:390|281:389|320:362,1,116.999994644165,10|0,2:2|0:0,0:0:0:0:
256,192,134994,1,2,3:2:0:0:
153,360,135130,1,0,3:3:0:0:
12,187,135266,2,0,P|68:158|109:206,1,135,10|0,2:2|0:0,0:0:0:0:
140,282,135539,6,0,B|182:273|180:228|180:228|169:263|140:274,1,135,0|0,3:3|0:0,0:0:0:0:
80,335,135812,2,0,P|64:313|62:286,1,53.9999983520508,10|0,2:2|0:0,0:0:0:0:
171,152,135948,1,0,3:3:0:0:
300,289,136085,1,2,2:2:0:0:
476,156,136221,2,0,L|464:208,1,53.9999983520508,0|0,3:3|0:0,0:0:0:0:
377,249,136357,2,0,L|410:90,1,161.999995056153,10|0,2:2|0:0,0:0:0:0:
489,70,136630,6,0,B|463:9|402:-2|348:30|348:30|343:75|298:90,1,229.500004377365,4|0,3:2|0:0,0:0:0:0:
252,13,136903,2,0,B|246:-2|219:-9|219:-9|268:-12|278:36,1,107.999996704102,10|0,2:2|0:0,0:0:0:0:
256,192,137176,1,0,3:3:0:0:
77,103,137312,1,0,3:3:0:0:
196,64,137448,2,0,L|173:169,1,107.999996704102,10|0,2:2|0:0,0:0:0:0:
127,356,137721,5,8,3:2:0:0:
103,380,137789,1,0,1:1:0:0:
73,383,137857,2,0,P|35:377|11:349,1,76.5000014591217,0|0,3:3|3:3,0:0:0:0:
213,276,137994,1,10,2:3:0:0:
204,260,138062,1,8,2:3:0:0:
186,253,138130,2,0,P|152:256|127:277,1,67.5000025749208,8|8,2:3|2:3,0:0:0:0:
332,357,138266,1,6,3:3:0:0:
325,367,138335,1,4,2:3:0:0:
313,372,138403,2,0,P|284:367|262:349,1,58.4999973220826,4|4,2:3|2:3,0:0:0:0:
376,225,138539,5,10,3:2:0:0:
425,195,138607,1,8,2:2:0:0:
480,209,138675,1,8,2:2:0:0:
512,257,138743,1,8,2:2:0:0:
503,313,138812,6,0,B|416:282|446:191|446:191|492:178|498:137,1,229.500004377365,6|0,3:2|0:0,0:0:0:0:
355,72,139085,2,0,B|374:126|428:117|428:117|434:90|465:78,1,135.000005149842,10|0,2:2|0:0,0:0:0:0:
299,0,139357,1,0,3:3:0:0:
193,169,139494,1,0,3:3:0:0:
73,30,139630,2,0,P|122:42|178:52,1,107.999996704102,10|0,2:2|0:0,0:0:0:0:
209,290,139903,6,0,P|151:235|70:220,1,161.999995056153,2|0,3:2|0:0,0:0:0:0:
0,241,140176,1,10,2:2:0:0:
193,169,140312,2,0,P|250:133|253:90,2,107.999996704102,2|2|0,2:2|3:2|3:3,0:0:0:0:
4,109,140721,2,0,P|28:120|45:141,1,53.9999983520508,10|0,2:2|0:0,0:0:0:0:
95,330,140857,1,0,0:0:0:0:
371,247,140994,6,0,B|409:237|412:181|412:181|366:155|291:177|292:267,1,256.499993150711,6|0,3:2|0:0,0:0:0:0:
275,335,141266,2,0,B|310:339|318:376|318:376|314:338|359:304,1,125.999996154785,10|0,2:2|0:0,0:0:0:0:
193,169,141539,1,2,3:2:0:0:
416,312,141676,1,0,3:3:0:0:
186,384,141812,2,0,L|212:260,1,125.999996154785,10|0,2:2|0:0,0:0:0:0:
157,100,142085,6,0,B|133:108|121:134|121:134|67:153|9:117|19:52,1,188.999994232178,2|0,3:2|0:0,0:0:0:0:
29,1,142357,1,10,2:2:0:0:
237,100,142494,1,0,3:3:0:0:
48,224,142630,2,0,B|7:228|-1:186|-1:186|16:208|48:209,1,107.999996704102,2|0,2:2|3:3,0:0:0:0:
211,260,142903,2,0,P|160:279|112:303,1,107.999996704102,10|0,2:2|0:0,0:0:0:0:
402,104,143176,6,0,B|389:19|283:35|283:35|313:54|320:102,1,216,6|0,3:2|0:0,0:0:0:0:
294,159,143448,2,0,P|388:178|478:198,1,188.999994232178,10|0,2:2|0:0,0:0:0:0:
506,129,143721,1,2,3:2:0:0:
341,261,143857,1,0,3:3:0:0:
471,382,143994,2,0,P|460:327|448:276,1,107.999996704102,10|0,2:2|0:0,0:0:0:0:
237,100,144266,6,0,P|142:119|52:139,1,188.999994232178,0|0,3:3|0:0,0:0:0:0:
14,74,144539,1,10,2:2:0:0:
188,200,144676,2,0,B|210:242|186:280|147:286|152:280|85:283|73:342|88:360,1,215.999993408203,0|0,3:3|3:3,0:0:0:0:
15,216,145085,2,0,B|-21:205|-16:166|-16:166|-10:192|10:200,1,107.999996704102,10|0,2:2|0:0,0:0:0:0:
227,323,145357,6,0,B|252:312|265:276|265:276|312:253|380:274|398:335,1,216,6|0,3:2|0:0,0:0:0:0:
439,384,145630,2,0,P|458:366|467:330,1,45,8|0,2:2|0:0,0:0:0:0:
456,179,145766,2,0,B|464:126|398:76|322:132|360:199|360:199|381:204|398:222,1,229.500004377365,4|0,3:2|0:0,0:0:0:0:
447,259,146039,2,0,L|491:249,1,45,0|0,3:3|0:0,0:0:0:0:
277,191,146176,1,12,2:2:0:0:
277,191,146448,6,0,L|316:375,1,188.999994232178,0|0,3:3|0:0,0:0:0:0:
238,384,146721,2,0,L|228:339,1,45,8|0,2:2|0:0,0:0:0:0:
196,174,146857,2,0,B|156:86|68:110|68:110|53:156|1:157,1,229.500004377365,4|0,3:2|0:0,0:0:0:0:
47,230,147130,2,0,P|74:220|95:200,1,58.4999973220826,0|0,3:3|0:0,0:0:0:0:
178,18,147266,1,12,2:2:0:0:
178,18,147812,5,10,2:3:0:0:
110,102,147948,1,6,2:3:0:0:
25,16,148085,1,10,2:3:0:0:
25,16,148153,1,8,2:3:0:0:
25,16,148221,2,0,L|69:25,1,45,6|0,2:3|0:0,0:0:0:0:
198,120,148357,2,0,L|193:97,1,22.5,14|0,2:2|0:0,0:0:0:0:
264,12,148494,2,0,L|259:34,1,22.5,2|0,2:2|0:0,0:0:0:0:
138,216,148630,6,0,L|349:171,1,216,4|0,3:2|0:0,0:0:0:0:
437,156,148903,2,0,B|438:112|386:107|386:107|417:127|418:156,1,125.999996154785,10|0,2:2|0:0,0:0:0:0:
373,300,149176,1,10,2:2:0:0:
512,252,149312,2,0,L|406:229,1,107.999996704102,2|10,3:2|2:2,0:0:0:0:
198,120,149585,5,2,2:2:0:0:
198,120,149653,1,2,0:0:0:0:
198,120,149721,2,0,L|303:97,1,107.999996704102,10|0,2:2|0:0,0:0:0:0:
149,22,149994,1,10,2:2:0:0:
0,194,150130,1,0,3:3:0:0:
107,239,150266,2,0,L|95:186,1,53.9999983520508,10|0,2:2|0:0,0:0:0:0:
22,296,150403,1,0,3:3:0:0:
215,206,150539,2,0,L|190:320,1,116.999994644165,10|0,2:2|0:0,0:0:0:0:
37,103,150812,6,0,B|48:8|149:22|149:22|157:58|201:70,1,216,6|0,3:2|0:0,0:0:0:0:
272,86,151085,2,0,B|266:125|226:130|226:130|250:120|257:87,1,116.999994644165,10|0,2:2|0:0,0:0:0:0:
355,0,151357,1,10,2:2:0:0:
475,162,151494,1,0,3:3:0:0:
512,62,151630,2,0,L|406:84,1,107.999996704102,10|0,2:2|0:0,0:0:0:0:
361,288,151903,6,0,B|415:288|434:233|434:233|411:218|407:193,1,135.000005149842,10|0,2:2|0:0,0:0:0:0:
183,63,152176,1,10,2:2:0:0:
270,236,152312,1,0,3:3:0:0:
36,265,152448,1,10,2:2:0:0:
203,154,152585,1,0,3:3:0:0:
39,4,152721,6,0,L|53:70,1,67.5,10|0,2:2|0:0,0:0:0:0:
124,129,152994,6,0,L|81:327,1,202.500007724762,6|0,3:2|0:0,0:0:0:0:
9,384,153266,2,0,L|0:339,1,45,10|0,2:2|0:0,0:0:0:0:
188,233,153403,2,0,L|165:338,1,107.999996704102,2|10,2:2|2:2,0:0:0:0:
301,379,153676,2,0,P|285:356|263:342,1,53.9999983520508,2|0,3:2|0:0,0:0:0:0:
81,326,153812,1,10,2:2:0:0:
221,152,153948,5,2,2:2:0:0:
221,152,154016,1,2,2:2:0:0:
221,152,154085,2,0,B|160:124|122:174|122:174|103:236|46:228,1,202.500007724762,10|0,2:2|0:0,0:0:0:0:
26,149,154357,2,0,B|19:129|-10:115|-10:115|51:112|54:173,1,135.000005149842,10|0,2:2|3:3,0:0:0:0:
165,338,154630,2,0,L|176:285,1,53.9999983520508,10|0,2:2|0:0,0:0:0:0:
405,156,154766,1,0,3:3:0:0:
332,239,154903,2,0,L|305:115,1,125.999996154785,10|0,2:2|0:0,0:0:0:0:
39,31,155176,6,0,L|237:73,1,202.500007724762,6|0,3:2|0:0,0:0:0:0:
221,152,155448,2,0,L|168:140,1,53.9999983520508,10|0,2:2|0:0,0:0:0:0:
308,35,155585,2,0,B|332:-15|392:0|392:0|399:25|433:33,1,144,2|10,2:2|2:2,0:0:0:0:
432,277,155857,2,0,P|408:262|396:233,1,53.9999983520508,2|0,3:2|0:0,0:0:0:0:
306,115,155994,1,10,2:2:0:0:
512,9,156130,5,2,2:2:0:0:
512,9,156198,1,2,2:2:0:0:
512,9,156266,2,0,L|469:207,1,202.500007724762,10|0,2:2|0:0,0:0:0:0:
512,269,156539,1,10,2:2:0:0:
381,95,156676,1,0,3:3:0:0:
254,225,156812,2,0,L|298:215,1,45,10|0,2:2|0:0,0:0:0:0:
168,140,156948,1,0,3:3:0:0:
226,338,157085,2,0,B|168:325|168:325|155:330|155:330|93:313,1,135,10|0,2:2|0:0,0:0:0:0:
66,243,157357,6,0,B|37:249|23:279|23:279|12:193|97:181|97:181|110:213|144:216,1,256.499993150711,4|0,3:2|0:0,0:0:0:0:
254,225,157630,2,0,P|304:199|316:143,1,116.999994644165,10|0,2:2|0:0,0:0:0:0:
72,110,157903,1,10,2:2:0:0:
143,25,158039,2,0,L|167:139,1,116.999994644165,2|10,3:2|2:2,0:0:0:0:
404,126,158312,5,2,2:2:0:0:
404,126,158380,1,2,2:2:0:0:
404,126,158448,2,0,P|375:76|320:60,1,116.999994644165,10|0,2:2|0:0,0:0:0:0:
139,215,158721,1,10,2:2:0:0:
341,307,158857,1,0,3:3:0:0:
242,167,158994,2,0,L|254:225,1,58.4999973220826,10|0,2:2|0:0,0:0:0:0:
154,303,159130,1,0,3:3:0:0:
365,192,159266,2,0,L|341:306,1,116.999994644165,10|0,2:2|0:0,0:0:0:0:
60,222,159539,6,0,B|8:217|9:159|9:159|73:130|140:158|141:235,1,256.499993150711,6|0,3:2|0:0,0:0:0:0:
124,351,159812,2,0,B|115:372|82:377|82:377|75:332|105:299|169:302,1,170.999995433807,10|0,2:2|0:0,0:0:0:0:
291,122,160085,1,10,2:2:0:0:
340,306,160221,1,0,3:3:0:0:
509,103,160357,2,0,L|403:125,1,107.999996704102,10|0,2:2|0:0,0:0:0:0:
423,384,160630,6,0,P|454:330|495:324,1,107.999996704102,10|0,2:2|0:0,0:0:0:0:
385,195,160903,1,10,2:2:0:0:
340,306,161039,1,0,3:3:0:0:
99,212,161176,1,10,2:2:0:0:
152,380,161312,1,0,3:3:0:0:
268,46,161448,1,10,2:2:0:0:
268,46,161721,6,0,B|206:-17|128:20|128:20|125:62|84:80,1,216,6|0,3:2|0:0,0:0:0:0:
8,4,161994,2,0,L|52:13,1,45,10|0,2:2|0:0,0:0:0:0:
287,143,162130,2,0,B|336:133|338:82|338:82|322:115|282:120,1,135.000005149842,2|10,2:2|2:2,0:0:0:0:
136,200,162403,2,0,L|125:148,1,53.9999983520508,2|0,3:2|0:0,0:0:0:0:
263,258,162539,1,10,2:2:0:0:
93,360,162676,5,2,2:2:0:0:
93,360,162744,1,2,2:2:0:0:
93,360,162812,2,0,B|31:366|3:281|78:252|78:252|93:274|129:274,1,202.500007724762,10|0,2:2|0:0,0:0:0:0:
172,328,163085,2,0,P|224:338|277:350,1,107.999996704102,10|0,2:2|3:3,0:0:0:0:
405,279,163357,2,0,L|352:290,1,53.9999983520508,10|0,2:2|0:0,0:0:0:0:
363,203,163494,1,0,3:3:0:0:
471,378,163630,2,0,L|500:237,1,144,10|0,2:2|0:0,0:0:0:0:
424,44,163903,6,0,B|455:52|507:43|507:43|319:107,1,256.499993150711,6|0,3:2|0:0,0:0:0:0:
267,160,164176,2,0,L|222:150,1,45,10|0,2:2|0:0,0:0:0:0:
54,29,164312,2,0,P|126:16|142:87,1,161.999995056153,2|10,2:2|2:2,0:0:0:0:
97,224,164585,2,0,P|101:197|121:180,1,53.9999983520508,2|0,3:2|0:0,0:0:0:0:
255,71,164721,1,10,2:2:0:0:
368,284,164857,5,2,2:2:0:0:
368,284,164926,1,2,2:2:0:0:
368,284,164994,2,0,L|169:241,1,202.500007724762,4|0,3:2|0:0,0:0:0:0:
97,224,165266,1,10,2:2:0:0:
131,323,165403,1,0,3:3:0:0:
31,300,165539,5,10,2:2:0:0:
341,172,165676,1,8,2:2:0:0:
255,71,165812,6,0,L|262:104,1,33.7500012874604,8|0,2:2|0:0,0:0:0:0:
173,97,165948,2,0,L|180:130,1,33.7500012874604,0|0,1:1|0:0,0:0:0:0:
296,383,166085,6,0,L|340:171,1,216,6|0,3:2|0:0,0:0:0:0:
358,97,166357,1,8,2:2:0:0:
445,219,166494,1,8,2:3:0:0:
203,209,166630,5,4,2:3:0:0:
340,171,166766,1,0,3:3:0:0:
477,133,166903,2,0,L|515:122,2,36,12|2|2,2:2|2:2|2:2,0:0:0:0:
38,92,167721,6,0,L|249:136,1,216,4|0,3:2|0:0,0:0:0:0:
322,150,167994,1,8,2:2:0:0:
235,28,168130,1,8,2:3:0:0:
385,95,168267,5,4,2:3:0:0:
249,137,168403,1,0,3:3:0:0:
113,180,168539,2,0,L|75:191,2,36,12|2|2,2:2|2:2|2:2,0:0:0:0:
466,273,169357,6,0,L|255:317,1,216,6|0,3:2|0:0,0:0:0:0:
182,331,169630,1,8,2:2:0:0:
269,209,169766,1,8,2:3:0:0:
119,276,169903,5,4,2:3:0:0:
255,318,170039,1,0,3:3:0:0:
391,361,170176,2,0,L|429:372,2,36,14|2|2,2:2|2:2|2:2,0:0:0:0:
93,66,170994,6,0,L|137:278,1,216,4|0,3:2|0:0,0:0:0:0:
155,352,171266,1,8,2:2:0:0:
242,230,171403,1,8,2:3:0:0:
0,240,171539,5,4,2:3:0:0:
137,278,171675,1,0,3:3:0:0:
274,316,171812,1,4,3:2:0:0:
67,378,171948,6,0,L|76:333,1,45,10|0,2:2|0:0,0:0:0:0:
83,110,172085,2,0,L|92:65,2,45,10|2|2,2:2|2:2|2:2,0:0:0:0:
333,246,172630,5,6,3:2:0:0:
333,246,172903,1,0,3:3:0:0:
434,199,173039,2,0,P|416:187|393:180,2,45,8|0|0,2:3|3:3|0:0,0:0:0:0:
337,104,173448,2,0,P|301:141|253:153,1,101.250003862381,4|0,3:3|0:0,0:0:0:0:
237,149,173721,5,0,3:3:0:0:
222,135,173994,1,0,3:3:0:0:
220,115,174266,1,0,3:3:0:0:
141,22,174403,1,8,2:2:0:0:
29,89,174539,2,0,P|49:115|63:155,1,67.5000025749208,2|2,3:2|2:2,0:0:0:0:
150,228,174812,6,0,P|88:253|51:308,1,135.000005149842,6|0,3:2|3:3,0:0:0:0:
51,308,175221,2,0,P|41:287|25:272,2,45,8|0|4,2:3|3:3|2:3,0:0:0:0:
131,380,175630,2,0,P|180:371|218:339,1,101.250003862381,4|0,3:3|0:0,0:0:0:0:
226,321,175903,5,0,3:3:0:0:
244,309,176176,1,0,3:3:0:0:
265,309,176448,1,0,3:3:0:0:
356,384,176585,1,8,2:2:0:0:
460,318,176721,2,0,P|437:293|426:261,1,67.5000025749208,2|2,3:2|2:2,0:0:0:0:
495,100,176994,6,0,P|455:152|390:166,1,135.000005149842,6|0,3:2|3:3,0:0:0:0:
391,167,177403,2,0,P|412:174|431:189,2,45,8|0|4,2:3|3:3|2:3,0:0:0:0:
281,139,177812,2,0,P|252:98|254:48,1,101.250003862381,4|0,3:3|0:0,0:0:0:0:
265,33,178085,5,0,3:3:0:0:
284,30,178357,1,0,3:3:0:0:
299,41,178630,1,2,3:2:0:0:
208,171,178766,1,8,2:2:0:0:
276,288,178903,1,0,3:3:0:0:
239,360,179039,1,0,0:0:0:0:
261,383,179176,6,0,P|216:334|150:331,1,135.000005149842,6|0,3:2|3:3,0:0:0:0:
151,331,179585,2,0,P|133:345|112:353,2,45,8|0|4,2:3|3:3|2:3,0:0:0:0:
89,271,179994,2,0,P|72:241|44:224,1,67.5000025749208,6|0,3:3|0:0,0:0:0:0:
83,277,180266,6,0,P|121:222|117:156,1,135.000005149842,2|0,3:2|3:3,0:0:0:0:
57,69,180676,1,2,2:2:0:0:
57,69,180744,2,0,P|46:54|45:35,1,33.7500012874604,2|0,0:0|3:3,0:0:0:0:
26,148,180948,1,8,2:2:0:0:
142,73,181085,1,2,3:2:0:0:
149,69,181221,1,2,2:2:0:0:
235,90,181357,6,0,B|246:78|262:75|262:75|263:20|188:5|188:5|217:22|218:45,1,180,6|0,3:2|3:3,0:0:0:0:
174,147,181766,2,0,P|197:170|237:174,1,67.5000025749208,8|0,2:3|3:3,0:0:0:0:
471,123,182039,5,6,2:3:0:0:
479,45,182176,1,6,3:3:0:0:
416,0,182312,1,2,2:2:0:0:
346,31,182448,5,2,3:2:0:0:
338,43,182721,1,0,3:3:0:0:
340,59,182994,1,0,3:3:0:0:
247,90,183130,1,8,2:2:0:0:
324,138,183266,1,0,3:3:0:0:
249,174,183403,1,2,2:2:0:0:
170,133,183539,5,6,3:2:0:0:
160,117,183812,1,0,3:3:0:0:
141,110,183948,2,0,P|116:105|97:108,1,45,0|0,0:0|3:3,0:0:0:0:
37,172,184221,5,6,2:3:0:0:
49,254,184357,1,6,3:3:0:0:
126,279,184494,1,2,2:2:0:0:
192,231,184630,5,2,3:2:0:0:
205,219,184903,1,0,3:3:0:0:
223,218,185176,1,2,3:2:0:0:
202,315,185312,1,8,2:2:0:0:
349,238,185448,1,0,3:3:0:0:
345,227,185585,1,0,0:0:0:0:
306,347,185721,5,6,3:2:0:0:
381,357,185857,1,2,2:2:0:0:
454,322,185994,1,2,3:2:0:0:
493,240,186130,1,10,2:3:0:0:
469,154,186266,5,2,3:2:0:0:
433,174,186403,1,6,2:3:0:0:
349,103,186539,1,6,3:3:0:0:
338,211,186676,1,2,2:2:0:0:
221,126,186812,6,0,P|232:145|252:155,1,45,2|0,3:2|0:0,0:0:0:0:
260,162,187016,1,2,2:2:0:0:
260,162,187085,2,0,P|226:168|194:184,1,67.5000025749208,0|2,3:3|2:2,0:0:0:0:
79,266,187357,5,2,3:2:0:0:
33,199,187494,1,8,2:2:0:0:
162,259,187630,1,0,3:3:0:0:
125,331,187766,1,2,2:2:0:0:
9,384,187903,6,0,L|23:317,1,67.5000025749208,6|2,3:2|0:0,0:0:0:0:
23,317,188107,1,2,0:0:0:0:
23,317,188176,1,2,3:2:0:0:
178,286,188312,1,10,2:3:0:0:
185,295,188448,1,10,3:3:0:0:
271,290,188585,1,4,2:3:0:0:
310,219,188721,1,4,3:3:0:0:
266,153,188857,1,6,2:3:0:0:
187,164,188994,6,0,L|192:190,1,27,6|0,3:2|0:0,0:0:0:0:
478,384,189539,6,0,L|489:328,1,56.25,2|0,3:2|0:0,0:0:0:0:
388,113,189676,6,0,L|390:127,1,13.5,0|0,3:2|0:0,0:0:0:0:
456,49,189948,6,0,B|425:94|374:87|374:87|366:84|366:84|352:54|328:35|328:35|272:14|258:39,1,242.999992584229,6|0,3:2|0:0,0:0:0:0:
184,78,190221,2,0,L|174:33,1,45,0|0,3:3|0:0,0:0:0:0:
16,49,190357,2,0,B|11:72|-6:97|-6:97|0:139|42:161|42:161|47:160|47:160|84:135|123:149|136:174,1,229.500004377365,10|0,2:2|0:0,0:0:0:0:
85,224,190630,1,2,3:2:0:0:
261,117,190766,1,0,3:3:0:0:
229,297,190903,2,0,B|277:206|277:206|274:197|274:197|240:198|227:185,1,153.000002918243,10|0,2:2|0:0,0:0:0:0:
9,362,191176,6,0,B|73:325|73:325|88:330|88:330|117:364|117:364|123:366|123:366|184:339,1,188.999994232178,0|0,3:3|0:0,0:0:0:0:
311,313,191448,2,0,L|280:374,1,53.9999983520508,10|0,2:2|0:0,0:0:0:0:
475,340,191585,2,0,B|503:303|503:303|499:292|499:292|404:252|404:252|392:256|392:256|369:291,1,188.999994232178,0|0,3:3|0:0,0:0:0:0:
387,351,191857,1,0,3:3:0:0:
305,211,191994,1,10,2:2:0:0:
487,98,192130,5,2,2:2:0:0:
487,98,192198,1,2,2:2:0:0:
487,98,192266,2,0,B|493:119|486:143|486:143|383:169|383:169|373:168|373:168|354:141|324:137,1,216,4|0,3:2|0:0,0:0:0:0:
252,147,192539,2,0,B|235:119|235:119|263:66|263:66|301:66,1,125.999996154785,10|0,2:2|0:0,0:0:0:0:
305,211,192812,1,2,3:2:0:0:
73,150,192948,1,0,3:3:0:0:
134,68,193085,6,0,L|138:90,1,22.5,10|0,2:2|0:0,0:0:0:0:
159,169,193221,2,0,L|163:191,1,22.5
50,297,193357,6,0,B|26:298|-8:321|-8:321|88:230|88:230|99:233|99:233|113:261|132:262,1,242.999992584229,0|0,3:3|0:0,0:0:0:0:
173,351,193630,2,0,B|154:343|154:343|141:348|141:348|113:338,1,53.9999983520508,10|0,2:2|0:0,0:0:0:0:
305,211,193766,5,2,3:2:0:0:
348,243,193835,1,2,0:0:0:0:
350,284,193903,1,2,2:2:0:0:
328,309,193971,1,2,2:2:0:0:
304,315,194039,1,2,3:2:0:0:
291,314,194107,1,2,2:2:0:0:
281,308,194176,2,0,B|279:297|275:289|275:289|294:255|294:255|318:241,1,72,10|2,2:2|2:2,0:0:0:0:
466,121,194312,6,0,B|502:138|502:138|518:157|518:157|447:125|388:103|388:103|373:128|335:133,1,256.499993150711,6|0,3:2|0:0,0:0:0:0:
253,78,194585,2,0,B|253:77|253:77|300:44|300:44|325:55,1,85.4999977169037,2|0,3:2|0:0,0:0:0:0:
462,215,194721,2,0,L|391:185,1,67.5000025749208,10|0,2:2|0:0,0:0:0:0:
154,91,194857,1,2,2:2:0:0:
48,301,194994,6,0,B|62:300|62:300|105:265|105:265|106:243,1,72,2|0,3:2|0:0,0:0:0:0:
26,136,195130,2,0,B|18:160|18:160|39:204,1,72,2|0,3:2|0:0,0:0:0:0:
194,294,195266,2,0,B|202:270|202:270|181:226,1,72,10|0,2:2|0:0,0:0:0:0:
62,35,195403,6,0,B|-14:26|-14:26|167:96,1,256.499993150711,6|0,3:2|0:0,0:0:0:0:
253,78,195676,2,0,B|237:29|237:29|211:20,1,76.5000014591217,2|0,3:2|0:0,0:0:0:0:
26,136,195812,2,0,L|121:171,1,76.5000014591217,10|0,2:2|0:0,0:0:0:0:
345,241,195948,1,2,2:2:0:0:
135,345,196085,6,0,B|143:330|146:319|146:319|181:292|181:292|209:295,1,85.4999977169037,2|0,3:2|0:0,0:0:0:0:
202,158,196221,2,0,B|218:157|230:154|230:154|270:171|270:171|282:197,1,85.4999977169037,2|0,3:2|0:0,0:0:0:0:
432,192,196357,2,0,B|440:206|449:214|449:214|454:258|454:258|438:281,1,85.4999977169037,10|0,2:2|0:0,0:0:0:0:
280,384,196494,6,0,B|292:324|292:324|334:293|334:293|363:152,1,256.499993150711,6|0,3:2|0:0,0:0:0:0:
372,73,196766,2,0,B|386:68|386:68|434:100|434:100|430:133,1,85.4999977169037,2|0,3:2|0:0,0:0:0:0:
265,236,196903,2,0,L|276:183,1,53.9999983520508,10|0,2:2|0:0,0:0:0:0:
310,0,197039,1,2,2:2:0:0:
496,168,197176,6,0,B|483:186|483:186|448:198|448:198|408:183,1,76.5000014591217,2|0,3:2|0:0,0:0:0:0:
241,58,197312,2,0,B|228:40|228:40|193:28|193:28|153:43,1,76.5000014591217,2|0,3:2|0:0,0:0:0:0:
37,205,197448,2,0,B|59:206|59:206|90:186|90:186|104:146,1,76.5000014591217,10|0,2:2|0:0,0:0:0:0:
44,9,197585,6,0,B|85:91|85:91|148:102|148:102|194:204,1,256.499993150711,6|0,3:2|0:0,0:0:0:0:
200,287,197857,2,0,B|139:273|139:273|120:241,1,85.4999977169037,2|0,3:2|0:0,0:0:0:0:
261,134,197994,2,0,L|324:170,1,72,10|0,2:2|0:0,0:0:0:0:
432,112,198130,2,0,L|456:183,1,72,2|0,2:2|0:0,0:0:0:0:
469,359,198266,2,0,B|454:368|454:368|375:322|375:322|367:295|367:295|429:339,1,180,2|0,3:2|3:3,0:0:0:0:
402,319,198539,2,0,L|339:332,1,62.9999980773926,10|0,2:2|0:0,0:0:0:0:
86,354,198676,6,0,B|70:384|70:384|77:388|77:388|184:351|184:351|184:340|184:340|127:253,1,270,6|0,3:2|0:0,0:0:0:0:
95,169,198948,2,0,L|42:180,1,53.9999983520508,0|0,3:3|0:0,0:0:0:0:
242,55,199085,2,0,B|316:70|316:70|335:111|335:111|460:143,1,229.500004377365,10|0,2:2|0:0,0:0:0:0:
480,25,199357,2,0,B|436:20|436:20|411:54,1,80.9999975280763,2|0,3:2|0:0,0:0:0:0:
261,134,199494,1,2,3:2:0:0:
354,0,199630,1,10,2:2:0:0:
404,275,199766,5,2,2:2:0:0:
404,275,199835,1,2,2:2:0:0:
404,275,199903,2,0,B|436:283|436:283|515:229|515:229|506:172|506:172|487:209|449:209,1,242.999992584229,2|0,3:2|0:0,0:0:0:0:
364,197,200176,2,0,B|333:191|333:191|248:252|248:252|207:243,1,161.999995056153,10|0,2:2|3:3,0:0:0:0:
42,180,200448,2,0,L|30:127,1,53.9999983520508,2|0,2:2|0:0,0:0:0:0:
157,0,200585,2,0,B|179:37|179:37|127:149,1,161.999995056153,2|10,3:2|2:2,0:0:0:0:
10,359,200857,5,2,2:2:0:0:
10,359,200926,1,2,2:2:0:0:
10,359,200994,2,0,B|13:334|13:334|137:261|137:261|149:263|149:263|155:304|199:317,1,242.999992584229,6|0,3:2|0:0,0:0:0:0:
295,245,201266,2,0,B|302:230|326:214|326:214|261:210|261:210|246:235|217:248,1,161.999995056153,10|0,2:2|0:0,0:0:0:0:
112,378,201539,1,2,3:2:0:0:
42,180,201676,1,0,3:3:0:0:
261,319,201812,2,0,L|251:363,1,45,10|0,2:2|0:0,0:0:0:0:
382,167,201948,2,0,L|350:316,1,153.000002918243,2|0,2:2|3:3,0:0:0:0:
222,245,202221,5,2,2:2:0:0:
449,375,202357,1,10,2:2:0:0:
432,292,202494,1,2,3:2:0:0:
261,319,202630,6,0,L|272:371,1,53.9999983520508,2|0,2:2|0:0,0:0:0:0:
132,240,202766,2,0,L|143:292,1,53.9999983520508,2|0,3:2|0:0,0:0:0:0:
311,108,202903,2,0,L|299:160,1,53.9999983520508,10|0,2:2|0:0,0:0:0:0:
39,130,203039,5,2,2:2:0:0:
39,130,203107,1,2,2:2:0:0:
39,130,203176,2,0,B|8:106|8:106|10:98|10:98|155:41|155:41|142:94,1,242.999992584229,4|0,3:2|0:0,0:0:0:0:
241,211,203448,2,0,B|199:200|199:200|186:175|186:175|114:154,1,144,10|0,2:2|0:0,0:0:0:0:
7,248,203721,1,2,3:2:0:0:
225,98,203857,1,0,3:3:0:0:
158,363,203994,2,0,L|128:222,1,125.999996154785,10|0,2:2|0:0,0:0:0:0:
25,347,204266,6,0,L|77:335,1,53.9999983520508,2|0,3:2|0:0,0:0:0:0:
291,290,204403,1,2,0:0:0:0:
300,289,204471,1,2,2:2:0:0:
309,288,204539,1,10,2:2:0:0:
158,363,204676,2,0,B|152:335|152:335|241:257|241:257|248:257|248:257|270:292|295:300,1,202.500007724762,0|0,3:3|0:0,0:0:0:0:
292,376,204948,2,0,B|262:377|262:377|242:358,1,53.9999983520508,0|0,3:3|0:0,0:0:0:0:
316,209,205085,2,0,B|404:231|404:231|418:261|418:261|496:283,1,202.500007724762,10|0,2:2|0:0,0:0:0:0:
389,365,205357,6,0,L|436:140,1,229.500004377365,6|0,3:2|0:0,0:0:0:0:
501,82,205630,6,0,L|512:27,1,45,8|0,2:2|0:0,0:0:0:0:
327,23,205903,2,0,L|360:30,1,33.7500012874604,2|0,3:2|0:0,0:0:0:0:
344,112,206039,2,0,L|310:104,1,33.7500012874604,0|0,3:3|0:0,0:0:0:0:
106,0,206176,6,0,L|139:158,1,161.999995056153,12|0,2:2|0:0,0:0:0:0:
79,384,206448,5,10,2:3:0:0:
148,343,206539,5,10,2:3:0:0:
155,267,206630,5,14,2:3:0:0:
99,221,206721,5,6,2:3:0:0:
42,226,206812,5,6,3:3:0:0:
9,248,206903,5,2,3:2:0:0:
0,271,206994,5,10,3:2:0:0:
65,234,207085,5,10,2:3:0:0:
119,255,207176,5,10,2:3:0:0:
133,308,207266,5,6,2:3:0:0:
116,343,207357,5,6,2:3:0:0:
94,356,207448,5,2,3:2:0:0:
75,359,207539,6,0,B|52:333|53:296|102:266|101:272|161:261|170:214|148:182,1,216,6|0,3:2|0:0,0:0:0:0:
99,131,207812,1,10,2:2:0:0:
282,88,207948,2,0,P|229:98|176:110,1,107.999996704102,2|0,2:2|3:3,0:0:0:0:
70,43,208221,2,0,P|97:48|122:54,1,53.9999983520508,2|0,3:2|0:0,0:0:0:0:
383,132,208357,1,10,2:2:0:0:
342,280,208494,6,0,P|326:228|295:185,1,107.999996704102,2|0,2:2|3:3,0:0:0:0:
493,91,208766,2,0,P|476:112|466:137,1,53.9999983520508
432,36,208903,2,0,P|402:80|382:131,1,107.999996704102,10|0,2:2|0:0,0:0:0:0:
297,355,209176,1,2,3:2:0:0:
419,210,209312,1,0,3:3:0:0:
471,377,209448,6,0,P|438:367|416:343,1,67.5,10|0,2:2|0:0,0:0:0:0:
342,280,209721,6,0,B|317:268|312:240|312:240|259:200|194:224|174:274,1,202.500007724762,6|0,3:2|0:0,0:0:0:0:
139,326,209994,1,10,2:2:0:0:
11,219,210130,2,0,P|65:224|107:258,1,107.999996704102,2|0,2:2|3:3,0:0:0:0:
78,382,210403,2,0,P|62:360|59:327,1,53.9999983520508,2|0,3:2|0:0,0:0:0:0:
111,156,210539,1,10,2:2:0:0:
180,261,210676,6,0,P|210:217|213:163,1,107.999996704102,2|0,2:2|3:3,0:0:0:0:
77,6,210948,2,0,P|52:17|26:25,1,53.9999983520508
233,91,211085,2,0,P|180:77|127:66,1,107.999996704102,10|0,2:2|0:0,0:0:0:0:
278,12,211357,1,2,3:2:0:0:
332,171,211494,1,0,3:3:0:0:
504,107,211630,6,0,L|512:67,1,40.4999987640381,10|0,2:2|0:0,0:0:0:0:
450,0,211903,6,0,L|407:198,1,202.500007724762,6|0,3:2|0:0,0:0:0:0:
393,270,212176,1,10,2:2:0:0:
512,371,212312,2,0,L|489:265,1,107.999996704102,2|0,2:2|3:3,0:0:0:0:
330,326,212585,2,0,P|349:346|375:352,1,53.9999983520508,2|0,3:2|0:0,0:0:0:0:
486,187,212721,1,10,2:2:0:0:
264,267,212857,5,2,2:2:0:0:
264,267,212926,1,2,2:2:0:0:
264,267,212994,2,0,B|208:245|173:285|173:285|157:334|109:336,1,175.499991966248,0|0,3:3|0:0,0:0:0:0:
50,384,213266,2,0,P|40:334|27:278,1,107.999996704102,10|0,2:2|0:0,0:0:0:0:
120,101,213539,1,2,3:2:0:0:
103,260,213676,1,0,3:3:0:0:
21,79,213812,2,0,B|11:13|91:25|91:25|56:39|49:65,1,161.999995056153,10|0,2:2|0:0,0:0:0:0:
120,101,214085,6,0,P|189:133|248:84,1,161.999995056153,6|0,3:2|0:0,0:0:0:0:
269,12,214357,1,10,2:2:0:0:
425,110,214494,1,2,2:2:0:0:
425,110,214562,1,2,2:2:0:0:
425,110,214630,2,0,P|377:84|325:70,1,107.999996704102,0|0,3:3|3:3,0:0:0:0:
453,193,214903,2,0,P|478:183|502:140,1,53.9999983520508,10|0,2:2|0:0,0:0:0:0:
406,6,215039,1,0,0:0:0:0:
249,208,215176,6,0,P|345:239|429:295,1,202.500007724762,6|0,3:2|0:0,0:0:0:0:
482,348,215448,1,10,2:2:0:0:
352,155,215585,1,10,2:3:0:0:
205,340,215721,1,6,2:3:0:0:
134,245,215857,1,6,2:3:0:0:
5,338,215994,1,6,3:3:0:0:
5,338,216130,1,6,2:3:0:0:
89,384,216266,6,0,L|136:159,1,229.500004377365,4|0,3:2|0:0,0:0:0:0:
147,81,216539,6,0,L|41:103,1,107.999996704102,10|0,2:2|0:0,0:0:0:0:
218,0,216812,1,2,3:2:0:0:
352,155,216948,1,0,3:3:0:0:
404,47,217085,2,0,L|351:58,1,53.9999983520508,10|0,2:2|0:0,0:0:0:0:
280,199,217221,5,2,2:2:0:0:
280,199,217289,1,2,2:2:0:0:
280,199,217357,2,0,B|298:271|391:258|391:258|394:221|436:198,1,202.500007724762,0|0,3:3|0:0,0:0:0:0:
497,195,217630,2,0,L|474:89,1,107.999996704102,10|0,2:2|0:0,0:0:0:0:
468,269,217903,1,2,3:2:0:0:
352,155,218039,1,0,3:3:0:0:
211,261,218176,6,0,L|220:307,1,40.4999987640381,10|0,2:2|0:0,0:0:0:0:
278,363,218448,6,0,L|79:320,1,202.500007724762,6|0,3:2|0:0,0:0:0:0:
10,294,218721,2,0,B|11:238|66:228|66:228|82:250|108:249,1,135.000005149842,10|0,2:2|0:0,0:0:0:0:
280,199,218994,1,2,3:2:0:0:
98,78,219130,1,0,3:3:0:0:
208,18,219266,2,0,L|185:123,1,107.999996704102,10|0,2:2|0:0,0:0:0:0:
375,207,219539,6,0,B|390:143|326:135|326:135|363:160|359:189,1,161.999995056153,2|0,3:2|0:0,0:0:0:0:
322,277,219812,2,0,P|376:294|424:312,1,107.999996704102,10|0,2:2|0:0,0:0:0:0:
476,200,220085,1,2,3:2:0:0:
322,365,220221,1,0,3:3:0:0:
227,209,220357,2,0,P|256:204|279:198,1,53.9999983520508,10|0,2:2|0:0,0:0:0:0:
474,27,220494,5,2,2:2:0:0:
474,27,220562,1,2,2:2:0:0:
474,27,220630,2,0,P|377:45|275:69,1,202.500007724762,4|0,3:2|0:0,0:0:0:0:
210,124,220903,2,0,P|154:110|104:101,1,107.999996704102,10|0,2:2|0:0,0:0:0:0:
19,184,221176,1,0,3:3:0:0:
201,43,221312,1,0,3:3:0:0:
26,0,221448,2,0,L|35:44,1,45,10|0,2:2|0:0,0:0:0:0:
110,191,221585,6,0,B|125:257|66:291|17:272|17:272|59:275|80:240,1,215.999993408203,4|0,3:2|0:0,0:0:0:0:
210,124,221994,5,2,2:2:0:0:
321,190,222130,1,0,0:0:0:0:
312,274,222266,1,2,2:2:0:0:
403,286,222403,1,0,0:0:0:0:
424,334,222539,1,2,2:2:0:0:
460,333,222676,1,0,0:0:0:0:
479,364,222812,5,6,3:2:0:0:
479,364,223903,6,0,L|470:324,1,33.7500012874604,8|0,2:2|0:0,0:0:0:0:
428,138,224039,5,0,3:3:0:0:
415,130,224312,2,0,L|529:98,1,101.250003862381,0|0,3:2|0:0,0:0:0:0:
498,255,224585,6,0,L|464:247,1,33.7500012874604,8|0,2:2|0:0,0:0:0:0:
207,195,224721,1,0,3:3:0:0:
207,195,224994,6,0,B|163:199|139:241|139:241|149:207|149:207|144:41|355:42|355:42|305:95|331:171|414:170|423:108,1,607.499981460572,4|0,3:2|0:0,0:0:0:0:
450,60,226085,2,0,L|457:31,2,27,2|2|2,2:2|2:2|2:2,0:0:0:0:
475,284,227176,6,0,B|471:319|495:368|495:368|409:230|281:224|281:224|326:276|284:368|216:364|216:364|191:343|195:293|236:268,1,644.624988442469,4|0,3:2|2:2,0:0:0:0:
211,204,228266,6,0,B|207:170|180:163|180:163|181:191|210:204,1,107.999996704102,2|0,0:0|0:0,0:0:0:0:
118,74,229357,6,0,B|117:22|27:-26|-58:21|-93:110|-42:234|82:246|120:152|118:150|117:148|187:95|262:135|268:220|216:256|216:256|224:216|196:181,1,647.99998022461,4|0,3:2|0:0,0:0:0:0:
211,204,231539,6,0,L|257:213,1,40.4999987640381,4|0,3:2|0:0,0:0:0:0:
341,187,231812,6,0,L|116:234,1,229.500004377365,12|0,2:2|0:0,0:0:0:0:
43,250,232085,1,8,2:3:0:0:
201,117,232221,1,8,2:3:0:0:
346,277,232357,2,0,L|334:329,1,53.9999983520508,8|0,2:2|0:0,0:0:0:0:
68,175,232494,1,4,2:3:0:0:
68,175,232766,5,8,2:2:0:0:
201,384,232903,1,8,2:2:0:0:
301,129,233039,1,8,2:2:0:0:
43,250,233176,1,8,2:3:0:0:
46,263,233244,1,8,2:3:0:0:
49,276,233312,1,4,2:3:0:0:
52,289,233380,1,4,2:3:0:0:
55,303,233448,1,12,2:2:0:0:
55,303,233721,6,0,B|-14:265|-14:265|184:321,1,270,4|0,3:2|0:0,0:0:0:0:
296,338,233994,2,0,P|357:324|355:259,1,107.999996704102,10|0,2:2|0:0,0:0:0:0:
353,74,234266,1,0,3:3:0:0:
163,235,234403,1,0,3:3:0:0:
401,198,234539,1,10,2:2:0:0:
192,98,234676,1,0,0:0:0:0:
251,377,234812,6,0,L|287:205,1,175.499991966248,2|0,3:2|0:0,0:0:0:0:
301,129,235085,2,0,L|256:138,1,45,10|0,2:2|0:0,0:0:0:0:
427,323,235221,2,0,B|494:302|478:228|478:228|465:267|430:271,1,175.499991966248,2|0,3:2|0:0,0:0:0:0:
358,274,235494,2,0,L|348:318,1,45,0|0,3:3|0:0,0:0:0:0:
148,359,235630,6,0,L|169:259,1,101.250003862381,10|0,2:2|0:0,0:0:0:0:
182,187,235903,6,0,B|151:97|49:112|49:112|34:153|-5:156,1,229.500004377365,6|0,3:2|0:0,0:0:0:0:
40,225,236176,2,0,P|66:214|95:182,1,58.4999973220826,10|0,2:2|0:0,0:0:0:0:
143,21,236312,1,0,0:0:0:0:
301,129,236448,2,0,B|344:125|352:74|352:74|330:104|306:108,1,116.999994644165,2|0,3:2|3:3,0:0:0:0:
168,259,236721,2,0,P|225:271|279:293,1,116.999994644165,10|0,2:2|0:0,0:0:0:0:
14,384,236994,6,0,P|63:352|116:329,1,116.999994644165,2|0,3:2|0:0,0:0:0:0:
379,380,237266,1,10,2:2:0:0:
326,220,237403,1,0,3:3:0:0:
511,169,237539,1,2,2:2:0:0:
478,281,237676,1,0,3:3:0:0:
301,129,237812,2,0,B|299:56|391:57|391:57|363:79|363:116,1,175.499991966248,10|0,2:2|0:0,0:0:0:0:
435,119,238085,6,0,L|236:76,1,202.500007724762,4|0,3:2|0:0,0:0:0:0:
140,19,238357,2,0,L|162:124,1,107.999996704102,10|0,2:2|0:0,0:0:0:0:
200,365,238630,1,0,3:3:0:0:
20,241,238766,1,0,3:3:0:0:
241,159,238903,2,0,L|229:211,1,53.9999983520508,10|0,2:2|0:0,0:0:0:0:
75,311,239039,5,2,0:0:0:0:
75,311,239107,1,2,0:0:0:0:
75,311,239176,2,0,B|98:243|165:247|165:247|177:279|221:285,1,175.499991966248,0|0,3:3|0:0,0:0:0:0:
281,272,239448,1,10,2:2:0:0:
313,362,239585,1,0,3:3:0:0:
200,365,239721,1,2,2:2:0:0:
445,268,239857,1,0,3:3:0:0:
383,185,239994,2,0,L|360:290,1,107.999996704102,10|0,2:2|0:0,0:0:0:0:
454,77,240266,6,0,B|512:37|512:37|332:96,1,242.999992584229,6|0,3:2|0:0,0:0:0:0:
273,116,240539,1,10,2:2:0:0:
175,23,240676,1,0,0:0:0:0:
291,14,240812,1,2,3:2:0:0:
106,159,240948,1,0,3:3:0:0:
210,217,241085,2,0,L|187:111,1,107.999996704102,10|0,2:2|0:0,0:0:0:0:
56,329,241357,6,0,B|28:354|6:386|6:386|79:328|179:290,1,256.499993150711,6|0,3:2|0:0,0:0:0:0:
210,217,241630,2,0,P|236:221|262:229,1,53.9999983520508,10|0,2:2|0:0,0:0:0:0:
427,338,241766,2,0,B|466:323|469:267|469:267|395:250|342:291|348:360,1,256.499993150711,4|0,3:2|0:0,0:0:0:0:
265,364,242039,2,0,P|266:330|274:306,1,53.9999983520508,0|0,3:3|0:0,0:0:0:0:
395,175,242176,2,0,P|371:188|345:194,1,53.9999983520508,14|0,2:2|0:0,0:0:0:0:
106,159,242312,5,2,0:0:0:0:
106,159,242380,1,2,0:0:0:0:
106,159,242448,2,0,B|32:127|50:27|150:23|184:79|184:79|161:97|162:125,1,270,6|0,3:2|0:0,0:0:0:0:
230,142,242721,2,0,L|207:247,1,107.999996704102,10|0,2:2|0:0,0:0:0:0:
468,384,242994,2,0,B|496:326|442:289|442:289|386:298|365:249,1,188.999994232178,2|0,3:2|0:0,0:0:0:0:
345,193,243266,1,10,2:2:0:0:
186,341,243403,5,2,2:2:0:0:
186,341,243471,1,2,2:2:0:0:
186,341,243539,2,0,B|133:344|109:316|131:263|131:263|138:305|173:315,1,188.999994232178,0|0,3:3|0:0,0:0:0:0:
206,247,243812,1,10,2:2:0:0:
26,322,243948,1,0,3:3:0:0:
6,171,244085,1,2,2:2:0:0:
101,201,244221,1,0,3:3:0:0:
218,84,244357,6,0,L|147:98,1,67.5,10|0,2:2|0:0,0:0:0:0:
298,27,244630,6,0,L|509:71,1,202.500007724762,4|0,3:2|0:0,0:0:0:0:
485,163,244903,2,0,B|436:201|397:162|397:162|398:132|381:118,1,135.000005149842,10|0,2:2|0:0,0:0:0:0:
211,0,245176,1,2,3:2:0:0:
318,159,245312,1,0,3:3:0:0:
130,225,245448,2,0,L|141:172,1,53.9999983520508,10|0,2:2|0:0,0:0:0:0:
3,7,245585,5,2,2:2:0:0:
3,7,245653,1,2,2:2:0:0:
3,7,245721,2,0,L|47:218,1,188.999994232178,0|0,3:3|0:0,0:0:0:0:
64,268,245994,1,10,2:2:0:0:
242,164,246130,2,0,B|247:106|174:105|174:105|213:124|214:162,1,161.999995056153,0|0,3:3|0:0,0:0:0:0:
264,243,246403,2,0,P|285:236|311:204,1,53.9999983520508,0|0,3:3|0:0,0:0:0:0:
443,77,246539,6,0,P|457:60|497:49,1,53.9999983520508,10|0,2:2|0:0,0:0:0:0:
501,130,246812,6,0,B|470:151|426:139|415:101|420:96|420:51|383:23|335:47,1,202.500007724762,6|0,3:2|0:0,0:0:0:0:
256,53,247085,2,0,B|250:6|292:-5|292:-5|273:18|274:42,1,116.999994644165,10|0,2:2|0:0,0:0:0:0:
242,164,247357,1,0,3:3:0:0:
33,84,247494,1,0,3:3:0:0:
109,0,247630,2,0,L|131:105,1,107.999996704102,10|0,2:2|0:0,0:0:0:0:
188,339,247903,6,0,B|140:270|66:278|66:278|53:304|19:318,1,202.500007724762,2|0,3:2|0:0,0:0:0:0:
57,384,248176,2,0,P|81:375|103:349,1,53.9999983520508,10|0,2:2|0:0,0:0:0:0:
242,164,248312,2,0,B|260:156|286:131|286:131|272:217|196:237|196:237|173:216|146:212,1,242.999992584229,2|0,3:2|0:0,0:0:0:0:
81,201,248585,2,0,L|69:148,1,53.9999983520508,0|0,3:3|0:0,0:0:0:0:
109,0,248721,6,0,L|117:39,1,40.4999987640381,10|0,2:2|0:0,0:0:0:0:
216,92,248994,6,0,B|244:84|261:47|261:47|313:28|374:51|398:123,1,216,6|0,3:2|0:0,0:0:0:0:
379,180,249266,2,0,P|350:173|328:149,1,53.9999983520508,10|0,2:2|0:0,0:0:0:0:
495,32,249403,1,2,2:2:0:0:
495,32,249471,1,2,2:2:0:0:
495,32,249539,2,0,L|465:172,1,144,2|0,3:2|3:3,0:0:0:0:
191,22,249812,1,10,2:2:0:0:
191,22,250085,5,8,3:2:0:0:
142,68,250153,1,8,2:2:0:0:
150,134,250221,1,0,1:1:0:0:
203,172,250289,1,0,1:1:0:0:
255,182,250357,1,10,3:3:0:0:
285,221,250426,1,8,2:3:0:0:
274,262,250494,1,8,2:3:0:0:
242,278,250562,1,8,2:3:0:0:
224,277,250630,1,6,3:3:0:0:
216,271,250698,1,4,2:3:0:0:
217,261,250766,2,0,L|269:249,1,53.9999983520508,4|0,2:3|0:0,0:0:0:0:
359,139,250903,5,10,3:2:0:0:
282,155,250971,1,8,2:2:0:0:
203,172,251039,1,8,2:2:0:0:
126,188,251107,1,8,2:2:0:0:
49,205,251176,6,0,B|68:178|66:142|66:142|69:147|69:147|137:169|154:250|82:296,1,256.499993150711,6|0,3:2|0:0,0:0:0:0:
111,384,251448,2,0,P|61:362|9:346,1,107.999996704102,10|0,2:2|0:0,0:0:0:0:
151,110,251721,1,0,3:3:0:0:
335,214,251857,1,0,3:3:0:0:
239,366,251994,2,0,L|216:260,1,107.999996704102,10|0,2:2|0:0,0:0:0:0:
456,18,252266,6,0,L|422:176,1,161.999995056153,2|0,3:2|0:0,0:0:0:0:
496,227,252539,2,0,L|505:182,1,45,10|0,2:2|0:0,0:0:0:0:
323,60,252676,2,0,B|262:23|216:63|216:63|190:125|129:105,1,202.500007724762,2|0,3:2|0:0,0:0:0:0:
95,55,252948,1,0,3:3:0:0:
24,237,253085,6,0,L|167:197,1,148.50000453186,10|0,2:2|0:0,0:0:0:0:
77,133,253357,6,0,L|121:344,1,216,6|0,3:2|0:0,0:0:0:0:
57,384,253630,1,10,2:2:0:0:
268,179,253766,2,0,B|275:128|205:127|205:127|239:144|243:178,1,144,2|0,2:2|3:3,0:0:0:0:
315,259,254039,1,0,3:3:0:0:
199,330,254176,2,0,L|187:272,1,58.4999973220826,10|0,2:2|0:0,0:0:0:0:
359,176,254312,1,0,0:0:0:0:
322,384,254448,6,0,B|331:317|411:315|411:315|428:339|460:341,1,175.499991966248,2|0,3:2|0:0,0:0:0:0:
470,267,254721,1,10,2:2:0:0:
268,179,254857,1,0,3:3:0:0:
490,75,254994,2,0,B|482:130|429:134|429:134|412:110|391:103,1,135.000005149842,2|0,2:2|3:3,0:0:0:0:
159,145,255266,6,0,L|359:176,1,202.500007724762,10|0,2:2|0:0,0:0:0:0:
280,40,255539,6,0,L|230:360,1,323.999990112305,6|0,3:2|0:0,0:0:0:0:
149,383,255812,5,10,2:2:0:0:
438,176,255948,1,0,3:3:0:0:
98,89,256085,5,10,2:2:0:0:
356,300,256221,1,0,3:3:0:0:
26,323,256357,5,10,2:2:0:0:
359,176,256494,1,0,3:3:0:0:
170,43,256630,5,10,2:2:0:0:
227,360,256766,1,0,3:3:0:0:
385,26,256903,5,10,2:2:0:0:
223,368,257039,1,0,3:3:0:0:
31,139,257176,5,10,2:2:0:0:
219,375,257312,2,0,P|188:377|163:358,1,62.9999980773926,8|0,3:3|0:0,0:0:0:0:
72,225,257448,5,6,2:3:0:0:
120,191,257516,1,8,0:3:0:0:
161,222,257585,1,4,3:3:0:0:
151,257,257653,1,4,0:3:0:0:
134,268,257721,6,0,P|143:253|158:242,1,36,6|0,3:2|0:0,0:0:0:0:
200,153,257857,2,0,P|222:151|243:158,1,45,2|0,3:2|0:0,0:0:0:0:
338,111,257994,2,0,P|355:130|365:156,1,53.9999983520508,6|0,3:2|0:0,0:0:0:0:
472,216,258130,2,0,P|464:250|445:276,1,62.9999980773926,2|0,3:2|0:0,0:0:0:0:
219,375,258266,6,0,P|244:349|257:316,1,72,6|0,2:2|0:0,0:0:0:0:
370,281,258403,2,0,P|359:247|335:224,1,62.9999980773926,10|0,2:3|0:0,0:0:0:0:
338,111,258539,2,0,P|314:101|281:101,1,53.9999983520508,6|0,2:2|0:0,0:0:0:0:
200,39,258676,2,0,P|179:54|167:74,1,45,6|0,2:3|0:0,0:0:0:0:
134,268,258812,1,2,3:2:0:0:
5,108,258948,6,0,L|242:158,1,242.999992584229,14|0,2:2|0:0,0:0:0:0:
340,227,259221,2,0,L|328:173,1,53.9999983520508,0|0,3:3|0:0,0:0:0:0:
295,0,259357,5,14,2:2:0:0:
504,186,259494,1,0,0:0:0:0:
134,268,259630,6,0,L|92:278,1,40.4999987640381,14|0,2:2|0:0,0:0:0:0:
35,375,259903,6,0,L|88:124,1,242.999992584229,6|0,3:2|0:0,0:0:0:0:
102,62,260176,1,10,2:2:0:0:
259,241,260312,2,0,B|303:238|311:187|311:187|295:221|270:223,1,125.999996154785,2|0,2:2|3:3,0:0:0:0:
39,253,260585,2,0,P|73:259|102:289,1,62.9999980773926,2|0,3:2|0:0,0:0:0:0:
167,384,260721,1,10,2:2:0:0:
15,334,260857,5,2,2:2:0:0:
15,334,260926,1,2,2:2:0:0:
15,334,260994,2,0,B|45:354|81:346|107:305|100:302|110:267|140:248|197:268,1,202.500007724762,0|0,3:3|0:0,0:0:0:0:
236,318,261266,2,0,L|245:362,1,45,10|0,2:2|0:0,0:0:0:0:
447,261,261403,1,0,3:3:0:0:
382,180,261539,2,0,L|357:294,1,116.999994644165,2|0,2:2|3:3,0:0:0:0:
207,57,261812,1,10,2:2:0:0:
207,57,262085,6,0,B|255:-11|339:33|339:33|336:66|367:89,1,216,6|0,3:2|0:0,0:0:0:0:
465,7,262357,2,0,P|436:12|414:31,1,58.4999973220826,10|0,2:2|0:0,0:0:0:0:
309,159,262494,2,0,B|265:146|275:95|275:95|284:127|306:140,1,135.000005149842,2|0,2:2|3:3,0:0:0:0:
471,86,262766,2,0,L|458:143,1,58.4999973220826,2|0,3:2|0:0,0:0:0:0:
420,334,262903,1,10,2:2:0:0:
330,241,263039,5,2,2:2:0:0:
330,241,263107,1,2,2:2:0:0:
330,241,263176,2,0,B|355:236|375:210|375:210|423:201|461:221|478:267,1,175.499991966248,0|0,3:3|0:0,0:0:0:0:
502,331,263448,1,10,2:2:0:0:
458,143,263585,1,0,3:3:0:0:
244,294,263721,2,0,B|256:337|300:326|300:326|276:314|269:297,1,107.999996704102,2|0,2:2|3:3,0:0:0:0:
127,201,263994,6,0,L|74:213,1,54,10|0,2:2|0:0,0:0:0:0:
0,149,264266,6,0,L|198:106,1,202.500007724762,6|0,3:2|0:0,0:0:0:0:
271,93,264539,1,10,2:2:0:0:
48,9,264676,2,0,P|105:0|143:42,1,116.999994644165,2|0,2:2|3:3,0:0:0:0:
307,172,264948,2,0,P|332:158|348:134,1,58.4999973220826,2|0,3:2|0:0,0:0:0:0:
222,30,265085,1,10,2:2:0:0:
135,208,265221,5,2,2:2:0:0:
135,208,265289,1,2,2:2:0:0:
135,208,265357,2,0,B|111:271|169:300|169:300|229:291|249:344,1,202.500007724762,0|0,3:3|0:0,0:0:0:0:
312,294,265630,2,0,P|296:268|260:247,1,58.4999973220826,10|0,2:2|0:0,0:0:0:0:
178,375,265766,1,0,3:3:0:0:
384,384,265903,2,0,P|426:344|438:288,1,116.999994644165,2|0,2:2|3:3,0:0:0:0:
347,54,266176,1,10,2:2:0:0:
347,54,266448,6,0,B|405:93|405:93|207:41,1,242.999992584229,6|0,3:2|0:0,0:0:0:0:
153,21,266721,2,0,L|164:73,1,53.9999983520508,10|0,2:2|0:0,0:0:0:0:
93,165,266857,2,0,L|68:50,1,116.999994644165,2|0,2:2|3:3,0:0:0:0:
235,166,267130,2,0,L|182:154,1,53.9999983520508,2|0,3:2|0:0,0:0:0:0:
0,125,267266,1,10,2:2:0:0:
218,318,267403,5,2,2:2:0:0:
218,318,267471,1,2,2:2:0:0:
218,318,267539,2,0,B|296:310|298:217|298:217|276:245|237:248,1,188.999994232178,0|0,3:3|0:0,0:0:0:0:
186,232,267812,1,10,2:2:0:0:
277,384,267948,1,0,3:3:0:0:
35,313,268085,2,0,B|52:252|108:266|108:266|120:293|145:300,1,135.000005149842,2|0,2:2|3:3,0:0:0:0:
344,330,268357,6,0,P|356:314|363:294,1,40.4999987640381,10|0,2:2|0:0,0:0:0:0:
410,172,268630,6,0,B|446:144|530:155|513:254|473:273|435:271|435:271|427:251|404:236,1,242.999992584229,6|0,3:2|0:0,0:0:0:0:
345,219,268903,1,10,2:2:0:0:
221,116,269039,2,0,P|278:128|335:140,1,116.999994644165,2|0,2:2|3:3,0:0:0:0:
215,26,269312,1,2,3:2:0:0:
1,154,269448,1,10,2:2:0:0:
94,211,269585,5,2,2:2:0:0:
94,211,269653,1,2,2:2:0:0:
94,211,269721,2,0,L|57:39,1,175.499991966248,0|0,3:3|0:0,0:0:0:0:
127,0,269994,2,0,L|147:96,1,99.0000030212403,10|0,2:2|3:3,0:0:0:0:
68,292,270266,2,0,P|38:280|21:251,1,58.4999973220826,2|0,2:2|0:0,0:0:0:0:
221,116,270403,1,0,3:3:0:0:
174,316,270539,2,0,B|162:378|97:372|97:372|138:356|144:319,1,175.499991966248,10|0,2:2|0:0,0:0:0:0:
176,233,270812,6,0,P|256:207|312:268,1,175.499991966248,6|0,3:2|0:0,0:0:0:0:
326,341,271085,1,10,2:2:0:0:
499,243,271221,2,0,L|476:348,1,107.999996704102,2|0,2:2|3:3,0:0:0:0:
359,193,271494,2,0,L|347:140,1,53.9999983520508,2|0,3:2|0:0,0:0:0:0:
316,0,271630,1,10,2:2:0:0:
498,115,271766,5,2,2:2:0:0:
505,119,271835,1,2,2:2:0:0:
512,123,271903,1,0,3:3:0:0:
462,39,272039,1,0,0:0:0:0:
373,50,272176,1,10,2:2:0:0:
348,141,272312,1,0,3:3:0:0:
254,198,272448,1,2,2:2:0:0:
107,100,272585,1,0,3:3:0:0:
148,191,272721,1,10,2:2:0:0:
159,13,272857,1,0,0:0:0:0:
348,141,272994,6,0,B|376:172|361:221|316:224|313:220|256:217|245:288|264:302,1,216,6|0,3:2|0:0,0:0:0:0:
306,384,273266,2,0,B|351:368|342:314|342:314|336:351|308:365,1,144,10|0,2:2|0:0,0:0:0:0:
92,328,273539,1,0,3:3:0:0:
92,328,273676,1,0,3:3:0:0:
189,384,273812,2,0,L|166:278,1,107.999996704102,10|0,2:2|0:0,0:0:0:0:
107,100,274085,6,0,B|113:79|137:63|137:63|77:54|37:105|56:153|96:175,1,202.500007724762,2|0,3:2|0:0,0:0:0:0:
66,244,274357,2,0,P|42:238|25:221,1,49.5000015106202,10|0,2:2|0:0,0:0:0:0:
178,135,274494,2,0,P|277:153|371:176,1,198.000006042481,2|0,3:2|3:3,0:0:0:0:
403,381,274903,2,0,B|368:376|348:343|368:295|368:295|383:319|408:327,1,148.50000453186,10|0,2:2|0:0,0:0:0:0:
438,254,275176,6,0,B|504:220|477:154|477:154|426:138|428:96,1,202.500007724762,6|0,3:2|0:0,0:0:0:0:
366,33,275448,2,0,P|413:22|462:12,1,99.0000030212403,10|0,2:2|0:0,0:0:0:0:
239,149,275721,1,0,3:3:0:0:
146,33,275857,1,0,3:3:0:0:
346,116,275994,2,0,L|314:288,1,148.50000453186,10|0,2:2|0:0,0:0:0:0:
324,347,276266,6,0,B|371:369|414:322|414:322|401:296|408:267,1,148.50000453186,2|0,3:2|0:0,0:0:0:0:
459,192,276539,2,0,L|410:202,1,49.5000015106202,10|0,2:2|0:0,0:0:0:0:
175,242,276676,1,0,3:3:0:0:
213,354,276812,2,0,B|261:338|246:277|246:277|235:308|200:322,1,148.50000453186,2|0,2:2|0:0,0:0:0:0:
133,315,277085,2,0,P|81:248|120:176,1,175.499991966248,14|0,2:2|0:0,0:0:0:0:
211,77,277357,6,0,L|0:121,1,216,6|0,3:2|0:0,0:0:0:0:
29,40,277630,1,10,2:2:0:0:
199,165,277766,1,2,2:2:0:0:
199,165,277835,1,2,2:2:0:0:
199,165,277903,2,0,B|223:170|236:188|236:188|284:195|315:142,1,135.000005149842,2|0,3:2|3:3,0:0:0:0:
475,50,278176,2,0,P|419:36|360:25,1,116.999994644165,10|0,2:2|0:0,0:0:0:0:
507,194,278448,6,0,P|451:180|392:169,1,116.999994644165,2|0,3:2|0:0,0:0:0:0:
211,77,278721,1,10,2:2:0:0:
296,296,278857,1,0,3:3:0:0:
108,383,278994,1,2,2:2:0:0:
175,242,279130,1,0,3:3:0:0:
12,167,279266,6,0,L|23:219,1,54,10|0,2:2|0:0,0:0:0:0:
0,365,279539,6,0,B|12:277|104:273|104:273|119:313|162:317,1,216,6|0,3:2|0:0,0:0:0:0:
226,378,279812,2,0,P|256:333|295:295,1,107.999996704102,10|0,2:2|0:0,0:0:0:0:
507,194,280085,1,2,3:2:0:0:
289,120,280221,1,0,3:3:0:0:
447,20,280357,2,0,L|424:125,1,107.999996704102,10|0,2:2|0:0,0:0:0:0:
164,133,280630,6,0,B|154:60|248:54|248:54|219:71|215:103,1,188.999994232178,2|0,3:2|0:0,0:0:0:0:
124,209,280903,2,0,P|98:194|84:159,1,62.9999980773926,10|0,2:2|0:0,0:0:0:0:
31,57,281039,2,0,L|242:101,1,188.999994232178,0|0,3:3|0:0,0:0:0:0:
289,120,281312,1,0,3:3:0:0:
486,11,281448,6,0,L|446:19,1,40.4999987640381,10|0,2:2|0:0,0:0:0:0:
375,2,281721,6,0,B|355:34|374:89|415:90|416:88|417:84|461:81|490:124|472:164,1,216,6|0,3:2|0:0,0:0:0:0:
423,217,281994,1,10,2:2:0:0:
289,120,282130,2,0,L|301:177,1,58.4999973220826,2|0,2:2|0:0,0:0:0:0:
145,239,282266,1,2,3:2:0:0:
220,288,282403,2,0,L|232:230,1,58.4999973220826,2|0,3:2|0:0,0:0:0:0:
375,135,282539,1,10,2:2:0:0:
483,339,282676,6,0,B|430:369|384:331|384:331|366:271|307:282,1,202.500007724762,6|0,3:2|0:0,0:0:0:0:
273,359,282948,1,0,3:3:0:0:
423,217,283085,2,0,B|430:169|478:161|478:161|450:184|449:208,1,135.000005149842,10|0,2:2|0:0,0:0:0:0:
220,288,283357,1,2,3:2:0:0:
106,101,283494,1,0,3:3:0:0:
375,2,283630,6,0,L|366:41,1,40.4999987640381,10|0,2:2|0:0,0:0:0:0:
300,159,283903,6,0,B|242:164|205:123|228:42|292:43|292:43|291:71|307:88,1,242.999992584229,6|0,3:2|0:0,0:0:0:0:
423,109,284176,2,0,L|378:118,1,45,10|0,2:2|0:0,0:0:0:0:
114,181,284312,2,0,L|0:205,1,116.999994644165,2|2,2:2|3:2,0:0:0:0:
156,18,284585,1,2,3:2:0:0:
373,196,284721,1,10,2:2:0:0:
186,330,284857,6,0,B|193:234|298:221|298:221|308:259|354:270,1,229.500004377365,6|0,3:2|0:0,0:0:0:0:
315,338,285130,2,0,P|287:329|268:309,1,58.4999973220826,0|0,3:3|0:0,0:0:0:0:
173,106,285266,2,0,L|155:17,1,90,10|0,2:2|0:0,0:0:0:0:
52,102,285539,1,2,3:2:0:0:
310,148,285676,1,0,3:3:0:0:
103,308,285812,2,0,B|55:301|63:247|63:247|71:276|108:291,1,135,10|0,2:2|0:0,0:0:0:0:
136,221,286085,6,0,L|334:263,1,202.500007724762,4|0,3:2|0:0,0:0:0:0:
421,300,286357,2,0,L|398:194,1,107.999996704102,10|0,2:2|0:0,0:0:0:0:
501,225,286630,1,0,3:3:0:0:
337,357,286766,1,0,3:3:0:0:
310,148,286903,2,0,B|313:56|420:72|420:72|388:87|371:124,1,202.500007724762,10|0,2:2|0:0,0:0:0:0:
398,194,287176,6,0,L|199:151,1,202.500007724762,0|0,3:3|0:0,0:0:0:0:
113,134,287448,2,0,P|70:103|64:51,1,107.999996704102,10|0,2:2|3:3,0:0:0:0:
176,73,287721,1,2,2:2:0:0:
15,194,287857,1,0,3:3:0:0:
148,253,287994,6,0,L|139:213,1,40.4999987640381,10|0,2:2|0:0,0:0:0:0:
45,364,288266,6,0,P|150:281|281:253,2,270.000010299683,6|10|0,3:2|2:2|3:3,0:0:0:0:
200,152,288948,1,0,3:3:0:0:
378,258,289085,2,0,B|380:305|333:316|333:316|353:294|352:265,1,125.999996154785,10|0,2:2|0:0,0:0:0:0:
291,93,289357,6,0,P|358:147|444:149,1,175.499991966248,2|0,3:2|0:0,0:0:0:0:
444,149,289630,1,10,2:2:0:0:
196,49,289766,2,0,P|111:62|52:125,1,175.499991966248,2|0,3:2|0:0,0:0:0:0:
52,124,290039,1,0,3:3:0:0:
280,252,290176,1,10,2:2:0:0:
280,252,290448,6,0,L|322:53,1,202.500007724762,6|0,3:2|0:0,0:0:0:0:
413,15,290721,2,0,L|394:103,1,90,10|0,2:2|0:0,0:0:0:0:
185,235,290994,1,0,3:3:0:0:
376,180,291130,1,0,3:3:0:0:
225,40,291266,2,0,B|218:-11|281:-9|281:-9|246:11|245:39,1,135,10|0,2:2|0:0,0:0:0:0:
178,123,291539,6,0,P|96:133|57:64,1,161.999995056153,0|0,3:3|0:0,0:0:0:0:
46,0,291812,1,10,2:2:0:0:
134,50,291948,1,0,3:3:0:0:
305,160,292085,1,2,2:2:0:0:
185,235,292221,1,0,3:3:0:0:
413,6,292357,1,10,2:2:0:0:
413,6,292630,6,0,L|370:204,1,202.500007724762,6|0,3:2|0:0,0:0:0:0:
427,260,292903,1,8,2:2:0:0:
178,123,293039,1,8,2:2:0:0:
93,339,293176,1,8,2:2:0:0:
452,184,293312,1,8,2:2:0:0:
134,50,293448,1,8,3:2:0:0:
216,384,293585,1,8,2:2:0:0:
433,106,293721,6,0,B|432:30|348:12|305:48|305:48|325:77|322:109,1,229.500004377365,4|0,3:2|0:0,0:0:0:0:
452,184,293994,2,0,P|479:173|502:135,1,53.9999983520508,8|0,2:2|0:0,0:0:0:0:
244,101,294130,6,0,L|291:325,1,229.500004377365,4|0,3:2|0:0,0:0:0:0:
423,352,294403,2,0,L|370:340,1,53.9999983520508,8|0,2:2|0:0,0:0:0:0:
101,283,294539,6,0,L|38:269,1,54,4|0,3:2|0:0,0:0:0:0:
36,199,294812,6,0,B|0:203|-23:242|-23:242|-14:185|27:155|74:160|74:160|75:201|119:218,1,269.999991760254,6|0,3:2|0:0,0:0:0:0:
167,234,295221,2,0,P|188:228|205:213,2,45,8|0|0,2:3|0:0|3:3,0:0:0:0:
222,109,295630,6,0,B|252:115|288:79|277:15|163:-2|106:78|167:171,1,270,12|8,2:2|2:3,0:0:0:0:
280,178,296175,2,0,L|324:187,1,45,2|2,2:2|2:2,0:0:0:0:
479,249,296448,6,0,B|480:276|498:307|498:307|436:235|391:225|391:225|376:252|343:258,1,247.500007553101,14|0,2:2|0:0,0:0:0:0:
279,257,296857,1,4,2:3:0:0:
279,257,297130,1,0,3:3:0:0:
81,331,297266,6,0,B|52:341|15:321|24:276|24:276|44:301|73:303,1,135,12|0,2:2|0:0,0:0:0:0:
93,221,297539,2,0,B|68:183|92:136|128:123|128:123|106:152|106:177,1,168.75,4|0,3:2|0:0,0:0:0:0:
194,181,297812,2,0,B|205:138|252:116|311:144|311:144|265:144|243:174,1,202.500007724762,6|0,3:2|0:0,0:0:0:0:
181,309,298084,6,0,B|213:337|257:329|269:283|266:281|262:280|278:233|320:225|353:254,1,215.999993408203,6|0,3:2|0:0,0:0:0:0:
473,367,298493,2,0,B|502:368|521:338|501:302|501:302|497:340|475:351,1,135,4|0,2:3|0:0,0:0:0:0:
483,344,298766,1,0,3:3:0:0:
425,288,298902,6,0,B|367:247|387:157|466:153|466:153|500:200|466:235,1,270,12|0,2:2|0:0,0:0:0:0:
382,358,299380,1,8,2:3:0:0:
382,358,299448,2,0,P|361:373|332:377,1,53.9999983520508,4|0,2:3|3:3,0:0:0:0:
107,355,299721,6,0,B|94:291|165:281|165:281|172:303|200:313,1,148.50000453186,12|0,2:2|0:0,0:0:0:0:
226,376,299993,2,0,P|259:348|263:300,2,80.9999975280763,0|8|0,0:0|2:3|0:0,0:0:0:0:
233,244,300403,1,0,3:3:0:0:
450,349,300539,6,0,B|479:359|516:339|507:294|507:294|487:319|458:321,1,135,12|0,2:2|0:0,0:0:0:0:
438,239,300812,2,0,B|463:201|439:154|403:141|403:141|425:170|425:195,1,168.75,6|0,3:2|0:0,0:0:0:0:
337,199,301084,2,0,B|326:156|279:134|220:162|220:162|266:162|288:192,1,202.500007724762,6|0,3:2|0:0,0:0:0:0:
310,305,301357,6,0,B|256:297|213:344|213:344|250:293|232:243,1,215.999993408203,6|0,3:2|0:0,0:0:0:0:
337,199,301766,2,0,B|368:187|376:153|376:153|342:165|335:200,1,121.499996292114,8|0,2:3|0:0,0:0:0:0:
332,204,302039,1,0,3:3:0:0:
183,180,302175,6,0,B|126:177|88:114|114:60|114:60|177:63|210:112|194:177,1,323.999990112305,12|8,2:2|2:3,0:0:0:0:
155,256,302653,1,4,2:3:0:0:
155,256,302721,2,0,P|132:278|102:283,1,53.9999983520508,2|2,2:2|2:2,0:0:0:0:
60,117,302993,6,0,L|318:171,1,247.500007553101,14|0,2:2|0:0,0:0:0:0:
375,185,303403,1,8,2:3:0:0:
375,185,303676,1,0,3:3:0:0:
210,307,303812,6,0,B|144:301|101:341|101:341|143:299|140:239,1,229.500004377365,14|0,2:2|0:0,0:0:0:0:
375,185,304084,2,0,B|402:244|458:261|458:261|402:246|350:278,1,229.500004377365,6|0,3:2|0:0,0:0:0:0:
187,102,304357,2,0,B|224:48|211:-9|211:-9|226:47|280:75,1,229.500004377365,6|0,3:2|0:0,0:0:0:0:
256,192,304630,5,6,3:2:0:0:
256,192,305039,6,0,L|264:152,1,40.4999987640381,8|0,2:3|0:0,0:0:0:0:
187,102,305312,1,0,3:3:0:0:
101,263,305448,6,0,B|95:293|67:322|67:322|130:264|190:237|190:237|202:261|232:268,1,270.000010299683,12|0,2:2|0:0,0:0:0:0:
385,354,305857,2,0,L|410:346,2,26.9999991760254,8|8|4,2:3|2:3|2:3,0:0:0:0:
94,384,306266,6,0,L|49:172,1,215.999993408203,12|8,2:2|2:3,0:0:0:0:
256,192,306675,2,0,B|319:196|325:119|325:119|302:153|267:151,1,161.999995056153,8|0,2:3|0:0,0:0:0:0:
224,76,306948,2,0,L|257:83,1,33.7500012874604,0|0,3:3|0:0,0:0:0:0:
487,117,307084,6,0,B|475:67|520:11|520:11|475:66|420:53,1,229.500004377365,14|0,2:2|0:0,0:0:0:0:
346,30,307358,5,8,2:3:0:0:
269,117,307493,1,8,2:3:0:0:
226,221,307630,1,6,2:3:0:0:
238,310,307766,1,4,2:3:0:0:
279,381,307902,6,0,B|184:243|188:61|286:-13|286:-13|118:17|64:121|50:235|50:235|98:131|217:124|315:182|372:291|372:291|371:178|488:117|488:117|374:112|283:170|273:236|278:234|281:231|253:311|175:332|38:319|38:319|124:304|143:239,1,2097.89993597718,6|2,3:2|2:2,0:0:0:0:
