osu file format v14

[General]
AudioFilename: audio.mp3
AudioLeadIn: 0
PreviewTime: 253707
Countdown: 0
SampleSet: None
StackLeniency: 0.7
Mode: 0
LetterboxInBreaks: 0
WidescreenStoryboard: 1

[Editor]
Bookmarks: 133814,163414,180144,237591,331341,331620,360364
DistanceSpacing: 1.1
BeatDivisor: 4
GridSize: 32
TimelineZoom: 3.000005

[Metadata]
Title:Kuroi Hitomi no Majuu
TitleUnicode:黒い瞳の魔獣
Artist:Asriel
ArtistUnicode:Asriel
Creator:fstapled
Version:Muryoku
Source:
Tags:Ghouru Oratorium Asriel Goth Rock Black eyed beast Symphonic Metal
BeatmapID:1983260
BeatmapSetID:946696

[Difficulty]
HPDrainRate:6
CircleSize:4.2
OverallDifficulty:9.4
ApproachRate:9.8
SliderMultiplier:1.5
SliderTickRate:1

[Events]
//Background and Video events
0,0,"Konachan.com - 272614 black_hair blue_eyes book breasts cleavage dark headband idolmaster infukun long_hair necklace sagisawa_fumika signed skirt socks.jpg",0,0
//Break Periods
//Storyboard Layer 0 (Background)
//Storyboard Layer 1 (Fail)
//Storyboard Layer 2 (Pass)
//Storyboard Layer 3 (Foreground)
//Storyboard Sound Samples

[TimingPoints]
15408,545.454545454546,4,2,1,60,1,0
18680,555.555555555556,4,2,1,60,1,0
19235,750,4,2,1,60,1,0
19610,560.747663551402,4,2,1,60,1,0
19890,550.45871559633,4,2,1,60,1,0
20165,545.454545454546,4,2,1,60,1,0
20437,365.853658536585,4,2,1,60,1,0
20619,361.44578313253,4,2,1,60,1,0
20799,363.636363636364,4,2,1,60,1,0
20980,566.037735849057,4,2,1,60,1,0
21263,346.820809248555,4,2,1,60,1,0
21436,540.540540540541,4,2,1,60,1,0
21841,-100,4,2,1,5,0,0
21976,550.45871559633,4,2,1,60,1,0
25829,731.707317073171,4,2,1,60,1,0
26194,566.037735849057,4,2,1,60,1,0
26477,526.315789473684,4,2,1,60,1,0
26740,566.037735849057,4,2,1,60,1,0
27023,372.670807453416,4,2,1,60,1,0
27209,342.857142857143,4,2,1,60,1,0
27380,355.029585798817,4,2,1,60,1,0
27468,550.45871559633,4,2,1,60,1,0
27468,-100,4,2,1,60,0,0
28431,-100,4,2,1,5,0,0
28568,555.555555555556,4,2,1,60,1,0
28568,-100,4,2,1,60,0,0
30234,540.540540540541,4,2,1,60,1,0
31855,555.555555555556,4,2,1,60,1,0
32873,-100,4,2,1,5,0,0
32966,495.867768595041,4,2,1,60,1,0
32966,-100,4,2,1,60,0,0
33337,705.882352941176,4,2,1,60,1,0
33689,372.670807453416,4,2,1,60,1,0
33968,-100,4,2,1,5,0,0
34061,361.44578313253,4,2,1,60,1,0
34061,-100,4,2,1,60,0,0
35145,555.555555555556,4,2,1,60,1,0
36811,540.540540540541,4,2,1,60,1,0
37351,550.45871559633,4,2,1,60,1,0
39461,-100,4,2,1,5,0,0
39552,476.190476190476,4,2,1,60,1,0
39552,-100,4,2,1,60,0,0
39909,576.923076923077,4,2,1,60,1,0
40197,357.142857142857,4,2,1,60,1,0
40375,365.853658536585,4,2,1,60,1,0
40642,491.803278688525,4,2,1,60,1,0
41010,500,4,2,1,60,1,0
41135,454.545454545455,4,2,1,60,1,0
41248,491.803278688525,4,2,1,60,1,0
41616,-100,4,2,1,5,0,0
41739,-100,4,2,1,60,0,0
41985,-100,4,2,1,5,0,0
42726,-100,4,2,1,5,0,0
42846,555.555555555556,4,3,1,60,1,0
42846,-71.4285714285714,4,3,2,60,0,0
44526,545.454545454546,4,3,1,60,1,0
45071,555.555555555556,4,3,1,60,1,0
45071,-66.6666666666667,4,3,2,60,0,0
46043,-66.6666666666667,4,3,1,5,0,0
46182,-66.6666666666667,4,3,1,60,0,0
47015,576.923076923077,4,3,1,60,1,0
47303,279.06976744186,4,3,1,60,1,0
49535,-133.333333333333,4,3,1,60,0,0
50651,-66.6666666666667,4,3,1,60,0,0
51489,-76.9230769230769,4,3,1,60,0,0
51558,-76.9230769230769,4,3,1,5,0,0
51628,-76.9230769230769,4,3,1,60,0,0
51698,-76.9230769230769,4,3,1,5,0,0
51768,-71.4285714285714,4,3,1,60,0,0
56163,-71.4285714285714,4,3,1,5,0,0
56233,-71.4285714285714,4,3,1,60,0,0
68512,-100,4,3,1,60,0,0
69558,-100,4,3,1,5,0,0
69628,-100,4,3,1,60,0,0
71794,-100,4,3,1,5,0,0
71864,-100,4,3,1,60,0,0
78489,-100,4,3,1,5,0,0
78558,-83.3333333333333,4,3,1,60,0,0
82954,-83.3333333333333,4,3,1,5,0,0
83023,-83.3333333333333,4,3,1,60,0,0
87419,-83.3333333333333,4,3,1,5,0,0
87489,-111.111111111111,4,3,1,60,0,0
93140,-111.111111111111,4,3,1,5,0,0
93209,-100,4,3,1,60,0,0
94116,-100,4,3,1,5,0,0
94186,-83.3333333333333,4,3,1,60,0,0
94256,-83.3333333333333,4,3,1,5,0,0
94605,-83.3333333333333,4,3,1,60,0,0
94814,-83.3333333333333,4,3,1,5,0,0
95163,-83.3333333333333,4,3,1,60,0,0
95512,-83.3333333333333,4,3,1,5,0,0
95582,-66.6666666666667,4,3,1,60,0,0
95791,-66.6666666666667,4,3,1,5,0,0
95861,-71.4285714285714,4,3,1,60,0,0
96698,-62.5,4,3,1,60,0,0
96977,-66.6666666666667,4,3,1,60,0,0
97256,-71.4285714285714,4,3,1,60,0,0
98582,-71.4285714285714,4,3,1,5,0,0
98651,-71.4285714285714,4,3,1,60,0,0
100884,-100,4,3,1,60,0,0
101791,-100,4,3,1,5,0,0
101861,-100,4,3,1,60,0,0
103116,-133.333333333333,4,3,1,60,0,0
104651,-133.333333333333,4,3,1,30,0,0
104791,-125,4,3,1,30,0,0
105352,-100,4,3,1,60,0,0
105907,-133.333333333333,4,3,1,60,0,0
106744,-100,4,3,1,60,0,0
108140,-133.333333333333,4,3,1,60,0,0
111419,-133.333333333333,4,3,1,5,0,0
111489,-105.263157894737,4,3,1,60,0,0
111977,-105.263157894737,4,3,1,5,0,0
112047,-90.9090909090909,4,3,1,60,0,0
113023,-133.333333333333,4,3,1,60,0,0
120419,-100,4,3,1,60,0,0
120977,-66.6666666666667,4,3,1,60,0,0
123209,-71.4285714285714,4,3,1,60,0,0
127605,-71.4285714285714,4,3,1,5,0,0
127675,-71.4285714285714,4,3,1,60,0,0
130954,-71.4285714285714,4,3,1,5,0,0
131023,-71.4285714285714,4,3,1,60,0,0
132070,-71.4285714285714,4,3,1,5,0,0
132140,-71.4285714285714,4,3,1,60,0,0
134372,-66.6666666666667,4,3,1,60,0,0
136535,-66.6666666666667,4,3,1,5,0,0
136605,-71.4285714285714,4,3,1,60,0,0
144349,-71.4285714285714,4,3,1,5,0,0
144419,-71.4285714285714,4,3,1,60,0,0
145465,-71.4285714285714,4,3,1,5,0,0
145535,-71.4285714285714,4,3,1,60,0,0
149930,-71.4285714285714,4,3,1,5,0,0
150000,-71.4285714285714,4,3,1,60,0,0
157954,-62.5,4,3,1,60,0,0
158023,-62.5,4,3,1,5,0,0
158093,-76.9230769230769,4,3,1,60,0,0
158861,-76.9230769230769,4,3,1,5,0,0
158930,-100,4,3,1,60,0,0
160535,-100,4,3,1,5,0,0
160605,-100,4,3,1,60,0,0
160884,-76.9230769230769,4,3,1,60,0,0
161093,-76.9230769230769,4,3,1,5,0,0
161163,-76.9230769230769,4,3,1,60,0,0
162279,-100,4,3,1,60,0,0
163329,-100,4,3,1,5,0,0
163399,279.06976744186,4,3,2,60,1,0
163399,-100,4,3,2,60,0,0
167585,-100,4,3,1,5,0,0
167864,-100,4,3,1,60,0,0
180143,465.116279069767,4,3,1,60,1,0
180608,555.555555555556,4,3,1,60,1,0
181163,689.655172413793,4,3,1,60,1,0
181852,540.540540540541,4,3,1,60,1,0
182933,468.75,4,3,1,60,1,0
183284,-100,4,3,1,5,0,0
183401,441.176470588235,4,3,1,60,1,0
183731,-100,4,3,1,5,0,0
183842,-200,4,3,1,60,0,0
184283,377.358490566038,4,3,1,60,1,0
184566,-100,4,3,1,5,0,0
184660,-100,4,3,1,60,0,0
185698,-100,4,3,1,5,0,0
185792,-100,4,3,1,60,0,0
186547,372.670807453416,4,3,1,60,1,0
186919,-83.3333333333333,4,3,1,60,0,0
187199,-83.3333333333333,4,3,1,5,0,0
187292,-83.3333333333333,4,3,1,60,0,0
187571,-83.3333333333333,4,3,1,5,0,0
187665,-83.3333333333333,4,3,1,60,0,0
188783,377.358490566038,4,3,1,60,1,0
188783,-83.3333333333333,4,3,1,60,0,0
189443,-83.3333333333333,4,3,1,5,0,0
189537,-83.3333333333333,4,3,1,60,0,0
189820,-83.3333333333333,4,3,1,5,0,0
189915,-83.3333333333333,4,3,1,60,0,0
191047,372.670807453416,4,3,1,60,1,0
191047,-83.3333333333333,4,3,1,60,0,0
191699,-83.3333333333333,4,3,1,5,0,0
191792,-83.3333333333333,4,3,1,60,0,0
192071,-83.3333333333333,4,3,1,5,0,0
192165,-83.3333333333333,4,3,1,60,0,0
193283,377.358490566038,4,3,1,60,1,0
193283,-83.3333333333333,4,3,1,60,0,0
193943,-83.3333333333333,4,3,1,5,0,0
194037,-83.3333333333333,4,3,1,60,0,0
194320,-83.3333333333333,4,3,1,5,0,0
194415,-83.3333333333333,4,3,1,60,0,0
194698,-83.3333333333333,4,3,1,5,0,0
194792,-83.3333333333333,4,3,1,60,0,0
195075,-83.3333333333333,4,3,1,5,0,0
195169,-83.3333333333333,4,3,1,60,0,0
195547,372.670807453416,4,3,1,60,1,0
195547,-83.3333333333333,4,3,1,60,0,0
196199,-83.3333333333333,4,3,1,5,0,0
196292,-83.3333333333333,4,3,1,60,0,0
196571,-83.3333333333333,4,3,1,5,0,0
196665,-83.3333333333333,4,3,1,60,0,0
197783,377.358490566038,4,3,1,60,1,0
197783,-83.3333333333333,4,3,1,60,0,0
200047,372.670807453416,4,3,1,60,1,0
200047,-76.9230769230769,4,3,1,60,0,0
200326,-76.9230769230769,4,3,1,5,0,0
200419,-76.9230769230769,4,3,1,60,0,0
200792,-76.9230769230769,4,3,1,30,0,0
201165,-76.9230769230769,4,3,1,60,0,0
202283,368.098159509202,4,3,1,60,1,0
202283,-71.4285714285714,4,3,1,60,0,0
206609,-71.4285714285714,4,3,1,5,0,0
206700,363.636363636364,4,3,1,60,1,0
206700,-71.4285714285714,4,3,1,60,0,0
208881,-100,4,3,1,60,0,0
209972,-71.4285714285714,4,3,1,60,0,0
210245,-71.4285714285714,4,3,1,5,0,0
210336,-71.4285714285714,4,3,1,60,0,0
211063,368.098159509202,4,3,1,60,1,0
211063,-71.4285714285714,4,3,1,60,0,0
212075,-71.4285714285714,4,3,1,5,0,0
212167,-71.4285714285714,4,3,1,60,0,0
213179,-71.4285714285714,4,3,1,5,0,0
213271,-71.4285714285714,4,3,1,60,0,0
214283,-71.4285714285714,4,3,1,5,0,0
214375,-71.4285714285714,4,3,1,60,0,0
215389,-71.4285714285714,4,3,1,5,0,0
215480,363.636363636364,4,3,1,60,1,0
215480,-71.4285714285714,4,3,1,60,0,0
219025,-71.4285714285714,4,3,1,5,0,0
219116,-71.4285714285714,4,3,1,60,0,0
219750,-71.4285714285714,4,3,1,5,0,0
219843,368.098159509202,4,3,1,60,1,0
219843,-62.5,4,3,1,60,0,0
221223,-62.5,4,3,1,5,0,0
221315,-62.5,4,3,1,60,0,0
222787,363.636363636364,4,3,1,60,1,0
222787,-62.5,4,3,1,60,0,0
223423,-62.5,4,3,1,5,0,0
223514,-62.5,4,3,1,60,0,0
224241,368.098159509202,4,3,1,60,1,0
224241,-71.4285714285714,4,3,1,60,0,0
225621,-71.4285714285714,4,3,1,5,0,0
225713,-71.4285714285714,4,3,1,60,0,0
226449,363.636363636364,4,3,1,60,1,0
226449,-76.9230769230769,4,3,1,60,0,0
227539,363.636363636364,4,3,1,60,1,0
228539,-100,4,3,1,5,0,0
228629,279.06976744186,4,3,1,60,1,0
228629,-100,4,3,2,60,0,0
230233,-100,4,3,1,5,0,0
230303,-100,4,3,1,60,0,0
230582,-200,4,3,1,60,0,0
230791,-200,4,3,1,5,0,0
230861,-100,4,3,2,60,0,0
231908,-100,4,3,1,5,0,0
231977,-100,4,3,1,60,0,0
233024,-100,4,3,1,5,0,0
233094,-83.3333333333333,4,3,1,60,0,0
235326,-100,4,3,1,30,0,0
236442,-71.4285714285714,4,3,1,60,0,0
236652,-71.4285714285714,4,3,1,5,0,0
236722,-71.4285714285714,4,3,1,60,0,0
237489,-71.4285714285714,4,3,1,5,0,0
237559,-66.6666666666667,4,3,1,60,0,1
242163,-66.6666666666667,4,3,1,5,0,1
242303,-66.6666666666667,4,3,1,60,0,1
248652,-66.6666666666667,4,3,1,5,0,1
248722,-66.6666666666667,4,3,1,60,0,1
250884,-66.6666666666667,4,3,1,5,0,1
250954,-66.6666666666667,4,3,1,60,0,1
253117,-66.6666666666667,4,3,1,5,0,1
253187,-66.6666666666667,4,3,1,60,0,1
254163,-285.714285714284,4,3,1,60,0,1
254582,-71.4285714285714,4,3,1,5,0,0
254722,-71.4285714285714,4,3,1,60,0,0
262047,-71.4285714285714,4,3,1,5,0,0
262117,-71.4285714285714,4,3,1,60,0,0
263442,-71.4285714285714,4,3,1,5,0,0
263512,-71.4285714285714,4,3,1,60,0,0
266512,-71.4285714285714,4,3,1,5,0,0
266582,-71.4285714285714,4,3,1,60,0,0
275442,-71.4285714285714,4,3,1,5,0,0
275512,-71.4285714285714,4,3,1,60,0,0
278791,-71.4285714285714,4,3,1,5,0,0
278861,-71.4285714285714,4,3,1,60,0,0
280187,-71.4285714285714,4,3,1,5,0,0
280256,-71.4285714285714,4,3,1,60,0,0
281303,-71.4285714285714,4,3,1,5,0,0
281373,-71.4285714285714,4,3,1,60,0,0
281931,-62.5,4,3,1,60,0,0
282140,-62.5,4,3,1,5,0,0
282210,-71.4285714285714,4,3,1,60,0,0
288001,-71.4285714285714,4,3,1,5,0,0
288070,-71.4285714285714,4,3,1,60,0,0
288838,-71.4285714285714,4,3,1,5,0,0
288908,-71.4285714285714,4,3,1,60,0,0
295535,-71.4285714285714,4,3,1,5,0,0
295605,-71.4285714285714,4,3,1,60,0,0
298884,-71.4285714285714,4,3,1,5,0,0
298954,-71.4285714285714,4,3,1,60,0,0
300001,-71.4285714285714,4,3,1,5,0,0
300070,-71.4285714285714,4,3,1,60,0,0
301466,-62.5,4,3,1,60,0,0
304466,-62.5,4,3,1,5,0,0
304535,-62.5,4,3,1,60,0,0
307884,-55.5555555555556,4,3,1,60,0,0
309001,-62.5,4,3,1,60,0,0
313396,-62.5,4,3,1,5,0,0
313466,-62.5,4,3,1,60,0,0
315628,-62.5,4,3,1,5,0,0
315698,-62.5,4,3,1,60,0,0
321489,-62.5,4,3,1,5,0,0
321559,-62.5,4,3,1,60,0,0
324559,-62.5,4,3,1,5,0,0
324628,-62.5,4,3,1,60,0,0
324838,-62.5,4,3,1,5,0,0
324908,-62.5,4,3,1,60,0,0
326303,-76.9230769230769,4,3,1,60,0,0
326861,-100,4,3,1,60,0,0
329094,-76.9230769230769,4,3,1,60,0,0
331256,-76.9230769230769,4,3,1,5,0,0
331326,-76.9230769230769,4,3,1,60,0,0
333489,-76.9230769230769,4,3,1,5,0,0
333559,-76.9230769230769,4,3,1,60,0,0
337745,-117.647058823529,4,3,1,60,0,0
337954,-117.647058823529,4,3,1,5,0,0
338024,-66.6666666666667,4,3,2,60,0,0
339140,-142.857142857143,4,3,1,60,0,0
340256,-66.6666666666667,4,3,1,60,0,0
341512,-66.6666666666667,4,2,1,60,0,0
342489,-76.9230769230769,4,3,1,60,0,0
342908,-71.4285714285714,4,3,1,60,0,0
347163,-71.4285714285714,4,3,1,5,0,0
347233,-71.4285714285714,4,3,1,60,0,0
349117,-71.4285714285714,4,3,1,5,0,0
349187,-71.4285714285714,4,3,1,60,0,0
355815,-71.4285714285714,4,3,1,5,0,0
355884,-71.4285714285714,4,3,1,60,0,0
358047,-71.4285714285714,4,3,1,5,0,0
358117,-71.4285714285714,4,3,1,60,0,0
358326,-71.4285714285714,4,3,1,5,0,0
358396,-58.8235294117647,4,3,1,60,0,0
360070,-500,4,3,1,60,0,0
360349,-500,4,3,1,5,0,0

[Colours]
Combo1 : 187,57,80
Combo2 : 137,172,190
Combo3 : 175,170,191

[HitObjects]
92,89,15408,6,0,B|141:73|166:96|166:96|174:93|174:93|195:124|240:120,1,150,4|0,0:0|0:0,0:0:0:0:
309,54,16498,2,0,B|314:95|314:95|346:167|346:167|340:197,1,150,8|0,0:0|0:0,0:0:0:0:
446,291,17589,2,0,B|408:276|375:294|375:294|369:284|369:284|336:306|283:278,1,150
211,186,18680,2,0,B|223:236|223:236|208:274|208:274|224:342,1,150,4|0,0:0|0:0,0:0:0:0:
297,166,19610,6,0,B|292:109|292:109|278:79,1,75,2|2,0:0|0:0,0:0:0:0:
396,159,20165,2,2,B|401:188|401:188|379:232,1,75
408,361,20619,2,2,B|416:316|416:316|434:291,1,75
290,200,20980,2,0,P|257:219|220:222,1,75,2|2,0:0|0:0,0:0:0:0:
130,147,21436,6,0,B|163:155|189:139|189:139|212:126|251:131,1,112.5
65,78,21976,2,0,B|42:126|42:126|53:188|53:188|50:195|50:195|56:198|56:198|65:239,1,150,4|0,0:0|0:0,0:0:0:0:
194,268,23076,2,0,B|138:270|138:270|93:294|93:294|46:295,1,150,8|0,0:0|0:0,0:0:0:0:
265,384,24177,2,0,B|247:342|260:315|260:315|268:312|268:312|264:305|264:305|280:274|263:222,1,150
139,145,25277,2,0,B|179:133|206:147|206:147|242:165|293:151,1,150,0|2,0:0|0:0,0:0:0:0:
398,68,26194,6,0,B|407:98|407:98|398:145,1,75,2|2,0:0|0:0,0:0:0:0:
288,229,26740,2,2,B|311:214|311:214|366:220,1,75
246,163,27209,2,2,P|213:169|165:157,1,75
161,151,27468,2,2,B|180:207|180:207|172:253,1,100
121,70,28018,6,0,B|200:62|200:62|229:89,1,112.5
346,193,28568,2,2,B|322:148|322:148|336:48,1,150,6|2,0:0|0:0,0:0:0:0:
296,76,29308,1,2,0:0:0:0:
346,149,29493,1,2,0:0:0:0:
284,277,29679,2,0,B|323:261|348:281|348:281|360:277|360:277|392:305|438:298,1,150,10|0,0:0|0:0,0:0:0:0:
264,184,30774,6,0,B|208:235|208:235|202:314,1,150
100,364,31855,2,0,B|153:363|153:363|195:381|195:381|254:379,1,150,4|0,0:0|0:0,0:0:0:0:
320,352,32780,2,0,L|325:395,1,25,2|0,0:0|0:0,0:0:0:0:
378,251,32966,6,0,P|333:274|270:266,1,112.5,10|2,0:0|0:0,0:0:0:0:
102,205,33689,2,0,P|136:187|196:221,1,112.5,2|0,0:0|0:0,0:0:0:0:
200,233,34061,1,2,0:0:0:0:
189,237,34603,1,0,0:0:0:0:
163,167,35145,6,0,B|187:153|228:163|249:190|249:190|275:177|277:147,1,150,4|0,0:0|0:0,0:0:0:0:
75,62,36256,2,0,B|87:113|87:113|76:163|76:163|92:218,1,150,8|0,0:0|0:0,0:0:0:0:
144,299,37351,2,0,B|183:307|225:284|237:244|237:244|221:254|199:255,1,150
228,142,38451,2,0,B|268:133|297:155|297:155|325:180|369:178,1,150,6|0,0:0|0:0,0:0:0:0:
453,138,39369,6,0,L|457:180,1,25,2|0,0:0|0:0,0:0:0:0:
508,227,39552,2,0,P|457:207|411:236,1,112.5,2|2,0:0|0:0,0:0:0:0:
262,297,40197,2,0,P|292:305|338:294,1,75,2|0,0:0|0:0,0:0:0:0:
150,149,40557,1,2,0:0:0:0:
155,132,40642,6,0,P|202:100|260:121,1,112.5,2|0,0:0|0:0,0:0:0:0:
234,83,41135,1,2,0:0:0:0:
331,62,41248,2,0,L|316:185,1,112.5,2|0,0:0|0:0,0:0:0:0:
313,194,41739,5,0,0:0:0:0:
256,192,41862,12,0,42723,0:0:0:0:
281,150,42846,6,0,B|330:82|301:14|217:-19|149:44|160:144|235:217|235:217|302:283|259:376|259:376|239:343|244:308,1,629.999980773926,4|0,0:0|0:0,0:0:0:0:
412,232,45071,2,0,B|381:159|295:166|266:225|266:225|246:205|246:205|210:279|108:275|81:178,1,393.750015020371,4|0,0:0|0:0,0:0:0:0:
163,66,46182,6,0,P|182:122|162:181,1,112.500004291535,8|0,0:0|0:0,0:0:0:0:
95,325,46598,2,0,P|82:272|101:220,1,112.500004291535,8|0,0:0|0:0,0:0:0:0:
183,277,47015,1,8,0:0:0:0:
316,66,47303,6,0,L|325:153,1,75
336,254,47582,1,0,0:0:0:0:
323,147,47721,1,0,0:0:0:0:
246,248,47861,6,0,P|285:270|332:256,1,75,8|0,0:0|0:0,0:0:0:0:
215,151,48140,1,0,0:0:0:0:
154,81,48279,2,0,P|122:77|80:95,1,75
277,86,48558,1,8,0:0:0:0:
131,162,48698,2,0,P|112:187|107:233,1,75
145,334,48977,5,8,0:0:0:0:
208,132,49116,1,8,0:0:0:0:
263,362,49256,1,8,0:0:0:0:
249,60,49396,1,8,0:0:0:0:
331,383,49535,6,0,P|396:377|429:334,1,112.500004291535,2|0,0:0|0:0,0:0:0:0:
380,197,49954,2,0,B|389:231|370:256|370:256|356:277|357:307,1,112.500004291535,2|0,0:0|0:0,0:0:0:0:
255,152,50372,2,2,L|310:145,1,56.2500021457673
175,0,50651,2,0,B|189:96|189:96|170:137|170:137|179:219,1,225.000008583069,6|0,0:0|0:0,0:0:0:0:
354,258,51070,2,0,B|297:223|247:272|247:272|202:318|143:296,1,225.000008583069,2|0,0:0|0:0,0:0:0:0:
47,246,51489,6,0,L|40:298,1,48.7499977684022,2|0,0:0|0:0,0:0:0:0:
164,109,51628,2,0,L|157:60,1,48.7499977684022,2|0,0:0|0:0,0:0:0:0:
277,195,51768,2,0,P|327:190|362:151,1,104.999996795654,6|0,0:0|0:0,0:0:0:0:
333,31,52047,1,8,0:0:0:0:
392,251,52186,1,0,0:0:0:0:
293,118,52326,1,0,0:0:0:0:
196,339,52465,2,0,P|192:283|214:237,1,104.999996795654,0|8,0:0|0:0,0:0:0:0:
315,196,52744,6,0,P|213:204|159:117,1,209.999993591309,2|0,0:0|0:0,0:0:0:0:
395,144,53163,2,0,P|406:198|382:257,1,104.999996795654,10|0,0:0|0:0,0:0:0:0:
408,14,53442,2,0,P|460:31|499:81,1,104.999996795654,2|0,0:0|0:0,0:0:0:0:
303,89,53721,2,0,P|256:110|205:101,1,104.999996795654,10|0,0:0|0:0,0:0:0:0:
103,0,54000,6,0,B|116:40|116:40|105:91|105:91|128:158,1,157.499995193482,2|0,0:0|0:0,0:0:0:0:
130,168,54279,1,8,0:0:0:0:
325,55,54419,1,0,0:0:0:0:
231,268,54558,1,0,0:0:0:0:
173,68,54698,1,0,0:0:0:0:
351,159,54837,1,8,0:0:0:0:
77,324,54977,6,0,B|126:355|176:338|176:338|219:287|279:302,1,209.999993591309,2|0,0:0|0:0,0:0:0:0:
355,373,55396,1,10,0:0:0:0:
270,160,55535,1,0,0:0:0:0:
414,246,55675,1,2,0:0:0:0:
198,298,55814,1,0,0:0:0:0:
263,73,55954,2,0,B|311:73|338:106|338:106|363:133|403:131,1,157.499995193482,10|0,0:0|0:0,2:0:0:0:
472,193,56233,6,0,P|487:243|484:295,1,104.999996795654,2|0,0:0|0:0,0:0:0:0:
443,370,56512,1,8,0:0:0:0:
394,169,56651,1,0,0:0:0:0:
314,288,56791,1,0,0:0:0:0:
438,85,56930,1,0,0:0:0:0:
507,261,57070,1,8,0:0:0:0:
323,110,57209,2,0,B|255:116|255:116|195:156|195:156|111:164,1,209.999993591309
186,63,57628,5,8,0:0:0:0:
259,220,57768,1,0,0:0:0:0:
105,159,57907,1,0,0:0:0:0:
329,95,58047,1,0,0:0:0:0:
65,108,58186,2,0,P|82:156|79:208,1,104.999996795654,8|0,0:0|0:0,0:0:0:0:
11,366,58465,6,0,P|76:281|163:346,1,209.999993591309,2|8,0:0|0:0,0:0:0:0:
88,359,58884,1,2,0:0:0:0:
230,366,59023,2,0,P|238:309|213:256,1,104.999996795654
140,219,59302,1,10,0:0:0:0:
301,182,59442,1,2,0:0:0:0:
66,168,59582,5,8,0:0:0:0:
66,168,59651,1,8,0:0:0:0:
66,168,59721,1,10,0:0:0:0:
269,288,59861,5,2,0:0:0:0:
288,107,60000,1,10,0:0:0:0:
288,107,60070,1,8,0:0:0:0:
288,107,60140,1,10,0:0:0:0:
125,239,60279,1,2,0:0:0:0:
484,334,60419,1,10,0:0:0:0:
486,307,60489,1,8,0:0:0:0:
488,281,60558,1,8,0:0:0:0:
490,254,60628,1,8,0:0:0:0:
492,227,60698,6,0,B|435:199|394:241|394:241|382:232|382:232|356:275|292:264,1,209.999993591309,14|0,0:0|0:0,0:0:0:0:
306,157,61116,1,0,0:0:0:0:
208,216,61256,2,0,P|196:275|223:331,1,104.999996795654
132,122,61535,2,0,P|120:98|117:54,1,52.4999983978272,10|0,0:0|0:0,0:0:0:0:
381,41,61675,6,0,P|334:117|220:102,1,209.999993591309,2|0,0:0|0:0,0:0:0:0:
287,35,62093,1,10,0:0:0:0:
344,243,62233,1,2,0:0:0:0:
463,114,62372,1,0,0:0:0:0:
258,204,62512,5,2,0:0:0:0:
364,34,62651,1,8,0:0:0:0:
439,207,62791,1,2,0:0:0:0:
218,122,62930,2,0,P|320:133|347:229,1,209.999993591309,0|8,0:0|0:0,0:0:0:0:
299,303,63349,1,0,0:0:0:0:
371,68,63489,1,0,0:0:0:0:
367,58,63628,1,0,0:0:0:0:
480,178,63768,1,8,0:0:0:0:
296,148,63907,6,0,B|240:135|194:170|194:170|152:203|83:192,1,209.999993591309,2|0,0:0|0:0,0:0:0:0:
31,129,64326,1,8,0:0:0:0:
263,235,64465,1,0,0:0:0:0:
199,55,64605,1,0,0:0:0:0:
57,259,64744,1,0,0:0:0:0:
94,38,64884,2,0,P|108:95|106:156,1,104.999996795654,8|0,0:0|0:0,0:0:0:0:
54,274,65163,6,0,B|84:257|108:266|108:266|139:278|167:263,1,104.999996795654,2|0,0:0|0:0,0:0:0:0:
246,188,65442,1,8,0:0:0:0:
250,311,65582,1,0,0:0:0:0:
398,197,65721,1,0,0:0:0:0:
374,345,65861,1,2,0:0:0:0:
438,119,66000,1,10,0:0:0:0:
272,103,66140,6,0,P|322:161|446:119,1,209.999993591309,2|0,0:0|0:0,0:0:0:0:
364,72,66558,1,8,0:0:0:0:
319,332,66698,1,0,0:0:0:0:
207,261,66837,1,0,0:0:0:0:
414,204,66977,1,0,0:0:0:0:
163,331,67116,2,0,P|131:285|137:218,1,104.999996795654,8|0,0:0|0:0,0:0:0:0:
228,55,67396,6,0,P|188:99|45:125,1,209.999993591309,2|8,0:0|0:0,0:0:0:0:
286,148,67814,1,0,0:0:0:0:
213,61,67954,1,2,0:0:0:0:
257,288,68093,1,0,0:0:0:0:
438,105,68233,1,8,0:0:0:0:
145,213,68372,1,2,0:0:0:0:
389,236,68651,5,2,0:0:0:0:
334,167,68791,1,2,0:0:0:0:
374,75,68930,1,2,0:0:0:0:
317,10,69070,1,2,0:0:0:0:
421,144,69209,1,2,0:0:0:0:
192,84,69349,6,0,P|236:70|304:85,1,112.5,2|0,0:0|0:0,0:0:0:0:
305,95,69628,1,0,0:0:0:0:
95,43,69907,5,2,0:0:0:0:
125,144,70047,1,2,0:0:0:0:
103,32,70186,2,0,L|194:16,1,75,2|0,0:0|0:0,0:0:0:0:
251,82,70465,5,10,0:0:0:0:
0,236,70605,2,0,P|37:232|71:245,1,75,2|0,0:0|0:0,0:0:0:0:
221,314,70884,2,0,P|183:317|149:304,1,75,2|8,0:0|0:0,0:0:0:0:
194,237,71163,6,0,B|236:222|271:242|271:242|308:266|346:259,1,150,2|2,0:0|0:0,0:0:0:0:
277,85,71582,2,0,P|322:132|323:180,1,112.5,8|0,0:0|0:0,0:0:0:0:
322,186,71861,1,0,0:0:0:0:
133,169,72140,5,10,0:0:0:0:
248,152,72279,1,2,0:0:0:0:
52,202,72419,1,2,0:0:0:0:
50,189,72558,1,2,0:0:0:0:
47,175,72698,5,10,0:0:0:0:
202,256,72837,2,0,L|218:329,1,75,2|0,0:0|0:0,0:0:0:0:
308,121,73116,1,0,0:0:0:0:
236,94,73256,2,0,P|232:133|255:176,1,75,10|0,0:0|0:0,0:0:0:0:
336,318,73535,2,0,P|340:281|326:246,1,75,2|0,0:0|0:0,0:0:0:0:
308,120,73814,2,0,P|309:84|332:52,1,75,10|0,0:0|0:0,0:0:0:0:
250,251,74093,1,0,0:0:0:0:
171,314,74372,5,10,0:0:0:0:
135,247,74512,1,2,0:0:0:0:
160,176,74651,1,2,0:0:0:0:
213,240,74791,1,2,0:0:0:0:
81,185,74930,5,10,0:0:0:0:
293,34,75070,2,0,B|307:144|307:144|297:119|275:108,1,150,2|0,0:0|0:0,0:0:0:0:
461,101,75489,2,0,L|354:89,1,75,10|0,0:0|0:0,0:0:0:0:
284,226,75768,2,0,L|391:214,1,75,2|0,0:0|0:0,0:0:0:0:
512,299,76047,2,0,L|405:287,1,75,10|0,0:0|0:0,0:0:0:0:
228,325,76326,6,0,P|222:252|303:233,1,150,2|8,0:0|0:0,0:0:0:0:
427,168,76884,2,0,P|352:159|289:97,1,150,2|8,0:0|0:0,0:0:0:0:
193,35,77302,2,0,P|219:15|194:55,1,150,2|0,0:0|0:0,0:0:0:0:
96,37,77721,2,0,P|97:93|115:117,1,75,10|0,0:0|0:0,0:0:0:0:
189,160,78000,2,0,P|188:216|170:240,1,75,2|0,0:0|0:0,0:0:0:0:
33,265,78279,6,0,B|68:257|84:232|84:232|82:265|99:291,1,112.5,10|0,0:0|0:0,0:0:0:0:
167,321,78558,2,0,P|208:304|255:309,1,89.9999972534181
168,224,78837,1,10,0:0:0:0:
221,384,78977,1,2,0:0:0:0:
250,149,79116,2,0,L|244:40,1,89.9999972534181,2|0,0:0|0:0,0:0:0:0:
134,104,79396,5,10,0:0:0:0:
240,244,79535,2,0,P|320:211|348:128,1,179.999994506836,2|2,0:0|0:0,0:0:0:0:
326,24,79954,6,0,P|360:52|405:56,1,89.9999972534181,8|2,0:0|0:0,0:0:0:0:
512,110,80233,2,0,P|470:117|433:155,1,89.9999972534181,0|2,0:0|0:0,0:0:0:0:
413,249,80512,1,8,0:0:0:0:
419,265,80651,1,0,0:0:0:0:
285,296,80791,6,0,P|320:323|363:332,1,89.9999972534181
259,188,81070,1,10,0:0:0:0:
229,377,81209,1,2,0:0:0:0:
174,133,81349,1,2,0:0:0:0:
343,238,81489,1,2,0:0:0:0:
110,306,81628,5,10,0:0:0:0:
181,125,81768,2,0,L|174:36,1,89.9999972534181,2|0,0:0|0:0,0:0:0:0:
105,204,82047,2,0,B|142:199|142:199|172:208|172:208|205:204,1,89.9999972534181,2|8,0:0|0:0,0:0:0:0:
281,206,82326,2,0,B|259:208|259:208|229:199|229:199|192:204,1,89.9999972534181,2|0,0:0|0:0,0:0:0:0:
98,218,82605,1,2,0:0:0:0:
351,251,82744,6,0,B|363:205|363:205|336:109,1,134.999995880127,8|0,0:0|0:0,0:0:0:0:
292,70,83023,2,0,P|330:93|374:97,1,89.9999972534181
482,93,83302,1,10,0:0:0:0:
360,18,83442,1,2,0:0:0:0:
423,264,83582,2,0,P|416:242|431:159,1,89.9999972534181,2|0,0:0|0:0,0:0:0:0:
494,339,83861,5,10,0:0:0:0:
334,211,84000,2,0,B|280:193|243:228|243:228|213:257|168:250,1,179.999994506836,2|0,0:0|0:0,0:0:0:0:
186,87,84419,2,0,P|172:129|182:172,1,89.9999972534181,10|0,0:0|0:0,0:0:0:0:
304,368,84698,2,0,P|313:324|299:282,1,89.9999972534181,2|0,0:0|0:0,0:0:0:0:
108,212,84977,2,0,P|137:245|179:258,1,89.9999972534181,10|0,0:0|0:0,0:0:0:0:
283,62,85256,6,0,P|212:74|176:177,1,179.999994506836,2|8,0:0|0:0,0:0:0:0:
167,84,85675,1,0,0:0:0:0:
284,240,85814,2,0,P|282:195|263:155,1,89.9999972534181,2|0,0:0|0:0,0:0:0:0:
255,328,86093,1,8,0:0:0:0:
152,298,86233,2,0,B|212:297|212:297|264:324|264:324|330:321,1,179.999994506836,2|0,0:0|0:0,0:0:0:0:
398,372,86651,6,0,P|409:328|397:280,1,89.9999972534181,10|0,0:0|0:0,0:0:0:0:
323,211,86930,1,10,0:0:0:0:
308,198,87000,2,0,L|316:148,1,44.999998626709,8|0,0:0|0:0,0:0:0:0:
334,78,87209,2,0,B|291:73|264:96|264:96|235:116|186:101,1,134.999995880127,2|0,0:0|0:0,0:0:0:0:
176,100,87489,5,0,0:0:0:0:
160,25,87768,2,0,P|155:65|163:102,1,67.4999979400635,2|0,0:0|0:0,0:0:0:0:
245,193,88047,2,0,L|102:185,1,134.999995880127,10|0,0:0|0:0,0:0:0:0:
48,255,88465,6,0,L|62:339,1,67.4999979400635,2|0,0:0|0:0,0:0:0:0:
126,205,88744,1,8,0:0:0:0:
142,367,88884,2,0,P|154:332|153:300,1,67.4999979400635,2|0,0:0|0:0,0:0:0:0:
150,372,89163,2,0,P|205:342|277:358,1,134.999995880127,10|2,0:0|0:0,0:0:0:0:
326,212,89721,6,0,P|349:243|358:287,1,67.4999979400635,2|0,0:0|0:0,0:0:0:0:
389,384,90000,2,0,P|399:352|420:325,1,67.4999979400635,2|0,0:0|0:0,0:0:0:0:
271,103,90279,2,0,B|271:126|257:140|257:140|271:148|271:148|243:177|240:214|252:244,1,134.999995880127,10|0,0:0|0:0,0:0:0:0:
203,315,90698,6,0,L|276:308,1,67.4999979400635,2|0,0:0|0:0,0:0:0:0:
168,212,90977,1,8,0:0:0:0:
115,285,91116,2,0,P|110:320|118:356,1,67.4999979400635,2|0,0:0|0:0,0:0:0:0:
180,193,91396,2,0,P|175:126|119:82,1,134.999995880127,10|0,0:0|0:0,0:0:0:0:
235,264,91954,6,0,P|263:281|296:286,1,67.4999979400635
403,275,92233,1,2,0:0:0:0:
357,370,92372,1,2,0:0:0:0:
342,162,92512,2,0,P|326:187|294:209,1,67.4999979400635,10|0,0:0|0:0,0:0:0:0:
317,76,92791,1,2,0:0:0:0:
152,127,92930,6,0,B|195:125|195:125|219:138|219:138|249:137,1,101.249996910095,2|0,0:0|0:0,0:0:0:0:
264,138,93209,1,8,0:0:0:0:
62,171,93349,2,0,L|54:92,1,75,2|0,0:0|0:0,0:0:0:0:
126,260,93628,1,2,0:0:0:0:
180,42,93768,1,0,0:0:0:0:
224,289,93907,2,0,B|213:297|204:310|204:310|212:226,1,112.5,2|0,0:0|0:0,0:0:0:0:
248,142,94186,6,0,B|254:99|294:91|294:91|331:129|310:181|310:181|288:228|327:276,1,269.999991760254,6|0,0:0|0:0,0:0:0:0:
96,301,94744,2,0,B|137:314|137:314|176:293|176:293|219:312|219:312|226:267|291:241|331:278,1,269.999991760254,6|0,0:0|0:0,0:0:0:0:
423,205,95302,2,0,P|403:269|411:335,1,134.999995880127,2|0,0:0|0:0,0:0:0:0:
385,356,95582,2,0,P|374:266|400:180,1,168.750006437302,2|0,0:0|0:0,0:0:0:0:
435,72,95861,6,0,P|392:100|341:100,1,104.999996795654,2|0,0:0|0:0,0:0:0:0:
270,35,96140,1,2,0:0:0:0:
174,239,96419,5,0,0:0:0:0:
170,220,96558,1,0,0:0:0:0:
246,285,96698,2,0,P|188:276|146:316,1,120,10|0,0:0|0:0,0:0:0:0:
54,381,96977,2,0,B|57:328|57:328|64:312|64:312|71:256,1,112.500004291535,2|0,0:0|0:0,0:0:0:0:
175,148,97256,5,10,0:0:0:0:
134,67,97396,2,0,B|203:70|203:70|233:92|233:92|268:72|268:72|331:77,1,209.999993591309,2|0,0:0|0:0,0:0:0:0:
442,148,97814,2,0,P|418:103|429:53,1,104.999996795654,10|0,0:0|0:0,0:0:0:0:
409,264,98093,2,0,B|454:273|454:273|465:270|465:270|512:280,1,104.999996795654,2|0,0:0|0:0,0:0:0:0:
329,312,98372,2,0,P|316:237|367:181,1,157.499995193482,10|0,0:0|0:0,0:0:0:0:
440,143,98651,6,0,B|416:107|372:94|336:110|336:110|322:93|322:93|294:105|261:87|247:55,1,209.999993591309,2|8,0:0|0:0,0:0:0:0:
217,9,99070,1,0,0:0:0:0:
148,130,99209,1,2,0:0:0:0:
152,148,99349,1,0,0:0:0:0:
59,41,99489,1,8,0:0:0:0:
188,235,99628,6,0,B|136:243|99:206|99:206|55:153|-3:164,1,209.999993591309,2|2,0:0|0:0,0:0:0:0:
265,191,100047,2,0,B|275:229|275:229|253:316,1,104.999996795654,10|0,0:0|0:0,0:0:0:0:
221,365,100326,1,0,0:0:0:0:
320,342,100465,1,0,0:0:0:0:
423,373,100605,5,2,0:0:0:0:
378,239,100744,1,2,0:0:0:0:
416,148,100884,5,2,0:0:0:0:
377,89,101023,2,0,B|366:131|387:164|387:164|408:195|398:241,1,150
293,294,101442,2,0,P|313:268|317:227,1,75,8|0,0:0|0:0,0:0:0:0:
231,135,101721,2,0,P|260:133|279:141,1,37.5,2|0,0:0|0:0,0:0:0:0:
152,197,101861,6,0,L|137:114,1,75
217,257,102140,1,8,0:0:0:0:
133,328,102279,1,2,0:0:0:0:
128,342,102419,1,0,0:0:0:0:
263,340,102558,5,2,0:0:0:0:
275,346,102698,1,0,0:0:0:0:
307,250,102837,1,2,0:0:0:0:
320,249,102977,1,0,0:0:0:0:
391,155,103116,6,0,B|325:92|245:93|193:174|193:174|157:238|86:255|33:210|33:210|22:236|36:264|69:260|83:308|50:348,1,562.500021457673,6|0,0:0|0:0,0:0:0:0:
138,357,104651,2,0,L|130:328,2,18.7500007152558
216,343,104791,2,0,L|200:277,2,60,2|2|2,0:0|0:0|0:0,0:0:0:0:
172,171,105349,5,0,0:0:0:0:
233,115,105489,1,0,0:0:0:0:
198,40,105628,1,0,0:0:0:0:
134,92,105768,1,0,0:0:0:0:
253,197,105907,6,0,L|319:189,1,56.2500021457673,2|0,0:0|0:0,0:0:0:0:
393,186,106186,1,2,0:0:0:0:
204,286,106326,2,0,L|339:273,1,112.500004291535,2|0,0:0|0:0,0:0:0:0:
122,273,106744,6,0,P|162:268|206:283,1,75,2|0,0:0|0:0,0:0:0:0:
391,329,107023,2,0,P|354:329|320:311,1,75,2|0,0:0|0:0,0:0:0:0:
266,202,107302,2,0,P|268:165|284:132,1,75,2|0,0:0|0:0,0:0:0:0:
384,89,107582,1,2,0:0:0:0:
307,118,107721,1,0,0:0:0:0:
224,118,107861,1,0,0:0:0:0:
145,93,108000,1,0,0:0:0:0:
78,50,108140,6,0,B|112:98|58:109|101:174,1,112.500004291535,2|0,0:0|0:0,0:0:0:0:
157,224,108558,1,2,0:0:0:0:
167,214,108628,1,2,0:0:0:0:
175,202,108698,2,0,B|215:187|240:207|240:207|265:222|308:213,1,112.500004291535,2|0,0:0|0:0,0:0:0:0:
370,194,109116,1,0,0:0:0:0:
295,367,109256,5,8,0:0:0:0:
234,107,109535,1,0,0:0:0:0:
283,283,109675,1,0,0:0:0:0:
324,208,109814,2,0,B|274:184|230:224|230:224|183:268|133:261|103:241|91:210|94:175|139:147|176:183,1,337.500012874604,2|0,0:0|0:0,0:0:0:0:
396,268,110791,6,0,P|418:206|407:163,1,112.500004291535,2|0,0:0|0:0,0:0:0:0:
331,100,111209,2,0,P|316:139|323:180,1,84.3750032186509
333,205,111489,2,0,B|302:182|255:185|236:215|236:215|213:203|213:203|186:234|142:240|106:212,1,249.374993340969,2|0,0:0|0:0,0:0:0:0:
99,98,112047,6,0,B|91:135|69:164|18:169|18:169|66:157|105:195|105:195|134:225|173:222|173:222|225:274|193:338|193:338|196:288|161:262,1,495.000015106202,2|2,0:0|0:0,0:0:0:0:
210,148,113023,2,0,P|259:200|274:248,1,112.500004291535
336,351,113442,2,0,P|337:314|351:282,1,56.2500021457673
405,233,113721,1,0,0:0:0:0:
372,141,113861,1,0,0:0:0:0:
378,128,114000,1,0,0:0:0:0:
130,136,114279,5,0,0:0:0:0:
204,109,114419,1,0,0:0:0:0:
254,48,114558,1,0,0:0:0:0:
222,120,114698,1,0,0:0:0:0:
260,188,114837,6,0,P|283:208|325:225,1,56.2500021457673,2|0,0:0|0:0,0:0:0:0:
388,164,115116,1,2,0:0:0:0:
214,262,115256,2,0,P|197:314|214:367,1,112.500004291535,2|0,0:0|0:0,0:0:0:0:
276,317,115675,2,0,L|331:308,1,56.2500021457673,2|0,0:0|0:0,0:0:0:0:
512,384,115954,2,0,L|387:362,1,112.500004291535,2|2,0:0|0:0,0:0:0:0:
333,186,116512,6,0,B|337:264|337:264|332:245|317:233,1,112.500004291535,2|0,0:0|0:0,0:0:0:0:
385,124,116930,2,0,P|332:106|277:125,1,112.500004291535,2|0,0:0|0:0,0:0:0:0:
222,189,117349,1,2,0:0:0:0:
394,247,117489,1,0,0:0:0:0:
302,346,117628,6,0,L|302:268,1,56.2500021457673,2|0,0:0|0:0,0:0:0:0:
321,156,117907,1,0,0:0:0:0:
215,286,118186,1,0,0:0:0:0:
212,85,118465,5,2,0:0:0:0:
281,233,118605,1,2,0:0:0:0:
324,87,118744,2,0,B|288:122|308:186|355:211|448:177|441:62|338:-5,1,337.500012874604,2|0,0:0|0:0,0:0:0:0:
234,46,119721,1,0,0:0:0:0:
85,50,120140,6,0,L|94:112,1,56.2500021457673,2|0,0:0|0:0,0:0:0:0:
75,266,120419,1,10,0:0:0:0:
297,182,120558,1,8,0:0:0:0:
0,134,120698,1,10,0:0:0:0:
248,115,120977,6,0,P|353:117|370:218,1,225.000008583069,10|0,0:0|0:0,0:0:0:0:
219,269,121396,2,0,B|296:269|296:269|355:302|355:302|455:304,1,225.000008583069,10|0,0:0|0:0,0:0:0:0:
268,360,121814,1,10,0:0:0:0:
281,169,122651,5,2,0:0:0:0:
273,201,122790,1,2,0:0:0:0:
276,234,122930,1,2,0:0:0:0:
269,267,123069,1,2,0:0:0:0:
74,110,123209,5,2,0:0:0:0:
205,81,123349,1,0,0:0:0:0:
33,211,123489,1,8,0:0:0:0:
164,182,123628,1,0,0:0:0:0:
67,104,123768,1,0,0:0:0:0:
108,263,123907,1,0,0:0:0:0:
274,147,124047,6,0,P|325:150|370:176,1,104.999996795654,10|0,0:0|0:0,0:0:0:0:
455,241,124326,2,0,B|465:208|465:208|457:123,1,104.999996795654,2|0,0:0|0:0,0:0:0:0:
441,53,124605,1,10,0:0:0:0:
190,102,124744,2,0,B|159:157|200:213|200:213|233:252|225:304,1,209.999993591309,2|0,0:0|0:0,0:0:0:0:
254,150,125163,2,0,B|314:141|314:141|348:155|348:155|412:141,1,157.499995193482,10|0,0:0|0:0,0:0:0:0:
428,143,125442,5,2,0:0:0:0:
376,339,125582,1,0,0:0:0:0:
512,190,125721,1,8,0:0:0:0:
240,255,125861,1,0,0:0:0:0:
474,319,126000,1,0,0:0:0:0:
316,107,126140,1,0,0:0:0:0:
232,262,126279,6,0,P|181:269|132:251,1,104.999996795654,10|0,0:0|0:0,0:0:0:0:
81,44,126558,2,0,B|89:93|89:93|83:104|83:104|90:164,1,104.999996795654,2|0,0:0|0:0,0:0:0:0:
237,244,126837,2,0,B|241:201|241:201|237:184|237:184|245:135,1,104.999996795654,10|0,0:0|0:0,0:0:0:0:
385,98,127116,2,0,B|353:104|334:124|334:124|325:96|301:78,1,104.999996795654,2|0,0:0|0:0,0:0:0:0:
490,5,127396,2,0,B|469:54|469:54|479:99|479:99|450:153,1,157.499995193482,10|0,0:0|0:0,0:0:0:0:
443,165,127675,5,2,0:0:0:0:
318,15,127814,1,0,0:0:0:0:
292,239,127954,2,0,P|343:246|391:226,1,104.999996795654,8|0,0:0|0:0,0:0:0:0:
239,155,128233,2,0,P|161:123|65:201,1,209.999993591309,2|8,0:0|0:0,0:0:0:0:
128,95,128651,1,0,0:0:0:0:
239,248,128791,5,2,0:0:0:0:
306,57,128930,1,0,0:0:0:0:
135,200,129070,1,8,0:0:0:0:
212,28,129209,1,0,0:0:0:0:
436,186,129349,2,0,P|390:207|327:201,1,104.999996795654,2|0,0:0|0:0,0:0:0:0:
231,166,129628,6,0,P|252:213|251:265,1,104.999996795654,10|0,0:0|0:0,0:0:0:0:
85,314,129907,2,0,B|139:286|189:322|189:322|228:353|286:341,1,209.999993591309,2|8,0:0|0:0,0:0:0:0:
373,311,130326,1,0,0:0:0:0:
314,135,130465,1,0,0:0:0:0:
320,155,130605,1,0,0:0:0:0:
269,224,130744,6,0,P|335:184|413:188,1,157.499995193482,10|0,0:0|0:0,0:0:0:0:
433,199,131023,1,0,0:0:0:0:
335,86,131163,1,0,0:0:0:0:
352,266,131302,1,8,0:0:0:0:
180,136,131442,6,0,B|203:155|225:157|225:157|158:172|144:245|179:293,1,209.999993591309
285,351,131861,2,0,B|246:342|246:342|188:369|188:369|117:355,1,157.499995193482,8|0,0:0|0:0,0:0:0:0:
111,346,132140,1,0,0:0:0:0:
106,335,132279,1,0,0:0:0:0:
215,230,132419,5,10,0:0:0:0:
43,112,132558,1,2,0:0:0:0:
258,97,132698,1,2,0:0:0:0:
31,253,132837,1,2,0:0:0:0:
134,28,132977,1,10,0:0:0:0:
301,196,133116,6,0,B|359:224|409:190|409:190|459:158|517:185,1,209.999993591309,2|0,0:0|0:0,0:0:0:0:
370,384,133535,2,0,L|354:269,1,104.999996795654,10|0,0:0|0:0,0:0:0:0:
222,131,133814,2,0,L|207:234,1,104.999996795654,2|0,0:0|0:0,0:0:0:0:
118,328,134093,2,0,B|175:321|175:321|183:326|183:326|241:319,1,104.999996795654,10|0,0:0|0:0,0:0:0:0:
56,275,134372,6,0,P|37:222|48:168,1,112.500004291535,2|0,0:0|0:0,0:0:0:0:
197,3,134651,2,0,P|208:57|189:109,1,112.500004291535,10|0,0:0|0:0,0:0:0:0:
17,51,134930,2,0,L|129:51,1,112.500004291535,2|0,0:0|0:0,0:0:0:0:
81,122,135209,1,10,0:0:0:0:
286,57,135349,1,2,0:0:0:0:
164,159,135489,6,0,B|157:183|142:198|142:198|155:286,1,112.500004291535,2|0,0:0|0:0,0:0:0:0:
365,226,135768,2,0,P|321:199|250:222,1,112.500004291535,10|0,0:0|0:0,0:0:0:0:
108,354,136047,2,0,L|252:336,1,112.500004291535,2|0,0:0|0:0,0:0:0:0:
437,290,136326,6,0,B|466:318|466:318|458:255|458:255|450:241|450:241|446:191,1,168.750006437302,10|0,0:0|0:0,0:0:0:0:
450,171,136605,1,2,0:0:0:0:
345,237,136744,1,0,0:0:0:0:
378,85,136884,1,8,0:0:0:0:
366,319,137023,1,0,0:0:0:0:
213,251,137163,5,0,0:0:0:0:
360,155,137302,1,0,0:0:0:0:
127,238,137442,2,0,P|126:289|161:326,1,104.999996795654,8|0,0:0|0:0,0:0:0:0:
135,133,137721,2,0,B|105:130|105:130|59:147|59:147|20:145,1,104.999996795654
211,69,138000,5,10,0:0:0:0:
240,159,138140,1,0,0:0:0:0:
327,125,138279,1,2,0:0:0:0:
318,219,138419,1,0,0:0:0:0:
422,65,138558,2,0,L|407:171,1,104.999996795654,10|0,0:0|0:0,0:0:0:0:
233,331,138837,6,0,B|267:309|267:309|348:301,1,104.999996795654,2|0,0:0|0:0,0:0:0:0:
138,180,139116,2,0,B|124:178|115:162|115:162|126:240,1,104.999996795654,10|0,0:0|0:0,0:0:0:0:
178,80,139396,2,0,P|125:56|56:76,1,104.999996795654,2|0,0:0|0:0,0:0:0:0:
239,230,139675,1,10,0:0:0:0:
269,34,139814,1,2,0:0:0:0:
336,247,139954,6,0,P|289:224|238:229,1,104.999996795654,2|0,0:0|0:0,0:0:0:0:
98,373,140233,2,0,P|146:343|166:290,1,104.999996795654,10|8,0:0|0:0,0:0:0:0:
138,205,140442,1,8,0:0:0:0:
138,205,140512,5,10,0:0:0:0:
336,136,140651,1,8,0:0:0:0:
63,97,140791,1,10,0:0:0:0:
304,264,140930,1,8,0:0:0:0:
220,180,141070,5,10,0:0:0:0:
435,144,141209,1,0,0:0:0:0:
127,214,141349,2,0,B|113:180|121:161|121:161|115:156|115:156|123:134|111:108,1,104.999996795654,10|0,0:0|0:0,0:0:0:0:
198,85,141628,5,0,0:0:0:0:
57,34,141768,1,0,0:0:0:0:
322,9,141907,2,0,B|336:43|328:62|328:62|334:67|334:67|326:89|338:115,1,104.999996795654,8|0,0:0|0:0,0:0:0:0:
400,201,142186,6,0,B|360:194|360:194|349:198|349:198|297:188,1,104.999996795654
250,271,142465,2,0,P|214:232|203:182,1,104.999996795654,10|0,0:0|0:0,0:0:0:0:
155,47,142744,2,0,P|143:97|108:135,1,104.999996795654,2|0,0:0|0:0,0:0:0:0:
5,228,143023,2,0,B|35:214|64:224|64:224|89:232|126:217,1,104.999996795654,10|0,0:0|0:0,0:0:0:0:
188,168,143302,5,2,0:0:0:0:
145,351,143442,1,0,0:0:0:0:
202,182,143582,2,0,L|216:285,1,104.999996795654,10|0,0:0|0:0,0:0:0:0:
265,118,143861,2,0,P|223:88|172:95,1,104.999996795654,2|0,0:0|0:0,0:0:0:0:
351,233,144140,2,0,B|418:223|418:223|449:232|449:232|519:221,1,157.499995193482,10|0,0:0|0:0,0:0:0:0:
473,150,144419,6,0,P|496:102|495:50,1,104.999996795654,2|0,0:0|0:0,0:0:0:0:
255,239,144698,2,0,P|254:291|277:337,1,104.999996795654,10|0,0:0|0:0,0:0:0:0:
272,156,144977,2,0,P|220:156|178:186,1,104.999996795654,2|0,0:0|0:0,0:0:0:0:
77,297,145256,2,0,B|88:251|88:251|68:197|68:197|83:129,1,157.499995193482,10|0,0:0|0:0,0:0:0:0:
131,73,145535,6,0,B|61:61|61:61|32:77,1,104.999996795654,2|0,0:0|0:0,0:0:0:0:
272,19,145814,1,10,0:0:0:0:
297,133,145954,2,0,L|282:22,2,104.999996795654,2|0|0,0:0|0:0|0:0,0:0:0:0:
270,281,146372,1,8,0:0:0:0:
436,173,146512,1,0,0:0:0:0:
253,214,146651,6,0,L|247:338,1,104.999996795654
196,116,146930,2,0,B|242:115|242:115|273:132|273:132|319:133,1,104.999996795654,10|0,0:0|0:0,0:0:0:0:
434,223,147209,2,0,B|410:222|410:222|379:205|379:205|333:206,1,104.999996795654,2|0,0:0|0:0,0:0:0:0:
130,167,147489,2,0,P|110:119|126:70,1,104.999996795654,10|0,0:0|0:0,0:0:0:0:
224,243,147768,6,0,L|117:257,1,104.999996795654,2|0,0:0|0:0,0:0:0:0:
9,353,148047,2,0,L|113:339,1,104.999996795654,10|0,0:0|0:0,0:0:0:0:
303,221,148326,2,0,B|312:247|296:275|296:275|287:297|288:327,1,104.999996795654,2|0,0:0|0:0,0:0:0:0:
235,131,148605,2,0,L|341:118,1,104.999996795654,10|2,0:0|0:0,0:0:0:0:
433,40,148884,2,0,B|391:44|391:44|364:36|364:36|312:43,1,104.999996795654
150,37,149163,5,8,0:0:0:0:
129,258,149302,2,0,B|129:178|129:178|150:143|150:143|149:45,1,209.999993591309
141,346,149721,2,0,B|192:321|192:321|298:346,1,157.499995193482,8|0,0:0|0:0,0:0:0:0:
397,364,150000,6,0,P|366:323|359:272,1,104.999996795654,2|0,0:0|0:0,0:0:0:0:
443,217,150279,1,10,0:0:0:0:
255,139,150419,2,0,B|305:134|305:134|323:140|323:140|375:134,2,104.999996795654,2|0|0,0:0|0:0|0:0,0:0:0:0:
145,48,150837,2,0,L|36:54,1,104.999996795654,8|0,0:0|0:0,0:0:0:0:
77,222,151116,6,0,B|86:149|86:149|80:167|65:180,1,104.999996795654
35,312,151396,2,0,P|83:319|142:299,1,104.999996795654,10|0,0:0|0:0,0:0:0:0:
284,215,151675,2,0,P|234:206|179:228,1,104.999996795654,2|0,0:0|0:0,0:0:0:0:
324,141,151954,2,0,P|371:152|428:130,1,104.999996795654,10|0,0:0|0:0,0:0:0:0:
454,54,152233,5,2,0:0:0:0:
365,291,152372,1,2,0:0:0:0:
298,67,152512,1,10,0:0:0:0:
489,240,152651,2,0,L|474:352,1,104.999996795654,2|0,0:0|0:0,0:0:0:0:
370,153,152930,1,0,0:0:0:0:
254,251,153070,6,0,B|222:261|200:242|200:242|175:225|143:233,1,104.999996795654,8|0,0:0|0:0,0:0:0:0:
224,65,153349,2,0,B|234:93|234:93|224:136|224:136|235:181,1,104.999996795654
286,331,153628,2,0,P|361:311|421:191,1,209.999993591309,10|0,0:0|0:0,0:0:0:0:
318,39,154047,2,0,P|329:89|371:124,1,104.999996795654,2|8,0:0|0:0,0:0:0:0:
457,109,154326,1,0,0:0:0:0:
286,203,154465,6,0,B|250:189|220:213|220:213|192:205|173:179|173:179|133:215|74:199,1,209.999993591309,2|8,0:0|0:0,0:0:0:0:
6,160,154884,2,0,B|-10:225|28:270|28:270|57:306|48:372,1,209.999993591309,2|0,0:0|0:0,0:0:0:0:
238,354,155302,2,0,L|117:343,1,104.999996795654,10|0,0:0|0:0,0:0:0:0:
310,168,155582,2,0,B|321:212|321:212|316:236|316:236|327:286,1,104.999996795654
340,69,155861,5,10,0:0:0:0:
235,98,156000,1,0,0:0:0:0:
397,240,156140,2,0,P|448:231|485:196,1,104.999996795654,2|0,0:0|0:0,0:0:0:0:
242,211,156419,2,0,B|192:215|192:215|178:212|178:212|131:215,1,104.999996795654,10|0,0:0|0:0,0:0:0:0:
78,149,156698,6,0,B|96:124|114:124|114:124|77:107|27:141|16:209|45:243,1,209.999993591309,2|8,0:0|0:0,0:0:0:0:
104,319,157116,1,2,0:0:0:0:
218,128,157256,1,0,0:0:0:0:
219,138,157396,1,0,0:0:0:0:
166,58,157535,6,0,P|207:88|259:85,1,104.999996795654,8|0,0:0|0:0,0:0:0:0:
331,32,157814,1,0,0:0:0:0:
319,223,157954,2,0,P|330:195|331:165,1,60,8|0,0:0|0:0,0:0:0:0:
444,63,158093,2,0,P|423:132|442:201,1,146.249993305207,8|0,0:0|0:0,0:0:0:0:
465,220,158372,5,0,0:0:0:0:
392,269,158512,1,0,0:0:0:0:
386,356,158651,2,0,B|341:362|312:337|312:337|285:314|248:319,1,146.249993305207
225,327,158930,5,0,0:0:0:0:
323,207,159209,1,2,0:0:0:0:
309,201,159349,1,0,0:0:0:0:
378,86,159489,2,0,P|393:119|396:157,1,75,10|0,0:0|0:0,0:0:0:0:
229,168,159768,2,0,P|231:130|247:96,1,75,2|0,0:0|0:0,0:0:0:0:
306,38,160047,5,2,0:0:0:0:
154,257,160186,1,8,0:0:0:0:
185,68,160326,2,0,B|147:72|147:72|133:82|133:82|74:88,1,112.5,10|0,0:0|0:0,0:0:0:0:
50,92,160605,1,0,0:0:0:0:
50,92,160744,1,0,0:0:0:0:
63,267,160884,6,0,P|127:242|132:173,1,146.249993305207,10|0,0:0|0:0,0:0:0:0:
121,164,161163,1,2,0:0:0:0:
124,372,161302,1,0,0:0:0:0:
212,188,161442,2,0,P|213:139|190:97,1,97.4999955368044,8|0,0:0|0:0,0:0:0:0:
218,301,161721,5,2,0:0:0:0:
317,153,161861,1,0,0:0:0:0:
427,280,162000,2,0,P|437:344|428:380,1,97.4999955368044,8|0,0:0|0:0,0:0:0:0:
212,176,162279,6,0,P|247:164|284:161,1,75,2|0,0:0|0:0,0:0:0:0:
419,60,162558,1,8,0:0:0:0:
368,244,162698,1,8,0:0:0:0:
399,67,162837,1,10,0:0:0:0:
439,214,162977,1,8,0:0:0:0:
385,89,163116,2,0,L|255:102,1,112.5,8|0,0:0|0:0,0:0:0:0:
253,104,163399,5,6,0:0:0:0:
256,192,163468,12,0,167585,0:0:0:0:
83,129,167864,5,0,0:0:0:0:
151,187,168143,1,0,0:0:0:0:
142,276,168422,1,0,0:0:0:0:
68,224,168701,1,0,0:0:0:0:
294,178,168980,5,0,0:0:0:0:
226,236,169259,1,0,0:0:0:0:
235,325,169538,1,0,0:0:0:0:
309,273,169817,1,0,0:0:0:0:
225,153,170096,5,0,0:0:0:0:
147,198,170375,1,0,0:0:0:0:
68,154,170654,1,0,0:0:0:0:
69,64,170933,1,0,0:0:0:0:
155,108,171212,5,0,0:0:0:0:
233,63,171492,1,0,0:0:0:0:
312,107,171771,1,0,0:0:0:0:
311,197,172050,1,0,0:0:0:0:
306,325,172329,5,0,0:0:0:0:
224,258,172608,1,0,0:0:0:0:
259,159,172887,1,0,0:0:0:0:
176,93,173166,1,0,0:0:0:0:
312,336,173445,5,0,0:0:0:0:
222,262,173724,1,0,0:0:0:0:
260,154,174003,1,0,0:0:0:0:
169,81,174282,1,0,0:0:0:0:
199,336,174561,5,0,0:0:0:0:
289,262,174840,1,0,0:0:0:0:
251,154,175119,1,0,0:0:0:0:
342,81,175398,1,0,0:0:0:0:
185,362,175678,5,0,0:0:0:0:
293,273,175957,1,0,0:0:0:0:
247,143,176236,1,0,0:0:0:0:
356,55,176515,1,0,0:0:0:0:
112,69,176794,5,0,0:0:0:0:
121,158,177073,1,0,0:0:0:0:
193,211,177352,1,0,0:0:0:0:
207,299,177631,1,0,0:0:0:0:
349,218,177910,5,0,0:0:0:0:
260,227,178189,1,0,0:0:0:0:
207,299,178468,1,0,0:0:0:0:
119,313,178747,1,0,0:0:0:0:
135,192,179026,5,0,0:0:0:0:
111,184,179305,1,0,0:0:0:0:
111,159,179585,1,0,0:0:0:0:
135,151,179864,1,0,0:0:0:0:
150,171,180143,5,0,0:0:0:0:
157,183,180608,1,0,0:0:0:0:
273,230,181163,1,0,0:0:0:0:
402,151,181852,1,0,0:0:0:0:
62,79,182933,6,0,P|113:99|169:99,1,112.5,2|0,0:0|0:0,0:0:0:0:
245,48,183401,2,0,P|297:33|349:53,1,112.5,2|0,0:0|0:0,0:0:0:0:
416,113,183842,2,0,P|418:145|413:173,1,56.25,2|0,0:0|0:0,0:0:0:0:
365,238,184283,6,0,P|335:220|251:229,1,112.5,2|0,0:0|0:0,0:0:0:0:
244,249,184660,1,2,0:0:0:0:
187,150,185037,2,8,L|194:183,4,25,10|8|8|8|8,0:0|0:0|0:0|0:0|0:0,0:0:0:0:
162,42,185415,2,0,P|149:95|170:146,1,112.5,2|0,0:0|0:0,0:0:0:0:
232,87,185792,1,2,0:0:0:0:
348,172,186169,2,8,L|304:182,4,25
404,109,186547,1,0,0:0:0:0:
378,314,186919,6,0,P|455:296|456:232,1,134.999995880127,2|0,0:0|0:0,0:0:0:0:
377,192,187292,2,0,B|327:193|327:193|294:217|294:217|245:217,1,134.999995880127,2|0,0:0|0:0,0:0:0:0:
167,216,187665,1,2,0:0:0:0:
170,198,188037,1,0,0:0:0:0:
241,85,188410,2,0,L|232:132,4,29.9999990844727,8|0|0|0|0,0:0|0:0|0:0|0:0|0:0,0:0:0:0:
285,192,188783,5,2,0:0:0:0:
128,304,189160,2,0,P|182:316|229:255,1,134.999995880127,2|0,0:0|0:0,0:0:0:0:
220,173,189537,2,0,B|205:75|205:75|204:94|193:110,1,134.999995880127,2|0,0:0|0:0,0:0:0:0:
180,117,189915,1,2,0:0:0:0:
180,117,190292,1,0,0:0:0:0:
394,116,190669,2,8,L|388:166,4,29.9999990844727
289,207,191047,5,0,0:0:0:0:
193,139,191419,2,0,P|253:130|297:193,1,134.999995880127,2|0,0:0|0:0,0:0:0:0:
330,314,191792,2,0,P|369:262|433:270,1,134.999995880127,2|0,0:0|0:0,0:0:0:0:
447,288,192165,1,2,0:0:0:0:
445,305,192537,1,0,0:0:0:0:
211,259,192910,2,8,L|251:251,4,29.9999990844727
134,172,193283,5,0,0:0:0:0:
125,28,193660,2,0,P|150:89|130:180,1,134.999995880127,2|0,0:0|0:0,0:0:0:0:
196,223,194037,2,0,P|171:284|191:375,1,134.999995880127,2|0,0:0|0:0,0:0:0:0:
258,381,194415,2,2,B|301:368|301:368|348:383|348:383|408:371,1,134.999995880127
486,264,194792,2,0,L|350:302,1,134.999995880127,2|0,0:0|0:0,0:0:0:0:
256,252,195169,2,8,L|288:243,4,29.9999990844727,10|8|8|8|8,0:0|0:0|0:0|0:0|0:0,0:0:0:0:
369,221,195547,5,0,0:0:0:0:
108,93,195919,2,0,P|159:86|206:160,1,134.999995880127,2|0,0:0|0:0,0:0:0:0:
239,260,196292,2,0,P|273:205|338:207,1,134.999995880127,2|0,0:0|0:0,0:0:0:0:
353,223,196665,1,2,0:0:0:0:
358,240,197037,1,0,0:0:0:0:
308,71,197410,2,8,L|322:118,4,29.9999990844727
266,169,197783,5,2,0:0:0:0:
268,186,198160,1,2,0:0:0:0:
123,295,198537,2,8,L|127:259,4,29.9999990844727,10|8|8|8|8,0:0|0:0|0:0|0:0|0:0,0:0:0:0:
92,182,198915,1,2,0:0:0:0:
204,219,199292,1,2,0:0:0:0:
0,257,199669,2,8,L|36:249,4,29.9999990844727,10|8|8|8|8,0:0|0:0|0:0|0:0|0:0,0:0:0:0:
216,36,200047,6,0,B|238:27|255:46|255:46|226:68|216:112|237:155,1,146.249993305207,2|0,0:0|0:0,0:0:0:0:
244,154,200419,1,0,0:0:0:0:
350,266,200792,1,10,0:0:0:0:
334,261,200854,1,8,0:0:0:0:
318,257,200916,1,8,0:0:0:0:
302,252,200978,1,8,0:0:0:0:
137,334,201165,5,0,0:0:0:0:
97,115,201537,1,0,0:0:0:0:
260,81,201910,2,0,P|233:132|189:154,1,97.4999955368044,8|0,0:0|0:0,0:0:0:0:
73,218,202189,1,0,0:0:0:0:
62,206,202283,6,0,P|114:206|154:239,1,104.999996795654
148,341,202651,1,2,0:0:0:0:
290,261,202835,1,0,0:0:0:0:
30,339,203019,2,0,L|154:321,1,104.999996795654,10|0,0:0|0:0,0:0:0:0:
309,373,203387,1,2,0:0:0:0:
211,244,203571,2,0,B|207:279|207:279|217:304|217:304|208:354,1,104.999996795654,0|2,0:0|0:0,0:0:0:0:
242,155,203939,1,0,0:0:0:0:
50,213,204123,6,0,P|101:219|141:185,1,104.999996795654,10|0,0:0|0:0,0:0:0:0:
149,38,204491,2,0,P|199:122|294:100,1,209.999993591309,2|0,0:0|0:0,0:0:0:0:
137,111,205043,1,0,0:0:0:0:
315,39,205227,2,0,B|309:88|309:88|315:104|315:104|311:142,1,104.999996795654,10|0,0:0|0:0,0:0:0:0:
290,238,205595,1,2,0:0:0:0:
449,297,205779,2,0,B|393:273|345:305|345:305|305:336|248:318,1,209.999993591309
179,180,206240,1,0,0:0:0:0:
167,166,206332,2,0,L|153:327,1,157.499995193482,8|0,0:0|0:0,0:0:0:0:
214,374,206700,6,0,P|263:357|314:364,1,104.999996795654
285,163,207063,1,2,0:0:0:0:
266,324,207245,1,0,0:0:0:0:
168,186,207427,2,0,P|212:157|264:155,1,104.999996795654,10|0,0:0|0:0,0:0:0:0:
372,224,207790,5,2,0:0:0:0:
205,73,207972,1,0,0:0:0:0:
205,273,208154,1,2,0:0:0:0:
399,109,208336,1,0,0:0:0:0:
79,248,208518,2,0,P|75:304|103:359,1,104.999996795654,10|0,0:0|0:0,0:0:0:0:
180,132,208881,6,0,L|105:141,1,75,2|0,0:0|0:0,0:0:0:0:
360,193,209245,2,0,L|285:184,1,75,2|0,0:0|0:0,0:0:0:0:
495,95,209609,2,0,L|420:104,1,75,10|0,0:0|0:0,0:0:0:0:
278,123,209972,2,0,P|250:187|283:275,1,157.499995193482,2|0,0:0|0:0,0:0:0:0:
295,283,210336,5,0,0:0:0:0:
372,200,210518,1,0,0:0:0:0:
421,279,210700,1,2,0:0:0:0:
498,231,210881,1,0,0:0:0:0:
487,38,211063,6,0,B|489:70|470:96|470:96|478:131|506:158|506:158|485:197|497:230,1,209.999993591309,2|0,0:0|0:0,0:0:0:0:
411,173,211615,1,0,0:0:0:0:
308,277,211799,2,0,P|382:259|411:189,1,157.499995193482,10|0,0:0|0:0,0:0:0:0:
329,195,212167,5,2,0:0:0:0:
205,328,212351,1,0,0:0:0:0:
202,104,212535,2,0,P|226:150|234:202,1,104.999996795654,2|0,0:0|0:0,0:0:0:0:
68,48,212903,2,0,B|127:65|150:32|150:32|183:13|228:27,1,157.499995193482,10|0,0:0|0:0,0:0:0:0:
389,46,213271,6,0,P|330:72|287:66,1,104.999996795654,2|0,0:0|0:0,0:0:0:0:
412,144,213639,2,0,P|463:141|509:165,1,104.999996795654,2|0,0:0|0:0,0:0:0:0:
257,292,214007,2,0,P|317:247|321:170,1,157.499995193482,10|0,0:0|0:0,0:0:0:0:
311,156,214375,5,2,0:0:0:0:
324,361,214559,1,8,0:0:0:0:
224,198,214743,1,0,0:0:0:0:
467,230,214928,1,8,0:0:0:0:
467,230,215020,1,8,0:0:0:0:
467,230,215112,2,0,P|419:274|319:284,1,157.499995193482,8|0,0:0|0:0,0:0:0:0:
236,220,215480,6,0,P|179:216|145:249,1,104.999996795654
128,337,215843,1,2,0:0:0:0:
152,142,216025,1,0,0:0:0:0:
117,348,216207,2,0,B|103:273|103:273|116:239,1,104.999996795654,10|0,0:0|0:0,0:0:0:0:
242,154,216570,5,2,0:0:0:0:
86,69,216752,2,0,L|202:56,1,104.999996795654,0|2,0:0|0:0,0:0:0:0:
273,123,217116,1,0,0:0:0:0:
340,175,217298,2,0,P|356:125|341:75,1,104.999996795654,10|0,0:0|0:0,0:0:0:0:
195,248,217661,6,0,B|225:273|265:272|300:250|300:250|321:264|321:264|359:244|407:266,1,209.999993591309,2|0,0:0|0:0,0:0:0:0:
246,184,218207,1,0,0:0:0:0:
279,75,218389,2,0,P|283:126|264:175,1,104.999996795654,8|0,0:0|0:0,0:0:0:0:
46,137,218752,2,0,B|159:109|159:109|200:118,1,157.499995193482
217,123,219116,5,8,0:0:0:0:
90,38,219298,1,8,0:0:0:0:
110,252,219480,2,0,P|164:234|108:229,1,157.499995193482,8|0,0:0|0:0,0:0:0:0:
33,253,219843,5,0,0:0:0:0:
248,206,220027,1,0,0:0:0:0:
184,342,220211,1,10,0:0:0:0:
206,117,220395,1,8,0:0:0:0:
314,290,220579,5,10,0:0:0:0:
326,206,220763,1,8,0:0:0:0:
432,293,220947,2,0,B|425:272|407:261|407:261|447:231|449:163|416:122,1,180,2|0,0:0|0:0,0:0:0:0:
413,120,221315,5,10,0:0:0:0:
220,92,221499,1,8,0:0:0:0:
321,51,221683,1,10,0:0:0:0:
212,98,221867,1,8,0:0:0:0:
336,175,222051,6,0,B|371:177|394:204|394:204|401:172|429:156,1,120,2|0,0:0|0:0,0:0:0:0:
332,261,222419,2,0,L|205:281,1,120,2|8,0:0|0:0,0:0:0:0:
147,191,222787,2,0,B|151:234|151:234|138:269|138:269|144:311,1,120,2|0,0:0|0:0,0:0:0:0:
215,363,223150,6,0,P|297:387|355:324,1,180,2|0,0:0|0:0,0:0:0:0:
359,307,223514,1,0,0:0:0:0:
299,203,223696,1,0,0:0:0:0:
362,130,223877,1,0,0:0:0:0:
319,72,224059,1,0,0:0:0:0:
347,45,224241,5,0,0:0:0:0:
347,45,224425,1,0,0:0:0:0:
473,52,224609,2,0,P|457:92|460:160,1,104.999996795654,2|0,0:0|0:0,0:0:0:0:
512,221,224977,1,2,0:0:0:0:
301,147,225161,1,0,0:0:0:0:
212,221,225345,6,0,P|273:268|351:256,1,157.499995193482,2|0,0:0|0:0,0:0:0:0:
421,161,225713,1,10,0:0:0:0:
418,140,225805,1,8,0:0:0:0:
415,119,225897,1,8,0:0:0:0:
265,310,226081,5,2,0:0:0:0:
463,243,226265,1,0,0:0:0:0:
153,273,226449,2,0,P|166:319|168:368,1,97.4999955368044,2|0,0:0|0:0,0:0:0:0:
282,71,226812,5,8,0:0:0:0:
34,237,226994,1,0,0:0:0:0:
312,255,227176,1,8,0:0:0:0:
72,59,227358,1,0,0:0:0:0:
145,349,227539,5,10,0:0:0:0:
256,192,227629,12,0,228539,0:0:0:0:
193,139,228629,6,0,B|199:88|157:62|157:62|206:29|307:55|342:166|261:273|146:247|104:158|104:158|40:192|40:192|55:255|100:300|181:318|248:310|281:290,1,862.5,4|0,0:0|0:0,0:0:0:0:
281,291,230303,1,0,0:0:0:0:
419,146,230582,2,0,L|364:159,1,56.25
341,167,230861,6,0,B|300:171|257:139|257:139|227:193|192:197|192:197|73:209|81:52|246:78|193:197|193:197|187:244|154:254|154:254|157:277|141:303,1,562.5,4|0,0:0|0:0,0:0:0:0:
135,315,231977,6,0,B|179:292|212:308|212:308|251:327|296:302,1,150,8|0,0:0|0:0,0:0:0:0:
318,142,232396,2,0,P|249:163|237:234,1,150,8|0,0:0|0:0,0:0:0:0:
166,164,232815,2,0,B|122:162|122:162|93:174|93:174|42:174,1,112.5,8|0,0:0|0:0,0:0:0:0:
8,248,233094,6,0,L|28:366,1,89.9999972534181
252,259,233373,1,0,0:0:0:0:
99,286,233512,1,0,0:0:0:0:
237,363,233652,2,0,P|262:326|266:282,1,89.9999972534181,8|0,0:0|0:0,0:0:0:0:
126,143,233931,5,0,0:0:0:0:
200,188,234070,2,0,L|298:178,1,89.9999972534181
398,68,234349,1,8,0:0:0:0:
402,181,234489,2,0,P|388:128|389:89,1,89.9999972534181
481,262,234768,5,8,0:0:0:0:
285,125,234908,1,8,0:0:0:0:
498,30,235047,1,8,0:0:0:0:
277,276,235187,1,8,0:0:0:0:
146,48,235326,6,0,P|155:86|151:134,2,75,2|0|0,0:0|0:0|0:0,0:0:0:0:
280,183,235745,2,0,B|233:163|203:186|203:186|175:207|135:200,1,150,2|0,0:0|0:0,0:0:0:0:
37,160,236163,1,2,0:0:0:0:
104,307,236303,1,2,0:0:0:0:
193,83,236442,6,0,B|250:84|250:84|274:70|274:70|297:87|297:87|360:93,1,157.499995193482,2|0,0:0|0:0,0:0:0:0:
357,95,236722,1,8,0:0:0:0:
108,231,236861,2,0,B|110:178|110:178|115:165|115:165|115:86|115:86|116:125|146:149,1,209.999993591309,2|0,0:0|0:0,0:0:0:0:
191,265,237280,2,0,P|137:319|61:312,1,157.499995193482,2|0,0:0|0:0,0:0:0:0:
32,302,237559,6,0,L|103:289,1,56.2500021457673,2|0,0:0|0:0,0:0:0:0:
363,339,237698,2,0,L|307:330,1,56.2500021457673,2|0,0:0|0:0,0:0:0:0:
218,106,237838,1,10,0:0:0:0:
129,355,237977,1,2,0:0:0:0:
119,36,238117,1,2,0:0:0:0:
285,223,238256,1,2,0:0:0:0:
8,174,238396,5,10,0:0:0:0:
52,165,238466,1,2,0:0:0:0:
95,157,238535,1,2,0:0:0:0:
139,149,238605,1,2,0:0:0:0:
183,141,238675,2,0,L|177:218,1,56.2500021457673,2|0,0:0|0:0,0:0:0:0:
282,359,238815,2,0,L|287:295,1,56.2500021457673,2|0,0:0|0:0,0:0:0:0:
370,102,238954,5,10,0:0:0:0:
201,291,239094,1,2,0:0:0:0:
215,15,239233,1,2,0:0:0:0:
190,53,239303,1,2,0:0:0:0:
181,97,239373,1,2,0:0:0:0:
183,141,239442,1,2,0:0:0:0:
205,180,239512,5,10,0:0:0:0:
87,35,239652,1,2,0:0:0:0:
127,341,239791,2,0,P|115:308|118:272,1,56.2500021457673,2|0,0:0|0:0,0:0:0:0:
280,145,239931,2,0,P|292:178|289:214,1,56.2500021457673,2|0,0:0|0:0,0:0:0:0:
29,160,240070,5,10,0:0:0:0:
73,165,240140,1,2,0:0:0:0:
117,170,240210,1,2,0:0:0:0:
161,175,240280,1,2,0:0:0:0:
205,180,240349,5,2,0:0:0:0:
55,64,240489,1,2,0:0:0:0:
88,317,240628,2,0,L|81:251,1,56.2500021457673,10|0,0:0|0:0,0:0:0:0:
288,67,240768,2,0,L|281:133,1,56.2500021457673,2|0,0:0|0:0,0:0:0:0:
346,360,240908,5,2,0:0:0:0:
450,135,241047,1,2,0:0:0:0:
207,268,241187,1,10,0:0:0:0:
502,326,241326,1,2,0:0:0:0:
340,114,241466,5,2,0:0:0:0:
279,329,241605,1,2,0:0:0:0:
204,32,241745,1,10,0:0:0:0:
343,235,241884,1,2,0:0:0:0:
74,124,242024,6,0,B|134:126|134:126|181:150|181:150|254:154,1,168.750006437302,2|0,0:0|0:0,0:0:0:0:
257,155,242303,1,10,0:0:0:0:
197,66,242442,1,2,0:0:0:0:
265,238,242582,1,0,0:0:0:0:
214,52,242722,1,2,0:0:0:0:
191,337,242861,5,10,0:0:0:0:
151,134,243001,2,0,B|120:165|123:215|164:240|164:240|156:250|156:250|192:264|199:308|190:322,1,225.000008583069,2|0,0:0|0:0,0:0:0:0:
45,95,243419,1,10,0:0:0:0:
328,282,243559,2,0,P|254:363|145:372,1,225.000008583069,2|0,0:0|0:0,0:0:0:0:
410,210,243977,6,0,P|421:238|425:288,1,56.2500021457673,10|0,0:0|0:0,0:0:0:0:
286,120,244117,2,0,P|290:92|301:66,1,56.2500021457673,2|0,0:0|0:0,0:0:0:0:
205,187,244256,2,0,P|141:206|89:187,1,112.500004291535,2|0,0:0|0:0,0:0:0:0:
69,68,244535,5,10,0:0:0:0:
152,322,244675,1,2,0:0:0:0:
225,84,244815,1,0,0:0:0:0:
45,271,244954,1,2,0:0:0:0:
305,254,245094,1,2,0:0:0:0:
82,78,245233,2,0,L|168:75,1,56.2500021457673,8|0,0:0|0:0,0:0:0:0:
354,64,245373,5,8,0:0:0:0:
349,91,245442,1,8,0:0:0:0:
344,118,245512,1,8,0:0:0:0:
298,365,245652,6,0,P|300:318|284:242,1,112.500004291535
248,105,245931,2,0,L|236:168,1,56.2500021457673,8|0,0:0|0:0,0:0:0:0:
107,218,246070,2,0,L|119:281,1,56.2500021457673,8|0,0:0|0:0,0:0:0:0:
186,16,246210,1,8,0:0:0:0:
157,50,246280,1,8,0:0:0:0:
145,93,246349,1,8,0:0:0:0:
151,138,246419,1,8,0:0:0:0:
178,175,246489,5,10,0:0:0:0:
99,0,246628,1,0,0:0:0:0:
0,195,246768,1,8,0:0:0:0:
236,88,246908,1,2,0:0:0:0:
79,77,247047,1,0,0:0:0:0:
301,188,247187,1,0,0:0:0:0:
89,93,247326,5,8,0:0:0:0:
311,179,247466,2,0,B|344:207|343:244|343:244|286:279|276:341|296:383,1,225.000008583069,2|0,0:0|0:0,0:0:0:0:
440,299,247884,1,8,0:0:0:0:
202,235,248024,1,0,0:0:0:0:
419,160,248163,5,0,0:0:0:0:
261,355,248303,1,0,0:0:0:0:
113,228,248442,2,0,P|154:158|235:152,1,168.750006437302,8|0,0:0|0:0,0:0:0:0:
309,161,248722,2,0,P|261:135|240:84,1,112.500004291535,2|0,0:0|0:0,0:0:0:0:
414,126,249001,1,10,0:0:0:0:
187,296,249140,2,0,L|76:314,1,112.500004291535,2|0,0:0|0:0,0:0:0:0:
303,153,249419,2,0,B|311:189|311:189|303:221|303:221|316:273,1,112.500004291535,2|8,0:0|0:0,0:0:0:0:
274,356,249698,2,0,B|338:372|380:338|380:338|434:291|496:324,1,225.000008583069,2|0,0:0|0:0,0:0:0:0:
216,265,250117,5,10,0:0:0:0:
444,383,250256,1,2,0:0:0:0:
424,142,250396,1,0,0:0:0:0:
279,350,250535,1,0,0:0:0:0:
282,26,250675,2,0,B|311:72|311:72|306:205,1,168.750006437302,8|0,0:0|0:0,0:0:0:0:
306,209,250954,5,0,0:0:0:0:
280,196,251024,1,0,0:0:0:0:
246,188,251094,1,0,0:0:0:0:
207,194,251163,1,0,0:0:0:0:
174,225,251233,1,10,0:0:0:0:
128,247,251303,1,0,0:0:0:0:
71,240,251373,1,0,0:0:0:0:
36,189,251442,1,0,0:0:0:0:
45,121,251512,5,2,0:0:0:0:
76,174,251582,1,0,0:0:0:0:
81,230,251652,1,0,0:0:0:0:
68,279,251722,1,0,0:0:0:0:
38,312,251791,5,10,0:0:0:0:
64,302,251861,1,0,0:0:0:0:
92,302,251931,1,0,0:0:0:0:
119,309,252001,1,0,0:0:0:0:
139,327,252070,5,2,0:0:0:0:
178,349,252140,1,0,0:0:0:0:
223,349,252210,1,0,0:0:0:0:
263,328,252280,1,0,0:0:0:0:
284,289,252349,5,10,0:0:0:0:
309,258,252419,1,0,0:0:0:0:
345,242,252489,1,0,0:0:0:0:
384,242,252559,1,0,0:0:0:0:
417,261,252628,5,2,0:0:0:0:
388,226,252698,1,0,0:0:0:0:
373,177,252768,1,0,0:0:0:0:
384,121,252838,1,0,0:0:0:0:
424,73,252908,2,0,P|372:106|275:64,1,168.750006437302,10|0,0:0|0:0,0:0:0:0:
273,38,253187,5,2,0:0:0:0:
452,175,253326,1,2,0:0:0:0:
294,213,253466,1,10,0:0:0:0:
350,89,253605,1,2,0:0:0:0:
403,306,253745,5,10,0:0:0:0:
241,124,253884,1,10,0:0:0:0:
496,84,254024,1,10,0:0:0:0:
229,309,254163,2,0,L|306:295,1,78.7499975967408,14|0,0:0|0:0,0:0:0:0:
272,377,254722,5,0,0:0:0:0:
272,377,254861,1,2,0:0:0:0:
405,221,255001,1,2,0:0:0:0:
185,222,255140,1,2,0:0:0:0:
456,310,255280,1,2,0:0:0:0:
64,220,255419,6,0,B|104:195|104:195|168:204,1,104.999996795654,6|0,0:0|0:0,0:0:0:0:
323,250,255698,1,8,0:0:0:0:
144,111,255838,1,0,0:0:0:0:
404,97,255977,1,0,0:0:0:0:
213,293,256117,1,0,0:0:0:0:
309,134,256256,6,0,P|332:180|325:231,1,104.999996795654,10|0,0:0|0:0,0:0:0:0:
199,64,256535,2,0,B|252:60|252:60|257:55|257:55|313:51,1,104.999996795654,2|0,0:0|0:0,0:0:0:0:
119,21,256815,1,10,0:0:0:0:
406,0,256954,2,0,B|434:73|401:116|401:116|372:160|385:220,1,209.999993591309,2|0,0:0|0:0,0:0:0:0:
429,378,257373,2,0,P|438:327|414:281,1,104.999996795654,10|0,0:0|0:0,0:0:0:0:
174,356,257652,5,2,0:0:0:0:
360,335,257791,1,0,0:0:0:0:
216,159,257931,1,8,0:0:0:0:
237,381,258070,1,0,0:0:0:0:
429,275,258210,5,0,0:0:0:0:
124,211,258349,1,0,0:0:0:0:
403,84,258489,2,0,P|363:115|311:115,1,104.999996795654,10|0,0:0|0:0,0:0:0:0:
209,30,258768,2,0,B|203:80|203:80|199:89|199:89|192:150,1,104.999996795654,2|0,0:0|0:0,0:0:0:0:
44,124,259047,2,0,B|50:174|50:174|54:183|54:183|61:244,1,104.999996795654,10|0,0:0|0:0,0:0:0:0:
261,204,259326,2,0,B|211:210|211:210|202:214|202:214|141:221,1,104.999996795654,2|0,0:0|0:0,0:0:0:0:
167,369,259605,2,0,B|117:363|117:363|108:359|108:359|47:352,1,104.999996795654,10|0,0:0|0:0,0:0:0:0:
166,225,259884,5,2,0:0:0:0:
324,372,260024,1,0,0:0:0:0:
368,148,260163,1,8,0:0:0:0:
246,324,260303,1,0,0:0:0:0:
338,66,260442,2,0,P|388:57|431:85,1,104.999996795654,2|0,0:0|0:0,0:0:0:0:
430,251,260722,5,8,0:0:0:0:
334,79,260861,1,0,0:0:0:0:
265,222,261001,2,0,B|325:245|370:197|370:197|411:157|469:176,1,209.999993591309,2|8,0:0|0:0,0:0:0:0:
210,151,261419,1,0,0:0:0:0:
189,260,261559,2,0,P|216:209|213:146,1,104.999996795654,2|0,0:0|0:0,0:0:0:0:
98,32,261838,2,0,B|114:76|114:76|105:127|105:127|126:183,1,157.499995193482,10|0,0:0|0:0,0:0:0:0:
134,193,262117,5,2,0:0:0:0:
251,35,262256,1,0,0:0:0:0:
400,145,262396,2,0,B|410:183|410:183|380:261,1,104.999996795654,8|0,0:0|0:0,0:0:0:0:
347,339,262675,5,0,0:0:0:0:
333,82,262815,1,0,0:0:0:0:
173,212,262954,2,0,B|207:202|230:212|230:212|255:226|285:217,1,104.999996795654,10|0,0:0|0:0,0:0:0:0:
94,168,263233,2,0,P|87:248|149:303,1,157.499995193482,2|0,0:0|0:0,0:0:0:0:
138,300,263512,1,8,0:0:0:0:
113,68,263652,2,0,B|66:72|66:72|52:78|52:78|-2:85,1,104.999996795654,0|0,0:0|0:0,0:0:0:0:
229,126,263931,5,0,0:0:0:0:
229,126,264070,2,0,B|279:131|279:131|289:127|289:127|332:131,1,104.999996795654,8|0,0:0|0:0,0:0:0:0:
433,154,264349,6,0,P|405:198|341:222,1,104.999996795654
392,53,264628,1,10,0:0:0:0:
323,346,264768,1,2,0:0:0:0:
272,64,264908,1,2,0:0:0:0:
486,228,265047,1,2,0:0:0:0:
187,325,265187,1,10,0:0:0:0:
505,124,265326,2,0,B|475:154|431:155|406:128|406:128|400:134|400:134|374:110|330:114|294:146,1,209.999993591309,2|0,0:0|0:0,0:0:0:0:
174,315,265745,6,0,L|153:190,1,104.999996795654,10|0,0:0|0:0,0:0:0:0:
235,46,266024,2,0,L|214:171,1,104.999996795654,2|0,0:0|0:0,0:0:0:0:
187,325,266303,2,0,B|237:310|237:310|269:333|269:333|301:322|350:341,1,157.499995193482,10|0,0:0|0:0,0:0:0:0:
420,261,266582,2,0,L|429:374,1,104.999996795654,2|0,0:0|0:0,0:0:0:0:
330,125,266861,2,0,L|321:20,1,104.999996795654,10|0,0:0|0:0,0:0:0:0:
489,202,267140,2,0,P|452:168|398:169,1,104.999996795654,2|0,0:0|0:0,0:0:0:0:
325,234,267419,1,10,0:0:0:0:
445,68,267559,1,2,0:0:0:0:
232,222,267698,6,0,B|238:269|238:269|242:275|242:275|247:334,1,104.999996795654,2|0,0:0|0:0,0:0:0:0:
111,151,267977,2,0,B|115:100|115:100|119:94|119:94|125:47,1,104.999996795654,10|0,0:0|0:0,0:0:0:0:
342,200,268256,2,0,P|292:230|239:223,1,104.999996795654,2|0,0:0|0:0,0:0:0:0:
416,113,268535,2,8,P|467:111|510:139,1,104.999996795654,10|0,0:0|0:0,0:0:0:0:
389,279,268815,5,0,0:0:0:0:
350,47,268954,1,0,0:0:0:0:
155,157,269094,2,0,L|275:141,1,104.999996795654,8|0,0:0|0:0,0:0:0:0:
87,37,269373,1,0,0:0:0:0:
76,243,269512,2,0,B|71:194|71:194|75:187|75:187|69:135,1,104.999996795654,0|8,0:0|0:0,0:0:0:0:
216,242,269791,5,0,0:0:0:0:
365,95,269931,1,0,0:0:0:0:
389,300,270070,1,0,0:0:0:0:
234,125,270210,1,10,0:0:0:0:
300,323,270349,1,0,0:0:0:0:
454,171,270489,1,2,0:0:0:0:
194,278,270628,1,0,0:0:0:0:
285,57,270768,5,10,0:0:0:0:
436,237,270908,1,0,0:0:0:0:
66,157,271047,6,0,L|186:144,1,104.999996795654,2|0,0:0|0:0,0:0:0:0:
326,130,271326,2,0,B|414:122|414:122|395:155,1,104.999996795654,10|0,0:0|0:0,0:0:0:0:
197,252,271605,2,0,L|180:143,1,104.999996795654,2|0,0:0|0:0,0:0:0:0:
273,69,271884,1,10,0:0:0:0:
237,337,272024,1,2,0:0:0:0:
0,205,272163,6,2,L|124:212,1,104.999996795654,2|0,0:0|0:0,0:0:0:0:
361,224,272442,1,10,0:0:0:0:
90,291,272582,1,8,0:0:0:0:
90,291,272652,1,8,0:0:0:0:
90,291,272722,5,10,0:0:0:0:
346,150,272861,1,8,0:0:0:0:
52,102,273001,1,10,0:0:0:0:
344,309,273140,1,8,0:0:0:0:
211,68,273280,5,6,0:0:0:0:
211,68,273419,1,0,0:0:0:0:
39,189,273559,2,0,B|90:183|90:183|99:178|99:178|154:171,1,104.999996795654,10|0,0:0|0:0,0:0:0:0:
303,224,273838,5,0,0:0:0:0:
305,234,273977,1,0,0:0:0:0:
455,356,274117,2,0,B|404:350|404:350|395:345|395:345|340:338,1,104.999996795654,8|0,0:0|0:0,0:0:0:0:
228,367,274396,5,0,0:0:0:0:
436,253,274535,1,0,0:0:0:0:
191,115,274675,6,0,P|180:165|191:217,1,104.999996795654,10|0,0:0|0:0,0:0:0:0:
104,359,274954,2,0,P|114:307|103:256,1,104.999996795654,2|0,0:0|0:0,0:0:0:0:
84,29,275233,2,0,B|153:38|153:38|184:30|184:30|256:45,1,157.499995193482,10|0,0:0|0:0,0:0:0:0:
261,46,275512,1,2,0:0:0:0:
43,115,275652,1,0,0:0:0:0:
269,225,275791,2,0,P|295:180|291:129,1,104.999996795654,10|0,0:0|0:0,0:0:0:0:
160,341,276070,6,0,B|209:337|209:337|216:341|216:341|281:338,1,104.999996795654,2|0,0:0|0:0,0:0:0:0:
354,160,276349,2,0,B|343:178|351:200|351:200|372:229|359:273,1,104.999996795654,10|0,0:0|0:0,0:0:0:0:
258,143,276628,2,0,L|249:38,1,104.999996795654,2|0,0:0|0:0,0:0:0:0:
399,54,276908,1,10,0:0:0:0:
150,236,277047,2,0,B|208:218|208:218|278:233|278:233|368:214,1,209.999993591309
437,186,277466,1,10,0:0:0:0:
213,298,277605,1,0,0:0:0:0:
410,312,277745,5,2,0:0:0:0:
276,156,277884,1,0,0:0:0:0:
152,360,278024,2,2,P|132:308|139:257,1,104.999996795654,10|2,0:0|0:0,0:0:0:0:
295,250,278303,5,0,0:0:0:0:
175,111,278442,1,0,0:0:0:0:
339,79,278582,2,0,B|288:81|288:81|237:112|237:112|175:116,1,157.499995193482,8|0,0:0|0:0,0:0:0:0:
82,53,278861,2,0,P|97:102|99:155,1,104.999996795654
64,278,279140,6,0,P|99:315|150:328,1,104.999996795654,10|0,0:0|0:0,0:0:0:0:
348,191,279419,2,0,P|297:204|261:241,1,104.999996795654,2|0,0:0|0:0,0:0:0:0:
362,368,279698,2,0,P|336:323|338:272,1,104.999996795654,10|0,0:0|0:0,0:0:0:0:
430,100,279977,2,0,B|377:104|377:104|348:94|348:94|321:111|321:111|277:115,1,157.499995193482,2|0,0:0|0:0,0:0:0:0:
205,68,280256,6,0,P|188:116|207:164,1,104.999996795654,10|0,0:0|0:0,0:0:0:0:
286,230,280535,2,0,B|284:284|284:284|288:292|288:292|287:334,1,104.999996795654,2|0,0:0|0:0,0:0:0:0:
374,177,280815,1,10,0:0:0:0:
206,325,280954,1,2,0:0:0:0:
454,338,281094,6,0,P|408:376|303:342,1,157.499995193482,2|0,0:0|0:0,0:0:0:0:
301,342,281373,1,8,0:0:0:0:
374,177,281512,2,0,P|359:226|375:276,1,104.999996795654
469,222,281791,1,0,0:0:0:0:
215,63,281931,6,0,B|242:90|301:88|327:55|327:55|341:79|321:112,1,180,8|0,0:0|0:0,0:0:0:0:
273,189,282210,2,0,P|324:195|373:177,1,104.999996795654,2|0,0:0|0:0,0:0:0:0:
160,145,282489,1,10,0:0:0:0:
159,326,282628,1,2,0:0:0:0:
156,315,282768,5,0,0:0:0:0:
269,104,282908,1,0,0:0:0:0:
319,346,283047,1,8,0:0:0:0:
93,222,283187,1,0,0:0:0:0:
399,106,283326,6,0,B|361:105|361:105|328:114|328:114|273:112,1,104.999996795654
479,65,283605,2,0,P|491:115|470:162,1,104.999996795654,10|0,0:0|0:0,0:0:0:0:
222,167,283884,2,0,P|201:120|214:70,1,104.999996795654,2|0,0:0|0:0,0:0:0:0:
312,287,284163,2,0,B|233:269|233:269|200:286,1,104.999996795654,10|0,0:0|0:0,0:0:0:0:
395,329,284442,5,2,0:0:0:0:
356,151,284582,1,2,0:0:0:0:
307,378,284722,1,10,0:0:0:0:
426,218,284861,2,0,B|425:181|443:168|443:168|448:138|433:107,1,104.999996795654,2|0,0:0|0:0,0:0:0:0:
183,137,285140,2,0,P|227:110|279:111,1,104.999996795654,0|8,0:0|0:0,0:0:0:0:
159,276,285419,1,0,0:0:0:0:
109,73,285559,6,0,B|97:108|97:108|104:175,1,104.999996795654
378,254,285838,2,0,B|312:237|270:271|270:271|231:303|168:288,1,209.999993591309,10|0,0:0|0:0,0:0:0:0:
452,307,286256,1,2,0:0:0:0:
452,307,286396,2,0,P|470:264|459:203,1,104.999996795654,8|0,0:0|0:0,0:0:0:0:
492,97,286675,6,0,P|426:122|337:22,1,209.999993591309,2|8,0:0|0:0,0:0:0:0:
217,188,287094,2,0,B|250:220|289:211|289:211|313:178|344:176|344:176|369:195|412:192,1,209.999993591309,2|0,0:0|0:0,0:0:0:0:
163,126,287512,2,0,B|150:94|156:72|156:72|165:50|149:16,1,104.999996795654,10|0,0:0|0:0,0:0:0:0:
69,150,287791,6,0,B|92:189|78:228|78:228|65:268|90:320,1,157.499995193482
138,361,288070,2,0,P|190:370|244:336,1,104.999996795654,10|0,0:0|0:0,0:0:0:0:
300,258,288349,2,0,P|345:233|396:242,1,104.999996795654,2|0,0:0|0:0,0:0:0:0:
229,201,288628,2,0,B|211:158|234:129|234:129|225:110|225:110|244:75|231:38,1,157.499995193482,10|0,0:0|0:0,0:0:0:0:
216,30,288908,6,0,P|253:65|305:70,1,104.999996795654,2|0,0:0|0:0,0:0:0:0:
386,26,289187,1,8,0:0:0:0:
144,111,289326,2,0,P|80:189|95:290,1,209.999993591309,2|0,0:0|0:0,0:0:0:0:
211,370,289745,2,0,B|186:355|174:329|174:329|165:352|135:370,1,104.999996795654,10|0,0:0|0:0,0:0:0:0:
322,304,290024,5,10,0:0:0:0:
294,139,290163,1,0,0:0:0:0:
294,139,290303,1,2,0:0:0:0:
370,219,290442,5,8,0:0:0:0:
398,54,290581,1,2,0:0:0:0:
398,54,290721,1,0,0:0:0:0:
198,111,290861,2,0,L|205:183,1,52.4999983978272,10|0,0:0|0:0,0:0:0:0:
465,200,291001,2,0,L|458:272,1,52.4999983978272,8|0,0:0|0:0,0:0:0:0:
282,291,291140,6,0,B|250:283|250:283|217:288|217:288|162:277,1,104.999996795654,2|0,0:0|0:0,0:0:0:0:
72,174,291419,1,8,0:0:0:0:
123,364,291559,1,0,0:0:0:0:
297,191,291698,1,0,0:0:0:0:
16,286,291838,1,0,0:0:0:0:
341,264,291977,1,10,0:0:0:0:
112,83,292117,1,0,0:0:0:0:
410,173,292256,6,0,L|287:167,1,104.999996795654,2|0,0:0|0:0,0:0:0:0:
183,229,292535,1,10,0:0:0:0:
0,151,292675,2,0,B|65:128|65:128|146:151|146:151|212:129,1,209.999993591309,2|0,0:0|0:0,0:0:0:0:
295,0,293094,2,0,L|288:121,1,104.999996795654,10|0,0:0|0:0,0:0:0:0:
285,208,293373,5,2,0:0:0:0:
405,84,293512,1,0,0:0:0:0:
199,149,293652,1,8,0:0:0:0:
446,162,293791,1,0,0:0:0:0:
204,266,293931,1,0,0:0:0:0:
300,54,294070,1,0,0:0:0:0:
121,228,294210,2,0,P|109:278|125:328,1,104.999996795654,10|0,0:0|0:0,0:0:0:0:
200,114,294489,6,0,B|127:119|127:119|156:102,1,104.999996795654,2|0,0:0|0:0,0:0:0:0:
300,190,294768,2,0,B|373:195|373:195|344:178,1,104.999996795654,10|0,0:0|0:0,0:0:0:0:
275,0,295047,2,0,P|266:55|288:104,1,104.999996795654,2|0,0:0|0:0,0:0:0:0:
487,284,295326,2,0,L|317:276,1,157.499995193482,10|0,0:0|0:0,0:0:0:0:
240,267,295605,5,2,0:0:0:0:
385,202,295745,1,0,0:0:0:0:
210,152,295884,2,0,L|225:267,1,104.999996795654,8|0,0:0|0:0,0:0:0:0:
242,362,296163,5,2,0:0:0:0:
299,175,296303,1,0,0:0:0:0:
63,324,296442,2,0,L|184:314,1,104.999996795654,8|0,0:0|0:0,0:0:0:0:
91,121,296722,6,0,B|99:163|99:163|93:180|93:180|104:240,2,104.999996795654,2|0|8,0:0|0:0|0:0,0:0:0:0:
157,48,297140,1,0,0:0:0:0:
251,104,297280,2,0,B|319:82|319:82|357:87,1,104.999996795654,2|0,0:0|0:0,0:0:0:0:
213,258,297559,2,0,P|184:215|188:163,1,104.999996795654,10|0,0:0|0:0,0:0:0:0:
466,215,297838,6,0,B|415:200|415:200|332:212|332:212|262:194,1,209.999993591309,2|8,0:0|0:0,0:0:0:0:
408,295,298256,1,0,0:0:0:0:
332,129,298396,1,0,0:0:0:0:
332,129,298535,1,0,0:0:0:0:
247,352,298675,2,0,P|227:276|243:199,1,157.499995193482,10|0,0:0|0:0,0:0:0:0:
252,182,298954,5,0,0:0:0:0:
124,325,299094,1,0,0:0:0:0:
390,227,299233,1,8,0:0:0:0:
135,128,299373,2,0,P|238:135|327:81,1,209.999993591309
47,9,299791,2,0,B|79:48|61:89|61:89|41:126|52:165,1,157.499995193482,8|0,0:0|0:0,0:0:0:0:
111,257,300070,5,0,0:0:0:0:
111,257,300210,1,0,0:0:0:0:
178,62,300349,1,10,0:0:0:0:
210,306,300489,1,2,0:0:0:0:
50,158,300628,1,2,0:0:0:0:
325,189,300768,1,2,0:0:0:0:
119,348,300908,1,10,0:0:0:0:
289,99,301047,6,0,L|400:108,2,104.999996795654,2|0|0,0:0|0:0|0:0,0:0:0:0:
158,71,301466,2,0,B|168:124|168:124|163:149|163:149|175:197,1,120,10|0,0:0|0:0,0:0:0:0:
402,190,301745,2,0,B|392:243|392:243|397:268|397:268|385:316,1,120,2|0,0:0|0:0,0:0:0:0:
110,278,302024,2,0,B|150:269|150:269|175:274|175:274|228:264,1,120,10|0,0:0|0:0,0:0:0:0:
394,97,302303,6,0,P|337:120|313:182,1,120,2|0,0:0|0:0,0:0:0:0:
150,50,302582,2,0,B|236:54|236:54|204:31,1,120,10|0,0:0|0:0,0:0:0:0:
65,211,302861,2,0,L|50:91,1,120,2|0,0:0|0:0,0:0:0:0:
165,145,303140,1,10,0:0:0:0:
137,356,303280,1,2,0:0:0:0:
304,138,303419,6,0,B|269:127|239:140|239:140|211:153|163:138,1,120,2|0,0:0|0:0,0:0:0:0:
372,249,303698,2,0,B|407:238|436:251|436:251|465:264|513:249,1,120,10|0,0:0|0:0,0:0:0:0:
242,384,303977,2,0,P|222:318|248:267,1,120,2|0,0:0|0:0,0:0:0:0:
404,147,304256,2,0,P|469:107|467:8,1,180,10|0,0:0|0:0,0:0:0:0:
455,4,304535,5,2,0:0:0:0:
469,226,304675,1,0,0:0:0:0:
275,143,304815,2,0,B|277:186|277:186|296:223|296:223|294:258,1,120,8|0,0:0|0:0,0:0:0:0:
272,348,305094,5,0,0:0:0:0:
330,79,305233,1,0,0:0:0:0:
103,253,305373,2,0,P|158:271|215:254,1,120,8|0,0:0|0:0,0:0:0:0:
58,138,305652,5,0,0:0:0:0:
128,373,305791,1,0,0:0:0:0:
255,124,305931,1,10,0:0:0:0:
28,324,306070,1,0,0:0:0:0:
180,49,306210,6,0,B|222:64|269:42|269:42|313:69,1,120,2|0,0:0|0:0,0:0:0:0:
487,133,306489,2,0,B|398:140|398:140|371:123,1,120,10|0,0:0|0:0,0:0:0:0:
103,115,306768,2,0,P|127:169|124:228,1,120,2|0,0:0|0:0,0:0:0:0:
194,383,307047,2,0,P|190:323|215:269,1,120,10|0,0:0|0:0,0:0:0:0:
371,164,307326,6,0,B|296:181|296:181|250:167,1,120,2|0,0:0|0:0,0:0:0:0:
168,118,307605,1,10,0:0:0:0:
425,237,307745,1,10,0:0:0:0:
68,261,307884,6,0,L|65:177,1,67.4999979400635,10|0,0:0|0:0,0:0:0:0:
238,40,308024,2,8,L|241:124,1,67.4999979400635,8|0,0:0|0:0,0:0:0:0:
54,283,308163,1,10,0:0:0:0:
254,26,308303,1,8,0:0:0:0:
83,99,308442,5,10,0:0:0:0:
359,168,308582,1,8,0:0:0:0:
189,346,308722,1,2,0:0:0:0:
184,68,308861,1,0,0:0:0:0:
342,274,309001,5,6,0:0:0:0:
148,244,309140,1,0,0:0:0:0:
420,235,309280,2,0,P|426:284|395:350,1,120,8|2,0:0|0:0,0:0:0:0:
223,132,309559,5,0,0:0:0:0:
169,354,309698,1,0,0:0:0:0:
96,108,309838,2,0,B|191:96|191:96|225:121,1,120,8|0,0:0|0:0,0:0:0:0:
279,209,310117,5,0,0:0:0:0:
259,31,310256,1,0,0:0:0:0:
284,221,310396,2,0,P|334:250|391:237,1,120,10|0,0:0|0:0,0:0:0:0:
242,134,310675,2,0,P|191:104|134:117,1,120,2|0,0:0|0:0,0:0:0:0:
347,139,310954,2,0,B|362:98|362:98|353:58|353:58|369:13,1,120,10|0,0:0|0:0,0:0:0:0:
488,343,311233,6,0,P|437:315|379:324,1,120,2|0,0:0|0:0,0:0:0:0:
286,384,311512,2,0,P|227:392|176:364,1,120,10|0,0:0|0:0,0:0:0:0:
165,139,311791,2,0,B|167:184|167:184|151:218|151:218|153:262,1,120,2|0,0:0|0:0,0:0:0:0:
70,34,312070,2,0,B|68:79|68:79|84:113|84:113|82:157,1,120,10|0,0:0|0:0,0:0:0:0:
369,74,312349,6,0,L|237:63,1,120,2|0,0:0|0:0,0:0:0:0:
41,245,312628,2,0,L|173:234,1,120,10|0,0:0|0:0,0:0:0:0:
426,204,312908,1,2,0:0:0:0:
209,135,313047,1,0,0:0:0:0:
478,39,313187,6,0,P|496:125|442:194,1,180,10|0,0:0|0:0,0:0:0:0:
350,235,313466,2,0,P|341:293|358:350,1,120,2|0,0:0|0:0,0:0:0:0:
440,383,313745,1,10,0:0:0:0:
243,302,313884,1,2,0:0:0:0:
389,150,314024,6,0,B|342:146|342:146|329:151|329:151|269:145,2,120,0|0|8,0:0|0:0|0:0,0:0:0:0:
194,64,314442,1,0,0:0:0:0:
80,154,314582,2,0,P|76:213|112:272,1,120
314,311,314861,6,0,B|279:288|279:288|197:294,1,120,10|0,0:0|0:0,0:0:0:0:
356,229,315140,2,0,P|369:171|355:114,1,120,2|0,0:0|0:0,0:0:0:0:
168,72,315419,2,0,P|224:95|299:17,1,180,10|0,0:0|0:0,0:0:0:0:
225,18,315698,2,0,B|218:56|218:56|248:152,1,120,2|0,0:0|0:0,0:0:0:0:
268,239,315977,1,10,0:0:0:0:
135,166,316117,1,0,0:0:0:0:
345,187,316256,6,0,P|361:243|341:299,1,120
254,346,316535,1,10,0:0:0:0:
290,91,316675,1,2,0:0:0:0:
450,133,316815,1,0,0:0:0:0:
246,188,316954,1,0,0:0:0:0:
451,36,317094,1,8,0:0:0:0:
182,342,317233,2,0,B|170:297|186:261|186:261|186:230|159:200|159:200|179:161|159:99,1,240
63,78,317652,6,0,P|148:77|188:1,1,180,8|0,0:0|0:0,0:0:0:0:
109,10,317931,2,0,P|53:-8|0:15,1,120,2|0,0:0|0:0,0:0:0:0:
181,150,318210,1,10,0:0:0:0:
293,13,318349,1,2,0:0:0:0:
293,13,318489,5,0,0:0:0:0:
302,244,318628,1,0,0:0:0:0:
43,164,318768,2,0,L|195:141,1,120,8|0,0:0|0:0,0:0:0:0:
282,129,319047,5,0,0:0:0:0:
111,69,319187,1,0,0:0:0:0:
374,12,319326,2,0,P|389:68|371:125,1,120,10|0,0:0|0:0,0:0:0:0:
459,184,319605,2,0,P|443:240|461:297,1,120,2|0,0:0|0:0,0:0:0:0:
296,66,319884,6,2,L|158:61,1,120,10|2,0:0|0:0,0:0:0:0:
86,36,320163,1,2,0:0:0:0:
211,182,320303,1,2,0:0:0:0:
33,133,320442,1,10,0:0:0:0:
173,260,320582,2,0,B|220:262|220:262|259:246|259:246|310:248,1,120,2|0,0:0|0:0,0:0:0:0:
470,228,320861,1,0,0:0:0:0:
411,297,321001,2,0,P|379:247|386:189,1,120,8|0,0:0|0:0,0:0:0:0:
512,91,321280,2,0,B|460:89|460:89|408:109|408:109|323:108,1,180
200,60,321559,6,0,B|201:118|209:138|209:138|208:153|208:153|224:246|224:246|216:212|185:201,1,240,10|0,0:0|0:0,0:0:0:0:
281,90,321977,1,0,0:0:0:0:
283,316,322117,2,8,P|226:332|170:314,1,120,10|0,0:0|0:0,0:0:0:0:
379,157,322396,5,2,0:0:0:0:
439,348,322535,1,0,0:0:0:0:
391,168,322675,2,0,L|261:172,1,120,8|2,0:0|0:0,0:0:0:0:
339,264,322954,5,0,0:0:0:0:
440,83,323094,1,0,0:0:0:0:
251,57,323233,2,0,B|268:90|268:90|261:131|261:131|273:179,1,120,10|0,0:0|0:0,0:0:0:0:
352,28,323512,1,0,0:0:0:0:
352,28,323652,1,0,0:0:0:0:
110,261,323791,6,0,L|243:249,1,120,10|0,0:0|0:0,0:0:0:0:
489,191,324070,2,0,L|356:179,1,120,2|0,0:0|0:0,0:0:0:0:
149,24,324349,2,0,B|148:89|148:89|144:112|144:112|145:171|145:171|171:125,1,180,10|0,0:0|0:0,0:0:0:0:
69,142,324628,6,0,P|73:210|175:251,1,180,2|0,0:0|0:0,0:0:0:0:
173,251,324908,1,8,0:0:0:0:
377,144,325047,2,0,B|344:133|319:150|319:150|292:172|255:158,1,120,2|0,0:0|0:0,0:0:0:0:
178,127,325326,1,2,0:0:0:0:
285,249,325466,1,10,0:0:0:0:
172,0,325605,1,2,0:0:0:0:
370,190,325745,6,0,P|315:213|258:199,1,120,2|0,0:0|0:0,0:0:0:0:
184,113,326024,2,0,P|126:99|72:122,1,120,10|0,0:0|0:0,0:0:0:0:
307,70,326303,1,2,0:0:0:0:
41,206,326442,2,0,P|45:255|59:302,1,97.4999955368044,2|8,0:0|0:0,0:0:0:0:
147,358,326722,1,2,0:0:0:0:
232,251,326861,6,0,B|276:244|302:271|302:271|336:298|383:287,1,150
437,216,327280,1,0,0:0:0:0:
362,88,327419,2,0,P|301:90|269:176,1,150,10|0,0:0|0:0,0:0:0:0:
213,34,327977,5,10,0:0:0:0:
135,203,328117,1,8,0:0:0:0:
93,33,328256,2,0,L|108:116,1,75,8|0,0:0|0:0,0:0:0:0:
172,298,328535,5,2,0:0:0:0:
228,142,328675,1,0,0:0:0:0:
4,280,328815,2,0,L|88:272,1,75,8|0,0:0|0:0,0:0:0:0:
320,252,329094,5,2,0:0:0:0:
320,252,329233,1,0,0:0:0:0:
266,59,329373,2,0,P|231:93|220:140,1,97.4999955368044,8|0,0:0|0:0,0:0:0:0:
358,185,329652,5,2,0:0:0:0:
358,185,329791,1,0,0:0:0:0:
160,211,329931,2,0,P|188:249|233:266,1,97.4999955368044,8|0,0:0|0:0,0:0:0:0:
130,93,330210,1,2,0:0:0:0:
130,93,330349,1,0,0:0:0:0:
216,41,330489,5,8,0:0:0:0:
66,207,330628,1,8,0:0:0:0:
28,4,330768,1,10,0:0:0:0:
192,158,330908,1,8,0:0:0:0:
11,257,331047,2,0,B|58:271|87:246|87:246|114:223|170:241,1,146.249993305207
170,242,331326,5,8,0:0:0:0:
97,41,331466,1,8,0:0:0:0:
292,326,331745,5,0,0:0:0:0:
415,41,331885,1,0,0:0:0:0:
184,65,332163,5,0,0:0:0:0:
474,144,332303,1,0,0:0:0:0:
109,291,333280,2,0,B|101:234|101:234|107:211|107:211|98:134,1,146.249993305207,2|0,0:0|0:0,0:0:0:0:
97,124,333559,5,8,0:0:0:0:
375,173,333698,1,8,0:0:0:0:
459,113,333977,5,8,0:0:0:0:
181,162,334116,1,8,0:0:0:0:
335,0,334396,5,8,0:0:0:0:
286,267,334535,1,8,0:0:0:0:
63,344,335791,5,8,0:0:0:0:
441,235,335931,1,8,0:0:0:0:
426,253,336210,5,8,0:0:0:0:
164,76,336350,1,8,0:0:0:0:
174,66,336628,5,8,0:0:0:0:
187,358,336768,1,8,0:0:0:0:
188,162,337187,6,0,P|228:171|292:148,1,97.4999955368044,2|0,0:0|0:0,0:0:0:0:
447,128,337466,2,0,P|411:107|343:114,1,97.4999955368044,2|0,0:0|0:0,0:0:0:0:
268,331,337745,2,0,P|299:308|312:250,1,95.6250018239022,2|0,0:0|0:0,0:0:0:0:
234,135,338024,6,0,B|252:64|308:69|308:69|313:56|313:56|308:69|308:69|341:117|311:173|311:173|321:190|321:190|296:218|312:280,1,337.500012874604,4|0,0:0|0:0,0:0:0:0:
310,339,338582,2,0,B|275:340|247:322|247:322|246:311|246:311|210:300|162:349|162:349|89:385|46:340|46:340|74:348|107:332,1,337.500012874604,4|0,0:0|0:0,0:0:0:0:
76,342,339140,1,0,0:0:0:0:
73,331,339419,1,0,0:0:0:0:
116,168,339698,1,0,0:0:0:0:
111,177,339977,1,0,0:0:0:0:
58,79,340256,6,0,B|121:45|170:80|170:80|226:117|292:87,1,225.000008583069,8|0,0:0|0:0,0:0:0:0:
389,37,340675,2,0,P|347:91|464:125,1,225.000008583069,8|0,0:0|0:0,0:0:0:0:
256,184,341094,1,8,0:0:0:0:
136,77,341512,5,0,0:0:0:0:
59,255,341652,2,0,P|37:188|52:135,1,112.500004291535,8|0,0:0|0:0,0:0:0:0:
208,151,341931,1,8,0:0:0:0:
42,35,342070,1,0,0:0:0:0:
315,63,342210,2,0,L|328:136,1,56.2500021457673,8|0,0:0|0:0,0:0:0:0:
156,234,342349,2,0,L|143:307,1,56.2500021457673
307,319,342489,6,0,B|245:326|245:326|184:365|184:365|105:372,1,194.999991073609,6|0,0:0|0:0,0:0:0:0:
374,378,342908,1,0,0:0:0:0:
265,176,343047,1,0,0:0:0:0:
265,176,343187,1,0,0:0:0:0:
434,108,343326,1,8,0:0:0:0:
190,253,343466,6,0,B|174:273|185:300|185:300|154:273|128:189|166:137,1,209.999993591309,2|0,0:0|0:0,0:0:0:0:
260,8,343884,2,0,P|217:37|166:34,1,104.999996795654,10|0,0:0|0:0,0:0:0:0:
309,103,344163,2,0,P|360:100|403:129,1,104.999996795654,2|0,0:0|0:0,0:0:0:0:
254,238,344442,2,2,P|223:195|221:144,1,104.999996795654,10|2,0:0|0:0,0:0:0:0:
183,351,344722,6,0,B|230:358|230:358|292:343|292:343|336:354,1,157.499995193482,2|0,0:0|0:0,0:0:0:0:
351,358,345001,1,8,0:0:0:0:
132,243,345140,1,0,0:0:0:0:
395,175,345280,1,0,0:0:0:0:
395,175,345419,1,0,0:0:0:0:
136,127,345559,5,8,0:0:0:0:
447,78,345698,2,0,P|357:25|254:27,1,209.999993591309,2|0,0:0|0:0,0:0:0:0:
231,216,346117,2,0,B|228:174|228:174|214:151|214:151|205:99,1,104.999996795654,10|0,0:0|0:0,0:0:0:0:
381,222,346396,2,0,B|378:264|378:264|364:287|364:287|355:339,1,104.999996795654,2|0,0:0|0:0,0:0:0:0:
206,355,346675,1,10,0:0:0:0:
330,128,346815,1,2,0:0:0:0:
31,51,346954,6,0,L|54:215,1,157.499995193482,2|0,0:0|0:0,0:0:0:0:
57,225,347233,1,8,0:0:0:0:
194,69,347373,1,0,0:0:0:0:
137,291,347512,1,0,0:0:0:0:
117,122,347652,1,0,0:0:0:0:
248,212,347791,1,8,0:0:0:0:
436,228,347931,6,0,B|366:235|339:188|339:188|349:246|306:287,1,209.999993591309,2|0,0:0|0:0,0:0:0:0:
304,77,348349,1,10,0:0:0:0:
391,311,348489,1,0,0:0:0:0:
435,151,348628,1,2,0:0:0:0:
201,151,348768,1,0,0:0:0:0:
83,46,348908,6,0,B|72:74|95:102|95:102|86:115|86:115|118:143|105:206,1,157.499995193482,10|0,0:0|0:0,0:0:0:0:
62,270,349187,2,0,P|112:281|161:265,1,104.999996795654,2|0,0:0|0:0,0:0:0:0:
197,126,349466,1,8,0:0:0:0:
177,355,349605,1,0,0:0:0:0:
294,144,349745,1,0,0:0:0:0:
91,111,349884,1,0,0:0:0:0:
301,271,350024,1,8,0:0:0:0:
43,337,350163,6,0,L|105:322,1,52.4999983978272,2|0,0:0|0:0,0:0:0:0:
301,271,350303,1,8,0:0:0:0:
301,271,350373,1,8,0:0:0:0:
301,271,350442,1,10,0:0:0:0:
194,113,350582,5,2,0:0:0:0:
194,113,350722,1,2,0:0:0:0:
321,18,350861,1,2,0:0:0:0:
250,194,351001,1,2,0:0:0:0:
504,107,351140,5,10,0:0:0:0:
457,112,351210,1,8,0:0:0:0:
410,117,351280,1,10,0:0:0:0:
364,123,351349,1,8,0:0:0:0:
317,129,351419,2,0,B|336:209|336:209|329:261|329:261|341:344,1,209.999993591309,10|8,0:0|0:0,0:0:0:0:
437,238,351838,5,0,0:0:0:0:
219,215,351977,1,0,0:0:0:0:
483,334,352117,1,0,0:0:0:0:
163,295,352256,1,8,0:0:0:0:
222,120,352396,2,0,P|134:170|140:272,1,209.999993591309,2|0,0:0|0:0,0:0:0:0:
215,352,352815,5,10,0:0:0:0:
28,195,352954,1,0,0:0:0:0:
300,213,353094,1,2,0:0:0:0:
68,329,353233,1,0,0:0:0:0:
182,117,353373,1,10,0:0:0:0:
306,317,353512,1,2,0:0:0:0:
65,108,353652,2,0,L|88:-9,1,104.999996795654,2|0,0:0|0:0,0:0:0:0:
357,84,353931,5,8,0:0:0:0:
158,36,354070,1,0,0:0:0:0:
299,227,354210,1,0,0:0:0:0:
281,29,354349,1,0,0:0:0:0:
160,195,354489,1,8,0:0:0:0:
425,326,354628,2,0,P|313:291|312:186,1,209.999993591309,2|0,0:0|0:0,0:0:0:0:
369,143,355047,5,8,0:0:0:0:
225,280,355187,1,0,0:0:0:0:
284,58,355326,1,0,0:0:0:0:
416,228,355466,1,0,0:0:0:0:
76,166,355605,6,0,B|137:161|137:161|178:141|178:141|241:140,1,157.499995193482,8|0,0:0|0:0,0:0:0:0:
301,188,355884,2,0,P|266:140|276:87,1,104.999996795654,2|0,0:0|0:0,0:0:0:0:
433,111,356163,1,8,0:0:0:0:
224,242,356303,1,0,0:0:0:0:
339,40,356442,1,0,0:0:0:0:
417,310,356582,5,2,0:0:0:0:
146,142,356722,1,10,0:0:0:0:
363,248,356861,2,0,P|304:280|175:211,1,209.999993591309,2|0,0:0|0:0,0:0:0:0:
166,337,357280,1,8,0:0:0:0:
372,248,357419,1,0,0:0:0:0:
196,115,357559,5,0,0:0:0:0:
383,235,357698,1,0,0:0:0:0:
109,258,357838,2,0,B|96:206|96:206|115:164|115:164|99:100,1,157.499995193482,8|0,0:0|0:0,0:0:0:0:
68,22,358117,2,0,B|115:8|149:30|149:30|180:54|219:46,1,157.499995193482,2|0,0:0|0:0,0:0:0:0:
298,17,358396,6,0,L|287:104,1,63.7500012159348,10|0,0:0|0:0,0:0:0:0:
369,199,358535,2,0,L|380:286,1,63.7500012159348,8|0,0:0|0:0,0:0:0:0:
449,49,358675,1,10,0:0:0:0:
203,165,358815,1,8,0:0:0:0:
497,136,358954,1,8,0:0:0:0:
222,62,359094,1,10,0:0:0:0:
110,44,359373,5,0,0:0:0:0:
222,62,359512,1,0,0:0:0:0:
269,126,359652,1,0,0:0:0:0:
381,108,359791,1,0,0:0:0:0:
335,35,359931,1,0,0:0:0:0:
337,175,360070,6,0,L|346:209,1,30,2|0,0:0|0:0,0:0:0:0:
