osu file format v14

[General]
AudioFilename: audio.mp3
AudioLeadIn: 0
PreviewTime: 142488
Countdown: 0
SampleSet: Soft
StackLeniency: 0.7
Mode: 0
LetterboxInBreaks: 0
WidescreenStoryboard: 0

[Editor]
Bookmarks: 46300,262616,279836
DistanceSpacing: 1.5
BeatDivisor: 4
GridSize: 4
TimelineZoom: 2

[Metadata]
Title:Kegare Naki Yume
TitleUnicode:穢れ亡き夢
Artist:Asriel
ArtistUnicode:Asriel
Creator:eLy
Version:Ragnarok
Source:11eyes -罪と罰と贖いの少女
Tags:eroge visual novel Lass 5pb.games kokomi kurose keisuke jump aim ar10
BeatmapID:918819
BeatmapSetID:425422

[Difficulty]
HPDrainRate:3
CircleSize:4
OverallDifficulty:8
ApproachRate:10
SliderMultiplier:2
SliderTickRate:2

[Events]
//Background and Video events
0,0,"kegareBG.png",0,0
//Break Periods
2,177800,189488
//Storyboard Layer 0 (Background)
//Storyboard Layer 1 (Fail)
//Storyboard Layer 2 (Pass)
//Storyboard Layer 3 (Foreground)
//Storyboard Sound Samples

[TimingPoints]
9567,269.058295964126,4,2,1,70,1,0
26928,269.058295964126,4,2,1,70,1,0
27197,-111.111111111111,4,2,1,70,0,0
27466,-125,4,2,1,70,0,0
27735,-142.857142857143,4,2,1,70,0,0
28138,-166.666666666667,4,2,1,70,0,0
28542,-200,4,2,1,70,0,0
43609,-200,4,2,2,70,0,0
43676,-200,4,2,1,70,0,0
46300,-100,4,2,1,70,0,0
46972,-100,4,2,3,70,0,0
47040,-100,4,2,1,70,0,0
49663,-100,4,2,3,70,0,0
49730,-100,4,2,1,70,0,0
62847,-125,4,2,1,70,0,0
63519,-83.3333333333333,4,2,1,70,0,1
108250,-200,4,2,1,70,0,0
125403,-100,4,2,1,70,0,0
142488,-125,4,2,1,70,0,0
143161,-83.3333333333333,4,2,1,70,0,1
177600,269.058295964126,3,2,1,70,1,0
178369,269.058295964126,3,2,1,70,1,0
190375,269.058295964126,4,2,1,70,1,0
190375,-90.9090909090909,4,2,1,70,0,0
190509,269.058295964126,4,2,1,70,1,0
190509,-90.9090909090909,4,2,1,70,0,0
207728,-100,4,2,1,70,0,0
227101,269.058295964126,4,2,1,70,1,0
227101,-83.3333333333333,4,2,1,70,0,1
262482,-100,4,2,1,70,0,0

[Colours]
Combo1 : 255,166,0
Combo2 : 255,26,26
Combo3 : 221,221,221

[HitObjects]
256,56,8356,6,0,L|206:52,1,50
172,48,8490,2,0,B|144:83|152:129|152:129|184:171|162:242,1,200,8|8,0:0|0:0,0:0:0:0:
37,343,8894,1,8,0:0:0:0:
163,237,9028,1,8,0:0:0:0:
0,160,9163,1,8,0:0:0:0:
195,290,9297,2,0,B|233:306|268:290|268:290|307:273|345:295,1,150,4|0,0:3|0:0,0:0:0:0:
339,313,9567,6,0,L|353:199,1,100,6|0,0:0|0:0,0:0:0:0:
373,20,9836,1,0,0:0:0:0:
102,93,9970,2,0,L|216:101,1,100,8|0,0:0|0:0,0:0:0:0:
37,21,10239,1,2,0:0:0:0:
211,254,10374,1,2,0:0:0:0:
19,208,10508,1,8,0:0:0:0:
224,11,10643,6,0,B|245:55|223:98|223:98|187:147|219:209,1,200,2|2,0:0|0:0,0:0:0:0:
384,182,11046,2,0,P|343:157|277:150,1,100,8|0,0:0|0:0,0:0:0:0:
78,353,11315,1,2,0:0:0:0:
143,57,11450,1,2,0:0:0:0:
256,379,11584,1,8,0:0:0:0:
19,240,11719,6,0,P|61:228|132:235,1,100,6|0,0:0|0:0,0:0:0:0:
256,379,11988,1,2,0:0:0:0:
302,151,12123,2,0,L|310:45,1,100,8|0,0:0|0:0,0:0:0:0:
404,308,12392,1,2,0:0:0:0:
222,21,12526,1,2,0:0:0:0:
125,381,12661,1,8,0:0:0:0:
436,127,12795,6,0,B|357:121|357:121|320:98|320:98|227:93,1,200,2|2,0:0|0:0,0:0:0:0:
51,85,13199,1,8,0:0:0:0:
59,100,13468,1,4,0:3:0:0:
192,380,13602,1,4,0:3:0:0:
202,29,13737,1,0,0:0:0:0:
11,256,13871,6,0,L|120:242,1,100,6|0,0:0|0:0,0:0:0:0:
385,211,14140,1,0,0:0:0:0:
435,331,14275,2,0,L|329:323,1,100,8|0,0:0|0:0,0:0:0:0:
11,256,14544,1,2,0:0:0:0:
339,217,14679,1,2,0:0:0:0:
85,15,14813,1,8,0:0:0:0:
253,374,14948,6,0,P|295:323|256:206,1,200,2|2,0:0|0:0,0:0:0:0:
85,15,15351,2,0,P|68:73|93:135,1,100,8|0,0:0|0:0,0:0:0:0:
256,206,15620,1,2,0:0:0:0:
76,110,15755,1,0,0:0:0:0:
362,43,15889,1,8,0:0:0:0:
314,359,16024,5,6,0:0:0:0:
256,178,16158,1,0,0:0:0:0:
196,358,16293,1,2,0:0:0:0:
257,74,16427,1,8,0:0:0:0:
351,360,16562,5,0,0:0:0:0:
257,36,16697,1,2,0:0:0:0:
156,357,16831,1,2,0:0:0:0:
257,0,16966,1,8,0:0:0:0:
388,359,17100,6,0,L|405:256,1,100,2|0,0:0|0:0,0:0:0:0:
441,47,17369,1,2,0:0:0:0:
255,255,17504,1,8,0:0:0:0:
255,255,17571,1,0,0:0:0:0:
255,255,17638,1,4,0:3:0:0:
257,0,17773,1,4,0:3:0:0:
190,239,17907,1,4,0:3:0:0:
319,19,18042,1,4,0:3:0:0:
388,359,18176,6,0,B|331:355|290:374|290:374|254:338|195:331,1,200,2|2,0:0|0:0,0:0:0:0:
14,374,18580,2,0,P|68:370|117:343,1,100,8|0,0:0|0:0,0:0:0:0:
255,126,18849,1,2,0:0:0:0:
201,331,18984,1,2,0:0:0:0:
146,20,19118,1,8,0:0:0:0:
349,290,19253,6,0,L|366:171,1,100,2|0,0:0|0:0,0:0:0:0:
393,15,19522,1,2,0:0:0:0:
160,173,19656,1,8,0:0:0:0:
469,129,19791,1,0,0:0:0:0:
229,18,19925,1,2,0:0:0:0:
291,356,20060,1,2,0:0:0:0:
337,108,20194,1,8,0:0:0:0:
116,269,20329,6,0,P|63:274|9:262,1,100,6|0,0:0|0:0,0:0:0:0:
241,102,20598,1,0,0:0:0:0:
378,380,20732,2,0,L|388:275,1,100,8|0,0:0|0:0,0:0:0:0:
152,20,21001,1,2,0:0:0:0:
116,269,21136,1,2,0:0:0:0:
345,79,21271,1,8,0:0:0:0:
97,340,21405,6,0,P|42:263|122:196,1,200,2|2,0:0|0:0,0:0:0:0:
344,379,21809,1,8,0:0:0:0:
256,11,21943,1,2,0:0:0:0:
116,269,22078,1,6,0:0:0:0:
350,114,22212,1,0,0:0:0:0:
28,20,22347,1,8,0:0:0:0:
88,363,22481,6,0,B|143:381|181:346|181:346|232:314|284:343,1,200,2|0,0:0|0:0,0:0:0:0:
386,377,22885,1,8,0:0:0:0:
115,232,23019,1,0,0:0:0:0:
378,181,23154,1,2,0:0:0:0:
88,363,23288,1,2,0:0:0:0:
479,270,23423,1,8,0:0:0:0:
31,139,23558,6,0,B|-14:217|28:293|28:293|65:266,1,200,8|2,0:0|0:0,0:0:0:0:
302,142,23961,2,0,P|317:186|311:246,1,100,8|0,0:0|0:0,0:0:0:0:
175,384,24230,1,2,0:0:0:0:
302,142,24365,1,2,0:0:0:0:
31,139,24499,1,8,0:0:0:0:
176,268,24634,6,0,P|240:271|169:241,1,200,6|2,0:0|0:0,0:0:0:0:
80,384,25037,1,8,0:0:0:0:
254,68,25172,1,2,0:0:0:0:
301,364,25306,1,8,0:0:0:0:
118,27,25441,1,2,0:0:0:0:
56,278,25575,1,8,0:0:0:0:
320,177,25710,6,0,L|336:284,1,100,2|0,0:0|0:0,0:0:0:0:
292,15,25979,1,8,0:0:0:0:
94,280,26114,1,2,0:0:0:0:
357,178,26248,1,2,0:0:0:0:
70,100,26383,1,8,0:0:0:0:
416,293,26517,1,2,0:0:0:0:
50,303,26652,1,2,0:0:0:0:
397,157,26786,1,8,0:0:0:0:
144,12,26928,6,0,P|149:65|192:103,1,100,0|2,0:0|0:0,0:0:0:0:
276,157,27197,2,0,P|296:206|256:301,1,134.999995880127,12|0,0:0|0:0,0:0:0:0:
255,287,27466,2,0,P|304:283|351:293,1,80,2|0,0:0|0:0,0:0:0:0:
150,370,27735,2,0,P|121:377|66:364,1,69.9999978637696,2|0,0:0|0:0,0:0:0:0:
276,157,28004,1,2,0:0:0:0:
406,350,28138,2,0,P|349:361|275:319,1,119.999996337891,8|0,0:0|0:0,0:0:0:0:
99,163,28475,1,0,0:0:0:0:
43,238,28542,2,0,B|48:230|48:230|52:238|52:238|60:230|60:230|64:238|64:238|100:252|128:238|128:238|176:208|224:244,1,200,6|2,0:0|0:0,0:0:0:0:
226,251,29618,6,0,P|239:199|223:137,1,100,8|0,0:0|0:0,0:0:0:0:
99,37,30156,1,2,0:0:0:0:
231,154,30425,1,0,0:0:0:0:
2,187,30694,1,2,0:0:0:0:
103,74,30963,1,0,0:0:0:0:
134,280,31232,1,2,0:0:0:0:
134,280,31501,6,0,L|238:266,1,100,0|2,0:0|0:0,0:0:0:0:
375,247,32040,1,0,0:0:0:0:
268,355,32309,2,0,P|239:318|234:259,1,100,2|0,0:0|0:0,0:0:0:0:
244,29,32847,2,0,P|273:66|278:125,1,100,2|0,0:0|0:0,0:0:0:0:
72,217,33385,6,0,P|61:180|178:181,1,200,2|2,0:0|0:0,0:0:0:0:
106,328,34192,1,0,0:0:0:0:
259,248,34461,2,0,P|310:248|361:277,1,100,2|0,0:0|0:0,0:0:0:0:
106,328,34999,2,0,P|85:281|90:225,1,100,2|0,0:0|0:0,0:0:0:0:
257,67,35537,1,2,0:0:0:0:
248,78,35806,6,0,L|195:73,1,50
152,103,36075,2,0,L|264:95,1,100,2|0,0:0|0:0,0:0:0:0:
451,76,36614,1,2,0:0:0:0:
257,374,36883,1,0,0:0:0:0:
61,76,37152,1,2,0:0:0:0:
256,194,37421,1,0,0:0:0:0:
16,374,37690,6,0,B|68:364|68:364|128:377,1,100,2|0,0:0|0:0,0:0:0:0:
496,10,38228,2,0,B|444:20|444:20|384:7,1,100,2|0,0:0|0:0,0:0:0:0:
47,355,38766,2,0,B|99:345|99:345|159:358,1,100,2|0,0:0|0:0,0:0:0:0:
465,29,39304,2,0,L|400:41,1,50,8|0,0:0|0:0,0:0:0:0:
257,67,39573,1,0,0:0:0:0:
272,73,39842,6,0,P|302:98|324:161,1,100,2|0,0:0|0:0,0:0:0:0:
136,321,40380,2,0,P|135:273|169:213,1,100,2|0,0:0|0:0,0:0:0:0:
409,358,40919,2,0,P|363:370|306:354,1,100,2|0,0:0|0:0,0:0:0:0:
156,226,41457,1,8,0:0:0:0:
323,153,41726,1,0,0:0:0:0:
326,164,41793,1,0,0:0:0:0:
329,175,41860,1,0,0:0:0:0:
332,187,41928,1,0,0:0:0:0:
335,198,41995,6,0,P|385:208|446:196,1,100,2|0,0:0|0:0,0:0:0:0:
145,64,42533,2,0,P|99:57|40:68,1,100,2|0,0:0|0:0,0:0:0:0:
100,188,42936,1,8,0:0:0:0:
228,160,43071,2,0,L|237:266,1,100,2|0,0:0|0:0,0:0:0:0:
85,382,43475,2,0,L|93:267,1,100
250,115,43878,2,0,L|255:186,1,50
273,355,44147,6,0,P|315:358|373:334,1,100,2|0,0:0|0:0,0:0:0:0:
100,188,44551,1,2,0:0:0:0:
106,202,44954,1,8,0:0:0:0:
112,216,45223,2,0,L|213:203,1,100
441,172,45627,1,0,0:0:0:0:
250,22,45762,5,8,0:0:0:0:
223,75,45851,5,8,0:0:0:0:
221,135,45941,5,8,0:0:0:0:
247,188,46031,5,8,0:0:0:0:
279,237,46120,5,8,0:0:0:0:
279,297,46210,5,8,0:0:0:0:
251,350,46300,6,0,L|133:344,1,100,6|0,0:0|0:0,0:0:0:0:
7,148,46569,1,8,0:0:0:0:
312,115,46703,1,0,0:0:0:0:
141,15,46838,2,0,P|139:107|231:125,1,200,2|0,0:0|0:0,0:0:0:0:
459,353,47241,2,0,B|388:348|388:348|343:314|343:314|255:309,1,200,8|2,0:0|0:0,0:0:0:0:
31,298,47645,1,8,0:0:0:0:
141,15,47780,1,0,0:0:0:0:
187,344,47914,1,2,0:0:0:0:
23,129,48049,5,2,0:0:0:0:
301,216,48183,1,8,0:0:0:0:
67,290,48318,1,0,0:0:0:0:
263,110,48452,2,0,L|267:7,1,100,2|0,0:0|0:0,0:0:0:0:
491,303,48721,2,0,L|487:192,1,100,8|0,0:0|0:0,0:0:0:0:
479,17,48990,1,2,0:0:0:0:
255,307,49125,1,2,0:0:0:0:
88,113,49259,2,0,L|94:3,1,100,8|8,0:0|0:0,0:0:0:0:
271,349,49528,6,0,P|200:307|273:270,1,200,0|8,0:0|0:0,0:0:0:0:
381,378,49932,1,0,0:0:0:0:
110,315,50067,1,0,0:0:0:0:
362,264,50201,1,2,0:0:0:0:
160,210,50336,1,8,0:0:0:0:
426,130,50470,1,0,0:0:0:0:
128,217,50605,6,0,L|20:205,1,100,2|0,0:0|0:0,0:0:0:0:
236,0,50874,2,0,L|249:124,1,100,2|0,0:0|0:0,0:0:0:0:
292,383,51143,1,8,0:0:0:0:
426,130,51277,1,2,0:0:0:0:
403,159,51546,6,0,P|353:143|415:47,1,200,2|0,0:0|0:0,0:0:0:0:
494,250,51950,2,0,P|404:279|306:247,1,200,2|8,0:0|0:0,0:0:0:0:
166,13,52354,1,2,0:0:0:0:
35,306,52488,2,0,L|23:178,1,100
2,10,52757,5,6,0:0:0:0:
25,206,52892,1,0,0:0:0:0:
113,52,53026,1,2,0:0:0:0:
137,268,53161,1,0,0:0:0:0:
15,106,53295,5,14,0:0:0:0:
211,77,53430,1,0,0:0:0:0:
137,268,53564,1,8,0:0:0:0:
105,12,53699,5,2,0:0:0:0:
69,384,53833,1,12,0:0:0:0:
364,270,53968,1,2,0:0:0:0:
148,187,54102,1,0,0:0:0:0:
286,68,54237,1,8,0:0:0:0:
401,380,54371,1,2,0:0:0:0:
174,32,54506,5,8,0:0:0:0:
104,38,54573,1,8,0:0:0:0:
42,73,54641,1,8,0:0:0:0:
7,133,54708,1,8,0:0:0:0:
3,202,54775,1,8,0:0:0:0:
23,268,54842,1,8,0:0:0:0:
78,312,54910,6,0,L|185:307,1,100,0|2,0:0|0:0,0:0:0:0:
477,235,55179,2,0,P|428:222|368:227,1,100,12|2,0:0|0:0,0:0:0:0:
125,384,55448,2,0,L|119:257,1,100,0|2,0:0|0:0,0:0:0:0:
109,11,55717,1,8,0:0:0:0:
253,197,55851,1,0,0:0:0:0:
18,199,55986,1,2,0:0:0:0:
181,11,56120,1,2,0:0:0:0:
297,281,56255,1,8,0:0:0:0:
100,107,56389,5,2,0:0:0:0:
431,65,56524,1,0,0:0:0:0:
219,341,56658,1,2,0:0:0:0:
327,11,56793,1,8,0:0:0:0:
399,383,56928,1,0,0:0:0:0:
146,218,57062,6,0,L|154:98,1,100,2|0,0:0|0:0,0:0:0:0:
434,12,57331,2,0,L|425:118,1,100,8|0,0:0|0:0,0:0:0:0:
399,383,57600,1,0,0:0:0:0:
146,218,57735,1,2,0:0:0:0:
20,383,57869,2,0,L|132:364,1,100,8|0,0:0|0:0,0:0:0:0:
446,314,58138,5,0,0:0:0:0:
146,218,58273,1,2,0:0:0:0:
425,111,58407,1,8,0:0:0:0:
172,32,58542,1,2,0:0:0:0:
257,347,58676,1,0,0:0:0:0:
330,8,58811,1,2,0:0:0:0:
66,118,58945,2,0,P|31:158|32:262,1,150,8|0,0:0|0:0,0:0:0:0:
43,270,59214,5,4,0:3:0:0:
382,170,59349,1,8,0:3:0:0:
81,12,59484,1,4,0:3:0:0:
205,384,59618,1,8,0:3:0:0:
331,78,59753,1,8,0:0:0:0:
359,315,59887,1,8,0:3:0:0:
153,145,60022,1,4,0:3:0:0:
16,355,60156,2,0,L|235:340,1,200,6|2,0:0|0:0,0:0:0:0:
359,315,60560,5,8,0:0:0:0:
170,87,60694,1,4,0:3:0:0:
290,343,60829,5,8,0:0:0:0:
230,52,60963,1,4,0:3:0:0:
217,342,61098,5,4,0:3:0:0:
300,57,61232,6,0,P|343:84|362:236,1,200,2|2,0:0|0:0,0:0:0:0:
16,355,61636,1,4,0:3:0:0:
277,165,61771,1,0,0:0:0:0:
45,129,61905,1,2,0:0:0:0:
256,320,62040,1,8,0:0:0:0:
255,13,62174,1,8,0:0:0:0:
257,379,62309,1,12,0:0:0:0:
255,350,62847,6,0,B|268:306|256:272|256:272|239:234|255:189,1,160,0|2,0:0|0:0,0:0:0:0:
261,166,63183,1,2,0:0:0:0:
261,166,63250,1,8,0:0:0:0:
128,317,63385,1,0,0:0:0:0:
494,55,63519,6,0,L|367:64,1,119.999996337891,2|0,0:0|0:0,0:0:0:0:
128,317,63788,1,0,0:0:0:0:
17,21,63923,2,0,P|78:47|29:205,1,239.999992675781
264,30,64327,1,0,0:0:0:0:
12,115,64461,1,0,0:0:0:0:
340,342,64596,2,0,L|336:217,1,119.999996337891
330,3,64865,5,0,0:0:0:0:
183,319,64999,1,0,0:0:0:0:
446,211,65134,1,0,0:0:0:0:
171,104,65268,1,0,0:0:0:0:
256,382,65403,1,0,0:0:0:0:
357,45,65537,1,0,0:0:0:0:
6,193,65672,6,0,P|62:234|166:97,1,239.999992675781
5,23,66075,1,0,0:0:0:0:
237,270,66210,2,0,L|378:261,1,119.999996337891
124,8,66479,1,0,0:0:0:0:
55,362,66614,1,0,0:0:0:0:
256,189,66748,1,0,0:0:0:0:
339,379,66883,1,0,0:0:0:0:
90,204,67017,5,0,0:0:0:0:
402,171,67152,1,0,0:0:0:0:
216,379,67286,1,0,0:0:0:0:
168,12,67421,1,0,0:0:0:0:
275,322,67555,1,0,0:0:0:0:
353,97,67690,1,0,0:0:0:0:
161,297,67824,6,0,B|2:277|2:277|113:253,1,239.999992675781
353,97,68228,2,0,B|512:77|512:77|401:53,1,239.999992675781
52,14,68632,2,0,L|68:156,1,119.999996337891
100,379,68901,1,0,0:0:0:0:
251,123,69035,1,0,0:0:0:0:
309,355,69170,1,0,0:0:0:0:
146,163,69304,1,0,0:0:0:0:
398,115,69439,1,0,0:0:0:0:
183,9,69573,1,0,0:0:0:0:
309,382,69708,1,0,0:0:0:0:
443,14,69842,1,0,0:0:0:0:
143,313,69977,6,0,L|7:308,1,119.999996337891
253,194,70246,1,0,0:0:0:0:
341,380,70380,6,0,L|477:375,1,119.999996337891
256,78,70649,1,0,0:0:0:0:
79,381,70784,1,0,0:0:0:0:
431,181,70919,2,0,P|406:114|240:86,1,239.999992675781
144,223,71322,2,0,P|215:221|261:182,1,119.999996337891
26,22,71591,1,0,0:0:0:0:
43,341,71726,1,0,0:0:0:0:
108,371,71793,1,0,0:0:0:0:
179,375,71860,1,0,0:0:0:0:
244,344,71928,1,0,0:0:0:0:
299,299,71995,1,0,0:0:0:0:
370,298,72062,1,0,0:0:0:0:
427,340,72129,6,0,L|434:215,1,119.999996337891
449,7,72398,1,0,0:0:0:0:
255,376,72533,1,0,0:0:0:0:
8,173,72667,2,0,P|71:172|130:201,1,119.999996337891
255,376,72936,1,0,0:0:0:0:
287,15,73071,1,0,0:0:0:0:
46,281,73206,5,0,0:0:0:0:
329,237,73340,1,0,0:0:0:0:
75,84,73475,1,0,0:0:0:0:
411,197,73609,1,0,0:0:0:0:
17,171,73744,1,0,0:0:0:0:
351,78,73878,1,0,0:0:0:0:
131,6,74013,1,0,0:0:0:0:
191,380,74147,1,0,0:0:0:0:
351,78,74282,6,0,L|219:62,1,119.999996337891
8,311,74551,2,0,L|127:296,1,119.999996337891
445,95,74820,1,0,0:0:0:0:
291,379,74954,1,0,0:0:0:0:
232,22,75089,1,0,0:0:0:0:
379,325,75223,5,0,0:0:0:0:
106,153,75358,1,0,0:0:0:0:
334,55,75493,1,0,0:0:0:0:
253,377,75627,5,0,0:0:0:0:
167,88,75762,1,0,0:0:0:0:
354,314,75896,1,0,0:0:0:0:
57,270,76031,1,0,0:0:0:0:
57,270,76098,1,0,0:0:0:0:
57,270,76165,1,0,0:0:0:0:
256,190,76300,1,0,0:0:0:0:
102,81,76434,5,0,0:0:0:0:
287,365,76568,1,0,0:0:0:0:
304,26,76703,1,0,0:0:0:0:
91,290,76837,1,0,0:0:0:0:
419,202,76972,1,0,0:0:0:0:
102,81,77107,5,0,0:0:0:0:
287,365,77241,1,0,0:0:0:0:
304,26,77376,1,0,0:0:0:0:
74,299,77510,1,0,0:0:0:0:
435,203,77645,1,0,0:0:0:0:
86,69,77780,5,0,0:0:0:0:
290,382,77914,1,0,0:0:0:0:
308,9,78049,1,0,0:0:0:0:
74,299,78183,1,0,0:0:0:0:
435,203,78318,1,0,0:0:0:0:
86,69,78452,5,0,0:0:0:0:
290,382,78587,1,0,0:0:0:0:
308,9,78722,1,0,0:0:0:0:
74,299,78856,1,0,0:0:0:0:
435,203,78990,1,0,0:0:0:0:
86,69,79125,5,0,0:0:0:0:
290,382,79259,2,0,P|329:271|280:152,1,239.999992675781
74,299,79663,1,0,0:0:0:0:
435,203,79797,1,0,0:0:0:0:
86,69,79932,1,0,0:0:0:0:
290,382,80067,1,0,0:0:0:0:
308,9,80201,1,0,0:0:0:0:
74,299,80336,5,0,0:0:0:0:
435,203,80470,1,0,0:0:0:0:
86,69,80605,1,0,0:0:0:0:
290,382,80739,2,0,L|295:257,1,119.999996337891
13,17,81008,2,0,P|3:87|142:140,1,239.999992675781
314,24,81412,1,0,0:0:0:0:
294,262,81546,1,0,0:0:0:0:
86,69,81681,1,0,0:0:0:0:
31,364,81815,6,0,L|168:354,1,119.999996337891
504,133,82084,2,0,L|345:114,1,119.999996337891
86,69,82354,1,0,0:0:0:0:
384,118,82488,1,0,0:0:0:0:
159,2,82623,1,0,0:0:0:0:
255,315,82757,1,0,0:0:0:0:
20,247,82892,6,0,L|27:113,1,119.999996337891
280,4,83161,2,0,L|270:147,1,119.999996337891
251,377,83430,1,0,0:0:0:0:
479,269,83564,1,0,0:0:0:0:
271,123,83699,1,0,0:0:0:0:
463,295,83833,1,0,0:0:0:0:
128,124,83968,6,0,L|0:128,1,119.999996337891
251,377,84237,2,0,L|259:249,1,119.999996337891
282,10,84506,1,0,0:0:0:0:
153,285,84641,1,0,0:0:0:0:
60,24,84775,1,0,0:0:0:0:
328,166,84910,1,0,0:0:0:0:
32,344,85044,6,0,L|42:214,1,119.999996337891
60,24,85313,1,0,0:0:0:0:
259,373,85448,1,0,0:0:0:0:
442,150,85582,2,0,P|375:146|316:174,1,119.999996337891
141,342,85851,1,0,0:0:0:0:
393,231,85986,1,0,0:0:0:0:
125,8,86120,6,0,L|133:150,1,119.999996337891
321,379,86389,1,0,0:0:0:0:
405,53,86524,1,0,0:0:0:0:
19,245,86658,2,0,L|155:233,1,119.999996337891
405,53,86928,2,0,P|324:40|251:112,1,179.999994506836
255,133,87197,2,0,L|268:277,1,119.999996337891
43,384,87466,2,0,B|26:345|56:300|56:300|89:261|89:261|125:210|87:155,1,239.999992675781
15,10,87869,1,0,0:0:0:0:
131,357,88004,1,0,0:0:0:0:
406,43,88138,2,0,L|425:301,1,239.999992675781
200,21,88542,5,0,0:0:0:0:
1,195,88676,1,0,0:0:0:0:
361,150,88811,1,0,0:0:0:0:
37,71,88945,1,0,0:0:0:0:
214,318,89080,1,0,0:0:0:0:
234,12,89214,1,0,0:0:0:0:
17,335,89349,6,0,L|146:327,1,119.999996337891
410,250,89618,1,0,0:0:0:0:
70,136,89753,1,0,0:0:0:0:
439,0,89887,2,0,L|424:139,1,119.999996337891
167,378,90156,2,0,P|126:268|184:161,1,239.999992675781
394,283,90560,5,0,0:0:0:0:
178,165,90694,1,0,0:0:0:0:
497,64,90829,1,0,0:0:0:0:
417,382,90963,1,0,0:0:0:0:
298,5,91098,1,0,0:0:0:0:
143,308,91232,2,0,L|278:296,1,119.999996337891
4,78,91501,6,0,L|17:218,1,119.999996337891
256,384,91771,2,0,P|276:328|256:260,1,119.999996337891
15,197,92040,1,0,0:0:0:0:
306,83,92174,1,0,0:0:0:0:
141,6,92309,2,0,L|131:153,1,119.999996337891
110,378,92578,5,0,0:0:0:0:
381,330,92712,1,0,0:0:0:0:
107,283,92847,5,0,0:0:0:0:
378,235,92981,1,0,0:0:0:0:
37,336,93116,5,0,0:0:0:0:
444,267,93250,1,0,0:0:0:0:
37,108,93385,5,0,0:0:0:0:
443,36,93519,1,0,0:0:0:0:
175,364,93654,6,0,L|172:227,1,119.999996337891
305,20,93923,2,0,L|308:156,1,119.999996337891
172,244,94192,5,0,0:0:0:0:
307,139,94327,1,0,0:0:0:0:
79,123,94461,1,0,0:0:0:0:
410,273,94596,1,0,0:0:0:0:
124,375,94730,6,0,L|121:238,1,119.999996337891
347,17,94999,2,0,L|350:153,1,119.999996337891
121,255,95268,5,0,0:0:0:0:
349,136,95403,1,0,0:0:0:0:
21,111,95537,1,0,0:0:0:0:
463,307,95672,1,0,0:0:0:0:
136,43,95806,2,0,L|120:264,1,179.999994506836
121,255,96075,2,0,P|182:243|248:261,1,119.999996337891
371,383,96345,1,0,0:0:0:0:
256,8,96479,1,0,0:0:0:0:
143,382,96614,1,0,0:0:0:0:
427,69,96748,2,0,P|464:134|335:154,1,239.999992675781
149,9,97152,5,0,0:0:0:0:
62,315,97286,1,0,0:0:0:0:
344,170,97421,1,0,0:0:0:0:
22,132,97555,1,0,0:0:0:0:
22,132,97623,1,0,0:0:0:0:
22,132,97690,1,0,0:0:0:0:
372,254,97824,1,0,0:0:0:0:
72,69,97959,6,0,L|67:199,1,119.999996337891
446,206,98228,2,0,P|397:166|329:177,1,119.999996337891
171,319,98497,1,0,0:0:0:0:
352,62,98632,1,0,0:0:0:0:
363,367,98766,1,0,0:0:0:0:
94,262,98901,6,0,P|159:227|218:235,1,119.999996337891
363,367,99170,1,0,0:0:0:0:
110,125,99304,1,0,0:0:0:0:
404,48,99439,1,0,0:0:0:0:
171,319,99573,1,0,0:0:0:0:
258,6,99708,1,0,0:0:0:0:
258,6,99775,1,0,0:0:0:0:
258,6,99842,1,0,0:0:0:0:
388,367,99977,6,0,P|288:306|170:318,1,239.999992675781
33,368,100380,1,0,0:0:0:0:
321,175,100515,1,0,0:0:0:0:
26,27,100649,1,0,0:0:0:0:
170,359,100784,1,0,0:0:0:0:
467,193,100919,1,0,0:0:0:0:
111,68,101053,5,0,0:0:0:0:
262,340,101188,1,0,0:0:0:0:
216,51,101322,5,0,0:0:0:0:
156,356,101457,1,0,0:0:0:0:
307,106,101591,5,0,0:0:0:0:
65,301,101726,1,0,0:0:0:0:
342,206,101860,5,0,0:0:0:0:
30,201,101995,1,0,0:0:0:0:
326,35,102129,2,0,P|412:29|356:133,1,239.999992675781
106,145,102533,2,0,P|51:108|-17:120,1,119.999996337891
267,338,102802,2,0,L|408:332,1,119.999996337891
106,145,103071,1,0,0:0:0:0:
49,378,103206,6,0,L|111:123,1,239.999992675781
255,6,103609,5,0,0:0:0:0:
255,383,103744,1,0,0:0:0:0:
385,59,103878,5,0,0:0:0:0:
120,326,104013,1,0,0:0:0:0:
442,191,104147,5,0,0:0:0:0:
62,192,104282,2,0,B|115:231|168:198|168:198|228:150|284:199,1,239.999992675781
366,381,104685,5,0,0:0:0:0:
120,126,104820,1,0,0:0:0:0:
33,379,104954,5,0,0:0:0:0:
262,41,105089,1,0,0:0:0:0:
360,360,105223,5,0,0:0:0:0:
48,15,105358,2,0,P|7:64|48:234,1,239.999992675781
387,279,105762,5,0,0:0:0:0:
37,225,105896,1,0,0:0:0:0:
425,96,106031,1,0,0:0:0:0:
425,96,106098,1,0,0:0:0:0:
425,96,106165,1,0,0:0:0:0:
48,15,106300,1,0,0:0:0:0:
100,360,106434,2,0,B|174:341|174:341|263:371|263:371|297:359|297:359|256:337,1,239.999992675781
85,239,106838,2,0,B|161:220|161:220|222:237,1,119.999996337891
371,313,107107,6,0,P|386:283|384:248,1,59.9999981689454
303,118,107241,2,0,P|301:154|322:193,1,59.9999981689454
471,157,107376,2,0,P|444:146|407:149,1,59.9999981689454
234,316,107510,1,0,0:0:0:0:
11,69,107645,2,0,L|141:50,1,119.999996337891
353,16,107914,2,0,P|381:74|363:193,1,179.999994506836
255,265,108183,1,0,0:0:0:0:
255,265,108721,6,0,L|134:254,1,100
1,241,109259,1,0,0:0:0:0:
350,194,109528,1,0,0:0:0:0:
139,1,109797,2,0,L|148:109,1,100
179,377,110336,1,0,0:0:0:0:
179,377,110605,1,0,0:0:0:0:
402,316,110874,6,0,L|296:307,1,100
49,277,111412,1,0,0:0:0:0:
419,213,111681,1,0,0:0:0:0:
116,165,111950,2,0,L|13:155,1,100
388,80,112488,2,0,L|456:75,1,50
506,151,112757,1,0,0:0:0:0:
499,171,113026,6,0,L|382:164,1,100
245,312,113564,2,0,P|296:315|341:292,1,100
114,80,114102,2,0,L|95:199,1,100
61,348,114641,2,0,L|130:344,1,50
197,306,114910,2,0,L|88:296,1,100
289,184,115448,5,0,0:0:0:0:
324,375,115717,1,0,0:0:0:0:
103,142,115986,1,0,0:0:0:0:
390,72,116255,2,0,L|380:180,1,100
133,380,116793,2,0,L|126:309,1,50
16,258,117062,2,0,L|33:152,1,100
64,3,117600,5,0,0:0:0:0:
259,191,117869,1,0,0:0:0:0:
448,3,118138,1,0,0:0:0:0:
182,142,118407,2,0,P|171:189|186:243,1,100
336,224,118945,2,0,P|342:195|333:158,1,50
223,54,119214,1,0,0:0:0:0:
443,36,119349,1,0,0:0:0:0:
440,48,119416,1,0,0:0:0:0:
437,60,119484,6,0,P|384:70|322:53,1,100
134,6,120022,1,0,0:0:0:0:
62,264,120291,1,0,0:0:0:0:
254,186,120560,1,0,0:0:0:0:
0,96,120829,1,0,0:0:0:0:
193,313,121098,2,0,L|262:305,1,50
421,293,121367,1,0,0:0:0:0:
419,280,121434,1,0,0:0:0:0:
418,267,121501,1,0,0:0:0:0:
417,254,121569,1,0,0:0:0:0:
415,241,121636,6,0,L|409:141,1,100
256,13,122174,1,0,0:0:0:0:
112,222,122443,2,0,L|181:218,1,50
102,135,122712,2,0,L|-14:142,1,100
229,293,123116,1,0,0:0:0:0:
26,277,123250,2,0,L|25:217,1,50
108,47,123519,1,0,0:0:0:0:
120,48,123587,1,0,0:0:0:0:
131,52,123654,1,0,0:0:0:0:
140,59,123721,1,0,0:0:0:0:
146,69,123788,6,0,L|138:171,1,100
114,361,124192,1,0,0:0:0:0:
326,297,124327,2,0,L|256:289,1,50
18,178,124596,2,0,L|71:175,1,50
375,257,124865,2,0,P|410:224|404:126,1,150
375,128,125403,6,0,L|280:134,1,66.6666666666667
130,263,125582,2,0,L|208:255,1,66.6666666666667
180,71,125762,2,0,L|186:152,1,66.6666666666667
296,351,125941,6,0,L|310:238,1,100
420,37,126210,1,0,0:0:0:0:
184,137,126345,1,0,0:0:0:0:
470,6,126479,2,0,P|476:59|363:53,1,200
47,248,126883,2,0,B|125:239|125:239|166:254|166:254|257:243,1,200
505,220,127286,5,0,0:0:0:0:
281,122,127421,1,0,0:0:0:0:
497,129,127555,1,0,0:0:0:0:
341,304,127690,1,0,0:0:0:0:
151,179,127824,1,0,0:0:0:0:
429,261,127959,1,0,0:0:0:0:
159,382,128093,6,0,L|157:278,1,100
365,7,128362,2,0,L|371:132,1,100
157,282,128632,1,0,0:0:0:0:
369,106,128766,1,0,0:0:0:0:
35,73,128901,1,0,0:0:0:0:
230,315,129035,1,0,0:0:0:0:
107,25,129170,6,0,L|100:152,1,100
85,383,129439,1,0,0:0:0:0:
466,120,129573,2,0,P|418:106|365:106,1,100
93,258,129842,1,0,0:0:0:0:
391,381,129977,2,0,L|402:266,1,100
20,127,130246,6,0,P|53:180|202:177,1,200
368,105,130649,1,0,0:0:0:0:
117,372,130784,1,0,0:0:0:0:
143,16,130919,1,0,0:0:0:0:
143,16,131188,6,0,B|191:105|143:179|143:179|186:149,1,200
368,105,131591,2,0,L|347:330,1,200
30,106,131995,1,0,0:0:0:0:
215,313,132129,2,0,L|343:306,1,100
492,188,132398,5,0,0:0:0:0:
351,12,132533,1,0,0:0:0:0:
202,190,132667,1,0,0:0:0:0:
459,64,132802,5,0,0:0:0:0:
288,244,132936,1,0,0:0:0:0:
125,62,133071,1,0,0:0:0:0:
394,219,133206,5,0,0:0:0:0:
201,12,133340,1,0,0:0:0:0:
201,12,133407,1,0,0:0:0:0:
201,12,133475,1,0,0:0:0:0:
120,380,133609,1,0,0:0:0:0:
446,290,133744,1,0,0:0:0:0:
139,157,133878,1,0,0:0:0:0:
394,93,134013,1,0,0:0:0:0:
22,14,134147,1,0,0:0:0:0:
32,82,134214,1,0,0:0:0:0:
43,151,134282,1,0,0:0:0:0:
52,220,134349,1,0,0:0:0:0:
64,288,134416,1,0,0:0:0:0:
76,357,134484,1,0,0:0:0:0:
76,357,134551,6,0,P|134:357|190:343,1,100
496,186,134820,2,0,L|364:176,1,100
141,13,135089,1,0,0:0:0:0:
396,178,135223,1,0,0:0:0:0:
76,357,135358,1,0,0:0:0:0:
274,67,135493,1,0,0:0:0:0:
350,336,135627,5,0,0:0:0:0:
472,113,135762,1,0,0:0:0:0:
265,268,135896,1,0,0:0:0:0:
187,21,136031,1,0,0:0:0:0:
103,378,136165,1,0,0:0:0:0:
336,177,136300,1,0,0:0:0:0:
92,57,136434,1,0,0:0:0:0:
190,323,136569,1,0,0:0:0:0:
344,126,136703,6,0,L|352:19,1,100
18,310,136972,2,0,L|127:302,1,100
429,284,137241,1,0,0:0:0:0:
117,302,137376,1,0,0:0:0:0:
429,362,137510,5,0,0:0:0:0:
116,228,137645,1,0,0:0:0:0:
430,98,137780,1,0,0:0:0:0:
110,9,137914,2,0,L|113:121,1,100
501,293,138183,2,0,P|446:271|330:365,1,200
112,108,138587,1,0,0:0:0:0:
335,340,138721,1,0,0:0:0:0:
110,9,138856,5,0,0:0:0:0:
32,296,138990,1,0,0:0:0:0:
323,374,139125,1,0,0:0:0:0:
401,85,139259,1,0,0:0:0:0:
139,114,139394,5,0,0:0:0:0:
173,380,139528,1,0,0:0:0:0:
438,360,139663,1,0,0:0:0:0:
196,36,139797,2,0,P|112:31|36:122,1,200
173,380,140201,1,0,0:0:0:0:
343,131,140336,1,0,0:0:0:0:
438,360,140470,1,0,0:0:0:0:
368,368,140537,1,0,0:0:0:0:
300,346,140605,1,0,0:0:0:0:
253,294,140672,1,0,0:0:0:0:
185,275,140739,1,0,0:0:0:0:
117,292,140806,2,0,B|68:316|53:371|53:371|29:297|29:297|31:262|31:262|65:305,1,250
173,380,141277,5,0,0:0:0:0:
256,3,141412,1,0,0:0:0:0:
485,334,141546,5,0,0:0:0:0:
294,2,141681,1,0,0:0:0:0:
132,378,141815,5,0,0:0:0:0:
410,147,141950,1,0,0:0:0:0:
410,147,142488,6,0,B|343:143|343:143|319:156|319:156|225:151,1,160
216,147,142824,1,0,0:0:0:0:
216,147,142892,1,0,0:0:0:0:
370,279,143026,1,0,0:0:0:0:
128,11,143161,6,0,L|116:146,1,119.999996337891
91,374,143430,1,0,0:0:0:0:
117,130,143564,1,0,0:0:0:0:
10,250,143699,1,0,0:0:0:0:
341,152,143833,1,0,0:0:0:0:
28,57,143968,1,0,0:0:0:0:
205,335,144102,1,0,0:0:0:0:
385,77,144237,6,0,P|312:73|256:121,1,119.999996337891
486,312,144506,2,0,L|503:178,1,119.999996337891
149,9,144775,1,0,0:0:0:0:
164,188,144910,1,0,0:0:0:0:
182,366,145044,1,0,0:0:0:0:
19,111,145179,1,0,0:0:0:0:
19,111,145246,1,0,0:0:0:0:
19,111,145313,6,0,L|154:98,1,119.999996337891
436,75,145582,1,0,0:0:0:0:
330,384,145717,2,0,L|317:240,1,119.999996337891
293,1,145986,1,0,0:0:0:0:
122,322,146120,1,0,0:0:0:0:
433,199,146255,1,0,0:0:0:0:
224,118,146389,5,0,0:0:0:0:
408,309,146524,1,0,0:0:0:0:
293,20,146658,1,0,0:0:0:0:
235,355,146793,1,0,0:0:0:0:
408,87,146928,1,0,0:0:0:0:
151,215,147062,1,0,0:0:0:0:
509,157,147197,1,0,0:0:0:0:
101,23,147331,1,0,0:0:0:0:
101,23,147398,1,0,0:0:0:0:
101,23,147466,6,0,L|92:159,1,119.999996337891
72,382,147735,1,0,0:0:0:0:
425,223,147869,2,0,P|346:213|296:236,1,119.999996337891
72,382,148138,1,0,0:0:0:0:
374,304,148273,2,0,L|366:161,1,119.999996337891
358,6,148542,5,0,0:0:0:0:
378,382,148676,1,0,0:0:0:0:
178,149,148811,1,0,0:0:0:0:
91,328,148945,1,0,0:0:0:0:
368,184,149080,1,0,0:0:0:0:
21,18,149214,1,0,0:0:0:0:
98,371,149349,1,0,0:0:0:0:
293,79,149484,1,0,0:0:0:0:
451,378,149618,6,0,P|386:374|326:346,1,119.999996337891
122,132,149887,1,0,0:0:0:0:
61,378,150022,2,0,P|126:374|186:346,1,119.999996337891
390,132,150291,1,0,0:0:0:0:
33,8,150425,1,0,0:0:0:0:
252,258,150560,2,0,B|331:247|331:247|409:278|409:278|502:270,1,239.999992675781
258,10,150963,1,0,0:0:0:0:
61,378,151098,1,0,0:0:0:0:
481,177,151232,1,0,0:0:0:0:
411,157,151300,1,0,0:0:0:0:
339,150,151367,1,0,0:0:0:0:
269,167,151434,1,0,0:0:0:0:
207,203,151501,6,0,L|135:248,1,59.9999981689454
10,96,151636,2,0,L|86:122,1,59.9999981689454
260,333,151771,2,0,P|320:333|393:295,1,119.999996337891
67,115,152040,1,0,0:0:0:0:
21,368,152174,1,0,0:0:0:0:
289,155,152309,2,0,L|285:27,1,119.999996337891
116,295,152578,1,0,0:0:0:0:
459,154,152712,1,0,0:0:0:0:
109,2,152847,6,0,L|113:154,1,119.999996337891
120,381,153116,1,0,0:0:0:0:
373,76,153250,1,0,0:0:0:0:
112,121,153385,1,0,0:0:0:0:
311,369,153519,1,0,0:0:0:0:
229,9,153654,1,0,0:0:0:0:
23,280,153788,1,0,0:0:0:0:
462,239,153923,6,0,L|456:96,1,119.999996337891
118,312,154192,2,0,L|233:375,1,119.999996337891
456,119,154461,1,0,0:0:0:0:
224,370,154596,1,0,0:0:0:0:
194,18,154730,1,0,0:0:0:0:
381,306,154865,1,0,0:0:0:0:
34,122,154999,6,0,P|92:97|163:97,1,119.999996337891
256,259,155268,1,0,0:0:0:0:
478,122,155403,2,0,P|420:97|349:97,1,119.999996337891
256,380,155672,1,0,0:0:0:0:
255,16,155806,1,0,0:0:0:0:
42,326,155941,1,0,0:0:0:0:
355,207,156075,5,0,0:0:0:0:
177,14,156210,1,0,0:0:0:0:
114,375,156345,1,0,0:0:0:0:
310,112,156479,1,0,0:0:0:0:
342,384,156614,1,0,0:0:0:0:
97,116,156748,1,0,0:0:0:0:
381,8,156883,1,0,0:0:0:0:
234,339,157017,1,0,0:0:0:0:
143,35,157152,5,0,0:0:0:0:
350,269,157286,1,0,0:0:0:0:
46,192,157421,1,0,0:0:0:0:
376,189,157555,1,0,0:0:0:0:
88,266,157690,1,0,0:0:0:0:
453,165,157824,1,0,0:0:0:0:
90,124,157959,1,0,0:0:0:0:
479,292,158093,1,0,0:0:0:0:
84,378,158228,5,0,0:0:0:0:
256,7,158362,1,0,0:0:0:0:
353,293,158497,1,0,0:0:0:0:
64,104,158632,1,0,0:0:0:0:
370,81,158766,1,0,0:0:0:0:
206,378,158901,1,0,0:0:0:0:
134,5,159035,1,0,0:0:0:0:
353,293,159170,1,0,0:0:0:0:
11,317,159304,5,0,0:0:0:0:
134,5,159439,1,0,0:0:0:0:
101,358,159573,1,0,0:0:0:0:
224,46,159708,1,0,0:0:0:0:
411,358,159842,5,0,0:0:0:0:
378,5,159977,1,0,0:0:0:0:
501,317,160111,1,0,0:0:0:0:
288,46,160246,1,0,0:0:0:0:
101,358,160380,6,0,L|230:351,1,119.999996337891
407,39,160649,2,0,L|278:46,1,119.999996337891
498,165,160919,1,0,0:0:0:0:
185,0,161053,1,0,0:0:0:0:
194,354,161188,2,0,L|190:219,1,119.999996337891
22,55,161457,5,0,0:0:0:0:
190,234,161591,1,0,0:0:0:0:
15,199,161726,1,0,0:0:0:0:
281,93,161860,1,0,0:0:0:0:
168,369,161995,1,0,0:0:0:0:
135,73,162129,1,0,0:0:0:0:
303,310,162264,1,0,0:0:0:0:
405,10,162398,1,0,0:0:0:0:
206,276,162533,6,0,L|77:268,1,119.999996337891
393,45,162802,1,0,0:0:0:0:
403,357,162936,1,0,0:0:0:0:
148,244,163071,2,0,L|155:88,1,119.999996337891
29,353,163340,1,0,0:0:0:0:
279,186,163475,1,0,0:0:0:0:
21,41,163609,6,0,L|32:184,1,119.999996337891
256,376,163878,1,0,0:0:0:0:
30,160,164013,1,0,0:0:0:0:
98,348,164147,1,0,0:0:0:0:
397,237,164282,1,0,0:0:0:0:
119,75,164416,1,0,0:0:0:0:
256,376,164551,1,0,0:0:0:0:
441,158,164685,6,0,P|375:153|323:186,1,119.999996337891
93,377,164954,1,0,0:0:0:0:
75,19,165089,2,0,B|87:93|87:93|59:170|59:170|71:283,1,239.999992675781
328,334,165493,2,0,P|276:298|209:307,1,119.999996337891
16,374,165762,1,0,0:0:0:0:
345,137,165896,1,0,0:0:0:0:
47,96,166031,1,0,0:0:0:0:
202,372,166165,1,0,0:0:0:0:
262,8,166300,1,0,0:0:0:0:
24,226,166434,1,0,0:0:0:0:
329,258,166569,2,0,L|458:244,1,119.999996337891
47,46,166838,5,0,0:0:0:0:
379,155,166972,1,0,0:0:0:0:
176,11,167107,2,0,B|146:142|146:142|199:123,1,179.999994506836
222,117,167376,2,0,L|241:259,1,119.999996337891
105,382,167645,1,0,0:0:0:0:
33,196,167780,2,0,P|146:166|248:263,1,239.999992675781
105,382,168183,1,0,0:0:0:0:
402,306,168318,1,0,0:0:0:0:
33,196,168452,5,0,0:0:0:0:
225,4,168587,1,0,0:0:0:0:
255,372,168721,1,0,0:0:0:0:
450,152,168856,1,0,0:0:0:0:
50,32,168990,6,0,L|56:184,1,119.999996337891
331,376,169259,2,0,L|344:248,1,119.999996337891
375,12,169528,1,0,0:0:0:0:
343,256,169663,1,0,0:0:0:0:
184,20,169797,1,0,0:0:0:0:
421,342,169932,1,0,0:0:0:0:
281,15,170067,1,0,0:0:0:0:
153,381,170201,1,0,0:0:0:0:
16,146,170336,6,0,P|80:147|155:168,1,119.999996337891
421,342,170605,2,0,P|357:341|282:320,1,119.999996337891
385,37,170874,2,0,P|414:104|354:214,1,179.999994506836
338,223,171143,2,0,P|298:282|314:350,1,119.999996337891
498,173,171412,1,0,0:0:0:0:
145,89,171546,2,0,B|27:109|27:109|166:141,1,239.999992675781
395,303,171950,2,0,B|452:325|452:325|388:343,1,119.999996337891
91,369,172219,5,0,0:0:0:0:
327,117,172354,1,0,0:0:0:0:
15,221,172488,5,0,0:0:0:0:
358,180,172623,1,0,0:0:0:0:
53,60,172757,5,0,0:0:0:0:
342,248,172892,1,0,0:0:0:0:
191,13,173026,5,0,0:0:0:0:
91,369,173161,1,0,0:0:0:0:
91,369,173228,1,0,0:0:0:0:
91,369,173295,2,0,L|219:361,1,119.999996337891
466,145,173564,2,0,P|405:147|351:190,1,119.999996337891
210,361,173833,1,0,0:0:0:0:
358,180,173968,1,0,0:0:0:0:
315,382,174102,1,0,0:0:0:0:
159,140,174237,1,0,0:0:0:0:
1,358,174371,6,0,L|139:346,1,119.999996337891
466,145,174641,2,0,L|334:126,1,119.999996337891
9,52,174910,1,0,0:0:0:0:
250,381,175044,1,0,0:0:0:0:
303,12,175179,1,0,0:0:0:0:
127,219,175313,1,0,0:0:0:0:
485,184,175448,1,0,0:0:0:0:
170,10,175582,1,0,0:0:0:0:
28,303,175717,6,0,P|115:297|106:196,1,179.999994506836
127,219,175986,2,0,L|275:201,1,119.999996337891
485,184,176255,1,0,0:0:0:0:
43,7,176389,2,0,B|33:68|57:103|57:103|16:178|16:178|58:240,1,239.999992675781
160,382,176793,1,0,0:0:0:0:
337,96,176928,1,0,0:0:0:0:
444,355,177062,1,0,0:0:0:0:
150,167,177197,1,0,0:0:0:0:
150,167,177264,1,0,0:0:0:0:
150,167,177331,1,0,0:0:0:0:
150,167,177398,1,0,0:0:0:0:
150,167,177466,1,0,0:0:0:0:
150,167,177533,1,0,0:0:0:0:
150,167,177600,1,0,0:0:0:0:
122,211,189938,5,0,0:0:0:0:
381,81,190073,1,0,0:0:0:0:
381,81,190375,6,0,B|416:142|361:185|361:185|352:249|352:249|395:215,1,220.000006713867
508,145,190778,1,0,0:0:0:0:
199,11,190912,1,0,0:0:0:0:
71,310,191047,2,0,L|202:304,1,110.000003356934
433,294,191316,1,0,0:0:0:0:
62,10,191450,6,0,L|67:144,1,110.000003356934
76,382,191719,1,0,0:0:0:0:
486,232,191854,2,0,P|429:214|370:239,1,110.000003356934
183,382,192123,1,0,0:0:0:0:
305,6,192257,1,0,0:0:0:0:
382,228,192392,1,0,0:0:0:0:
68,289,192526,6,0,L|202:262,1,110.000003356934
493,211,192795,1,0,0:0:0:0:
142,127,192930,1,0,0:0:0:0:
295,310,193065,1,0,0:0:0:0:
253,8,193199,1,0,0:0:0:0:
186,362,193334,1,0,0:0:0:0:
496,302,193468,1,0,0:0:0:0:
314,88,193603,6,0,L|303:223,1,110.000003356934
105,378,193872,1,0,0:0:0:0:
15,145,194006,1,0,0:0:0:0:
15,145,194074,1,0,0:0:0:0:
15,145,194141,1,0,0:0:0:0:
15,145,194208,1,0,0:0:0:0:
15,145,194275,2,0,P|74:136|139:148,1,110.000003356934
340,380,194544,1,0,0:0:0:0:
493,41,194679,6,0,P|429:39|345:169,1,220.000006713867
147,381,195082,2,0,L|137:254,1,110.000003356934
114,11,195352,1,0,0:0:0:0:
451,148,195486,1,0,0:0:0:0:
9,192,195621,1,0,0:0:0:0:
486,134,195755,1,0,0:0:0:0:
486,134,195822,1,0,0:0:0:0:
486,134,195890,2,0,L|482:253,1,110.000003356934
259,7,196159,6,0,L|249:247,1,220.000006713867
94,378,196562,1,0,0:0:0:0:
24,112,196697,2,0,P|74:95|148:109,1,110.000003356934
349,306,196966,2,0,P|429:302|490:246,1,165.000005035401
398,110,197235,1,0,0:0:0:0:
398,110,197302,1,0,0:0:0:0:
398,110,197369,6,0,P|387:144|387:179,1,55.0000016784668
255,379,197504,2,0,L|182:370,1,55.0000016784668
22,293,197639,2,0,L|82:286,1,55.0000016784668
328,210,197773,2,0,L|269:200,1,55.0000016784668
27,94,197908,2,0,L|101:87,1,55.0000016784668
356,20,198042,1,0,0:0:0:0:
384,79,198109,1,0,0:0:0:0:
391,145,198177,1,0,0:0:0:0:
380,209,198244,1,0,0:0:0:0:
349,267,198311,2,0,B|289:288|244:255|244:255|196:223|131:255,1,220.000006713867
21,378,198715,1,0,0:0:0:0:
305,182,198849,1,0,0:0:0:0:
75,7,198984,6,0,L|82:128,1,110.000003356934
183,377,199253,1,0,0:0:0:0:
375,129,199387,2,0,P|322:102|261:106,1,110.000003356934
472,289,199656,1,0,0:0:0:0:
472,289,199724,1,0,0:0:0:0:
472,289,199791,1,0,0:0:0:0:
472,289,199858,1,0,0:0:0:0:
472,289,199926,2,0,L|487:199,1,55.0000016784668
266,0,200060,6,0,P|252:53|283:114,1,110.000003356934
481,234,200329,1,0,0:0:0:0:
254,359,200464,2,0,L|128:349,1,110.000003356934
14,106,200733,1,0,0:0:0:0:
231,133,200867,1,0,0:0:0:0:
450,160,201002,1,0,0:0:0:0:
132,6,201136,6,0,L|121:127,1,110.000003356934
381,365,201405,1,0,0:0:0:0:
7,318,201540,2,0,P|64:279|121:277,1,110.000003356934
381,365,201809,1,0,0:0:0:0:
381,365,201876,1,0,0:0:0:0:
381,365,201943,1,0,0:0:0:0:
381,365,202011,1,0,0:0:0:0:
381,365,202078,2,0,L|390:279,1,55.0000016784668
306,31,202213,2,0,L|292:178,1,110.000003356934
267,377,202482,1,0,0:0:0:0:
511,162,202616,6,0,P|465:144|383:146,1,110.000003356934
28,378,202885,1,0,0:0:0:0:
281,257,203020,1,0,0:0:0:0:
87,184,203154,1,0,0:0:0:0:
387,59,203289,1,0,0:0:0:0:
387,59,203356,1,0,0:0:0:0:
387,59,203423,6,0,P|392:94|384:135,1,55.0000016784668
284,311,203558,2,0,P|279:276|287:235,1,55.0000016784668
459,240,203692,2,0,P|424:245|383:237,1,55.0000016784668
207,137,203827,2,0,P|242:132|283:140,1,55.0000016784668
498,323,203961,6,0,L|415:314,1,55.0000016784668
201,286,204096,1,0,0:0:0:0:
147,297,204163,1,0,0:0:0:0:
106,333,204230,1,0,0:0:0:0:
53,351,204298,1,0,0:0:0:0:
11,315,204365,1,0,0:0:0:0:
17,260,204432,1,0,0:0:0:0:
65,232,204500,6,0,P|96:234|123:245,1,55.0000016784668
321,355,204634,2,0,P|352:355|390:341,1,55.0000016784668
145,66,204769,2,0,L|147:136,1,55.0000016784668
321,355,204903,2,0,L|327:295,1,55.0000016784668
354,11,205038,1,0,0:0:0:0:
289,24,205105,1,0,0:0:0:0:
242,70,205172,1,0,0:0:0:0:
227,134,205239,1,0,0:0:0:0:
187,187,205307,1,0,0:0:0:0:
122,198,205374,1,0,0:0:0:0:
72,154,205441,1,0,0:0:0:0:
66,87,205509,1,0,0:0:0:0:
108,36,205576,6,0,P|137:38|170:48,1,55.0000016784668
381,156,205710,2,0,L|458:152,1,55.0000016784668
138,278,205845,2,0,L|73:272,1,55.0000016784668
390,357,205979,2,0,L|470:352,1,55.0000016784668
72,154,206114,2,0,L|14:147,3,55.0000016784668
442,43,206383,2,0,L|500:38,3,55.0000016784668
33,73,206652,5,0,0:0:0:0:
507,222,206787,1,0,0:0:0:0:
33,311,206921,5,0,0:0:0:0:
507,162,207056,1,0,0:0:0:0:
250,22,207190,5,0,0:0:0:0:
171,99,207280,5,0,0:0:0:0:
164,207,207369,5,0,0:0:0:0:
228,296,207459,5,0,0:0:0:0:
335,319,207549,5,0,0:0:0:0:
426,257,207639,5,0,0:0:0:0:
451,150,207728,6,0,P|389:152|342:196,1,110.000003356934
86,369,207997,2,0,L|216:364,1,100
426,257,208266,2,0,P|334:283|255:215,1,200
75,13,208670,2,0,L|80:149,1,100
86,369,208939,1,0,0:0:0:0:
352,179,209074,1,0,0:0:0:0:
78,112,209208,1,0,0:0:0:0:
365,314,209343,1,0,0:0:0:0:
235,8,209477,1,0,0:0:0:0:
86,369,209612,1,0,0:0:0:0:
436,237,209746,1,0,0:0:0:0:
140,221,209881,6,0,L|17:212,1,100
373,81,210150,2,0,L|481:69,1,100
140,221,210419,1,0,0:0:0:0:
373,81,210553,1,0,0:0:0:0:
269,381,210688,2,0,L|262:267,1,100
26,20,210957,2,0,L|33:158,1,100
56,375,211226,1,0,0:0:0:0:
445,192,211361,2,0,P|391:180|327:182,1,100
128,336,211630,1,0,0:0:0:0:
275,19,211764,2,0,L|261:134,1,100
494,358,212033,5,0,0:0:0:0:
164,203,212168,1,0,0:0:0:0:
463,108,212302,1,0,0:0:0:0:
316,379,212437,1,0,0:0:0:0:
175,51,212571,1,0,0:0:0:0:
175,51,212706,1,0,0:0:0:0:
168,74,212975,6,0,L|175:183,1,100
191,381,213244,1,0,0:0:0:0:
19,141,213378,1,0,0:0:0:0:
331,261,213513,1,0,0:0:0:0:
308,13,213648,1,0,0:0:0:0:
66,277,213782,1,0,0:0:0:0:
417,113,213917,1,0,0:0:0:0:
110,18,214051,1,0,0:0:0:0:
256,380,214186,5,0,0:0:0:0:
256,4,214320,1,0,0:0:0:0:
161,354,214455,5,0,0:0:0:0:
350,29,214589,1,0,0:0:0:0:
350,354,214724,5,0,0:0:0:0:
162,29,214858,1,0,0:0:0:0:
180,323,214993,5,0,0:0:0:0:
331,60,215127,1,0,0:0:0:0:
331,323,215262,5,0,0:0:0:0:
180,60,215396,1,0,0:0:0:0:
256,343,215530,5,0,0:0:0:0:
256,40,215664,1,0,0:0:0:0:
16,319,215800,1,0,0:0:0:0:
55,349,215867,1,0,0:0:0:0:
104,359,215935,1,0,0:0:0:0:
153,351,216002,1,0,0:0:0:0:
190,318,216069,1,0,0:0:0:0:
247,270,216136,1,0,0:0:0:0:
321,258,216204,1,0,0:0:0:0:
393,274,216271,1,0,0:0:0:0:
442,330,216338,6,0,L|454:216,1,100
205,12,216607,1,0,0:0:0:0:
243,231,216742,1,0,0:0:0:0:
21,317,216876,2,0,L|49:198,1,100
88,14,217145,1,0,0:0:0:0:
43,219,217280,1,0,0:0:0:0:
282,104,217414,1,0,0:0:0:0:
59,15,217549,1,0,0:0:0:0:
177,340,217683,1,0,0:0:0:0:
321,103,217818,1,0,0:0:0:0:
83,209,217952,5,0,0:0:0:0:
394,186,218087,1,0,0:0:0:0:
118,126,218222,1,0,0:0:0:0:
388,266,218356,1,0,0:0:0:0:
83,384,218491,2,0,L|82:273,1,100
359,25,218760,2,0,P|402:62|405:114,1,100
135,214,219029,2,0,L|0:207,1,100
291,372,219298,1,0,0:0:0:0:
489,311,219432,1,0,0:0:0:0:
227,44,219567,6,0,L|221:162,1,100
215,373,219836,1,0,0:0:0:0:
503,258,219970,2,0,L|382:253,1,100
115,246,220239,1,0,0:0:0:0:
303,1,220374,2,0,P|309:72|227:132,1,150
221,127,220643,1,0,0:0:0:0:
403,253,220778,1,0,0:0:0:0:
95,302,220912,1,0,0:0:0:0:
495,233,221047,1,0,0:0:0:0:
99,65,221181,1,0,0:0:0:0:
256,376,221316,1,0,0:0:0:0:
256,11,221450,1,0,0:0:0:0:
25,311,221585,6,0,P|79:304|126:288,1,100
258,192,221854,1,0,0:0:0:0:
487,73,221988,2,0,P|433:80|386:96,1,100
258,192,222257,1,0,0:0:0:0:
257,207,222325,1,0,0:0:0:0:
256,221,222392,1,0,0:0:0:0:
254,235,222459,1,0,0:0:0:0:
253,249,222526,1,0,0:0:0:0:
252,263,222594,1,0,0:0:0:0:
251,278,222661,6,0,L|122:269,1,100
389,94,222930,1,0,0:0:0:0:
442,368,223065,1,0,0:0:0:0:
95,245,223199,1,0,0:0:0:0:
486,127,223334,1,0,0:0:0:0:
136,20,223468,1,0,0:0:0:0:
127,329,223603,6,0,L|197:333,1,50
385,329,223737,2,0,L|312:334,1,50
135,192,223872,6,0,L|63:198,1,50
377,192,224006,2,0,L|449:198,1,50
49,52,224141,6,0,L|119:56,1,50
460,55,224275,2,0,L|387:60,1,50
155,249,224410,6,0,L|93:244,1,50
353,251,224544,2,0,L|428:243,1,50
25,361,224679,6,0,L|102:356,1,50
487,361,224813,2,0,L|410:356,1,50
254,198,224948,2,0,L|315:191,1,50
168,318,225082,2,0,L|97:310,1,50
324,115,225217,6,0,L|326:173,1,50
180,307,225352,2,0,L|175:228,1,50
167,129,225486,1,0,0:0:0:0:
166,109,225553,1,0,0:0:0:0:
164,88,225621,1,0,0:0:0:0:
162,68,225688,1,0,0:0:0:0:
161,48,225755,2,0,L|89:46,9,50
251,164,226428,2,0,P|312:186|304:75,1,200
312,70,226764,1,0,0:0:0:0:
312,70,226831,1,0,0:0:0:0:
312,70,227101,6,0,L|300:207,1,119.999996337891
93,384,227370,1,0,0:0:0:0:
301,189,227504,1,0,0:0:0:0:
50,102,227639,2,0,L|67:255,1,119.999996337891
286,384,227908,1,0,0:0:0:0:
320,0,228042,1,0,0:0:0:0:
292,301,228177,1,0,0:0:0:0:
484,53,228311,5,0,0:0:0:0:
509,302,228446,1,0,0:0:0:0:
223,162,228580,1,0,0:0:0:0:
495,83,228715,1,0,0:0:0:0:
401,357,228849,1,0,0:0:0:0:
283,48,228984,1,0,0:0:0:0:
166,196,229118,1,0,0:0:0:0:
166,196,229186,1,0,0:0:0:0:
166,196,229253,6,0,L|148:72,1,119.999996337891
356,10,229522,1,0,0:0:0:0:
425,301,229657,2,0,P|356:313|291:301,1,119.999996337891
30,82,229926,2,0,P|99:70|164:82,1,119.999996337891
307,306,230195,1,0,0:0:0:0:
12,372,230329,6,0,L|21:237,1,119.999996337891
256,12,230598,1,0,0:0:0:0:
314,346,230733,1,0,0:0:0:0:
379,14,230867,1,0,0:0:0:0:
145,260,231002,1,0,0:0:0:0:
501,197,231136,1,0,0:0:0:0:
176,40,231271,1,0,0:0:0:0:
176,40,231338,1,0,0:0:0:0:
176,40,231405,6,0,P|241:41|291:65,1,119.999996337891
410,327,231674,1,0,0:0:0:0:
59,368,231809,2,0,L|51:227,1,119.999996337891
289,64,232078,1,0,0:0:0:0:
410,327,232213,2,0,L|423:206,1,119.999996337891
447,12,232482,5,0,0:0:0:0:
422,207,232616,1,0,0:0:0:0:
273,12,232751,5,0,0:0:0:0:
334,215,232885,1,0,0:0:0:0:
128,92,233020,5,0,0:0:0:0:
261,259,233154,1,0,0:0:0:0:
273,12,233289,1,0,0:0:0:0:
76,315,233423,1,0,0:0:0:0:
76,315,233491,1,0,0:0:0:0:
76,315,233558,2,0,P|137:327|203:294,1,119.999996337891
366,108,233827,2,0,L|163:88,1,179.999994506836
156,86,234096,5,0,0:0:0:0:
427,377,234231,1,0,0:0:0:0:
256,11,234365,1,0,0:0:0:0:
155,259,234500,1,0,0:0:0:0:
383,182,234634,1,0,0:0:0:0:
120,190,234769,5,0,0:0:0:0:
419,250,234903,1,0,0:0:0:0:
113,323,235038,5,0,0:0:0:0:
418,116,235172,1,0,0:0:0:0:
80,7,235307,1,0,0:0:0:0:
24,52,235374,1,0,0:0:0:0:
9,122,235441,1,0,0:0:0:0:
28,192,235509,1,0,0:0:0:0:
81,239,235576,1,0,0:0:0:0:
152,240,235643,1,0,0:0:0:0:
215,206,235710,6,0,P|275:198|342:210,1,119.999996337891
477,352,235979,1,0,0:0:0:0:
276,38,236114,1,0,0:0:0:0:
303,323,236248,2,0,L|335:197,1,119.999996337891
149,7,236518,1,0,0:0:0:0:
33,375,236652,1,0,0:0:0:0:
332,206,236787,6,0,P|274:196|202:209,1,119.999996337891
33,375,237056,1,0,0:0:0:0:
316,325,237190,2,0,L|335:177,1,119.999996337891
119,6,237459,1,0,0:0:0:0:
10,275,237594,2,0,P|68:285|140:272,1,119.999996337891
460,7,237863,5,0,0:0:0:0:
331,205,237997,1,0,0:0:0:0:
467,155,238132,1,0,0:0:0:0:
253,4,238266,1,0,0:0:0:0:
291,382,238401,1,0,0:0:0:0:
354,61,238535,1,0,0:0:0:0:
175,322,238670,1,0,0:0:0:0:
502,280,238805,5,0,0:0:0:0:
250,121,238939,1,0,0:0:0:0:
175,383,239074,1,0,0:0:0:0:
116,78,239208,1,0,0:0:0:0:
31,350,239343,1,0,0:0:0:0:
380,193,239477,1,0,0:0:0:0:
116,78,239612,1,0,0:0:0:0:
255,382,239679,1,0,0:0:0:0:
255,382,239746,1,0,0:0:0:0:
349,15,239881,1,0,0:0:0:0:
102,81,240015,5,0,0:0:0:0:
287,365,240149,1,0,0:0:0:0:
304,26,240284,1,0,0:0:0:0:
91,290,240418,1,0,0:0:0:0:
419,202,240553,1,0,0:0:0:0:
135,44,240688,5,0,0:0:0:0:
241,367,240822,1,0,0:0:0:0:
345,44,240957,1,0,0:0:0:0:
71,243,241091,1,0,0:0:0:0:
410,243,241226,1,0,0:0:0:0:
178,18,241361,5,0,0:0:0:0:
196,357,241495,1,0,0:0:0:0:
380,72,241630,1,0,0:0:0:0:
64,194,241764,1,0,0:0:0:0:
392,282,241899,1,0,0:0:0:0:
225,4,242033,5,0,0:0:0:0:
155,336,242167,1,0,0:0:0:0:
407,108,242302,1,0,0:0:0:0:
70,144,242436,1,0,0:0:0:0:
364,314,242571,1,0,0:0:0:0:
275,0,242706,5,0,0:0:0:0:
119,307,242840,1,0,0:0:0:0:
426,149,242975,1,0,0:0:0:0:
85,96,243109,1,0,0:0:0:0:
330,340,243244,1,0,0:0:0:0:
85,68,243379,5,0,0:0:0:0:
290,383,243513,1,0,0:0:0:0:
309,7,243648,1,0,0:0:0:0:
73,300,243782,1,0,0:0:0:0:
436,203,243917,1,0,0:0:0:0:
436,203,243984,1,0,0:0:0:0:
436,203,244051,1,0,0:0:0:0:
86,43,244186,1,0,0:0:0:0:
170,384,244320,6,0,L|317:372,1,119.999996337891
17,83,244589,2,0,L|11:220,1,119.999996337891
4,384,244858,1,0,0:0:0:0:
280,247,244993,1,0,0:0:0:0:
115,0,245127,2,0,L|110:147,1,119.999996337891
90,383,245396,5,0,0:0:0:0:
17,83,245531,1,0,0:0:0:0:
247,233,245666,1,0,0:0:0:0:
31,316,245800,1,0,0:0:0:0:
210,15,245935,1,0,0:0:0:0:
237,364,246069,1,0,0:0:0:0:
141,142,246204,1,0,0:0:0:0:
360,58,246338,1,0,0:0:0:0:
150,273,246473,6,0,L|21:269,1,119.999996337891
360,58,246742,2,0,L|501:64,1,119.999996337891
78,71,247011,1,0,0:0:0:0:
131,376,247145,1,0,0:0:0:0:
440,322,247280,1,0,0:0:0:0:
386,15,247414,1,0,0:0:0:0:
131,376,247549,5,0,0:0:0:0:
494,191,247683,1,0,0:0:0:0:
12,86,247818,5,0,0:0:0:0:
317,281,247953,1,0,0:0:0:0:
10,352,248087,5,0,0:0:0:0:
497,243,248222,1,0,0:0:0:0:
44,98,248356,1,0,0:0:0:0:
363,21,248491,1,0,0:0:0:0:
363,21,248558,1,0,0:0:0:0:
363,21,248625,6,0,L|353:158,1,119.999996337891
161,382,248894,1,0,0:0:0:0:
17,192,249029,2,0,P|90:188|161:212,1,119.999996337891
310,381,249298,1,0,0:0:0:0:
464,106,249432,2,0,P|408:109|343:151,1,119.999996337891
62,382,249701,6,0,L|72:243,1,119.999996337891
86,3,249970,1,0,0:0:0:0:
450,382,250105,2,0,L|440:243,1,119.999996337891
426,3,250374,1,0,0:0:0:0:
62,382,250509,5,0,0:0:0:0:
426,3,250643,1,0,0:0:0:0:
450,382,250778,1,0,0:0:0:0:
86,3,250912,1,0,0:0:0:0:
256,381,251047,5,0,0:0:0:0:
373,106,251181,1,0,0:0:0:0:
451,340,251316,1,0,0:0:0:0:
220,293,251450,1,0,0:0:0:0:
499,198,251585,1,0,0:0:0:0:
180,5,251719,2,0,B|137:47|127:111|127:111|178:170|178:170|161:234,1,239.999992675781
133,364,252123,5,0,0:0:0:0:
379,364,252257,1,0,0:0:0:0:
108,252,252392,1,0,0:0:0:0:
403,252,252526,1,0,0:0:0:0:
80,140,252661,1,0,0:0:0:0:
435,140,252795,1,0,0:0:0:0:
49,29,252930,6,0,L|170:19,1,119.999996337891
403,252,253199,2,0,L|262:236,1,119.999996337891
12,204,253468,1,0,0:0:0:0:
336,5,253603,1,0,0:0:0:0:
493,323,253737,2,0,L|506:195,1,119.999996337891
112,3,254006,5,0,0:0:0:0:
256,375,254141,1,0,0:0:0:0:
79,255,254275,1,0,0:0:0:0:
427,134,254410,1,0,0:0:0:0:
108,37,254544,1,0,0:0:0:0:
293,376,254679,1,0,0:0:0:0:
8,186,254814,2,0,P|69:161|133:173,1,119.999996337891
335,376,255083,6,0,L|348:256,1,119.999996337891
383,12,255352,1,0,0:0:0:0:
79,259,255486,2,0,L|97:384,1,119.999996337891
44,21,255755,1,0,0:0:0:0:
347,256,255890,2,0,P|412:270|469:255,1,119.999996337891
257,72,256159,5,0,0:0:0:0:
482,353,256293,1,0,0:0:0:0:
406,11,256428,1,0,0:0:0:0:
253,284,256562,1,0,0:0:0:0:
176,48,256697,1,0,0:0:0:0:
351,202,256831,1,0,0:0:0:0:
64,131,256966,1,0,0:0:0:0:
373,100,257101,1,0,0:0:0:0:
33,12,257235,5,0,0:0:0:0:
108,357,257370,1,0,0:0:0:0:
231,129,257504,1,0,0:0:0:0:
8,216,257639,1,0,0:0:0:0:
266,358,257773,1,0,0:0:0:0:
273,39,257908,1,0,0:0:0:0:
121,332,258042,1,0,0:0:0:0:
503,286,258177,1,0,0:0:0:0:
283,152,258311,5,0,0:0:0:0:
155,375,258446,1,0,0:0:0:0:
473,294,258580,1,0,0:0:0:0:
133,152,258715,1,0,0:0:0:0:
448,81,258849,1,0,0:0:0:0:
104,0,258984,1,0,0:0:0:0:
281,342,259118,1,0,0:0:0:0:
7,323,259253,2,0,P|90:243|206:254,1,239.999992675781
377,381,259657,5,0,0:0:0:0:
409,330,259724,1,0,0:0:0:0:
415,270,259791,2,0,L|350:255,1,59.9999981689454
206,254,259926,1,0,0:0:0:0:
174,203,259993,5,0,0:0:0:0:
168,143,260060,2,0,L|233:128,1,59.9999981689454
412,144,260195,1,0,0:0:0:0:
444,93,260262,5,0,0:0:0:0:
450,33,260329,2,0,L|385:18,1,59.9999981689454
85,8,260464,1,0,0:0:0:0:
90,97,260531,1,0,0:0:0:0:
95,186,260598,1,0,0:0:0:0:
100,276,260666,1,0,0:0:0:0:
107,365,260733,1,0,0:0:0:0:
357,169,260867,2,0,L|411:165,2,29.9999990844727
256,319,261405,5,0,0:0:0:0:
256,319,261473,1,0,0:0:0:0:
256,319,261540,2,0,L|247:197,1,119.999996337891
233,19,261809,1,0,0:0:0:0:
163,369,261944,1,0,0:0:0:0:
493,282,262078,1,0,0:0:0:0:
152,96,262213,1,0,0:0:0:0:
76,376,262347,1,0,0:0:0:0:
375,207,262482,6,0,L|370:76,1,100
107,13,262751,1,0,0:0:0:0:
0,226,262885,2,0,P|68:223|114:189,1,100
290,13,263154,1,0,0:0:0:0:
330,370,263289,1,0,0:0:0:0:
187,126,263423,1,0,0:0:0:0:
460,281,263558,6,0,L|478:167,1,100
290,13,263827,1,0,0:0:0:0:
141,338,263961,2,0,L|15:333,1,100
280,200,264231,1,0,0:0:0:0:
330,370,264365,1,0,0:0:0:0:
93,200,264500,1,0,0:0:0:0:
359,66,264634,6,0,L|474:71,1,100
280,200,264903,1,0,0:0:0:0:
98,0,265038,2,0,P|89:64|94:132,1,100
412,353,265307,1,0,0:0:0:0:
231,221,265441,1,0,0:0:0:0:
46,352,265576,1,0,0:0:0:0:
358,233,265710,6,0,P|367:165|364:114,1,100
98,0,265979,1,0,0:0:0:0:
46,352,266114,2,0,L|177:346,1,100
469,331,266383,1,0,0:0:0:0:
131,190,266518,1,0,0:0:0:0:
471,115,266652,1,0,0:0:0:0:
258,356,266787,6,0,B|236:324|240:285|240:285|264:249|264:249|233:197|262:149,1,200
471,13,267190,1,0,0:0:0:0:
351,189,267325,1,0,0:0:0:0:
118,27,267459,2,0,P|184:27|242:52,1,100
402,270,267728,1,0,0:0:0:0:
110,293,267863,1,0,0:0:0:0:
234,43,267997,5,0,0:0:0:0:
144,380,268132,1,0,0:0:0:0:
16,38,268266,1,0,0:0:0:0:
266,187,268401,1,0,0:0:0:0:
17,139,268535,1,0,0:0:0:0:
234,43,268670,1,0,0:0:0:0:
18,240,268805,1,0,0:0:0:0:
180,349,268939,2,0,B|231:374|276:355|276:355|327:330|383:355,1,200
407,242,269343,6,0,P|357:230|306:231,1,100
477,17,269612,2,0,P|481:79|471:135,1,100
180,349,269881,1,0,0:0:0:0:
188,96,270015,2,0,P|278:56|404:70,1,200
76,9,270419,1,0,0:0:0:0:
42,299,270553,1,0,0:0:0:0:
297,145,270688,1,0,0:0:0:0:
482,353,270822,1,0,0:0:0:0:
161,217,270957,1,0,0:0:0:0:
428,79,271092,6,0,B|459:164|415:230|415:230|368:195,1,200
113,35,271495,2,0,L|106:147,1,100
88,382,271764,1,0,0:0:0:0:
485,269,271899,1,0,0:0:0:0:
196,93,272033,1,0,0:0:0:0:
345,352,272168,6,0,L|465:338,1,100
84,161,272437,1,0,0:0:0:0:
295,41,272571,2,0,P|308:93|285:156,1,100
88,382,272840,1,0,0:0:0:0:
345,352,272975,2,0,L|460:339,1,100
156,93,273244,6,0,B|253:120|253:120|312:106|312:106|256:90,1,200
31,29,273648,1,0,0:0:0:0:
241,292,273782,1,0,0:0:0:0:
219,17,273917,1,0,0:0:0:0:
59,226,274051,1,0,0:0:0:0:
401,185,274186,1,0,0:0:0:0:
106,365,274320,6,0,L|-10:360,1,100
255,194,274589,1,0,0:0:0:0:
406,365,274724,2,0,L|522:360,1,100
256,62,274993,1,0,0:0:0:0:
256,322,275127,1,0,0:0:0:0:
256,62,275262,1,0,0:0:0:0:
256,322,275396,6,0,B|238:251|238:251|270:207|270:207|254:114,1,200
26,7,275800,1,0,0:0:0:0:
257,135,275935,1,0,0:0:0:0:
9,273,276069,2,0,L|22:389,1,100
141,70,276338,1,0,0:0:0:0:
329,269,276473,6,0,P|379:277|438:268,1,100
255,73,276742,1,0,0:0:0:0:
57,372,276876,2,0,L|46:250,1,100
34,22,277145,1,0,0:0:0:0:
92,70,277213,1,0,0:0:0:0:
162,94,277280,1,0,0:0:0:0:
236,91,277347,1,0,0:0:0:0:
307,67,277414,1,0,0:0:0:0:
176,6,277549,5,0,0:0:0:0:
48,272,277683,1,0,0:0:0:0:
341,251,277818,2,0,L|457:246,1,100
162,94,278087,5,0,0:0:0:0:
406,339,278222,2,0,L|524:335,1,100
245,47,278491,1,0,0:0:0:0:
101,360,278625,1,0,0:0:0:0:
383,155,278760,2,0,B|336:133|286:156|286:156|236:185|180:152,1,200
26,22,279163,1,0,0:0:0:0:
256,381,279432,1,0,0:0:0:0:
486,22,279701,1,0,0:0:0:0:
256,192,279836,5,0,0:0:0:0:
256,192,279903,12,0,286360,0:0:0:0:
