osu file format v14

[General]
AudioFilename: audio.mp3
AudioLeadIn: 0
PreviewTime: -1
Countdown: 1
SampleSet: None
StackLeniency: 0.7
Mode: 0
LetterboxInBreaks: 0
WidescreenStoryboard: 0

[Editor]
DistanceSpacing: 1.2
BeatDivisor: 4
GridSize: 16
TimelineZoom: 1

[Metadata]
Title:Kegare Naki Yume
TitleUnicode:Kegare Naki Yume
Artist:Asriel
ArtistUnicode:Asriel
Creator:Neptune
Version:Neptune
Source:
Tags:
BeatmapID:1928743
BeatmapSetID:923576

[Difficulty]
HPDrainRate:8
CircleSize:3.8
OverallDifficulty:8
ApproachRate:9.6
SliderMultiplier:1.8
SliderTickRate:0.5

[Events]
//Background and Video events
0,0,"bg2.jpg",0,0
//Break Periods
//Storyboard Layer 0 (Background)
//Storyboard Layer 1 (Fail)
//Storyboard Layer 2 (Pass)
//Storyboard Layer 3 (Foreground)
//Storyboard Sound Samples

[TimingPoints]
9575,269.058295964126,4,1,1,70,1,0
26929,269.058295964126,4,1,1,70,1,0
29081,-100,4,1,1,70,0,0
29552,-100,4,2,1,70,0,0
45695,-100,4,1,1,70,0,0
63523,-100,4,1,1,70,0,1
97960,-100,4,1,1,70,0,0
109193,-100,4,2,1,70,0,0
125337,-100,4,1,1,70,0,0
143162,-100,4,1,1,70,0,1
177601,269.058295964126,3,1,1,70,1,0
178370,269.058295964126,3,2,1,70,1,0
179177,-200,3,2,1,70,0,0
190500,269.058295964126,4,2,1,70,1,0
207114,-100,4,1,1,55,0,0
207921,-100,4,1,1,70,0,0
227091,-100,4,1,1,70,0,1
235634,-200,4,1,1,70,0,1
244109,-100,4,1,1,70,0,1
262473,-100,4,1,1,70,0,0

[Colours]
Combo1 : 255,255,0
Combo2 : 255,0,0
Combo3 : 255,255,255

[HitObjects]
31,365,9171,6,0,L|74:327,1,45
221,176,9305,2,0,L|185:122,1,45
2,121,9440,2,0,L|32:168,1,45
110,262,9575,6,0,B|199:270|199:270|296:258,1,180
198,55,9978,2,0,L|181:161,1,90
141,335,10247,1,0,0:0:0:0:
25,205,10382,1,0,0:0:0:0:
25,205,10449,1,0,0:0:0:0:
25,205,10516,1,0,0:0:0:0:
237,94,10651,6,0,B|150:80|150:80|59:95,1,180
17,295,11054,2,0,B|67:303|67:303|107:297,1,90
173,132,11323,1,0,0:0:0:0:
255,322,11458,1,0,0:0:0:0:
255,322,11525,1,0,0:0:0:0:
255,322,11592,1,0,0:0:0:0:
76,268,11727,6,0,P|17:211|20:108,1,180
178,29,12131,2,0,P|226:25|271:29,1,90
176,215,12400,1,0,0:0:0:0:
58,41,12534,1,0,0:0:0:0:
58,41,12601,1,0,0:0:0:0:
58,41,12669,1,0,0:0:0:0:
320,79,12803,5,8,0:0:0:0:
229,53,12938,1,8,0:0:0:0:
130,74,13072,1,8,0:0:0:0:
286,198,13207,5,8,0:0:0:0:
174,172,13342,1,8,0:0:0:0:
83,249,13476,1,8,0:0:0:0:
111,360,13610,2,0,P|163:362|225:366,1,90
389,176,13879,6,0,L|383:356,1,180
187,344,14283,2,0,L|200:219,1,90
227,42,14552,1,0,0:0:0:0:
79,240,14687,1,0,0:0:0:0:
105,19,14821,1,0,0:0:0:0:
340,187,14956,6,0,P|262:223|152:182,1,180
248,29,15360,2,0,P|290:32|342:48,1,90
512,135,15628,1,0,0:0:0:0:
259,115,15763,1,0,0:0:0:0:
496,234,15898,1,0,0:0:0:0:
222,197,16032,6,0,P|298:237|376:200,1,180
390,59,16435,2,0,P|333:66|287:86,1,90
200,313,16705,1,8,0:0:0:0:
193,77,16839,1,8,0:0:0:0:
81,311,16974,1,0,0:0:0:0:
17,154,17108,6,0,P|66:131|106:108,1,90
327,187,17377,1,0,0:0:0:0:
176,211,17512,1,0,0:0:0:0:
336,23,17646,1,8,0:0:0:0:
482,120,17781,1,8,0:0:0:0:
254,152,17915,1,8,0:0:0:0:
512,256,18050,1,0,0:0:0:0:
275,325,18184,6,0,P|230:332|173:342,1,90
409,306,18453,1,0,0:0:0:0:
254,106,18588,1,0,0:0:0:0:
191,258,18723,1,0,0:0:0:0:
406,209,18857,2,0,P|407:139|394:87,2,90
286,74,19261,6,0,B|195:32|195:32|130:73|93:64,1,180
0,196,19664,2,0,P|44:204|97:195,1,90
224,59,19933,1,0,0:0:0:0:
0,83,20068,1,0,0:0:0:0:
211,193,20202,1,0,0:0:0:0:
329,37,20337,6,0,B|363:140|344:226,1,180,4|0,0:0|0:0,0:0:0:0:
194,335,20740,2,0,P|195:291|208:241,1,90
445,56,21009,1,0,0:0:0:0:
229,112,21144,1,0,0:0:0:0:
420,240,21279,1,0,0:0:0:0:
259,21,21413,5,0,0:0:0:0:
187,351,21547,1,0,0:0:0:0:
446,112,21682,1,0,0:0:0:0:
87,189,21816,1,0,0:0:0:0:
441,291,21951,1,0,0:0:0:0:
261,31,22086,5,0,0:0:0:0:
284,367,22220,1,0,0:0:0:0:
259,21,22355,1,0,0:0:0:0:
285,374,22489,6,0,L|90:354,1,180
30,259,22893,1,0,0:0:0:0:
84,73,23028,1,0,0:0:0:0:
201,223,23162,1,0,0:0:0:0:
6,268,23297,1,0,0:0:0:0:
82,57,23431,1,0,0:0:0:0:
200,279,23566,6,0,L|274:282|331:293|392:258,1,180,8|0,0:0|0:0,0:0:0:0:
387,84,23969,1,8,0:0:0:0:
512,216,24104,1,0,0:0:0:0:
512,216,24171,1,0,0:0:0:0:
512,216,24238,1,0,0:0:0:0:
286,295,24373,1,4,0:0:0:0:
329,23,24507,1,0,0:0:0:0:
431,159,24642,2,0,L|333:154,1,90
82,127,24911,5,0,0:0:0:0:
32,316,25045,1,0,0:0:0:0:
243,60,25180,5,0,0:0:0:0:
196,231,25314,1,0,0:0:0:0:
366,28,25449,5,0,0:0:0:0:
324,170,25583,1,0,0:0:0:0:
491,101,25718,5,0,0:0:0:0:
512,195,25853,1,0,0:0:0:0:
418,211,25987,1,0,0:0:0:0:
398,117,26122,1,0,0:0:0:0:
484,155,26256,5,0,0:0:0:0:
431,300,26391,2,0,L|382:294,6,45
256,192,26929,12,0,28947,0:0:0:0:
