osu file format v14

[General]
AudioFilename: audio.mp3
AudioLeadIn: 0
PreviewTime: 142428
Countdown: 0
SampleSet: Soft
StackLeniency: 0.7
Mode: 2
LetterboxInBreaks: 0
WidescreenStoryboard: 0

[Editor]
Bookmarks: 29036,63473,108672,143110,177547,190315,190383,190450,190527,190594,197187,197725,203379,204052,204725,205397,206070,206743
DistanceSpacing: 1.3
BeatDivisor: 4
GridSize: 16
TimelineZoom: 3.300005

[Metadata]
Title:Kegare Naki Yume
TitleUnicode:穢れ亡き夢
Artist:Asriel
ArtistUnicode:Asriel
Creator:KuroRev
Version:Reverie
Source:11eyes -罪と罰と贖いの少女-
Tags:tsumi to batsu to aganai no shoujo lass 5pb.games eroge visual novel イレブンアイズ Irebunaizu Untainted Dream Sin Damnation and the Atonement Girl KOKOMI Keisuke Kurose 黒瀬 圭亮 Yukinari Shioda 塩田 幸成 Ending ED VN unveil Video Game Japanese
BeatmapID:1502772
BeatmapSetID:710899

[Difficulty]
HPDrainRate:6
CircleSize:4.2
OverallDifficulty:9.6
ApproachRate:9.6
SliderMultiplier:1.6
SliderTickRate:2

[Events]
//Background and Video events
0,0,"bg.jpg",0,0
//Break Periods
//Storyboard Layer 0 (Background)
//Storyboard Layer 1 (Fail)
//Storyboard Layer 2 (Pass)
//Storyboard Layer 3 (Foreground)
//Storyboard Layer 4 (Overlay)
//Storyboard Sound Samples

[TimingPoints]
1024,269.0583,4,2,2,30,1,0
1024,-125,4,2,1,30,0,0
8443,269.0583,4,2,1,50,1,0
9250,-100,4,2,1,70,0,0
9451,-100,4,2,1,5,0,0
9519,-100,4,2,1,70,0,0
9653,-83.3333333333333,4,2,1,70,0,0
21559,-83.3333333333333,4,2,1,35,0,0
21626,-83.3333333333333,4,2,1,70,0,0
21828,-83.3333333333333,4,2,1,35,0,0
21895,-83.3333333333333,4,2,1,70,0,0
22030,-83.3333333333333,4,2,1,70,0,0
22434,-83.3333333333333,4,2,1,70,0,0
23510,-83.3333333333333,4,2,1,70,0,0
28487,-83.3333333333333,4,2,1,70,0,0
28891,-83.3333333333333,4,2,1,50,0,0
29025,269.0583,4,2,2,40,1,0
29294,-125,4,2,1,30,0,0
45706,-83.3333333333333,4,2,1,30,0,0
46244,-83.3333333333333,4,2,1,60,0,0
54854,-90.9090909090909,4,2,1,60,0,0
55056,-83.3333333333333,4,2,1,30,0,0
55123,-83.3333333333333,4,2,1,60,0,0
61177,-80,4,2,1,70,0,0
63397,-80,4,2,1,5,0,0
63464,-80,4,2,1,70,0,1
63478,-71.4285714285714,4,2,1,80,0,1
69921,-71.4285714285714,4,2,1,80,0,1
70190,-71.4285714285714,4,2,1,80,0,1
70863,-71.4285714285714,4,2,1,80,0,1
71065,-71.4285714285714,4,2,1,40,0,1
71132,-71.4285714285714,4,2,1,80,0,1
71805,-71.4285714285714,4,2,1,80,0,0
72074,-71.4285714285714,4,2,1,80,0,1
78800,-71.4285714285714,4,2,1,80,0,1
79204,-71.4285714285714,4,2,1,80,0,0
80684,-71.4285714285714,4,2,1,80,0,1
87343,-71.4285714285714,4,2,1,40,0,1
87410,-71.4285714285714,4,2,1,80,0,1
87612,-71.4285714285714,4,2,1,40,0,1
87679,-71.4285714285714,4,2,1,80,0,1
87814,-71.4285714285714,4,2,1,80,0,0
88083,-71.4285714285714,4,2,1,80,0,1
88285,-71.4285714285714,4,2,1,40,0,1
88352,-71.4285714285714,4,2,1,80,0,1
95953,-71.4285714285714,4,2,1,40,0,1
96020,-71.4285714285714,4,2,1,80,0,1
96222,-71.4285714285714,4,2,1,40,0,1
96289,-71.4285714285714,4,2,1,80,0,1
96424,-71.4285714285714,4,2,1,80,0,0
96693,-71.4285714285714,4,2,1,80,0,1
96894,-71.4285714285714,4,2,1,40,0,1
96962,-71.4285714285714,4,2,1,80,0,1
97634,-71.4285714285714,4,2,1,80,0,1
97903,-83.3333333333333,4,2,1,70,0,0
104226,-71.4285714285714,4,2,1,70,0,0
105303,-62.5,4,2,1,70,0,0
105975,-100,4,2,1,70,0,0
106379,-100,4,2,1,70,0,0
107051,-83.3333333333333,4,2,1,70,0,0
107320,-100,4,2,1,70,0,0
107590,-100,4,2,1,70,0,0
107724,-133.333333333333,4,2,1,70,0,0
108666,-133.333333333333,4,2,1,30,0,0
108677,-125,4,2,1,30,0,0
111894,-125,4,2,1,30,0,0
112971,-125,4,2,1,30,0,0
120504,-125,4,2,1,30,0,0
121581,-125,4,2,1,30,0,0
122119,-125,4,2,1,30,0,0
122657,-125,4,2,1,30,0,0
123733,-125,4,2,1,30,0,0
125078,-83.3333333333333,4,2,1,30,0,0
125347,-83.3333333333333,4,2,1,30,0,0
125885,-83.3333333333333,4,2,1,60,0,0
130190,-83.3333333333333,4,2,1,60,0,0
132343,-83.3333333333333,4,2,1,60,0,0
132612,-83.3333333333333,4,2,1,60,0,0
132881,-83.3333333333333,4,2,1,60,0,0
133419,-83.3333333333333,4,2,1,60,0,0
134697,-83.3333333333333,4,2,1,30,0,0
134764,-83.3333333333333,4,2,1,60,0,0
135033,-83.3333333333333,4,2,1,60,0,0
140146,-100,4,2,1,60,0,0
140818,-83.3333333333333,4,2,1,70,0,0
143038,-83.3333333333333,4,2,1,5,0,0
143105,-83.3333333333333,4,2,1,70,0,1
143115,-71.4285714285714,4,2,1,80,0,1
149563,-71.4285714285714,4,2,1,80,0,1
149832,-71.4285714285714,4,2,1,80,0,1
150504,-71.4285714285714,4,2,1,80,0,1
150706,-71.4285714285714,4,2,1,40,0,1
150773,-71.4285714285714,4,2,1,80,0,1
151446,-71.4285714285714,4,2,1,80,0,0
151715,-71.4285714285714,4,2,1,80,0,1
158442,-71.4285714285714,4,2,1,80,0,1
158845,-71.4285714285714,4,2,1,80,0,0
160325,-71.4285714285714,4,2,1,80,0,1
166984,-71.4285714285714,4,2,1,40,0,1
167051,-71.4285714285714,4,2,1,80,0,1
167253,-71.4285714285714,4,2,1,40,0,1
167320,-71.4285714285714,4,2,1,80,0,1
167455,-71.4285714285714,4,2,1,80,0,0
167724,-71.4285714285714,4,2,1,80,0,1
175594,-71.4285714285714,4,2,1,40,0,1
175661,-71.4285714285714,4,2,1,80,0,1
175863,-71.4285714285714,4,2,1,40,0,1
175930,-71.4285714285714,4,2,1,80,0,1
176065,-71.4285714285714,4,2,1,80,0,0
176334,-71.4285714285714,4,2,1,80,0,1
176536,-71.4285714285714,4,2,1,40,0,1
176603,-71.4285714285714,4,2,1,80,0,1
177276,-71.4285714285714,4,2,1,80,0,1
177562,269.058295964126,3,2,1,30,1,0
177562,-125,3,2,1,30,0,0
179155,269.058295964126,3,2,1,30,1,0
179155,-125,3,2,1,30,0,0
181172,-125,3,2,1,30,0,0
181307,-125,3,2,1,30,0,0
189917,-80,3,2,1,75,0,0
190253,-80,3,2,1,35,0,0
190320,-83.3333333333333,3,2,1,75,0,0
190465,269.058295964126,4,2,1,75,1,0
190465,-83.3333333333333,4,2,1,75,0,0
192482,-100,4,2,1,75,0,0
192684,-83.3333333333333,4,2,1,35,0,0
192751,-83.3333333333333,4,2,1,75,0,0
194635,-100,4,2,1,75,0,0
194837,-83.3333333333333,4,2,1,35,0,0
194904,-83.3333333333333,4,2,1,75,0,0
197191,-66.6666666666667,4,2,1,75,0,0
197998,-83.3333333333333,4,2,1,75,0,0
198267,-100,4,2,1,75,0,0
198469,-83.3333333333333,4,2,1,35,0,0
198536,-83.3333333333333,4,2,1,75,0,0
198940,-83.3333333333333,4,2,1,75,0,0
199612,-83.3333333333333,4,2,1,75,0,0
200016,-100,4,2,1,75,0,0
200218,-83.3333333333333,4,2,1,35,0,0
200285,-83.3333333333333,4,2,1,75,0,0
201765,-83.3333333333333,4,2,1,75,0,0
202169,-100,4,2,1,75,0,0
202370,-83.3333333333333,4,2,1,35,0,0
202438,-83.3333333333333,4,2,1,75,0,0
203110,-83.3333333333333,4,2,1,75,0,0
207146,-83.3333333333333,4,2,1,75,0,0
207684,-83.3333333333333,4,2,1,60,0,0
211989,-83.3333333333333,4,2,1,60,0,0
214142,-83.3333333333333,4,2,1,60,0,0
214411,-83.3333333333333,4,2,1,60,0,0
214680,-83.3333333333333,4,2,1,60,0,0
215218,-83.3333333333333,4,2,1,60,0,0
216496,-83.3333333333333,4,2,1,5,0,0
216563,-83.3333333333333,4,2,1,60,0,0
216832,-83.3333333333333,4,2,1,60,0,0
222617,-83.3333333333333,4,2,1,70,0,0
223828,-83.3333333333333,4,2,1,60,0,0
224635,-83.3333333333333,4,2,1,50,0,0
225173,-83.3333333333333,4,2,1,45,0,0
225442,-83.3333333333333,4,2,1,40,0,0
226653,-83.3333333333333,4,2,1,70,0,0
226989,-83.3333333333333,4,2,1,5,0,0
227056,-71.4285714285714,4,2,1,80,0,1
233514,-71.4285714285714,4,2,1,80,0,1
233783,-71.4285714285714,4,2,1,80,0,1
234456,-71.4285714285714,4,2,1,80,0,1
234657,-71.4285714285714,4,2,1,40,0,1
234725,-71.4285714285714,4,2,1,80,0,1
235397,-71.4285714285714,4,2,1,80,0,0
235666,-71.4285714285714,4,2,1,80,0,1
242393,-71.4285714285714,4,2,1,80,0,1
242796,-71.4285714285714,4,2,1,80,0,0
244276,-71.4285714285714,4,2,1,80,0,1
244478,-71.4285714285714,4,2,1,40,0,1
244545,-71.4285714285714,4,2,1,80,0,1
250734,-71.4285714285714,4,2,1,80,0,1
251406,-71.4285714285714,4,2,1,80,0,0
251675,-71.4285714285714,4,2,1,80,0,1
251877,-71.4285714285714,4,2,1,40,0,1
251944,-71.4285714285714,4,2,1,80,0,1
259209,-71.4285714285714,4,2,1,80,0,0
259612,-71.4285714285714,4,2,1,80,0,0
260689,-71.4285714285714,4,2,1,80,0,0
260823,-71.4285714285714,4,2,1,60,0,0
261361,-71.4285714285714,4,2,1,70,0,0
262438,-83.3333333333333,4,2,1,70,0,1
262572,-83.3333333333333,4,2,1,70,0,0
274478,-83.3333333333333,4,2,1,40,0,0
274545,-83.3333333333333,4,2,1,70,0,0
274747,-83.3333333333333,4,2,1,40,0,0
274814,-83.3333333333333,4,2,1,70,0,0
276361,-83.3333333333333,4,2,1,40,0,0
276429,-83.3333333333333,4,2,1,70,0,0
278716,-83.3333333333333,4,2,1,70,0,0
279792,-125,4,2,1,70,0,0
280061,-125,4,2,1,60,0,0
281944,-125,4,2,1,50,0,0
284097,-166.666666666667,4,2,1,40,0,0
288402,-200,4,2,1,40,0,0
290554,-200,4,2,1,30,0,0
292707,-200,4,2,1,20,0,0
294859,-200,4,2,1,10,0,0
302393,-100,4,2,1,5,0,0

[Colours]
Combo1 : 191,191,191
Combo2 : 95,95,95
Combo3 : 75,120,255
Combo4 : 175,130,250

[HitObjects]
352,192,1024,6,0,L|432:192,2,64,2|0|0,1:0|2:0|2:0,2:0:0:0:
480,224,1427,2,0,L|336:224,1,128,2|0,1:0|2:0,2:0:0:0:
416,256,1831,1,0,2:0:0:0:
288,288,1965,6,0,L|416:288,1,128,2|0,1:2|2:0,2:0:0:0:
352,320,2369,1,0,2:0:0:0:
480,320,2503,2,0,L|480:192,1,128,2|0,1:0|2:0,2:0:0:0:
352,192,2907,2,0,L|416:192,1,64,2|0,1:0|2:0,2:0:0:0:
224,192,3176,6,0,L|150:192,2,64,2|0|0,1:0|2:0|2:0,2:0:0:0:
96,224,3580,2,0,L|224:224,1,128,2|0,1:0|2:0,2:0:0:0:
160,256,3983,1,0,2:0:0:0:
288,256,4118,6,0,L|288:128,1,128,2|0,1:2|2:0,2:0:0:0:
224,128,4521,1,0,2:0:0:0:
96,128,4656,2,0,L|96:256,1,128,2|0,1:0|2:0,2:0:0:0:
224,256,5059,2,0,L|145:256,1,64,2|0,1:0|2:0,2:0:0:0:
352,256,5328,6,0,B|352:320|352:320|288:320,1,128,2|0,1:2|2:0,2:0:0:0:
416,224,5732,2,0,L|288:224,1,128,2|0,1:0|2:0,2:0:0:0:
352,192,6136,1,0,2:0:0:0:
224,192,6270,6,0,L|222:54,1,128,2|0,1:2|2:0,2:0:0:0:
288,64,6674,1,0,2:0:0:0:
416,64,6808,2,0,L|288:64,1,128,2|0,1:0|2:0,2:0:0:0:
352,96,7212,2,0,L|416:96,1,64,2|0,1:0|2:0,2:0:0:0:
224,96,7481,6,0,L|160:96,2,64,2|0|0,1:0|2:0|2:0,2:0:0:0:
96,128,7884,2,0,L|224:128,1,128,2|0,1:0|2:0,2:0:0:0:
144,160,8288,1,2,1:0:0:0:
368,160,8443,6,0,L|208:160,1,160,8|0,1:0|1:0,1:0:0:0:
272,224,8846,1,10,1:0:0:0:
144,224,8981,2,10,L|224:224,1,80,8|0,1:0|1:0,1:0:0:0:
368,304,9250,2,0,L|240:304,1,120,8|0,1:0|1:0,1:0:0:0:
416,256,9519,5,0,1:0:0:0:
320,256,9653,2,0,L|416:256,1,95.9999970703126,0|0,1:0|1:0,1:0:0:0:
224,160,9922,2,0,L|416:160,1,191.999994140625,10|10,1:0|1:0,1:0:0:0:
320,192,10326,2,0,L|416:192,1,95.9999970703126,8|8,1:0|1:0,1:0:0:0:
224,192,10595,5,12,1:0:0:0:
320,288,10729,2,8,L|224:288,1,95.9999970703126,8|8,1:0|1:0,1:0:0:0:
448,288,10999,2,0,P|464:208|384:128,1,191.999994140625,10|10,1:0|1:0,1:0:0:0:
304,128,11402,2,0,L|400:128,1,95.9999970703126,8|8,1:0|1:0,1:0:0:0:
208,128,11671,1,12,1:0:0:0:
320,128,11806,6,8,L|336:224,1,95.9999970703126,8|8,1:0|1:0,1:0:0:0:
128,160,12075,2,0,P|81:186|81:314,1,191.999994140625,10|10,1:0|1:0,1:0:0:0:
288,320,12478,2,0,L|192:320,1,95.9999970703126,8|8,1:0|1:0,1:0:0:0:
400,288,12747,5,10,1:0:0:0:
496,288,12882,2,0,L|512:192,1,95.9999970703126,0|8,1:0|1:0,1:0:0:0:
320,192,13151,1,10,1:0:0:0:
224,192,13286,2,0,L|208:96,1,95.9999970703126
400,96,13555,1,14,1:0:0:0:
352,96,13622,1,0,0:0:0:0:
304,96,13689,1,0,0:0:0:0:
96,96,13824,6,0,L|80:192,1,95.9999970703126,12|8,1:0|1:0,1:0:0:0:
176,192,14093,1,0,1:0:0:0:
400,160,14227,2,0,L|208:160,1,191.999994140625,10|10,1:0|1:0,1:0:0:0:
304,160,14631,2,0,L|320:256,1,95.9999970703126,8|8,1:0|1:0,1:0:0:0:
128,256,14900,6,0,L|224:256,2,95.9999970703126,12|0|8,1:0|1:0|1:0,0:0:0:0:
384,256,15303,2,0,P|450:191|435:100,1,191.999994140625,10|10,1:0|1:0,1:0:0:0:
336,96,15707,2,0,L|240:96,1,95.9999970703126,8|8,1:0|1:0,1:0:0:0:
32,96,15976,6,0,L|128:96,2,95.9999970703126,12|0|8,1:0|0:0|1:0,0:0:0:0:
320,192,16380,2,0,L|128:192,1,191.999994140625,10|10,1:0|1:0,1:0:0:0:
384,192,16783,2,0,L|400:288,1,95.9999970703126,8|8,1:0|1:0,1:0:0:0:
48,192,17052,6,0,L|144:192,2,95.9999970703126,12|0|8,1:0|1:0|1:0,1:0:0:0:
304,192,17456,2,0,L|208:192,1,95.9999970703126,8|8,1:0|1:0,1:0:0:0:
400,192,17725,2,0,L|448:192,1,47.9999985351563,8|0,1:0|1:0,1:0:0:0:
288,272,17860,2,0,L|240:272,1,47.9999985351563,4|0,1:0|1:0,1:0:0:0:
224,304,17994,2,0,L|272:304,1,47.9999985351563,8|0,1:0|1:0,1:0:0:0:
128,304,18129,6,0,P|80:272|80:144,1,191.999994140625,12|8,1:0|1:0,1:0:0:0:
384,304,18532,2,0,P|432:272|432:144,1,191.999994140625,12|8,1:0|1:0,1:0:0:0:
208,144,18936,2,0,L|304:144,1,95.9999970703126,10|8,1:0|1:0,1:0:0:0:
84,145,19205,6,0,P|65:240|132:305,1,191.999994140625,12|8,1:0|1:0,1:0:0:0:
428,145,19608,2,0,P|448:240|384:304,1,191.999994140625,14|8,1:0|1:0,1:0:0:0:
256,304,20012,2,0,L|240:208,1,95.9999970703126,10|8,1:0|1:0,1:0:0:0:
432,208,20281,6,0,L|240:208,1,191.999994140625,12|0,1:0|1:0,1:0:0:0:
336,176,20685,2,0,L|240:176,1,95.9999970703126,10|0,1:0|1:0,1:0:0:0:
432,176,20954,1,10,1:0:0:0:
336,128,21088,2,0,L|432:128,1,95.9999970703126,8|10,1:0|1:0,1:0:0:0:
192,128,21357,6,0,P|144:160|144:272,1,143.999995605469,10|0,1:0|1:0,1:0:0:0:
208,240,21626,2,0,P|256:208|256:96,1,143.999995605469,10|0,1:0|1:0,1:0:0:0:
192,128,21895,1,8,1:0:0:0:
384,128,22030,2,0,P|432:160|432:288,1,191.999994140625,12|8,1:0|1:0,1:0:0:0:
240,288,22434,6,0,L|432:288,1,191.999994140625,12|0,1:0|1:0,1:0:0:0:
336,256,22837,2,0,L|320:160,1,95.9999970703126,10|0,1:0|0:0,0:0:0:0:
448,160,23106,2,0,L|352:160,2,95.9999970703126,2|10|0,1:0|1:0|1:0,1:0:0:0:
256,160,23510,6,0,L|240:256,1,95.9999970703126,10|0,1:0|1:0,1:0:0:0:
368,256,23779,2,0,L|384:160,1,95.9999970703126,8|8,1:0|1:0,1:0:0:0:
256,160,24048,1,2,1:0:0:0:
144,160,24182,2,0,L|240:160,2,95.9999970703126,8|8|10,1:0|1:0|1:0,1:0:0:0:
400,256,24586,6,0,L|416:160,1,95.9999970703126,12|0,1:0|1:0,1:0:0:0:
224,160,24855,2,0,L|208:256,1,95.9999970703126,8|10,1:0|1:0,1:0:0:0:
304,256,25124,1,8,1:0:0:0:
400,256,25259,2,0,L|416:160,1,95.9999970703126,10|8,1:0|1:0,1:0:0:0:
288,160,25527,1,10,1:0:0:0:
32,160,25662,6,0,L|16:256,1,95.9999970703126,10|0,1:0|1:0,1:0:0:0:
208,256,25931,2,0,L|224:160,1,95.9999970703126,10|8,1:0|1:0,1:0:0:0:
96,160,26200,2,0,L|192:160,1,95.9999970703126,10|8,1:0|1:0,1:0:0:0:
64,160,26469,2,0,L|48:256,1,95.9999970703126,10|8,1:0|1:0,1:0:0:0:
176,256,26738,6,0,L|80:256,2,95.9999970703126,8|0|8,1:0|1:0|1:0,1:0:0:0:
368,256,27142,2,0,L|384:160,1,95.9999970703126,12|0,1:0|1:0,1:0:0:0:
192,160,27411,2,0,L|96:160,1,95.9999970703126,8|0,1:0|1:0,1:0:0:0:
384,160,27680,2,0,L|480:160,1,95.9999970703126,8|0,1:0|1:0,1:0:0:0:
192,160,27949,5,8,1:0:0:0:
384,160,28084,2,0,P|432:192|432:320,1,191.999994140625,8|0,1:0|1:0,1:0:0:0:
240,320,28487,2,0,L|432:320,1,191.999994140625,6|0,1:0|1:0,1:0:0:0:
176,320,28891,2,0,L|160:272,2,47.9999985351563,0|10|0,1:0|1:0|1:0,1:0:0:0:
352,192,29294,5,10,2:0:0:0:
160,144,29563,2,8,L|288:144,1,128,8|8,2:0|2:0,2:0:0:0:
480,112,30101,6,8,L|352:112,1,128,10|8,2:0|2:0,2:0:0:0:
160,192,30639,1,8,2:0:0:0:
352,192,30908,1,0,2:0:0:0:
160,192,31177,6,0,L|176:128,1,64,10|2,2:0|2:0,2:0:0:0:
256,160,31446,2,0,L|272:96,1,64,0|2,2:0|2:0,2:0:0:0:
352,144,31715,2,0,L|368:80,1,64,8|0,2:0|2:0,2:0:0:0:
448,112,31984,1,2,2:0:0:0:
256,112,32253,6,0,L|240:240,1,128,10|0,2:0|2:0,2:0:0:0:
432,240,32791,2,0,L|448:112,1,128,10|0,2:0|2:0,2:0:0:0:
256,112,33329,6,0,L|400:112,1,128,10|2,1:0|2:0,2:0:0:0:
192,112,33868,2,0,L|176:240,1,128,8|2,2:0|2:0,2:0:0:0:
368,240,34406,6,0,L|384:112,1,128,8|2,2:0|2:0,2:0:0:0:
192,112,34944,1,8,2:0:0:0:
384,112,35213,1,0,2:0:0:0:
192,112,35482,6,0,L|176:176,1,64,10|0,2:0|2:0,2:0:0:0:
240,176,35751,2,0,L|304:176,1,64,0|2,0:0|0:0,0:0:0:0:
432,176,36020,2,0,L|448:48,1,128,8|2,0:0|0:0,0:0:0:0:
384,48,36424,1,0,0:0:0:0:
256,176,36558,6,0,L|384:176,1,128,8|2,2:0|2:0,2:0:0:0:
192,176,37096,1,8,2:0:0:0:
384,176,37365,2,0,L|400:240,1,64,0|0,2:0|2:0,2:0:0:0:
272,240,37634,6,0,L|128:240,1,128,10|0,1:0|2:0,2:0:0:0:
336,240,38172,2,0,L|352:112,1,128,10|0,2:0|2:0,2:0:0:0:
160,112,38711,5,8,2:0:0:0:
351,112,38980,1,0,2:0:0:0:
160,112,39249,2,0,L|144:240,1,128,10|0,2:0|2:0,2:0:0:0:
336,240,39787,6,0,L|208:240,1,128,10|0,2:0|2:0,2:0:0:0:
16,239,40325,2,0,L|144:239,1,128,0|0,2:0|2:0,2:0:0:0:
336,240,40863,6,0,L|352:112,1,128,10|0,2:0|2:0,2:0:0:0:
160,112,41401,2,0,L|144:240,1,128,8|0,2:0|2:0,2:0:0:0:
336,240,41939,6,0,L|320:176,1,64,10|0,2:0|2:0,2:0:0:0:
240,176,42208,2,0,L|224:112,1,64,0|0,2:0|2:0,2:0:0:0:
144,96,42477,2,0,L|272:96,1,128,10|2,1:0|2:0,2:0:0:0:
208,64,42881,1,0,2:0:0:0:
336,64,43016,6,0,L|352:192,1,128,10|0,2:0|2:0,2:0:0:0:
224,192,43419,2,0,L|208:320,1,128,10|0,2:0|2:0,2:0:0:0:
304,320,43823,2,0,L|240:320,1,64,2|0,2:0|2:0,2:0:0:0:
352,192,44092,6,0,L|368:320,1,128,10|0,2:0|2:0,2:0:0:0:
256,208,44495,2,0,L|272:336,1,128,10|0,2:0|2:0,2:0:0:0:
160,224,44899,2,0,L|175:352,1,128,10|0,2:0|2:0,2:0:0:0:
64,240,45303,1,0,2:0:0:0:
304,192,45437,1,0,0:0:0:0:
208,192,45572,1,0,0:0:0:0:
448,240,45706,6,8,L|512:240,2,63.9999980468751,8|8|8,2:0|2:0|2:0,2:0:0:0:
192,304,45975,1,8,2:0:0:0:
256,304,46065,1,8,2:0:0:0:
320,304,46155,1,8,2:0:0:0:
64,240,46244,6,0,L|256:240,1,191.999994140625,12|10,2:0|1:0,1:0:0:0:
160,208,46648,1,0,1:0:0:0:
351,207,46782,2,0,L|368:112,1,95.9999970703126,8|10,1:0|1:0,1:0:0:0:
176,112,47051,1,0,1:0:0:0:
368,112,47186,6,0,P|416:144|416:272,1,191.999994140625,8|8,1:0|1:0,1:0:0:0:
224,272,47590,2,0,L|128:272,1,95.9999970703126,10|0,1:0|1:0,1:0:0:0:
224,304,47859,2,0,L|320:304,1,95.9999970703126,10|8,1:0|1:0,1:0:0:0:
128,304,48128,1,0,1:0:0:0:
320,304,48262,6,0,P|368:272|368:144,1,191.999994140625,2|0,1:0|1:0,1:0:0:0:
176,144,48666,2,0,L|272:144,1,95.9999970703126,10|0,1:0|1:0,1:0:0:0:
80,144,48935,2,0,L|64:240,1,95.9999970703126,10|8,1:0|1:0,1:0:0:0:
256,240,49204,2,0,L|160:240,1,95.9999970703126,8|2,1:0|1:0,1:0:0:0:
352,240,49473,6,0,L|368:144,1,95.9999970703126,0|8,1:0|1:0,1:0:0:0:
240,144,49742,1,10,1:0:0:0:
432,144,49877,2,0,L|240:144,1,191.999994140625,0|8,1:0|1:0,1:0:0:0:
336,176,50280,2,0,L|240:176,1,95.9999970703126,10|0,1:0|1:0,1:0:0:0:
432,176,50549,5,10,1:0:0:0:
448,224,50818,1,10,1:0:0:0:
272,272,51087,1,10,1:0:0:0:
464,272,51222,1,8,1:0:0:0:
256,272,51491,6,0,L|64:272,1,191.999994140625,10|10,1:0|1:0,1:0:0:0:
256,272,51894,2,0,L|272:176,1,95.9999970703126,10|0,1:0|1:0,1:0:0:0:
80,176,52164,1,8,1:0:0:0:
272,176,52299,1,8,1:0:0:0:
79,177,52433,2,0,L|63:273,1,95.9999970703126,2|2,1:0|1:0,1:0:0:0:
352,272,52702,6,0,L|256:272,1,95.9999970703126,12|0,1:0|1:0,1:0:0:0:
464,272,52971,2,0,L|480:176,1,95.9999970703126,10|0,1:0|1:0,1:0:0:0:
160,272,53240,2,0,L|256:272,1,95.9999970703126,12|0,1:0|1:0,1:0:0:0:
48,272,53509,2,0,L|32:176,1,95.9999970703126,10|0,1:0|1:0,1:0:0:0:
304,176,53778,6,0,L|208:176,1,95.9999970703126,12|10,1:0|1:0,1:0:0:0:
464,176,54047,2,0,L|480:272,1,95.9999970703126,2|8,1:0|1:0,1:0:0:0:
256,272,54316,5,8,1:0:0:0:
368,256,54451,2,0,L|416:256,1,47.9999985351563,8|10,1:0|1:0,1:0:0:0:
208,208,54585,2,0,L|160:208,1,47.9999985351563,8|10,1:0|1:0,1:0:0:0:
320,192,54720,2,0,L|368:192,1,47.9999985351563,8|2,1:0|1:0,1:0:0:0:
160,144,54854,2,0,L|16:144,1,132.00000402832,8|8,1:0|1:0,1:0:0:0:
192,144,55123,6,0,L|208:240,1,95.9999970703126,4|0,1:0|1:0,1:0:0:0:
80,240,55392,2,0,L|176:240,2,95.9999970703126,2|8|8,1:0|1:0|1:0,1:0:0:0:
272,240,55796,6,0,P|320:208|320:80,1,191.999994140625,2|8,1:0|1:0,1:0:0:0:
128,80,56199,2,0,L|224:80,1,95.9999970703126,10|8,1:0|1:0,1:0:0:0:
320,112,56468,2,0,L|224:112,2,95.9999970703126,2|8|8,1:0|1:0|1:0,1:0:0:0:
128,112,56872,6,0,P|80:144|80:272,1,191.999994140625,2|0,1:0|1:0,1:0:0:0:
384,272,57276,2,0,L|400:176,1,95.9999970703126,10|8,1:0|1:0,1:0:0:0:
208,176,57545,2,0,L|304:176,1,95.9999970703126,2|8,1:0|1:0,1:0:0:0:
112,176,57814,2,0,L|96:272,1,95.9999970703126,10|0,1:0|1:0,1:0:0:0:
304,176,58083,5,2,1:0:0:0:
208,176,58217,2,0,L|192:272,1,95.9999970703126,8|8,1:0|1:0,1:0:0:0:
384,176,58486,2,0,P|432:192|432:320,1,191.999994140625,10|8,1:0|1:0,1:0:0:0:
240,320,58890,1,10,1:0:0:0:
352,320,59025,1,0,1:0:0:0:
160,320,59159,6,0,L|144:224,1,95.9999970703126,10|8,1:0|1:0,1:0:0:0:
384,224,59428,2,0,L|272:224,1,95.9999970703126,10|8,1:0|1:0,1:0:0:0:
160,160,59697,2,0,L|256:160,2,95.9999970703126,10|8|0,1:0|1:0|1:0,1:0:0:0:
352,96,60101,6,0,L|160:96,1,191.999994140625,12|10,1:0|1:0,1:0:0:0:
416,96,60504,2,0,L|432:192,1,95.9999970703126,8|8,1:0|1:0,1:0:0:0:
144,192,60773,1,8,1:0:0:0:
256,192,60908,1,10,1:0:0:0:
368,192,61042,1,8,1:0:0:0:
96,288,61177,6,0,L|304:288,1,200,12|8,1:0|1:0,1:0:0:0:
432,256,61581,2,0,L|320:256,1,100,8|8,1:0|1:0,1:0:0:0:
80,256,61850,2,0,L|192:256,1,100,8|8,1:0|1:0,1:0:0:0:
384,224,62119,1,8,1:0:0:0:
80,224,62253,1,12,1:0:0:0:
80,192,62791,6,0,L|192:192,1,100,0|0,1:0|1:0,1:0:0:0:
384,192,63060,2,0,L|320:192,1,50,8|8,1:0|1:0,1:0:0:0:
272,224,63195,2,0,L|432:224,1,150,8|0,1:0|1:0,1:0:0:0:
208,224,63464,6,0,L|192:112,1,100,12|0,1:0|1:0,1:0:0:0:
320,112,63733,1,8,1:0:0:0:
128,112,63868,2,0,L|112:224,1,111.999996582031,10|0,1:0|1:0,1:0:0:0:
383,111,64137,2,0,L|399:223,1,111.999996582031,2|0,1:0|1:0,1:0:0:0:
208,224,64406,6,0,P|160:192|160:32,1,223.999993164063,2|8,1:0|1:0,1:0:0:0:
352,32,64809,2,0,L|240:32,1,111.999996582031,10|8,1:0|1:0,1:0:0:0:
32,128,65078,2,0,L|144:128,1,111.999996582031,2|8,1:0|1:0,1:0:0:0:
480,128,65347,2,0,L|368:128,1,111.999996582031,10|0,1:0|1:0,1:0:0:0:
160,224,65616,6,0,L|272:224,2,111.999996582031,10|0|8,1:0|1:0|1:0,1:0:0:0:
416,224,66020,2,0,L|432:336,1,111.999996582031,10|0,1:0|1:0,1:0:0:0:
208,336,66289,2,0,L|336:336,1,111.999996582031,10|8,1:0|1:0,1:0:0:0:
96,224,66558,6,0,L|320:224,1,223.999993164063,2|8,1:0|1:0,1:0:0:0:
208,192,66962,2,0,L|192:80,1,111.999996582031,10|8,1:0|1:0,1:0:0:0:
464,48,67231,2,0,L|480:160,1,111.999996582031,2|8,1:0|1:0,1:0:0:0:
352,128,67500,2,0,L|336:240,1,111.999996582031,10|0,1:0|1:0,1:0:0:0:
144,256,67769,6,0,L|368:256,1,223.999993164063,12|8,1:0|1:0,1:0:0:0:
160,256,68172,2,0,L|144:144,1,111.999996582031,10|0,1:0|1:0,1:0:0:0:
272,144,68442,1,8,1:0:0:0:
400,144,68576,2,0,L|416:256,1,111.999996582031,10|0,1:0|1:0,1:0:0:0:
224,256,68845,6,0,L|336:256,1,111.999996582031,10|8,1:0|1:0,1:0:0:0:
144,256,69114,2,0,L|128:144,1,111.999996582031,10|8,1:0|1:0,1:0:0:0:
320,144,69383,2,0,L|208:144,1,111.999996582031,2|8,1:0|1:0,1:0:0:0:
400,144,69652,2,0,L|416:256,1,111.999996582031,10|0,1:0|1:0,1:0:0:0:
112,144,69921,6,0,L|96:256,1,111.999996582031,10|0,1:0|1:0,1:0:0:0:
416,256,70190,1,12,1:0:0:0:
352,256,70258,1,0,1:0:0:0:
288,256,70325,1,0,1:0:0:0:
96,208,70459,1,12,1:0:0:0:
160,208,70527,1,0,1:0:0:0:
224,208,70594,1,8,1:0:0:0:
416,208,70729,1,0,1:0:0:0:
96,208,70863,6,0,P|80:128|144:64,1,167.999994873047,12|0,1:0|1:0,1:0:0:0:
208,64,71132,1,8,1:0:0:0:
336,96,71267,2,0,L|352:208,1,111.999996582031,10|0,1:0|1:0,1:0:0:0:
160,208,71536,2,0,L|144:96,1,111.999996582031,10|8,1:0|1:0,1:0:0:0:
368,160,71805,2,0,L|304:160,1,55.9999982910157,8|8,1:0|1:0,1:0:0:0:
144,160,71939,1,0,0:0:0:0:
384,160,72074,6,0,P|432:192|432:352,1,223.999993164063,12|8,1:0|1:0,1:0:0:0:
240,352,72477,1,0,1:0:0:0:
432,352,72612,2,0,L|448:240,1,111.999996582031,2|8,1:0|1:0,1:0:0:0:
256,240,72881,2,0,L|368:240,1,111.999996582031,10|0,1:0|1:0,1:0:0:0:
144,240,73150,6,0,P|96:208|96:48,1,223.999993164063,10|8,1:0|1:0,1:0:0:0:
320,64,73554,2,0,L|96:64,1,223.999993164063,10|8,1:0|1:0,1:0:0:0:
208,96,73957,2,0,L|224:208,1,111.999996582031,10|0,1:0|1:0,1:0:0:0:
96,208,74226,6,0,L|80:320,1,111.999996582031,10|0,1:0|1:0,1:0:0:0:
208,320,74495,2,0,L|64:320,1,111.999996582031,8|10,1:0|1:0,1:0:0:0:
320,320,74764,2,0,L|336:208,1,111.999996582031,0|10,1:0|1:0,1:0:0:0:
208,208,75033,2,0,L|320:208,1,111.999996582031,8|0,1:0|1:0,1:0:0:0:
128,96,75303,6,0,L|112:208,1,111.999996582031,10|8,1:0|1:0,1:0:0:0:
304,208,75572,2,0,L|320:96,1,111.999996582031,8|10,1:0|1:0,1:0:0:0:
128,96,75841,2,0,L|240:96,1,111.999996582031,0|8,1:0|1:0,1:0:0:0:
128,96,76110,2,0,L|112:208,1,111.999996582031,10|0,1:0|1:0,1:0:0:0:
416,208,76379,6,0,L|192:208,1,223.999993164063,12|10,1:0|1:0,1:0:0:0:
64,240,76782,1,8,1:0:0:0:
256,240,76917,2,0,L|384:240,1,111.999996582031,2|8,1:0|1:0,1:0:0:0:
176,272,77186,2,0,L|304:272,1,111.999996582031,10|0,1:0|1:0,1:0:0:0:
96,272,77455,6,0,L|80:160,1,111.999996582031,10|8,1:0|1:0,1:0:0:0:
272,160,77724,1,8,1:0:0:0:
80,161,77859,1,10,1:0:0:0:
272,160,77993,2,0,L|288:272,1,111.999996582031,0|8,1:0|1:0,1:0:0:0:
96,272,78262,1,10,1:0:0:0:
288,272,78397,1,0,1:0:0:0:
96,272,78531,6,0,L|208:272,1,111.999996582031,10|0,1:0|1:0,1:0:0:0:
416,272,78800,2,0,L|304:272,1,111.999996582031,8|0,1:0|1:0,1:0:0:0:
112,208,79069,6,0,L|224:208,1,111.999996582031,14|0,1:0|1:0,1:0:0:0:
32,176,79338,1,0,1:0:0:0:
160,176,79473,1,0,1:0:0:0:
400,208,79607,6,0,L|288:208,1,111.999996582031,14|0,1:0|1:0,1:0:0:0:
480,176,79877,1,0,1:0:0:0:
352,176,80011,1,0,1:0:0:0:
128,176,80146,6,0,L|64:176,1,55.9999982910157,14|0,1:0|1:0,1:0:0:0:
96,208,80280,2,0,L|160:208,1,55.9999982910157,8|0,1:0|1:0,1:0:0:0:
368,208,80415,2,0,L|304:208,1,55.9999982910157,8|0,1:0|1:0,1:0:0:0:
144,208,80549,2,0,L|80:208,1,55.9999982910157,8|0,1:0|1:0,1:0:0:0:
400,208,80684,6,0,P|448:176|448:16,1,223.999993164063,12|8,1:0|1:0,1:0:0:0:
256,32,81087,1,8,1:0:0:0:
448,32,81222,2,0,L|336:32,2,111.999996582031,2|8|8,1:0|1:0|1:0,1:0:0:0:
256,144,81625,6,0,L|480:144,1,223.999993164063,2|8,1:0|1:0,1:0:0:0:
288,256,82029,2,0,L|176:256,1,111.999996582031,10|8,1:0|1:0,1:0:0:0:
368,224,82298,2,0,L|384:112,1,111.999996582031,2|8,1:0|1:0,1:0:0:0:
256,176,82567,2,0,L|240:64,1,111.999996582031,10|0,1:0|1:0,1:0:0:0:
32,64,82836,6,0,L|144:64,1,111.999996582031,10|0,1:0|1:0,1:0:0:0:
256,128,83105,2,0,L|144:128,1,111.999996582031,10|8,1:0|1:0,1:0:0:0:
384,144,83374,2,0,L|400:256,1,111.999996582031,0|10,1:0|1:0,1:0:0:0:
272,256,83643,1,8,1:0:0:0:
80,288,83778,6,0,L|304:288,1,223.999993164063,2|8,1:0|1:0,1:0:0:0:
112,224,84181,2,0,L|96:112,1,111.999996582031,10|8,1:0|1:0,1:0:0:0:
288,112,84451,2,0,L|176:112,1,111.999996582031,2|8,1:0|1:0,1:0:0:0:
368,112,84720,2,0,L|384:224,1,111.999996582031,10|0,1:0|1:0,1:0:0:0:
176,112,84989,6,0,P|128:144|128:304,1,223.999993164063,12|8,1:0|1:0,1:0:0:0:
320,304,85392,2,0,L|336:192,1,111.999996582031,10|0,1:0|1:0,1:0:0:0:
208,192,85661,1,8,1:0:0:0:
80,192,85796,2,0,L|64:304,1,111.999996582031,10|0,1:0|1:0,1:0:0:0:
256,304,86065,6,0,L|272:192,1,111.999996582031,14|8,1:0|1:0,1:0:0:0:
144,192,86334,1,8,1:0:0:0:
336,192,86468,2,0,L|352:80,1,111.999996582031,10|0,1:0|1:0,1:0:0:0:
224,80,86737,1,8,1:0:0:0:
416,80,86872,2,0,L|432:192,1,111.999996582031,10|0,1:0|1:0,1:0:0:0:
240,80,87141,2,0,P|192:112|192:224,1,167.999994873047,10|0,1:0|1:0,1:0:0:0:
320,224,87410,6,0,P|368:192|368:80,1,167.999994873047,12|0,1:0|1:0,1:0:0:0:
240,80,87679,1,8,1:0:0:0:
432,80,87814,2,0,L|448:192,1,111.999996582031,8|0,1:0|1:0,1:0:0:0:
256,192,88083,6,0,L|432:192,1,167.999994873047,12|0,1:0|1:0,1:0:0:0:
496,192,88352,1,8,1:0:0:0:
304,240,88486,2,0,L|416:240,1,111.999996582031,10|0,1:0|1:0,1:0:0:0:
176,272,88755,2,0,L|112:272,1,55.9999982910157,10|8,1:0|1:0,1:0:0:0:
368,272,88890,2,0,L|432:272,1,55.9999982910157,8|8,1:0|1:0,1:0:0:0:
240,240,89025,2,0,L|176:240,1,55.9999982910157,10|8,1:0|1:0,1:0:0:0:
432,240,89159,2,0,L|496:240,1,55.9999982910157,8|8,1:0|1:0,1:0:0:0:
272,208,89294,6,0,P|224:176|224:16,1,223.999993164063,12|8,1:0|1:0,1:0:0:0:
416,32,89697,1,10,1:0:0:0:
224,32,89832,2,0,L|336:32,2,111.999996582031,0|8|8,1:0|1:0|1:0,1:0:0:0:
416,32,90235,6,0,P|464:64|464:224,1,223.999993164063,2|8,1:0|1:0,1:0:0:0:
224,224,90639,2,0,L|208:112,1,111.999996582031,10|8,1:0|1:0,1:0:0:0:
400,112,90908,2,0,L|288:112,1,111.999996582031,2|8,1:0|1:0,1:0:0:0:
480,112,91177,2,0,L|496:224,1,111.999996582031,10|0,1:0|1:0,1:0:0:0:
96,224,91446,6,0,P|128:272|288:272,1,223.999993164063,14|8,1:0|1:0,1:0:0:0:
480,240,91850,2,0,P|448:192|288:192,1,223.999993164063,10|0,1:0|1:0,1:0:0:0:
64,288,92253,2,0,L|176:288,1,111.999996582031,10|0,1:0|1:0,1:0:0:0:
416,176,92522,6,0,L|304:176,1,111.999996582031,10|8,1:0|1:0,1:0:0:0:
192,128,92791,2,0,L|304:128,1,111.999996582031,10|8,1:0|1:0,1:0:0:0:
64,160,93060,2,0,L|48:272,1,111.999996582031,2|8,1:0|1:0,1:0:0:0:
176,224,93329,2,0,L|192:336,1,111.999996582031,10|0,1:0|1:0,1:0:0:0:
384,96,93598,6,0,P|432:128|432:288,1,223.999993164063,12|8,1:0|1:0,1:0:0:0:
240,288,94002,1,10,1:0:0:0:
448,256,94137,2,0,L|336:256,1,111.999996582031,0|8,1:0|1:0,1:0:0:0:
224,224,94406,2,0,L|336:224,1,111.999996582031,10|0,1:0|1:0,1:0:0:0:
144,224,94675,6,0,L|128:112,1,111.999996582031,14|8,1:0|1:0,1:0:0:0:
256,112,94944,2,0,L|368:112,1,111.999996582031,8|8,1:0|1:0,1:0:0:0:
176,224,95213,2,0,L|160:112,1,111.999996582031,2|8,1:0|1:0,1:0:0:0:
352,112,95482,2,0,L|240:112,1,111.999996582031,10|0,1:0|1:0,1:0:0:0:
432,112,95751,2,0,P|480:144|480:256,1,167.999994873047,10|0,1:0|1:0,1:0:0:0:
352,240,96020,6,0,P|304:208|304:96,1,167.999994873047,12|0,1:0|1:0,1:0:0:0:
432,112,96289,2,0,L|448:224,1,111.999996582031,8|8,1:0|1:0,1:0:0:0:
320,224,96558,1,0,1:0:0:0:
128,224,96693,6,0,P|112:144|176:80,1,167.999994873047,12|0,1:0|1:0,1:0:0:0:
224,80,96962,1,8,1:0:0:0:
320,80,97096,1,8,1:0:0:0:
224,80,97231,1,0,1:0:0:0:
448,80,97365,5,2,1:0:0:0:
320,80,97500,1,8,1:0:0:0:
304,128,97567,1,8,1:0:0:0:
288,176,97634,1,8,1:0:0:0:
416,176,97769,1,8,1:0:0:0:
208,256,97903,6,0,P|160:224|160:96,1,191.999994140625,12|8,1:0|1:0,1:0:0:0:
352,96,98307,1,10,1:0:0:0:
160,96,98442,2,0,L|256:96,2,95.9999970703126,0|8|8,1:0|1:0|1:0,1:0:0:0:
352,160,98845,6,0,L|160:160,1,191.999994140625,14|8,1:0|1:0,1:0:0:0:
256,128,99249,1,10,1:0:0:0:
64,128,99383,2,0,L|48:224,1,95.9999970703126,8|2,1:0|1:0,1:0:0:0:
240,224,99652,1,8,1:0:0:0:
48,224,99787,1,8,1:0:0:0:
304,96,99921,6,0,P|352:128|352:256,1,191.999994140625,14|0,1:0|1:0,1:0:0:0:
160,256,100326,2,0,L|144:160,1,95.9999970703126,8|10,1:0|1:0,1:0:0:0:
336,144,100595,2,0,L|240:144,2,95.9999970703126,0|10|8,1:0|1:0|1:0,1:0:0:0:
64,112,100998,6,0,L|256:112,1,191.999994140625,14|8,1:0|1:0,1:0:0:0:
160,144,101402,2,0,L|144:240,1,95.9999970703126,8|10,1:0|1:0,1:0:0:0:
336,238,101671,2,0,L|352:142,1,95.9999970703126,0|10,1:0|1:0,1:0:0:0:
224,144,101940,1,8,1:0:0:0:
416,144,102075,6,0,P|464:176|464:304,1,191.999994140625,12|8,1:0|1:0,1:0:0:0:
272,304,102478,2,0,L|256:208,1,95.9999970703126,8|10,1:0|1:0,1:0:0:0:
448,208,102747,1,0,1:0:0:0:
320,208,102882,1,10,1:0:0:0:
192,208,103016,1,8,1:0:0:0:
384,240,103151,6,0,L|192:240,1,191.999994140625,12|10,1:0|1:0,1:0:0:0:
384,272,103554,1,8,1:0:0:0:
192,272,103689,1,10,1:0:0:0:
464,304,103823,1,0,1:0:0:0:
192,304,103958,1,10,1:0:0:0:
384,320,104092,1,8,1:0:0:0:
64,208,104227,6,0,L|288:208,1,223.999993164063,12|10,1:0|1:0,1:0:0:0:
96,176,104631,1,8,1:0:0:0:
288,176,104765,1,10,1:0:0:0:
96,144,104900,1,0,1:0:0:0:
352,144,105034,1,10,1:0:0:0:
160,144,105169,1,8,1:0:0:0:
416,288,105303,6,0,L|160:288,1,256,12|10,1:0|1:0,1:0:0:0:
480,208,105707,1,8,1:0:0:0:
176,208,105841,1,2,1:0:0:0:
368,208,105975,5,8,1:0:0:0:
352,160,106042,1,0,0:0:0:0:
336,112,106110,1,8,1:0:0:0:
128,112,106244,1,8,1:0:0:0:
320,112,106379,6,0,P|432:208|304:288,1,320,12|0,1:0|1:0,1:0:0:0:
80,272,107051,6,0,L|64:208,1,63.9999980468751,2|2,0:0|0:0,0:0:0:0:
144,192,107231,1,2,0:0:0:0:
322,278,107320,1,0,0:0:0:0:
355,268,107364,1,0,0:0:0:0:
378,238,107409,1,0,0:0:0:0:
379,202,107454,1,0,0:0:0:0:
355,173,107499,1,0,0:0:0:0:
320,164,107544,1,0,0:0:0:0:
144,192,107589,5,10,1:0:0:0:
336,192,107724,2,0,P|384:160|384:80,1,120.000004577637,8|0,1:0|1:0,1:0:0:0:
192,96,108128,1,12,1:0:0:0:
192,96,108666,6,0,L|176:224,1,120.000004577637,8|2,2:0|2:0,2:0:0:0:
368,224,109204,2,0,L|384:96,1,128,8|0,2:0|2:0,2:0:0:0:
192,96,109742,5,10,2:0:0:0:
368,224,110011,1,8,2:0:0:0:
192,96,110280,2,0,L|176:224,1,128,0|2,2:0|2:0,2:0:0:0:
304,224,110819,6,0,L|320:160,1,64,0|0,2:0|2:0,2:0:0:0:
400,192,111088,2,0,L|416:128,1,64,8|0,2:0|2:0,2:0:0:0:
336,128,111357,2,0,L|320:192,1,64,2|0,2:0|2:0,2:0:0:0:
240,160,111626,2,0,L|224:224,1,64,2|0,2:0|2:0,2:0:0:0:
304,224,111895,6,0,L|432:224,1,128,8|8,2:0|2:0,2:0:0:0:
240,96,112433,2,0,L|224:224,1,128,10|2,2:0|2:0,2:0:0:0:
416,224,112971,6,0,L|272:224,1,128,8|10,2:0|2:0,2:0:0:0:
480,224,113509,2,0,L|496:96,1,128,0|10,2:0|2:0,2:0:0:0:
304,96,114047,6,0,L|432:96,1,128,0|10,2:0|2:0,2:0:0:0:
240,96,114585,2,0,L|224:224,1,128,0|2,2:0|2:0,2:0:0:0:
416,224,115123,6,0,L|352:224,1,64,8|0,2:0|2:0,2:0:0:0:
448,224,115392,2,0,L|464:160,1,64,0|2,2:0|2:0,2:0:0:0:
368,160,115661,2,0,L|432:160,1,64,8|0,2:0|2:0,2:0:0:0:
336,160,115930,2,0,L|320:224,1,64,2|0,2:0|2:0,2:0:0:0:
240,224,116199,6,0,L|112:224,1,128,8|0,2:0|2:0,2:0:0:0:
288,96,116738,1,2,2:0:0:0:
96,96,117007,1,2,2:0:0:0:
288,96,117276,6,0,L|304:224,1,128,8|10,2:0|2:0,2:0:0:0:
112,224,117814,2,0,L|96:96,1,128,0|10,2:0|2:0,2:0:0:0:
304,224,118352,6,0,L|176:224,1,128,0|8,2:0|2:0,2:0:0:0:
368,224,118890,1,10,2:0:0:0:
352,176,119025,1,8,2:0:0:0:
336,128,119159,1,0,2:0:0:0:
144,128,119428,6,0,L|128:192,1,64,10|0,2:0|2:0,2:0:0:0:
48,192,119697,2,0,L|64:256,1,64,0|0,2:0|2:0,2:0:0:0:
144,224,119966,2,0,L|160:288,1,64,2|0,2:0|2:0,2:0:0:0:
80,288,120235,2,0,L|64:352,1,64,2|0,2:0|2:0,2:0:0:0:
144,352,120504,6,0,L|160:288,1,64,8|0,2:0|2:0,2:0:0:0:
240,288,120773,2,0,L|256:224,1,64,0|0,2:0|2:0,2:0:0:0:
336,192,121042,2,0,L|464:192,1,128,10|2,2:0|2:0,2:0:0:0:
384,160,121447,1,0,2:0:0:0:
256,160,121581,6,0,L|240:32,1,128,2|0,2:0|2:0,2:0:0:0:
432,32,122119,2,0,L|448:160,1,128,8|0,2:0|2:0,2:0:0:0:
320,160,122522,1,10,2:0:0:0:
192,160,122657,6,0,L|208:288,1,128,2|0,2:0|2:0,2:0:0:0:
336,288,123060,2,0,L|320:160,1,128,2|0,2:0|2:0,2:0:0:0:
192,80,123464,2,0,L|256:80,1,64,2|0,2:0|2:0,2:0:0:0:
384,80,123733,6,0,L|400:208,1,128,10|0,2:0|2:0,2:0:0:0:
288,96,124137,2,0,L|304:224,1,128,10|0,2:0|2:0,2:0:0:0:
192,112,124540,2,0,L|208:240,1,128,10|10,2:0|2:0,2:0:0:0:
304,240,124944,1,0,2:0:0:0:
496,144,125078,2,0,L|400:144,1,95.9999970703126,8|0,2:0|2:0,2:0:0:0:
208,192,125347,6,0,L|208:128,1,63.9999980468751,8|8,2:0|2:0,2:0:0:0:
288,128,125527,1,8,0:0:0:0:
32,224,125616,1,8,2:0:0:0:
96,224,125706,1,8,2:0:0:0:
160,224,125796,1,8,2:0:0:0:
352,288,125885,6,0,L|160:288,1,191.999994140625,12|10,1:0|1:0,1:0:0:0:
256,224,126289,1,0,1:0:0:0:
64,224,126424,2,0,L|160:224,2,95.9999970703126,8|10|0,1:0|1:0|1:0,1:0:0:0:
256,224,126827,6,0,P|304:192|304:64,1,191.999994140625,10|8,1:0|1:0,1:0:0:0:
112,64,127231,2,0,L|96:160,1,95.9999970703126,10|0,1:0|1:0,1:0:0:0:
224,160,127500,1,10,1:0:0:0:
352,160,127634,2,0,L|368:64,1,95.9999970703126,8|8,1:0|1:0,1:0:0:0:
176,64,127903,6,0,P|128:96|128:224,1,191.999994140625,2|0,1:0|1:0,1:0:0:0:
320,224,128307,2,0,L|224:224,1,95.9999970703126,10|0,1:0|1:0,1:0:0:0:
32,288,128576,2,0,L|144:288,1,95.9999970703126,10|8,1:0|1:0,1:0:0:0:
480,288,128845,2,0,L|384:288,1,95.9999970703126,8|2,1:0|1:0,1:0:0:0:
192,352,129114,6,0,L|303:352,2,95.9999970703126,0|8|10,1:0|1:0|1:0,1:0:0:0:
384,352,129518,2,0,P|432:320|432:192,1,191.999994140625,0|8,1:0|1:0,1:0:0:0:
240,192,129921,2,0,L|336:192,1,95.9999970703126,10|0,1:0|1:0,1:0:0:0:
144,144,130190,5,10,1:0:0:0:
128,176,130459,1,10,1:0:0:0:
336,208,130729,1,10,1:0:0:0:
112,208,130863,1,8,1:0:0:0:
96,240,131132,6,0,L|288:240,1,191.999994140625,10|0,1:0|1:0,1:0:0:0:
192,208,131536,2,0,L|176:112,1,95.9999970703126,10|0,1:0|1:0,1:0:0:0:
368,112,131805,1,8,1:0:0:0:
176,112,131939,1,8,1:0:0:0:
368,112,132074,2,0,L|384:208,1,95.9999970703126,2|2,1:0|1:0,1:0:0:0:
144,224,132343,6,0,L|240:224,1,95.9999970703126,12|0,1:0|1:0,1:0:0:0:
16,256,132612,2,0,L|112:256,1,95.9999970703126,10|0,1:0|1:0,1:0:0:0:
368,224,132881,2,0,L|272:224,1,95.9999970703126,12|0,1:0|1:0,1:0:0:0:
496,256,133150,2,0,L|400:256,1,95.9999970703126,10|0,1:0|1:0,1:0:0:0:
208,256,133419,6,0,L|320:256,1,95.9999970703126,12|10,1:0|1:0,1:0:0:0:
112,256,133688,2,0,L|96:160,1,95.9999970703126,10|0,1:0|1:0,1:0:0:0:
336,160,133957,5,12,1:0:0:0:
224,160,134092,2,0,L|176:160,1,47.9999985351563,8|10,1:0|1:0,1:0:0:0:
367,111,134226,2,0,L|319:111,1,47.9999985351563,8|10,1:0|1:0,1:0:0:0:
128,112,134361,2,0,L|176:112,1,47.9999985351563,8|0,1:0|1:0,1:0:0:0:
368,222,134495,2,0,P|416:192|416:112,1,143.999995605469,8|8,1:0|1:0,1:0:0:0:
208,224,134764,6,0,L|192:128,1,95.9999970703126,14|8,1:0|1:0,1:0:0:0:
384,128,135033,2,0,L|288:128,2,95.9999970703126,2|8|8,1:0|1:0|1:0,1:0:0:0:
192,176,135437,6,0,L|384:176,1,191.999994140625,2|8,1:0|1:0,1:0:0:0:
192,208,135841,2,0,L|176:304,1,95.9999970703126,10|8,1:0|1:0,1:0:0:0:
288,304,136110,1,2,1:0:0:0:
400,304,136244,2,0,L|416:208,1,95.9999970703126,8|8,1:0|1:0,1:0:0:0:
224,208,136513,6,0,P|176:176|176:48,1,191.999994140625,2|0,1:0|0:0,0:0:0:0:
304,48,136917,2,0,L|400:48,3,95.9999970703126,10|8|2|8,1:0|1:0|1:0|1:0,1:0:0:0:
208,48,137455,2,0,L|112:48,1,95.9999970703126,10|0,1:0|1:0,1:0:0:0:
320,192,137724,6,0,L|416:192,1,95.9999970703126,2|8,1:0|1:0,1:0:0:0:
320,192,137993,1,8,1:0:0:0:
128,272,138128,2,0,L|320:272,1,191.999994140625,10|8,1:0|1:0,1:0:0:0:
128,272,138531,2,0,L|112:176,1,95.9999970703126,10|0,1:0|1:0,1:0:0:0:
304,176,138800,5,10,1:0:0:0:
176,176,138934,1,8,1:0:0:0:
368,176,139069,2,0,L|384:80,1,95.9999970703126,10|8,1:0|1:0,1:0:0:0:
80,80,139338,2,0,L|176:80,2,95.9999970703126,10|8|0,1:0|1:0|1:0,1:0:0:0:
272,80,139742,6,0,P|320:112|320:240,1,191.999994140625,12|10,1:0|1:0,1:0:0:0:
128,240,140146,2,0,L|208:240,1,80,8|8,1:0|1:0,1:0:0:0:
448,192,140415,2,0,L|352:192,1,80,8|10,1:0|1:0,1:0:0:0:
176,192,140684,1,8,1:0:0:0:
448,160,140818,6,0,L|256:160,1,191.999994140625,12|8,1:0|1:0,1:0:0:0:
448,192,141222,1,8,1:0:0:0:
256,192,141356,1,8,1:0:0:0:
448,224,141491,1,8,1:0:0:0:
336,224,141626,1,8,1:0:0:0:
144,224,141760,1,8,1:0:0:0:
448,256,141894,1,12,1:0:0:0:
448,128,142433,6,0,L|352:128,1,95.9999970703126,0|0,1:0|1:0,1:0:0:0:
160,128,142702,2,0,L|208:128,1,47.9999985351563,8|8,1:0|1:0,1:0:0:0:
256,160,142836,2,0,L|112:160,1,143.999995605469,8|0,1:0|1:0,1:0:0:0:
320,160,143105,6,0,L|336:256,1,95.9999970703126,12|0,1:0|1:0,1:0:0:0:
208,272,143374,1,8,1:0:0:0:
400,272,143509,2,0,L|416:160,1,111.999996582031,10|0,1:0|1:0,1:0:0:0:
144,272,143778,2,0,L|128:160,1,111.999996582031,10|8,1:0|1:0,1:0:0:0:
320,320,144047,6,0,P|368:288|368:128,1,223.999993164063,2|8,1:0|1:0,1:0:0:0:
176,144,144451,2,0,L|288:144,1,111.999996582031,10|8,1:0|1:0,1:0:0:0:
96,144,144720,2,0,L|80:256,1,111.999996582031,2|8,1:0|1:0,1:0:0:0:
272,256,144989,2,0,L|160:256,1,111.999996582031,10|0,1:0|1:0,1:0:0:0:
352,256,145258,6,0,L|368:144,1,111.999996582031,10|0,1:0|1:0,1:0:0:0:
272,144,145527,1,8,1:0:0:0:
48,144,145662,2,0,L|160:144,1,111.999996582031,10|0,1:0|1:0,1:0:0:0:
464,144,145931,2,0,L|352:144,1,111.999996582031,10|8,1:0|1:0,1:0:0:0:
112,256,146200,6,0,L|336:256,1,223.999993164063,2|8,1:0|1:0,1:0:0:0:
144,224,146603,2,0,L|128:112,1,111.999996582031,10|8,1:0|1:0,1:0:0:0:
432,224,146872,2,0,L|448:112,1,111.999996582031,2|8,1:0|1:0,1:0:0:0:
320,160,147141,2,0,L|304:48,1,111.999996582031,10|0,1:0|1:0,1:0:0:0:
112,64,147410,6,0,P|64:96|64:256,1,223.999993164063,12|8,1:0|1:0,1:0:0:0:
352,64,147814,2,0,P|400:96|400:256,1,223.999993164063,10|8,1:0|1:0,1:0:0:0:
208,208,148217,2,0,L|320:208,1,111.999996582031,10|0,1:0|1:0,1:0:0:0:
112,208,148486,6,0,L|96:96,1,111.999996582031,10|8,1:0|1:0,1:0:0:0:
192,96,148756,2,0,L|304:96,1,111.999996582031,10|8,1:0|1:0,1:0:0:0:
448,128,149025,2,0,L|336:128,1,111.999996582031,2|8,1:0|1:0,1:0:0:0:
208,160,149294,2,0,L|320:160,1,111.999996582031,10|0,1:0|1:0,1:0:0:0:
112,160,149563,6,0,B|96:272,1,111.999996582031,10|0,1:0|1:0,1:0:0:0:
368,208,149832,2,0,B|432:208,2,55.9999982910157,12|0|0,1:0|1:0|1:0,1:0:0:0:
144,208,150101,2,0,L|80:208,2,55.9999982910157,12|0|8,1:0|1:0|1:0,1:0:0:0:
368,208,150370,1,0,1:0:0:0:
176,128,150504,6,0,L|352:128,1,167.999994873047,12|0,1:0|1:0,1:0:0:0:
416,128,150773,1,10,1:0:0:0:
224,128,150908,2,0,L|208:240,1,111.999996582031,8|0,1:0|1:0,1:0:0:0:
336,192,151177,2,0,L|352:304,1,111.999996582031,10|8,1:0|1:0,1:0:0:0:
144,304,151446,2,0,L|208:304,1,55.9999982910157,8|0,1:0|1:0,1:0:0:0:
368,304,151581,1,0,0:0:0:0:
144,304,151715,6,0,P|96:272|96:112,1,223.999993164063,12|8,1:0|1:0,1:0:0:0:
176,112,152119,1,8,1:0:0:0:
416,112,152253,2,0,L|304:112,3,111.999996582031,2|8|10|0,1:0|1:0|1:0|1:0,1:0:0:0:
32,192,152791,6,0,L|256:192,1,223.999993164063,10|8,1:0|1:0,1:0:0:0:
64,224,153195,2,0,L|48:336,1,111.999996582031,10|0,1:0|1:0,1:0:0:0:
176,336,153464,1,8,1:0:0:0:
304,336,153599,2,0,L|320:224,1,111.999996582031,10|0,1:0|1:0,1:0:0:0:
192,224,153868,6,0,L|80:224,1,111.999996582031,10|0,1:0|1:0,1:0:0:0:
192,192,154137,2,0,L|304:192,1,111.999996582031,8|10,1:0|1:0,1:0:0:0:
80,160,154406,2,0,L|196:162,1,111.999996582031,0|10,1:0|1:0,1:0:0:0:
304,144,154675,2,0,L|192:144,1,111.999996582031,8|0,1:0|1:0,1:0:0:0:
416,112,154945,6,0,L|304:112,1,111.999996582031,10|8,1:0|1:0,1:0:0:0:
496,112,155214,2,0,L|512:224,1,111.999996582031,8|10,1:0|1:0,1:0:0:0:
320,224,155483,2,0,L|432:224,1,111.999996582031,0|8,1:0|1:0,1:0:0:0:
240,224,155752,2,0,L|224:112,1,111.999996582031,10|0,1:0|1:0,1:0:0:0:
416,112,156021,6,0,L|192:112,1,223.999993164063,12|10,1:0|1:0,1:0:0:0:
304,144,156424,1,8,1:0:0:0:
176,144,156559,2,0,L|160:256,1,111.999996582031,2|8,1:0|1:0,1:0:0:0:
352,256,156828,1,10,1:0:0:0:
160,256,156962,1,0,1:0:0:0:
352,256,157097,6,0,L|368:144,1,111.999996582031,10|8,1:0|1:0,1:0:0:0:
176,144,157366,1,8,1:0:0:0:
367,145,157500,1,10,1:0:0:0:
64,304,157635,2,0,L|80:192,1,111.999996582031,0|8,1:0|1:0,1:0:0:0:
208,272,157904,2,0,L|192:160,1,111.999996582031,10|0,1:0|1:0,1:0:0:0:
320,240,158173,6,0,L|336:128,1,111.999996582031,10|0,1:0|1:0,1:0:0:0:
480,208,158442,2,0,L|464:96,1,111.999996582031,8|0,1:0|1:0,1:0:0:0:
160,112,158711,6,0,L|48:112,1,111.999996582031,14|0,1:0|1:0,1:0:0:0:
240,144,158980,1,0,1:0:0:0:
112,144,159115,1,0,1:0:0:0:
352,112,159249,6,0,L|464:112,1,111.999996582031,14|0,1:0|1:0,1:0:0:0:
272,144,159518,1,0,1:0:0:0:
400,144,159652,1,0,1:0:0:0:
144,144,159787,6,0,L|208:144,1,55.9999982910157,10|0,1:0|1:0,1:0:0:0:
400,208,159921,2,0,L|336:208,1,55.9999982910157,8|0,1:0|1:0,1:0:0:0:
112,208,160056,2,0,L|176:208,1,55.9999982910157,8|0,1:0|1:0,1:0:0:0:
368,272,160190,2,0,L|304:272,1,55.9999982910157,0|0,1:0|1:0,1:0:0:0:
112,272,160325,6,0,P|64:240|64:80,1,223.999993164063,12|8,1:0|1:0,1:0:0:0:
256,80,160730,1,8,1:0:0:0:
64,80,160864,1,2,1:0:0:0:
176,80,160999,2,0,L|288:80,1,111.999996582031,8|8,1:0|1:0,1:0:0:0:
80,208,161268,6,0,L|304:208,1,223.999993164063,2|8,1:0|1:0,1:0:0:0:
112,96,161670,2,0,L|96:208,1,111.999996582031,10|8,1:0|1:0,1:0:0:0:
304,96,161939,2,0,L|192:96,1,111.999996582031,2|8,1:0|1:0,1:0:0:0:
400,96,162208,2,0,L|416:208,1,111.999996582031,10|0,1:0|1:0,1:0:0:0:
208,208,162477,6,0,L|320:208,1,111.999996582031,10|0,1:0|1:0,1:0:0:0:
208,240,162746,2,0,L|96:240,1,111.999996582031,10|8,1:0|1:0,1:0:0:0:
320,272,163017,2,0,L|208:272,2,111.999996582031,0|10|8,1:0|1:0|1:0,1:0:0:0:
128,272,163420,6,0,P|80:240|80:80,1,223.999993164063,2|8,1:0|1:0,1:0:0:0:
400,96,163824,2,0,L|288:96,1,111.999996582031,10|8,1:0|1:0,1:0:0:0:
96,160,164093,2,0,L|224:160,1,111.999996582031,2|8,1:0|1:0,1:0:0:0:
432,224,164362,2,0,L|320:224,1,111.999996582031,10|0,1:0|1:0,1:0:0:0:
64,288,164631,6,0,L|288:288,1,223.999993164063,12|8,1:0|1:0,1:0:0:0:
80,224,165033,1,10,1:0:0:0:
192,224,165169,2,0,L|304:224,1,111.999996582031,0|8,1:0|1:0,1:0:0:0:
176,224,165438,2,0,L|160:112,1,111.999996582031,10|0,1:0|1:0,1:0:0:0:
448,96,165707,6,0,L|224:96,1,223.999993164063,12|8,1:0|1:0,1:0:0:0:
416,160,166111,1,10,1:0:0:0:
304,160,166245,2,0,L|192:160,1,111.999996582031,0|8,1:0|1:0,1:0:0:0:
320,176,166514,2,0,L|336:288,1,111.999996582031,10|0,1:0|1:0,1:0:0:0:
144,128,166783,2,0,P|95:160|95:272,1,167.999994873047,10|0,1:0|1:0,1:0:0:0:
224,256,167052,6,0,P|272:224|272:112,1,167.999994873047,12|0,1:0|1:0,1:0:0:0:
144,128,167321,1,8,1:0:0:0:
336,128,167456,2,0,L|224:128,1,111.999996582031,8|0,1:0|1:0,1:0:0:0:
416,224,167725,6,0,L|192:224,1,223.999993164063,12|8,1:0|1:0,1:0:0:0:
416,160,168129,2,0,L|304:160,1,111.999996582031,10|0,1:0|1:0,1:0:0:0:
112,160,168398,6,0,L|48:160,1,55.9999982910157,10|8,1:0|1:0,1:0:0:0:
64,224,168532,2,0,L|144:224,1,55.9999982910157,8|8,1:0|1:0,1:0:0:0:
352,224,168667,2,0,L|288:224,1,55.9999982910157,10|8,1:0|1:0,1:0:0:0:
64,224,168801,2,0,L|120:224,1,55.9999982910157,8|8,1:0|1:0,1:0:0:0:
320,288,168936,6,0,L|96:288,1,223.999993164063,12|8,1:0|1:0,1:0:0:0:
208,256,169339,1,10,1:0:0:0:
16,256,169474,2,0,L|128:256,2,111.999996582031,0|8|8,1:0|1:0|1:0,1:0:0:0:
320,256,169877,6,0,P|368:224|368:64,1,223.999993164063,2|8,1:0|1:0,1:0:0:0:
96,80,170280,2,0,L|208:80,1,111.999996582031,10|8,1:0|1:0,1:0:0:0:
432,144,170549,2,0,L|320:144,1,111.999996582031,2|8,1:0|1:0,1:0:0:0:
64,208,170818,2,0,L|176:208,1,111.999996582031,10|0,1:0|1:0,1:0:0:0:
448,256,171087,6,0,L|224:256,1,223.999993164063,10|8,1:0|1:0,1:0:0:0:
32,288,171491,2,0,L|256:288,1,223.999993164063,10|0,1:0|1:0,1:0:0:0:
448,288,171894,2,0,L|336:288,1,111.999996582031,10|0,1:0|1:0,1:0:0:0:
112,224,172163,6,0,L|96:112,1,111.999996582031,10|8,1:0|1:0,1:0:0:0:
224,160,172432,2,0,L|240:48,1,111.999996582031,10|8,1:0|1:0,1:0:0:0:
480,96,172701,2,0,L|496:208,1,111.999996582031,2|8,1:0|1:0,1:0:0:0:
368,160,172970,2,0,L|352:272,1,111.999996582031,10|0,1:0|1:0,1:0:0:0:
144,288,173239,6,0,L|368:288,1,223.999993164063,12|10,1:0|1:0,1:0:0:0:
256,256,173643,1,8,1:0:0:0:
448,256,173777,2,0,L|464:144,1,111.999996582031,2|8,1:0|1:0,1:0:0:0:
336,144,174047,2,0,L|320:256,1,111.999996582031,10|0,1:0|1:0,1:0:0:0:
112,256,174316,6,0,L|224:256,1,111.999996582031,14|8,1:0|1:0,1:0:0:0:
416,256,174585,2,0,L|304:256,1,111.999996582031,8|8,1:0|1:0,1:0:0:0:
111,224,174854,2,0,L|95:112,1,111.999996582031,2|8,1:0|1:0,1:0:0:0:
304,112,175123,2,0,L|192:112,1,111.999996582031,10|0,1:0|1:0,1:0:0:0:
384,112,175392,2,0,P|432:144|432:256,1,167.999994873047,10|0,1:0|1:0,1:0:0:0:
304,240,175661,6,0,P|256:208|256:96,1,167.999994873047,12|0,1:0|1:0,1:0:0:0:
384,112,175930,2,0,L|496:112,2,111.999996582031,8|8|0,1:0|1:0|1:0,1:0:0:0:
192,112,176334,6,0,P|144:144|144:256,1,167.999994873047,12|0,1:0|1:0,1:0:0:0:
208,256,176602,1,8,1:0:0:0:
448,256,176737,2,0,L|464:144,1,111.999996582031,8|0,1:0|1:0,1:0:0:0:
224,144,177007,5,2,1:0:0:0:
352,144,177141,1,8,1:0:0:0:
368,192,177208,1,8,1:0:0:0:
384,240,177276,1,8,1:0:0:0:
256,240,177410,1,8,1:0:0:0:
32,272,177562,6,0,L|16:144,1,128,8|0,2:0|2:0,2:0:0:0:
144,144,178100,1,8,2:0:0:0:
336,144,178369,1,0,2:0:0:0:
176,192,178638,2,0,L|304:192,1,128,2|0,2:0|2:0,2:0:0:0:
112,240,179155,5,10,2:0:0:0:
224,240,179424,1,0,2:0:0:0:
336,240,179693,1,0,2:0:0:0:
112,272,179962,1,10,2:0:0:0:
224,272,180231,1,0,2:0:0:0:
336,272,180500,1,8,2:0:0:0:
112,272,180769,6,0,L|96:144,1,128,8|0,2:0|2:0,2:0:0:0:
160,144,181172,1,2,2:0:0:0:
288,144,181307,2,0,L|160:144,1,128,8|8,2:0|2:0,2:0:0:0:
320,144,181845,2,0,L|336:272,1,128,2|8,2:0|2:0,2:0:0:0:
144,272,182383,6,0,L|128:144,1,128,10|0,2:0|2:0,2:0:0:0:
192,144,182787,1,2,2:0:0:0:
320,144,182921,2,0,L|192:144,1,128,2|2,2:0|2:0,2:0:0:0:
384,144,183459,2,0,L|400:272,1,128,2|0,2:0|2:0,2:0:0:0:
160,272,183998,6,8,L|288:272,2,128,10|0|0,2:0|2:0|2:0,2:0:0:0:
368,144,184805,2,0,L|240:144,2,128,10|0|8,2:0|2:0|2:0,2:0:0:0:
208,144,185612,6,0,L|192:272,1,128,8|2,2:0|2:0,2:0:0:0:
256,272,186015,1,10,2:0:0:0:
384,272,186150,2,0,L|400:144,1,128,8|2,2:0|2:0,2:0:0:0:
208,208,186688,1,0,2:0:0:0:
400,208,186957,1,8,2:0:0:0:
208,208,187226,6,0,L|192:80,1,128,10|0,2:0|2:0,2:0:0:0:
256,80,187630,1,0,2:0:0:0:
384,80,187764,2,0,L|320:80,2,64,8|0|10,2:0|2:0|2:0,2:0:0:0:
192,144,188302,1,2,2:0:0:0:
384,144,188572,1,8,2:0:0:0:
192,144,188841,6,0,L|176:272,1,128,10|8,2:0|2:0,2:0:0:0:
240,272,189244,1,0,2:0:0:0:
368,272,189379,2,0,L|240:272,1,128,8|8,2:0|2:0,2:0:0:0:
368,240,189917,5,12,2:0:0:0:
176,240,190051,2,0,L|336:240,1,150,14|0,2:0|2:0,2:0:0:0:
160,144,190320,5,12,1:0:0:0:
64,144,190465,2,0,L|160:144,1,95.9999970703126,0|0,1:0|1:0,1:0:0:0:
352,144,190734,2,0,L|448:144,1,95.9999970703126,10|0,1:0|1:0,1:0:0:0:
256,144,191003,2,0,L|240:240,1,95.9999970703126,0|8,1:0|1:0,1:0:0:0:
368,240,191272,1,8,1:0:0:0:
176,240,191406,6,0,P|128:208|128:80,1,191.999994140625,10|8,1:0|1:0,1:0:0:0:
320,80,191810,2,0,L|224:80,1,95.9999970703126,10|0,1:0|1:0,1:0:0:0:
32,128,192079,2,0,L|128:128,2,95.9999970703126,10|8|8,1:0|1:0|1:0,1:0:0:0:
224,192,192482,6,0,L|96:192,1,120,10|0,1:0|1:0,1:0:0:0:
32,192,192751,1,8,1:0:0:0:
224,160,192886,2,0,L|320:160,1,95.9999970703126,10|0,1:0|1:0,1:0:0:0:
96,128,193155,2,0,L|192:128,2,95.9999970703126,0|10|8,1:0|1:0|1:0,1:0:0:0:
288,128,193559,6,0,P|336:160|336:288,1,191.999994140625,10|8,1:0|1:0,1:0:0:0:
144,288,193962,2,0,L|240:288,1,95.9999970703126,10|0,1:0|1:0,1:0:0:0:
48,256,194231,2,0,L|144:256,2,95.9999970703126,10|8|8,1:0|1:0|1:0,1:0:0:0:
272,192,194635,6,0,L|400:192,1,120,2|0,1:0|1:0,1:0:0:0:
464,192,194904,1,8,1:0:0:0:
272,160,195038,2,0,L|176:160,1,95.9999970703126,10|0,1:0|1:0,1:0:0:0:
368,128,195308,2,0,L|272:128,1,95.9999970703126,2|8,1:0|1:0,1:0:0:0:
144,128,195577,1,10,1:0:0:0:
336,128,195711,6,0,P|384:160|384:288,1,191.999994140625,8|8,1:0|1:0,1:0:0:0:
192,288,196115,2,0,L|288:288,1,95.9999970703126,10|0,1:0|1:0,1:0:0:0:
96,288,196384,2,0,L|80:192,1,95.9999970703126,10|8,1:0|1:0,1:0:0:0:
272,192,196653,1,10,1:0:0:0:
80,193,196787,1,8,1:0:0:0:
272,192,196922,2,0,P|320:224|320:304,1,143.999995605469,2|0,1:0|1:0,1:0:0:0:
112,304,197191,6,0,L|48:304,2,60.0000022888184,10|2|2,1:0|1:0|1:0,1:0:0:0:
320,272,197460,1,2,1:0:0:0:
256,272,197527,1,2,1:0:0:0:
192,272,197595,1,2,1:0:0:0:
400,208,197729,2,0,L|464:208,2,60.0000022888184,2|2|2,1:0|1:0|1:0,1:0:0:0:
96,192,197998,5,10,1:0:0:0:
160,192,198065,1,0,1:0:0:0:
224,192,198133,1,10,1:0:0:0:
416,192,198267,2,0,L|288:192,1,120,10|0,1:0|1:0,1:0:0:0:
80,48,198536,2,0,L|176:48,1,95.9999970703126,0|10,1:0|1:0,1:0:0:0:
416,48,198805,1,8,1:0:0:0:
224,128,198940,6,0,P|176:160|176:288,1,191.999994140625,12|8,1:0|1:0,1:0:0:0:
368,288,199343,2,0,L|272:288,1,95.9999970703126,10|0,1:0|1:0,1:0:0:0:
80,256,199612,1,2,1:0:0:0:
144,256,199680,1,0,1:0:0:0:
208,256,199747,1,10,1:0:0:0:
400,256,199882,1,8,1:0:0:0:
208,160,200016,6,0,L|336:160,1,120,10|0,1:0|1:0,1:0:0:0:
400,160,200285,1,8,1:0:0:0:
208,96,200420,2,0,L|112:96,1,95.9999970703126,10|0,1:0|1:0,1:0:0:0:
400,128,200689,2,0,L|304:128,1,95.9999970703126,10|0,1:0|0:0,0:0:0:0:
80,128,200958,1,8,1:0:0:0:
272,128,201092,6,0,P|320:160|320:288,1,191.999994140625,14|8,1:0|1:0,1:0:0:0:
128,288,201496,2,0,L|224:288,1,95.9999970703126,10|0,1:0|1:0,1:0:0:0:
416,288,201765,1,2,1:0:0:0:
352,288,201832,1,0,1:0:0:0:
288,288,201899,1,10,1:0:0:0:
96,288,202034,1,0,1:0:0:0:
288,240,202169,6,0,L|160:240,1,120,10|0,1:0|1:0,1:0:0:0:
96,240,202438,1,8,1:0:0:0:
288,176,202572,2,0,L|384:176,1,95.9999970703126,10|0,1:0|1:0,1:0:0:0:
160,176,202841,2,0,L|144:80,1,95.9999970703126,10|8,1:0|1:0,1:0:0:0:
272,80,203110,2,0,L|368:80,1,95.9999970703126,10|10,1:0|1:0,1:0:0:0:
144,80,203379,6,0,L|96:80,1,47.9999985351563,6|2,1:0|1:0,1:0:0:0:
80,128,203514,2,0,L|128:128,1,47.9999985351563,10|2,1:0|1:0,1:0:0:0:
304,128,203648,2,0,L|352:128,1,47.9999985351563,10|2,1:0|1:0,1:0:0:0:
416,128,203783,2,0,L|432:80,1,47.9999985351563,2|2,1:0|1:0,1:0:0:0:
208,80,203917,6,0,L|192:128,1,47.9999985351563,2|2,1:0|1:0,1:0:0:0:
416,128,204052,2,0,L|432:176,1,47.9999985351563,10|2,1:0|1:0,1:0:0:0:
368,192,204186,2,0,L|320:192,1,47.9999985351563,10|2,1:0|1:0,1:0:0:0:
112,192,204321,2,0,L|64:192,1,47.9999985351563,10|2,1:0|1:0,1:0:0:0:
48,240,204456,6,0,L|96:240,1,47.9999985351563,2|2,1:0|1:0,1:0:0:0:
288,240,204590,2,0,L|336:240,1,47.9999985351563,2|2,1:0|1:0,1:0:0:0:
112,240,204725,2,0,L|48:240,1,47.9999985351563,10|2,1:0|1:0,1:0:0:0:
48,192,204859,2,0,L|96:192,1,47.9999985351563,10|2,1:0|1:0,1:0:0:0:
288,192,204994,6,0,L|336:192,1,47.9999985351563,10|2,1:0|1:0,1:0:0:0:
400,192,205128,2,0,L|416:144,1,47.9999985351563,2|2,1:0|1:0,1:0:0:0:
192,144,205263,2,0,L|144:144,1,47.9999985351563,2|2,1:0|1:0,1:0:0:0:
384,144,205397,2,0,L|432:144,1,47.9999985351563,10|2,1:0|1:0,1:0:0:0:
448,96,205532,6,0,L|400:96,1,47.9999985351563,10|2,1:0|1:0,1:0:0:0:
208,96,205666,2,0,L|160:96,1,47.9999985351563,10|2,1:0|1:0,1:0:0:0:
128,144,205801,2,0,L|176:144,1,47.9999985351563,2|2,1:0|1:0,1:0:0:0:
368,192,205935,2,0,L|320:192,1,47.9999985351563,2|2,1:0|1:0,1:0:0:0:
128,192,206070,6,0,L|80:192,1,47.9999985351563,10|2,1:0|1:0,1:0:0:0:
272,192,206204,2,0,L|320:192,1,47.9999985351563,10|2,1:0|1:0,1:0:0:0:
128,224,206339,2,0,L|64:224,1,47.9999985351563,10|2,1:0|1:0,1:0:0:0:
64,272,206473,2,0,L|112:272,1,47.9999985351563,2|2,1:0|1:0,1:0:0:0:
288,272,206608,6,0,L|336:272,1,47.9999985351563,2|0,1:0|1:0,1:0:0:0:
96,240,206743,2,0,L|48:240,1,47.9999985351563,10|0,1:0|1:0,1:0:0:0:
288,208,206877,2,0,L|336:208,1,47.9999985351563,10|0,1:0|1:0,1:0:0:0:
96,176,207012,2,0,L|48:176,1,47.9999985351563,10|0,1:0|1:0,1:0:0:0:
224,304,207146,6,0,L|288:304,2,63.9999980468751,10|0|0,1:0|1:0|1:0,1:0:0:0:
384,304,207415,2,0,L|448:304,2,63.9999980468751,10|0|0,1:0|1:0|1:0,1:0:0:0:
160,224,207684,6,0,L|352:224,1,191.999994140625,12|10,1:0|1:0,1:0:0:0:
352,160,208088,1,0,1:0:0:0:
160,160,208222,2,0,L|64:160,2,95.9999970703126,8|10|0,1:0|1:0|1:0,1:0:0:0:
352,160,208626,6,0,P|400:192|400:320,1,191.999994140625,10|8,1:0|1:0,1:0:0:0:
208,320,209030,2,0,L|192:224,1,95.9999970703126,10|0,1:0|1:0,1:0:0:0:
320,224,209299,1,10,1:0:0:0:
448,224,209433,2,0,L|464:320,1,95.9999970703126,8|8,1:0|1:0,1:0:0:0:
272,320,209702,6,0,P|224:286|224:158,1,191.999994140625,2|0,1:0|1:0,1:0:0:0:
416,160,210106,2,0,L|320:160,1,95.9999970703126,10|0,1:0|1:0,1:0:0:0:
64,208,210375,2,0,L|160:208,1,95.9999970703126,10|8,1:0|1:0,1:0:0:0:
448,208,210644,2,0,L|352:208,1,95.9999970703126,8|2,1:0|1:0,1:0:0:0:
96,256,210913,6,0,L|192:256,2,95.9999970703126,0|8|10,1:0|1:0|1:0,1:0:0:0:
288,288,211317,2,0,L|96:288,1,191.999994140625,0|8,1:0|1:0,1:0:0:0:
288,224,211720,2,0,L|384:224,1,95.9999970703126,10|0,1:0|1:0,1:0:0:0:
96,224,211989,5,10,1:0:0:0:
80,192,212258,1,10,1:0:0:0:
288,160,212527,1,10,1:0:0:0:
64,160,212662,1,8,1:0:0:0:
48,128,212931,6,0,L|240:128,1,191.999994140625,10|10,1:0|1:0,1:0:0:0:
144,160,213334,2,0,L|48:160,1,95.9999970703126,10|0,1:0|1:0,1:0:0:0:
352,208,213604,1,8,1:0:0:0:
160,208,213738,1,8,1:0:0:0:
368,256,213873,2,0,L|464:256,1,95.9999970703126,2|2,1:0|1:0,1:0:0:0:
96,256,214142,6,0,L|192:256,3,95.9999970703126,12|0|10|0,1:0|1:0|1:0|1:0,1:0:0:0:
416,256,214680,2,0,L|320:256,3,95.9999970703126,12|0|8|0,1:0|1:0|1:0|1:0,1:0:0:0:
112,160,215218,6,0,L|208:160,1,95.9999970703126,12|10,1:0|1:0,1:0:0:0:
400,160,215487,2,0,L|304:160,1,95.9999970703126,0|8,1:0|1:0,1:0:0:0:
112,160,215756,5,8,1:0:0:0:
320,208,215891,2,0,L|368:208,1,47.9999985351563,8|10,1:0|1:0,1:0:0:0:
96,224,216025,2,0,L|48:224,1,47.9999985351563,8|10,1:0|1:0,1:0:0:0:
256,272,216160,2,0,L|304:272,1,47.9999985351563,8|2,1:0|1:0,1:0:0:0:
112,272,216294,2,0,P|64:240|64:160,1,143.999995605469,0|8,1:0|1:0,1:0:0:0:
256,160,216563,6,0,L|154:160,1,95.9999970703126,6|8,1:0|1:0,1:0:0:0:
352,160,216832,2,0,L|448:160,2,95.9999970703126,2|8|8,1:0|1:0|1:0,1:0:0:0:
160,224,217236,6,0,L|352:224,1,191.999994140625,2|8,1:0|1:0,1:0:0:0:
160,160,217639,2,0,L|256:160,1,95.9999970703126,10|8,1:0|1:0,1:0:0:0:
64,160,217908,2,0,L|48:64,1,95.9999970703126,2|8,1:0|1:0,1:0:0:0:
256,64,218178,2,0,L|160:64,1,95.9999970703126,8|2,1:0|1:0,1:0:0:0:
64,64,218447,6,0,L|160:64,1,95.9999970703126,8|0,1:0|1:0,1:0:0:0:
352,64,218716,2,0,L|256:64,1,95.9999970703126,10|8,1:0|1:0,1:0:0:0:
448,64,218985,2,0,L|464:160,1,95.9999970703126,2|8,1:0|1:0,1:0:0:0:
272,160,219254,2,0,L|368:160,1,95.9999970703126,10|0,1:0|1:0,1:0:0:0:
176,160,219523,6,0,L|160:64,1,95.9999970703126,2|8,1:0|1:0,1:0:0:0:
272,64,219792,1,8,1:0:0:0:
80,192,219926,2,0,L|272:192,1,191.999994140625,10|8,1:0|1:0,1:0:0:0:
176,224,220330,1,10,1:0:0:0:
80,224,220465,1,0,1:0:0:0:
464,288,220599,5,10,1:0:0:0:
368,288,220734,1,8,1:0:0:0:
176,288,220868,1,10,1:0:0:0:
272,288,221003,1,8,1:0:0:0:
176,288,221137,1,10,1:0:0:0:
368,224,221272,2,0,L|272:224,1,95.9999970703126,8|0,1:0|1:0,1:0:0:0:
464,192,221541,6,0,L|272:192,1,191.999994140625,12|10,1:0|1:0,1:0:0:0:
368,160,221944,1,8,1:0:0:0:
464,160,222079,1,8,1:0:0:0:
144,80,222213,1,8,1:0:0:0:
256,80,222348,1,10,1:0:0:0:
368,80,222482,1,8,1:0:0:0:
144,80,222617,6,0,P|96:112|96:240,1,191.999994140625,12|8,1:0|1:0,1:0:0:0:
400,240,223021,1,8,1:0:0:0:
304,240,223155,1,8,1:0:0:0:
32,240,223290,1,8,1:0:0:0:
128,240,223424,1,8,1:0:0:0:
400,240,223559,1,8,1:0:0:0:
128,240,223693,5,12,1:0:0:0:
256,192,223828,12,0,226249,1:0:0:0:
224,272,226384,6,0,L|208:176,1,95.9999970703126,0|0,1:0|1:0,1:0:0:0:
400,176,226653,2,0,L|352:176,1,47.9999985351563,8|8,1:0|1:0,1:0:0:0:
304,144,226787,2,0,L|448:144,1,143.999995605469,8|0,1:0|1:0,1:0:0:0:
240,144,227056,6,0,L|224:256,1,111.999996582031,12|0,1:0|1:0,1:0:0:0:
416,256,227325,1,8,1:0:0:0:
304,256,227460,2,0,L|288:144,1,111.999996582031,10|0,1:0|1:0,1:0:0:0:
480,144,227729,2,0,L|496:256,1,111.999996582031,10|8,1:0|1:0,1:0:0:0:
176,288,227998,6,0,L|400:288,1,223.999993164063,2|8,1:0|1:0,1:0:0:0:
128,208,228402,2,0,L|240:208,1,111.999996582031,10|8,1:0|1:0,1:0:0:0:
464,128,228671,2,0,L|352:128,1,111.999996582031,2|8,1:0|1:0,1:0:0:0:
48,128,228940,2,0,L|160:128,1,111.999996582031,10|0,1:0|1:0,1:0:0:0:
384,48,229209,6,0,L|272:48,1,111.999996582031,10|0,1:0|1:0,1:0:0:0:
496,48,229478,1,8,1:0:0:0:
304,192,229612,2,0,L|192:192,1,111.999996582031,10|0,1:0|1:0,1:0:0:0:
384,192,229882,2,0,L|400:304,1,111.999996582031,10|8,1:0|1:0,1:0:0:0:
208,304,230151,6,0,L|432:304,1,223.999993164063,2|8,1:0|1:0,1:0:0:0:
320,272,230554,2,0,L|304:160,1,111.999996582031,10|8,1:0|1:0,1:0:0:0:
96,176,230823,2,0,L|208:176,1,111.999996582031,2|8,1:0|1:0,1:0:0:0:
416,176,231092,2,0,L|304:176,1,111.999996582031,10|0,1:0|1:0,1:0:0:0:
48,112,231361,6,0,L|272:112,1,223.999993164063,12|8,1:0|1:0,1:0:0:0:
48,176,231765,2,0,L|160:176,2,111.999996582031,10|0|8,1:0|1:0|1:0,1:0:0:0:
256,176,232169,2,0,L|272:288,1,111.999996582031,10|8,1:0|1:0,1:0:0:0:
80,288,232438,6,0,L|64:176,1,111.999996582031,10|8,1:0|1:0,1:0:0:0:
256,176,232707,2,0,L|144:176,3,111.999996582031,10|8|2|8,1:0|1:0|1:0|1:0,1:0:0:0:
448,272,233245,2,0,L|464:160,1,111.999996582031,10|0,1:0|1:0,1:0:0:0:
336,208,233514,6,0,L|320:96,1,111.999996582031,10|0,1:0|1:0,1:0:0:0:
64,192,233783,1,12,1:0:0:0:
128,192,233850,1,0,1:0:0:0:
192,192,233917,1,0,1:0:0:0:
448,160,234052,1,12,1:0:0:0:
384,160,234119,1,8,1:0:0:0:
320,160,234186,1,0,1:0:0:0:
64,160,234321,1,0,1:0:0:0:
384,192,234456,6,0,P|432:224|432:336,1,167.999994873047,12|0,1:0|1:0,1:0:0:0:
368,336,234725,1,8,1:0:0:0:
160,336,234859,2,0,L|144:224,1,111.999996582031,8|0,1:0|1:0,1:0:0:0:
272,272,235128,2,0,L|288:160,1,111.999996582031,10|8,1:0|1:0,1:0:0:0:
96,64,235397,2,0,L|160:64,1,55.9999982910157,8|8,1:0|1:0,1:0:0:0:
320,64,235532,1,0,1:0:0:0:
96,64,235666,6,0,P|80:144|176:240,1,223.999993164063,12|8,1:0|1:0,1:0:0:0:
368,256,236070,1,8,1:0:0:0:
256,224,236204,2,0,L|480:224,1,223.999993164063,2|10,1:0|1:0,1:0:0:0:
368,192,236608,1,0,1:0:0:0:
176,192,236743,6,0,L|160:80,1,111.999996582031,10|8,1:0|1:0,1:0:0:0:
288,80,237012,1,8,1:0:0:0:
32,80,237146,2,0,L|256:80,1,223.999993164063,10|8,1:0|1:0,1:0:0:0:
144,128,237550,2,0,L|32:128,1,111.999996582031,10|0,1:0|1:0,1:0:0:0:
448,128,237819,6,0,L|464:240,1,111.999996582031,10|0,1:0|1:0,1:0:0:0:
256,128,238088,1,8,1:0:0:0:
384,128,238222,1,10,1:0:0:0:
64,240,238357,2,0,L|48:128,1,111.999996582031,0|10,1:0|1:0,1:0:0:0:
256,240,238626,1,8,1:0:0:0:
128,240,238760,1,0,1:0:0:0:
432,240,238895,6,0,L|448:128,1,111.999996582031,10|8,1:0|1:0,1:0:0:0:
208,128,239164,2,0,L|320:128,1,111.999996582031,8|10,1:0|1:0,1:0:0:0:
80,128,239433,2,0,L|64:240,1,111.999996582031,0|8,1:0|1:0,1:0:0:0:
192,240,239702,2,0,L|304:240,1,111.999996582031,10|0,1:0|1:0,1:0:0:0:
32,144,239971,6,0,L|144:144,1,111.999996582031,12|0,1:0|1:0,1:0:0:0:
368,144,240240,2,0,L|256:144,1,111.999996582031,10|8,1:0|1:0,1:0:0:0:
144,240,240509,2,0,L|256:240,1,111.999996582031,2|8,1:0|1:0,1:0:0:0:
480,240,240778,2,0,L|368:240,1,111.999996582031,10|0,1:0|1:0,1:0:0:0:
176,192,241047,6,0,L|288:192,1,111.999996582031,10|8,1:0|1:0,1:0:0:0:
176,160,241317,2,0,L|64:160,1,111.999996582031,8|10,1:0|1:0,1:0:0:0:
288,128,241586,2,0,L|176:128,1,111.999996582031,0|8,1:0|1:0,1:0:0:0:
64,96,241855,2,0,L|176:96,1,111.999996582031,10|0,1:0|1:0,1:0:0:0:
448,192,242124,5,10,1:0:0:0:
320,192,242258,1,0,1:0:0:0:
192,192,242393,1,8,1:0:0:0:
64,192,242527,1,0,1:0:0:0:
368,256,242662,5,14,1:0:0:0:
480,256,242796,1,0,1:0:0:0:
272,288,242931,1,0,1:0:0:0:
480,288,243065,1,0,1:0:0:0:
144,256,243200,5,14,1:0:0:0:
32,256,243334,1,0,1:0:0:0:
240,288,243469,1,0,1:0:0:0:
32,288,243604,1,0,1:0:0:0:
288,96,243738,6,0,L|352:96,1,55.9999982910157,14|0,1:0|1:0,1:0:0:0:
144,96,243873,2,0,L|88:96,1,55.9999982910157,8|0,1:0|1:0,1:0:0:0:
336,160,244007,2,0,L|280:160,1,55.9999982910157,8|0,1:0|1:0,1:0:0:0:
80,160,244142,2,0,L|144:160,1,55.9999982910157,0|0,1:0|1:0,1:0:0:0:
384,208,244276,6,0,P|432:240|432:352,1,167.999994873047,12|0,1:0|1:0,1:0:0:0:
368,336,244545,2,0,L|256:336,1,111.999996582031,8|8,1:0|1:0,1:0:0:0:
48,272,244814,2,0,L|272:272,1,223.999993164063,2|8,1:0|1:0,1:0:0:0:
464,208,245218,6,0,L|240:208,1,223.999993164063,2|8,1:0|1:0,1:0:0:0:
48,208,245621,2,0,L|160:208,1,111.999996582031,10|8,1:0|1:0,1:0:0:0:
352,176,245891,2,0,L|368:64,1,111.999996582031,2|8,1:0|1:0,1:0:0:0:
240,64,246160,2,0,L|224:176,1,111.999996582031,10|0,1:0|1:0,1:0:0:0:
416,176,246429,6,0,L|304:176,1,111.999996582031,10|0,1:0|1:0,1:0:0:0:
192,112,246698,2,0,L|304:112,1,111.999996582031,10|8,1:0|1:0,1:0:0:0:
64,176,246967,2,0,L|176:176,2,111.999996582031,0|10|8,1:0|1:0|1:0,1:0:0:0:
256,272,247370,6,0,L|32:272,1,223.999993164063,2|8,1:0|1:0,1:0:0:0:
368,240,247774,2,0,L|384:112,1,111.999996582031,10|8,1:0|1:0,1:0:0:0:
144,128,248043,2,0,L|256:128,1,111.999996582031,2|8,1:0|1:0,1:0:0:0:
16,128,248312,2,0,L|0:240,1,111.999996582031,10|0,1:0|1:0,1:0:0:0:
224,272,248581,6,0,L|0:272,1,223.999993164063,12|8,1:0|1:0,1:0:0:0:
112,224,248985,2,0,L|224:224,1,111.999996582031,10|0,1:0|1:0,1:0:0:0:
16,160,249254,2,0,L|128:160,2,111.999996582031,8|10|0,1:0|1:0|1:0,1:0:0:0:
288,112,249657,6,0,L|512:112,1,223.999993164063,12|8,1:0|1:0,1:0:0:0:
400,160,250061,2,0,L|288:160,1,111.999996582031,10|0,1:0|1:0,1:0:0:0:
496,224,250330,2,0,L|384:224,2,111.999996582031,8|10|0,1:0|1:0|1:0,1:0:0:0:
64,160,250734,1,10,1:0:0:0:
128,160,250801,1,0,1:0:0:0:
192,160,250868,1,0,1:0:0:0:
448,160,251003,5,12,1:0:0:0:
384,160,251070,1,0,1:0:0:0:
320,160,251137,1,0,1:0:0:0:
112,96,251272,1,8,1:0:0:0:
304,96,251406,2,0,L|192:96,1,111.999996582031,8|0,1:0|1:0,1:0:0:0:
384,96,251675,6,0,P|432:128|432:240,1,167.999994873047,12|0,1:0|1:0,1:0:0:0:
352,240,251944,1,8,1:0:0:0:
112,240,252079,2,0,L|224:240,1,111.999996582031,10|0,1:0|1:0,1:0:0:0:
416,176,252348,6,0,L|352:176,1,55.9999982910157,10|8,1:0|1:0,1:0:0:0:
160,144,252482,2,0,L|224:144,1,55.9999982910157,8|8,1:0|1:0,1:0:0:0:
480,112,252617,2,0,L|416:112,1,55.9999982910157,10|8,1:0|1:0,1:0:0:0:
256,96,252751,2,0,L|192:96,1,55.9999982910157,8|0,1:0|1:0,1:0:0:0:
496,288,252886,6,0,L|512:176,1,111.999996582031,12|0,1:0|1:0,1:0:0:0:
320,176,253155,2,0,L|208:176,2,111.999996582031,8|10|0,1:0|1:0|1:0,1:0:0:0:
32,176,253559,2,0,L|16:288,1,111.999996582031,10|8,1:0|1:0,1:0:0:0:
208,304,253828,6,0,L|432:304,1,223.999993164063,2|8,1:0|1:0,1:0:0:0:
208,304,254231,2,0,L|192:192,1,111.999996582031,10|8,1:0|1:0,1:0:0:0:
384,192,254500,2,0,L|272:192,1,111.999996582031,2|8,1:0|1:0,1:0:0:0:
464,192,254769,2,0,L|480:304,1,111.999996582031,10|0,1:0|1:0,1:0:0:0:
272,304,255038,6,0,P|224:272|224:112,1,223.999993164063,14|8,1:0|1:0,1:0:0:0:
416,304,255442,2,0,P|464:272|464:112,1,223.999993164063,10|8,1:0|1:0,1:0:0:0:
112,128,255846,2,0,L|224:128,1,111.999996582031,10|0,1:0|1:0,1:0:0:0:
480,192,256115,6,0,L|368:192,1,111.999996582031,10|8,1:0|1:0,1:0:0:0:
32,192,256384,2,0,L|144:192,1,111.999996582031,10|8,1:0|1:0,1:0:0:0:
400,256,256653,1,2,1:0:0:0:
288,256,256787,1,8,1:0:0:0:
32,256,256922,2,0,L|16:144,1,111.999996582031,10|0,1:0|1:0,1:0:0:0:
208,144,257191,6,0,L|432:144,1,223.999993164063,12|8,1:0|1:0,1:0:0:0:
320,176,257595,1,10,1:0:0:0:
128,176,257729,2,0,L|16:176,1,111.999996582031,0|8,1:0|1:0,1:0:0:0:
0,224,257998,2,0,L|112:224,1,111.999996582031,10|0,1:0|1:0,1:0:0:0:
368,176,258267,6,0,L|480:176,1,111.999996582031,10|8,1:0|1:0,1:0:0:0:
208,224,258536,2,0,L|320:224,1,111.999996582031,10|8,1:0|1:0,1:0:0:0:
32,256,258805,2,0,L|144:256,2,111.999996582031,2|8|2,1:0|1:0|1:0,1:0:0:0:
224,160,259209,6,0,L|448:160,1,223.999993164063,12|0,1:0|1:0,1:0:0:0:
320,192,259612,1,2,1:0:0:0:
192,192,259747,2,0,L|128:192,1,55.9999982910157,8|0,1:0|1:0,1:0:0:0:
320,192,259882,2,0,L|384:192,1,55.9999982910157,8|0,1:0|1:0,1:0:0:0:
192,144,260016,2,0,L|128:144,1,55.9999982910157,0|0,1:0|1:0,1:0:0:0:
320,144,260151,6,0,L|384:144,1,55.9999982910157,8|0,1:0|1:0,1:0:0:0:
384,192,260285,2,0,L|320:192,1,55.9999982910157,8|0,1:0|1:0,1:0:0:0:
192,192,260420,2,0,L|128:192,1,55.9999982910157,8|0,1:0|1:0,1:0:0:0:
320,144,260554,2,0,L|384:144,1,55.9999982910157,0|0,1:0|1:0,1:0:0:0:
192,192,260689,6,0,L|128:192,1,55.9999982910157,8|0,1:0|1:0,1:0:0:0:
320,192,260823,1,0,0:0:0:0:
368,192,260874,1,0,0:0:0:0:
368,144,260924,1,2,2:0:0:0:
192,112,261361,2,0,L|128:112,1,55.9999982910157,8|8,1:0|1:0,1:0:0:0:
336,112,261496,6,0,P|384:144|384:304,1,223.999993164063,10|0,1:0|1:0,1:0:0:0:
256,304,261899,1,0,1:0:0:0:
144,272,262034,2,0,L|368:272,1,223.999993164063,8|0,1:0|1:0,1:0:0:0:
144,272,262438,6,0,P|96:240|96:112,1,191.999994140625,14|0,1:0|1:0,1:0:0:0:
288,112,262841,2,0,L|304:208,1,95.9999970703126,10|0,1:0|1:0,1:0:0:0:
176,208,263110,1,10,1:0:0:0:
48,208,263245,2,0,L|32:112,1,95.9999970703126,8|8,1:0|1:0,1:0:0:0:
224,112,263514,6,0,L|32:112,1,191.999994140625,10|8,1:0|1:0,1:0:0:0:
128,80,263917,2,0,L|224:80,1,95.9999970703126,10|0,1:0|1:0,1:0:0:0:
32,80,264186,1,0,1:0:0:0:
224,80,264321,2,0,L|128:80,1,95.9999970703126,8|8,1:0|1:0,1:0:0:0:
320,80,264590,6,0,P|368:112|368:240,1,191.999994140625,12|8,1:0|1:0,1:0:0:0:
240,240,264994,2,0,L|224:144,1,95.9999970703126,10|0,1:0|1:0,1:0:0:0:
352,144,265263,1,0,1:0:0:0:
480,144,265397,2,0,L|496:240,1,95.9999970703126,8|8,1:0|1:0,1:0:0:0:
304,240,265666,6,0,L|400:240,2,95.9999970703126,10|0|8,1:0|1:0|1:0,1:0:0:0:
496,240,266070,2,0,L|400:240,2,95.9999970703126,10|0|0,1:0|1:0|1:0,1:0:0:0:
304,240,266473,2,0,L|208:240,1,95.9999970703126,10|0,1:0|0:0,0:0:0:0:
448,144,266743,6,0,L|464:240,1,95.9999970703126,14|0,1:0|1:0,1:0:0:0:
336,240,267012,1,0,1:0:0:0:
144,240,267146,2,0,L|336:240,1,191.999994140625,10|10,1:0|1:0,1:0:0:0:
144,240,267550,2,8,L|128:144,1,95.9999970703126,8|8,1:0|1:0,1:0:0:0:
320,144,267819,6,0,L|128:144,1,191.999994140625,10|0,1:0|1:0,1:0:0:0:
320,144,268222,2,0,L|416:144,2,95.9999970703126,10|0|0,1:0|0:0|0:0,0:0:0:0:
192,144,268626,2,0,L|176:240,1,95.9999970703126,8|10,1:0|1:0,1:0:0:0:
368,240,268895,6,0,L|176:240,1,191.999994140625,12|0,1:0|1:0,1:0:0:0:
368,240,269299,2,0,P|416:208|416:80,1,191.999994140625,10|0,1:0|1:0,1:0:0:0:
208,80,269702,2,0,L|304:80,1,95.9999970703126,0|8,1:0|1:0,1:0:0:0:
64,192,269971,6,0,L|160:192,2,95.9999970703126,12|0|8,1:0|1:0|1:0,1:0:0:0:
304,160,270375,2,0,L|208:160,1,95.9999970703126,10|0,1:0|1:0,1:0:0:0:
448,208,270644,1,8,1:0:0:0:
400,208,270711,1,8,1:0:0:0:
352,208,270778,1,8,1:0:0:0:
160,208,270913,1,8,1:0:0:0:
368,288,271047,6,0,P|416:256|416:128,1,191.999994140625,12|8,1:0|1:0,1:0:0:0:
144,288,271451,2,0,P|96:256|96:128,1,191.999994140625,10|8,1:0|1:0,1:0:0:0:
304,128,271855,2,0,L|208:128,1,95.9999970703126,10|8,1:0|1:0,1:0:0:0:
416,128,272124,6,0,P|432:224|368:288,1,191.999994140625,12|8,1:0|1:0,1:0:0:0:
96,128,272527,2,0,P|80:224|144:288,1,191.999994140625,10|8,1:0|1:0,1:0:0:0:
336,288,272931,2,0,L|352:192,1,95.9999970703126,10|8,1:0|1:0,1:0:0:0:
96,288,273200,6,0,L|288:288,1,191.999994140625,12|0,1:0|1:0,1:0:0:0:
96,288,273604,2,0,L|80:192,1,95.9999970703126,8|2,1:0|1:0,1:0:0:0:
208,194,273873,1,0,1:0:0:0:
336,192,274007,1,8,1:0:0:0:
144,192,274142,1,10,1:0:0:0:
336,192,274276,6,0,P|384:224|384:304,1,143.999995605469,12|0,1:0|1:0,1:0:0:0:
304,304,274545,2,0,P|256:272|256:190,1,143.999995605469,10|0,1:0|1:0,1:0:0:0:
336,192,274814,1,10,1:0:0:0:
144,192,274949,2,0,P|96:224|96:352,1,191.999994140625,8|8,1:0|1:0,1:0:0:0:
288,352,275352,6,0,L|96:352,1,191.999994140625,12|0,1:0|1:0,1:0:0:0:
192,320,275756,1,10,1:0:0:0:
384,320,275891,2,0,L|288:320,1,95.9999970703126,0|10,1:0|1:0,1:0:0:0:
96,288,276160,2,0,L|240:288,1,143.999995605469,10|0,1:0|1:0,1:0:0:0:
432,288,276429,6,0,L|448:192,1,95.9999970703126,10|0,1:0|1:0,1:0:0:0:
256,192,276698,2,0,L|240:288,1,95.9999970703126,0|8,1:0|1:0,1:0:0:0:
368,288,276967,1,2,1:0:0:0:
176,288,277101,1,8,1:0:0:0:
124,251,277168,1,0,1:0:0:0:
105,191,277235,1,8,1:0:0:0:
124,132,277302,1,0,1:0:0:0:
336,128,277370,6,0,L|240:128,2,95.9999970703126,10|12|0,1:0|1:0|1:0,1:0:0:0:
144,288,277774,2,0,L|128:192,1,95.9999970703126,8|10,1:0|1:0,1:0:0:0:
256,192,278043,1,0,1:0:0:0:
383,193,278178,2,0,L|400:96,1,95.9999970703126,10|8,1:0|1:0,1:0:0:0:
208,96,278447,1,10,1:0:0:0:
400,96,278581,1,0,1:0:0:0:
208,96,278716,6,0,L|192:192,1,95.9999970703126,10|0,1:0|1:0,1:0:0:0:
320,192,278985,1,8,1:0:0:0:
128,192,279119,2,0,L|112:96,1,95.9999970703126,10|8,1:0|1:0,1:0:0:0:
304,128,279388,2,0,L|320:32,1,95.9999970703126,10|0,1:0|1:0,1:0:0:0:
448,32,279657,1,8,1:0:0:0:
128,192,279792,6,0,L|48:192,2,64,14|0|0,2:0|2:0|2:0,2:0:0:0:
0,192,280195,2,0,L|0:320,1,128,2|0,2:0|2:0,2:0:0:0:
64,320,280599,1,0,2:0:0:0:
192,320,280734,6,0,L|192:192,1,128,2|0,2:0|2:0,2:0:0:0:
128,192,281137,1,0,2:0:0:0:
256,160,281272,2,0,L|128:160,1,128,2|0,2:0|2:0,2:0:0:0:
192,128,281675,2,0,L|128:128,1,64,2|0,2:0|2:0,2:0:0:0:
320,128,281944,6,0,L|400:128,2,64,2|0|0,2:0|2:0|2:0,2:0:0:0:
448,128,282348,2,0,L|448:256,1,128,2|0,2:0|2:0,2:0:0:0:
384,256,282751,1,0,2:0:0:0:
256,256,282886,6,0,L|256:128,1,128,2|0,2:0|2:0,2:0:0:0:
320,128,283290,1,0,2:0:0:0:
192,128,283424,2,0,L|192:256,1,128,2|0,2:0|2:0,2:0:0:0:
256,256,283828,2,0,L|192:256,1,64,2|0,2:0|2:0,2:0:0:0:
384,256,284097,6,0,L|432:256,2,47.9999985351563,2|0|0,2:0|2:0|2:0,2:0:0:0:
256,256,284500,2,0,L|256:160,1,95.9999970703126,2|0,2:0|2:0,2:0:0:0:
320,160,284904,1,0,2:0:0:0:
448,160,285038,6,0,L|352:160,1,95.9999970703126,2|0,2:0|2:0,2:0:0:0:
288,160,285442,1,0,2:0:0:0:
416,160,285577,2,0,L|416:256,1,95.9999970703126,2|0,2:0|2:0,2:0:0:0:
352,256,285980,2,0,L|400:256,1,47.9999985351563,2|0,2:0|2:0,2:0:0:0:
272,256,286249,6,0,L|224:256,2,47.9999985351563,2|0|0,2:0|2:0|2:0,2:0:0:0:
144,192,286653,2,0,L|240:192,1,95.9999970703126,2|0,2:0|2:0,2:0:0:0:
304,192,287056,1,0,2:0:0:0:
432,160,287191,6,0,L|336:160,1,95.9999970703126,2|0,2:0|2:0,2:0:0:0:
272,160,287595,1,0,2:0:0:0:
144,160,287729,2,0,L|144:256,1,95.9999970703126,2|0,2:0|2:0,2:0:0:0:
208,256,288133,2,0,L|256:256,1,47.9999985351563,2|0,2:0|2:0,2:0:0:0:
384,256,288402,5,6,2:0:0:0:
256,192,288536,12,0,290016,2:0:0:0:
256,192,290554,5,6,2:0:0:0:
256,192,290689,12,0,292169,2:0:0:0:
256,192,292707,5,6,2:0:0:0:
256,192,292841,12,0,294321,2:0:0:0:
256,192,294859,5,6,2:0:0:0:
288,288,295666,5,8,2:0:0:0:
320,288,295801,1,0,2:0:0:0:
288,288,295935,1,0,2:0:0:0:
224,288,296070,1,2,2:0:0:0:
304,224,296339,5,0,2:0:0:0:
336,224,296473,1,0,2:0:0:0:
368,224,296608,1,2,2:0:0:0:
288,160,296877,1,0,2:0:0:0:
256,160,297012,1,0,2:0:0:0:
224,160,297146,1,2,2:0:0:0:
192,160,297684,5,8,2:0:0:0:
224,144,297819,1,0,2:0:0:0:
256,128,297953,1,0,2:0:0:0:
192,112,298088,1,2,2:0:0:0:
272,112,298357,5,0,2:0:0:0:
304,96,298491,1,0,2:0:0:0:
272,80,298626,1,2,2:0:0:0:
192,112,298895,1,0,2:0:0:0:
160,96,299030,1,0,2:0:0:0:
192,80,299164,1,2,2:0:0:0:
272,112,299433,5,0,2:0:0:0:
304,128,299568,1,0,2:0:0:0:
272,144,299702,1,0,2:0:0:0:
208,144,299837,5,8,2:0:0:0:
240,160,299971,1,0,2:0:0:0:
272,176,300106,1,0,2:0:0:0:
336,192,300240,1,2,2:0:0:0:
416,192,300509,5,0,2:0:0:0:
448,208,300644,1,0,2:0:0:0:
416,224,300778,1,2,2:0:0:0:
336,224,301047,1,0,2:0:0:0:
304,240,301182,1,0,2:0:0:0:
336,256,301317,1,2,2:0:0:0:
416,256,301586,5,2,2:0:0:0:
