osu file format v14

[General]
AudioFilename: audio.mp3
AudioLeadIn: 0
PreviewTime: 142420
Countdown: 1
SampleSet: Soft
StackLeniency: 0.7
Mode: 2
LetterboxInBreaks: 0
WidescreenStoryboard: 1

[Editor]
Bookmarks: 29036,46254,63473,97910,108672,125891,151988
DistanceSpacing: 1.3
BeatDivisor: 4
GridSize: 16
TimelineZoom: 2.3

[Metadata]
Title:Kegare Naki Yume
TitleUnicode:穢れ亡き夢
Artist:Asriel
ArtistUnicode:
Creator:Kibbleru
Version:Crystal's Dereliction
Source:11eyes -罪と罰と贖いの少女
Tags:eroge visual novel Lass 5pb.games kokomi kurose keisuke unveil Vert yf_bmp CLSW Crystal
BeatmapID:1186046
BeatmapSetID:503059

[Difficulty]
HPDrainRate:6.6
CircleSize:4.4
OverallDifficulty:9.7
ApproachRate:9.7
SliderMultiplier:1.6
SliderTickRate:2

[Events]
//Background and Video events
0,0,"BG.jpg",0,0
//Break Periods
//Storyboard Layer 0 (Background)
//Storyboard Layer 1 (Fail)
//Storyboard Layer 2 (Pass)
//Storyboard Layer 3 (Foreground)
//Storyboard Sound Samples

[TimingPoints]
1024,269.058295964126,4,2,1,40,1,0
1024,-125,4,2,1,40,0,0
8288,300,4,2,1,70,1,0
8438,269.058295964126,4,2,1,70,1,0
9245,-100,4,2,1,70,0,0
9531,269.058295964126,4,2,1,70,1,0
9665,269.042611865676,4,2,1,70,1,0
9665,-83.3333333333333,4,2,1,70,0,0
22040,-83.3333333333333,4,2,1,70,0,0
22444,-83.3333333333333,4,2,1,70,0,0
28497,-83.3333333333333,4,2,1,70,0,0
29036,-83.3333333333333,4,2,1,50,0,0
29305,-125,4,2,1,50,0,0
45716,-83.3333333333333,4,2,1,60,0,0
61186,-80,4,2,1,70,0,0
63473,-71.4285714285714,4,2,1,80,0,1
69930,-71.4285714285714,4,2,1,80,0,1
70199,-71.4285714285714,4,2,1,80,0,1
70603,-71.4285714285714,4,2,1,80,0,1
70872,-71.4285714285714,4,2,1,80,0,1
71813,-71.4285714285714,4,2,1,80,0,0
72082,-71.4285714285714,4,2,1,80,0,1
78808,-71.4285714285714,4,2,1,80,0,1
79212,-71.4285714285714,4,2,1,80,0,0
80692,-71.4285714285714,4,2,1,80,0,1
87418,-71.4285714285714,4,2,1,80,0,1
87821,-71.4285714285714,4,2,1,80,0,0
88090,-71.4285714285714,4,2,1,80,0,1
96027,-71.4285714285714,4,2,1,80,0,1
96431,-71.4285714285714,4,2,1,80,0,0
96700,-71.4285714285714,4,2,1,80,0,1
97641,-71.4285714285714,4,2,1,80,0,1
97910,-83.3333333333333,4,2,1,70,0,0
104233,-71.4285714285714,4,2,1,70,0,0
105309,-62.5,4,2,1,70,0,0
105982,-80,4,2,1,70,0,0
106385,-133.333333333333,4,2,1,70,0,0
107327,-100,4,2,1,70,0,0
107731,-133.333333333333,4,2,1,70,0,0
108672,-125,4,2,1,50,0,0
111901,-125,4,2,1,50,0,0
112977,-125,4,2,1,50,0,0
120510,-125,4,2,1,50,0,0
121586,-125,4,2,1,50,0,0
122124,-125,4,2,1,50,0,0
122662,-125,4,2,1,50,0,0
123200,-125,4,2,1,50,0,0
123739,-125,4,2,1,50,0,0
124815,-83.3333333333333,4,2,1,50,0,0
125353,-83.3333333333333,4,2,1,60,0,0
125891,-83.3333333333333,4,2,1,60,0,0
130196,-83.3333333333333,4,2,1,60,0,0
132348,-83.3333333333333,4,2,1,60,0,0
132617,-83.3333333333333,4,2,1,60,0,0
132886,-83.3333333333333,4,2,1,60,0,0
133424,-83.3333333333333,4,2,1,60,0,0
135038,-83.3333333333333,4,2,1,60,0,0
140823,-83.3333333333333,4,2,1,70,0,0
143110,-71.4285714285714,4,2,1,80,0,1
149567,-71.4285714285714,4,2,1,80,0,1
149836,-71.4285714285714,4,2,1,80,0,1
150239,-71.4285714285714,4,2,1,80,0,1
150508,-71.4285714285714,4,2,1,80,0,1
151450,-71.4285714285714,4,2,1,80,0,0
151719,-71.4285714285714,4,2,1,80,0,1
158445,-71.4285714285714,4,2,1,80,0,1
158849,-71.4285714285714,4,2,1,80,0,0
160328,-71.4285714285714,4,2,1,80,0,1
167054,-71.4285714285714,4,2,1,80,0,1
167458,-71.4285714285714,4,2,1,80,0,0
167727,-71.4285714285714,4,2,1,80,0,1
175664,-71.4285714285714,4,2,1,80,0,1
176067,-71.4285714285714,4,2,1,80,0,0
176336,-71.4285714285714,4,2,1,80,0,1
177278,-71.4285714285714,4,2,1,80,0,1
177547,269.042611865676,3,2,1,50,1,0
177547,-125,3,2,1,50,0,0
181179,-125,3,2,1,50,0,0
181313,-125,3,2,1,50,0,0
189922,-80,3,2,1,75,0,0
190326,-83.3333333333333,3,2,1,75,0,0
190461,269.042611865676,4,2,1,75,1,0
190461,-83.3333333333333,4,2,1,75,0,0
197994,-83.3333333333333,4,2,1,75,0,0
198935,-83.3333333333333,4,2,1,75,0,0
199608,-83.3333333333333,4,2,1,75,0,0
200012,-83.3333333333333,4,2,1,75,0,0
201760,-83.3333333333333,4,2,1,75,0,0
202164,-83.3333333333333,4,2,1,75,0,0
203106,-83.3333333333333,4,2,1,75,0,0
207141,-83.3333333333333,4,2,1,75,0,0
207679,-83.3333333333333,4,2,1,60,0,0
211984,-83.3333333333333,4,2,1,60,0,0
214136,-83.3333333333333,4,2,1,60,0,0
214405,-83.3333333333333,4,2,1,60,0,0
214674,-83.3333333333333,4,2,1,60,0,0
215212,-83.3333333333333,4,2,1,60,0,0
216827,-83.3333333333333,4,2,1,60,0,0
222611,-83.3333333333333,4,2,1,70,0,0
223822,-83.3333333333333,4,2,1,60,0,0
224629,-83.3333333333333,4,2,1,50,0,0
225167,-83.3333333333333,4,2,1,45,0,0
225436,-83.3333333333333,4,2,1,40,0,0
226647,-83.3333333333333,4,2,1,70,0,0
227050,-71.4285714285714,4,2,1,80,0,1
233507,-71.4285714285714,4,2,1,80,0,1
233776,-71.4285714285714,4,2,1,80,0,1
234180,-71.4285714285714,4,2,1,80,0,1
234449,-71.4285714285714,4,2,1,80,0,1
235391,-71.4285714285714,4,2,1,80,0,0
235660,-71.4285714285714,4,2,1,80,0,1
242386,-71.4285714285714,4,2,1,80,0,1
242789,-71.4285714285714,4,2,1,80,0,0
244269,-71.4285714285714,4,2,1,80,0,1
250995,-71.4285714285714,4,2,1,80,0,1
251399,-71.4285714285714,4,2,1,80,0,0
251668,-71.4285714285714,4,2,1,80,0,1
259201,-71.4285714285714,4,2,1,80,0,0
259604,-71.4285714285714,4,2,1,80,0,0
260681,-71.4285714285714,4,2,1,80,0,0
260815,-71.4285714285714,4,2,1,60,0,0
261353,-71.4285714285714,4,2,1,70,0,0
262429,-83.3333333333333,4,2,1,70,0,0
277899,-83.3333333333333,4,2,1,70,0,0
278706,-83.3333333333333,4,2,1,70,0,0
279783,-166.666666666667,4,2,1,70,0,0
280052,-166.666666666667,4,2,1,60,0,0
281935,-166.666666666667,4,2,1,50,0,0
284075,269.966254218223,4,2,1,40,1,0
284075,-166.666666666667,4,2,1,40,0,0
288394,-200,4,2,1,40,0,0
290554,-200,4,2,1,30,0,0
292701,269.058295964126,4,2,1,20,1,0
292701,-200,4,2,1,20,0,0
294853,-200,4,2,1,10,0,0
299432,269.058295964126,4,2,1,10,1,0
302391,-100,4,2,1,5,0,0

[Colours]
Combo1 : 128,21,21
Combo2 : 57,55,57
Combo3 : 190,186,190
Combo4 : 103,30,134
Combo5 : 160,149,244
Combo6 : 69,55,238
Combo7 : 251,6,6

[HitObjects]
130,131,1024,6,0,L|206:135,2,64,2|0|0,0:0|0:0|0:0,0:0:0:0:
255,175,1427,2,0,L|118:170,1,128,2|0,0:0|0:0,0:0:0:0:
188,210,1831,1,0,0:0:0:0:
61,206,1965,6,0,L|59:333,1,128,2|0,0:0|0:0,0:0:0:0:
144,339,2369,1,0,0:0:0:0:
270,331,2503,2,0,L|272:204,1,128,2|0,0:0|0:0,0:0:0:0:
191,181,2907,2,0,L|261:182,1,64,2|0,0:0|0:0,0:0:0:0:
379,165,3176,6,0,L|305:165,2,64,2|0|0,0:0|0:0|0:0,0:0:0:0:
249,199,3580,2,0,L|386:194,1,128,2|0,0:0|0:0,0:0:0:0:
316,234,3984,1,0,0:0:0:0:
443,267,4118,6,0,L|445:140,1,128,2|0,0:0|0:0,0:0:0:0:
360,134,4522,1,0,0:0:0:0:
234,142,4656,2,0,L|232:269,1,128,2|0,0:0|0:0,0:0:0:0:
315,296,5059,2,0,L|236:296,1,64,2|0,0:0|0:0,0:0:0:0:
122,289,5328,6,0,L|122:219,1,64,2|0,0:0|0:0,0:0:0:0:
199,225,5597,1,0,0:0:0:0:
71,189,5732,2,0,L|209:187,1,128,2|2,0:0|0:0,0:0:0:0:
135,154,6136,1,0,0:0:0:0:
265,179,6270,6,0,L|263:41,1,128,2|0,0:0|0:0,0:0:0:0:
195,50,6674,1,0,0:0:0:0:
323,105,6808,2,0,L|185:103,1,128,2|0,0:0|0:0,0:0:0:0:
267,139,7212,2,0,L|266:215,1,64,2|0,0:0|0:0,0:0:0:0:
390,289,7481,6,0,L|390:219,1,64,2|0,0:0|0:0,0:0:0:0:
313,225,7750,1,0,0:0:0:0:
441,189,7885,2,0,L|303:187,1,128,2|0,0:0|0:0,0:0:0:0:
441,189,8288,2,0,L|395:190,1,40,2|2,0:0|0:0,0:0:0:0:
156,107,8438,5,8,0:0:0:0:
356,107,8707,1,8,0:0:0:0:
129,143,8841,1,10,0:0:0:0:
383,143,8976,1,8,0:0:0:0:
103,178,9110,1,10,0:0:0:0:
324,180,9245,2,0,L|459:182,1,120,8|0,0:3|0:0,0:0:0:0:
160,86,9531,5,0,0:0:0:0:
353,80,9799,1,0,0:0:0:0:
143,158,9934,2,0,L|345:156,1,191.999994140625,10|10,0:0|0:1,0:0:0:0:
101,163,10337,2,0,L|74:257,1,95.9999970703126,8|8,0:1|0:0,0:0:0:0:
339,266,10606,6,0,L|147:264,1,191.999994140625,10|8,0:1|0:1,0:0:0:0:
382,267,11010,2,0,P|449:254|396:163,1,191.999994140625,10|10,0:0|0:1,0:0:0:0:
171,163,11413,2,0,L|276:162,1,95.9999970703126,8|8,0:1|0:0,0:0:0:0:
30,129,11682,6,0,P|34:248|114:279,1,191.999994140625,12|8,0:1|0:1,0:0:0:0:
321,118,12086,2,0,P|338:226|276:261,1,191.999994140625,10|10,0:0|0:1,0:0:0:0:
143,276,12489,2,0,L|141:168,1,95.9999970703126,8|8,0:1|0:0,0:0:0:0:
372,173,12758,6,0,L|256:173,1,95.9999970703126,10|0,0:0|0:0,0:0:0:0:
152,172,13028,1,8,0:1:0:0:
401,201,13162,2,0,L|401:317,1,95.9999970703126,10|0,0:0|0:0,0:0:0:0:
185,294,13431,1,8,0:3:0:0:
493,292,13566,1,10,0:0:0:0:
301,293,13700,1,0,0:0:0:0:
36,203,13835,6,0,L|250:200,1,191.999994140625,12|0,0:1|0:0,0:0:0:0:
476,203,14238,2,0,L|262:200,1,191.999994140625,10|10,0:0|0:1,0:0:0:0:
154,171,14642,1,8,0:1:0:0:
361,169,14776,1,8,0:0:0:0:
101,94,14911,6,0,L|88:321,1,191.999994140625,12|8,0:1|0:1,0:0:0:0:
354,37,15314,2,0,L|127:24,1,191.999994140625,10|10,0:0|0:1,0:0:0:0:
411,290,15718,2,0,L|421:164,1,95.9999970703126,8|10,0:1|0:0,0:0:0:0:
81,265,15987,6,0,P|26:236|116:187,1,191.999994140625,12|8,0:1|0:1,0:0:0:0:
303,221,16391,2,0,P|358:192|268:143,1,191.999994140625,10|10,3:2|0:1,0:0:0:0:
491,86,16794,2,0,L|375:89,1,95.9999970703126,8|8,0:1|0:0,0:0:0:0:
78,130,17063,6,0,L|193:138,2,95.9999970703126,12|0|8,0:1|0:0|0:1,0:0:0:0:
303,203,17467,2,0,L|188:195,1,95.9999970703126,8|8,0:0|0:3,0:0:0:0:
434,130,17736,2,0,L|319:138,2,95.9999970703126,8|4|4,0:3|0:3|0:3,0:0:0:0:
216,84,18139,6,0,L|19:79,1,191.999994140625,12|8,0:1|0:1,0:0:0:0:
261,164,18543,2,0,L|458:169,1,191.999994140625,10|8,0:0|0:1,0:0:0:0:
164,128,18946,2,0,L|294:128,1,95.9999970703126,10|8,0:1|0:0,0:0:0:0:
487,79,19216,6,0,L|296:84,1,191.999994140625,12|8,0:1|0:1,0:0:0:0:
63,155,19619,2,0,L|254:150,1,191.999994140625,10|8,0:0|0:1,0:0:0:0:
29,204,20023,2,0,L|159:204,1,95.9999970703126,10|8,0:0|0:0,0:0:0:0:
442,75,20292,6,0,L|448:285,1,191.999994140625,12|0,0:1|0:0,0:0:0:0:
321,270,20695,1,10,3:2:0:0:
71,253,20830,1,0,0:0:0:0:
186,235,20964,1,10,0:1:0:0:
63,206,21099,1,8,0:1:0:0:
320,203,21233,1,10,0:0:0:0:
120,146,21368,6,0,L|288:141,1,143.999995605469,10|0,0:1|0:0,0:0:0:0:
427,165,21637,2,0,L|259:170,1,143.999995605469,10|0,0:1|0:0,0:0:0:0:
208,194,21906,1,8,0:1:0:0:
466,240,22040,2,0,P|496:193|406:119,1,191.999994140625,12|8,0:1|0:0,0:0:0:0:
151,96,22444,6,0,L|356:94,1,191.999994140625,12|0,3:1|0:0,0:0:0:0:
221,154,22848,1,10,0:0:0:0:
423,212,22982,2,0,L|317:210,1,95.9999970703126,0|10,0:0|0:1,0:0:0:0:
448,159,23251,2,0,L|281:156,1,143.999995605469,10|0,0:1|0:0,0:0:0:0:
127,147,23520,6,0,L|129:284,1,95.9999970703126,10|0,0:0|0:0,0:0:0:0:
384,209,23789,2,0,L|383:113,1,95.9999970703126,8|8,0:1|0:0,0:0:0:0:
135,111,24058,1,2,0:0:0:0:
359,176,24193,2,0,L|263:177,2,95.9999970703126,8|8|10,0:1|0:1|0:0,0:0:0:0:
32,183,24596,6,0,L|28:88,1,95.9999970703126,12|0,0:1|0:0,0:0:0:0:
365,73,24865,2,0,L|369:168,1,95.9999970703126,8|10,0:1|0:0,0:0:0:0:
258,141,25134,1,8,0:1:0:0:
482,174,25269,2,0,L|478:79,1,95.9999970703126,10|8,0:0|0:1,0:0:0:0:
281,67,25538,1,10,0:0:0:0:
31,155,25673,6,0,L|127:157,1,95.9999970703126,10|0,0:1|0:0,0:0:0:0:
353,211,25942,2,0,L|257:209,1,95.9999970703126,10|8,0:0|0:1,0:0:0:0:
484,148,26211,1,10,0:1:0:0:
371,136,26345,1,8,0:0:0:0:
256,141,26480,1,10,0:1:0:0:
371,136,26614,1,8,0:3:0:0:
28,146,26749,6,0,L|20:246,1,95.9999970703126,8|0,0:1|0:0,0:0:0:0:
146,239,27018,1,8,0:1:0:0:
369,216,27152,2,0,L|377:316,1,95.9999970703126,12|0,0:1|0:0,0:0:0:0:
146,315,27421,2,0,L|246:307,1,95.9999970703126,8|0,0:1|0:0,0:0:0:0:
493,125,27690,2,0,L|393:133,1,95.9999970703126,8|0,0:1|0:0,0:0:0:0:
129,92,27959,5,8,0:1:0:0:
383,91,28094,2,0,P|427:130|366:248,1,191.999994140625,8|0,0:0|0:0,0:0:0:0:
58,252,28497,6,0,L|308:248,1,239.999992675781,12|0,0:1|0:0,0:0:0:0:
160,192,28901,2,0,L|151:137,2,47.9999985351563,0|0|8,0:0|0:0|0:1,0:0:0:0:
352,192,29305,5,2,0:0:0:0:
160,192,29574,2,0,L|141:52,1,128,8|0,0:0|0:0,0:0:0:0:
352,64,30112,6,0,L|371:204,1,128,10|0,0:1|0:0,0:0:0:0:
144,192,30650,1,8,0:1:0:0:
368,192,30919,1,0,0:0:0:0:
112,160,31188,6,0,L|32:160,1,64,10|2,0:1|0:3,0:0:0:0:
176,160,31457,2,0,L|192:224,1,64,0|2,0:0|0:3,0:0:0:0:
320,224,31726,2,0,L|400:224,1,64,8|0,0:1|0:0,0:0:0:0:
256,224,31995,1,2,0:3:0:0:
448,224,32264,6,0,L|464:96,1,128,10|0,0:1|0:0,0:0:0:0:
256,96,32802,2,0,L|240:224,1,128,10|0,0:1|0:0,0:0:0:0:
416,256,33340,6,0,L|272:256,1,128,8|2,0:1|0:0,0:0:0:0:
96,256,33878,2,0,L|240:256,1,128,8|2,0:1|0:0,0:0:0:0:
416,160,34416,5,8,0:1:0:0:
176,160,34685,1,2,0:0:0:0:
336,160,34955,1,8,0:1:0:0:
96,160,35224,1,0,0:0:0:0:
320,128,35493,6,0,L|384:128,1,64,10|0,0:1|0:0,0:0:0:0:
256,128,35762,2,0,L|192:128,1,64,0|2,0:0|0:3,0:0:0:0:
320,176,36031,2,0,L|256:176,1,64,8|0,0:1|0:0,0:0:0:0:
128,176,36300,2,0,L|192:176,1,64,2|0,0:3|0:0,0:0:0:0:
320,176,36569,6,0,L|176:176,1,128,8|2,0:1|0:0,0:0:0:0:
448,176,37107,1,8,0:1:0:0:
64,176,37376,1,0,0:0:0:0:
320,112,37645,6,0,P|352:176|352:240,1,128,10|0,0:1|0:0,0:0:0:0:
192,112,38183,2,0,P|160:176|160:240,1,128,10|0,0:1|0:0,0:0:0:0:
352,272,38721,5,8,0:1:0:0:
160,272,38990,1,0,0:0:0:0:
320,192,39259,2,0,L|176:192,1,128,8|2,0:0|0:0,0:0:0:0:
416,176,39797,5,10,0:1:0:0:
320,176,40066,1,0,0:0:0:0:
192,176,40335,1,8,0:1:0:0:
96,176,40604,1,0,0:0:0:0:
272,224,40873,6,0,L|400:224,1,128,8|2,0:1|0:0,0:0:0:0:
144,160,41412,1,8,0:0:0:0:
368,144,41681,1,0,0:0:0:0:
112,240,41950,6,0,L|128:176,1,64,10|0,0:1|0:0,0:0:0:0:
208,176,42219,2,0,L|224:112,1,64,0|0,0:0|0:0,0:0:0:0:
352,80,42488,2,0,L|224:80,1,128,8|2,0:1|0:0,0:0:0:0:
288,128,42891,1,0,0:0:0:0:
416,128,43026,6,0,L|400:192,1,64,10|0,0:1|0:0,0:0:0:0:
320,192,43295,2,0,L|304:256,1,64,0|0,0:0|0:0,0:0:0:0:
176,288,43564,2,0,L|304:288,1,128,8|2,0:0|0:3,0:0:0:0:
240,240,43967,1,0,0:0:0:0:
112,192,44102,6,0,L|96:64,1,128,10|0,0:1|0:0,0:0:0:0:
223,49,44506,2,0,L|95:65,1,128,10|0,0:1|0:0,0:0:0:0:
223,49,44909,2,0,L|239:177,1,128,10|0,0:1|0:0,0:0:0:0:
112,192,45313,5,0,0:0:0:0:
336,192,45447,1,8,0:0:0:0:
208,224,45582,1,0,0:0:0:0:
432,224,45716,6,0,L|506:221,2,66.6666666666667,8|0|0,0:0|0:0|0:0,0:0:0:0:
241,262,45985,2,0,L|315:259,2,66.6666666666667,8|0|0,0:0|0:0|0:0,0:0:0:0:
32,228,46254,6,0,L|238:220,1,191.999994140625,12|10,0:1|0:0,0:0:0:0:
127,186,46658,1,0,0:0:0:0:
337,173,46792,2,0,L|232:178,2,95.9999970703126,8|10|0,0:1|0:1|0:0,0:0:0:0:
127,186,47196,6,0,P|83:151|166:75,1,191.999994140625,8|8,0:0|0:1,0:0:0:0:
359,77,47600,2,0,L|254:76,1,95.9999970703126,10|0,0:0|0:0,0:0:0:0:
473,132,47869,1,10,0:1:0:0:
264,135,48003,2,0,L|160:131,1,95.9999970703126,8|8,0:1|0:0,0:0:0:0:
411,133,48272,6,0,P|481:168|408:235,1,191.999994140625,2|0,0:0|0:0,0:0:0:0:
206,238,48676,2,0,L|316:240,1,95.9999970703126,10|0,0:0|0:0,0:0:0:0:
89,237,48945,2,0,L|87:347,1,95.9999970703126,10|8,0:1|0:1,0:0:0:0:
301,330,49214,2,0,L|191:328,1,95.9999970703126,8|2,0:0|0:0,0:0:0:0:
89,279,49483,6,0,L|190:281,2,95.9999970703126,0|8|10,0:0|0:1|0:0,0:0:0:0:
299,290,49886,2,0,L|491:293,1,191.999994140625,0|8,0:0|0:1,0:0:0:0:
241,212,50290,2,0,L|136:210,1,95.9999970703126,10|0,0:0|0:0,0:0:0:0:
450,132,50559,5,10,0:1:0:0:
62,132,50828,1,10,0:1:0:0:
393,160,51097,1,10,0:0:0:0:
117,164,51232,1,8,0:1:0:0:
351,204,51501,6,0,L|134:204,1,191.999994140625,10|10,0:1|0:1,0:0:0:0:
374,160,51904,2,0,L|390:255,1,95.9999970703126,10|0,0:1|0:0,0:0:0:0:
122,254,52173,1,8,0:0:0:0:
389,254,52308,1,8,0:1:0:0:
167,221,52442,2,0,L|46:218,1,95.9999970703126,2|2,0:0|0:0,0:0:0:0:
352,149,52711,6,0,L|506:149,1,143.999995605469,12|0,0:1|0:0,0:0:0:0:
338,192,52980,6,0,L|184:192,1,143.999995605469,10|0,0:1|0:0,0:0:0:0:
51,190,53249,6,0,P|23:141|91:106,1,143.999995605469,12|0,0:1|0:0,0:0:0:0:
237,142,53518,6,0,P|265:93|197:58,1,143.999995605469,8|0,0:0|0:0,0:0:0:0:
57,68,53787,5,8,0:0:0:0:
325,214,53922,2,0,L|168:211,1,143.999995605469,10|0,0:1|0:0,0:0:0:0:
110,214,54191,1,8,0:0:0:0:
427,212,54326,5,8,0:1:0:0:
204,163,54460,2,0,L|149:162,1,47.9999985351563,8|10,0:0|0:0,0:0:0:0:
309,165,54595,2,0,L|364:164,1,47.9999985351563,8|10,0:0|0:0,0:0:0:0:
188,115,54729,2,0,L|133:114,1,47.9999985351563,8|2,0:0|0:3,0:0:0:0:
324,115,54864,6,0,L|321:262,1,143.999995605469,0|8,0:0|0:1,0:0:0:0:
51,285,55133,2,0,L|153:285,1,95.9999970703126,4|8,3:2|0:1,0:0:0:0:
391,283,55402,2,0,L|289:283,2,95.9999970703126,2|8|8,0:0|0:1|0:0,0:0:0:0:
184,275,55805,6,0,P|131:221|227:169,1,191.999994140625,2|8,0:0|0:1,0:0:0:0:
331,153,56209,2,0,L|231:156,1,95.9999970703126,10|8,0:0|0:1,0:0:0:0:
483,147,56478,1,2,0:0:0:0:
270,210,56612,1,8,0:1:0:0:
390,209,56747,1,8,0:0:0:0:
161,245,56881,6,0,L|371:247,1,191.999994140625,2|0,0:0|0:0,0:0:0:0:
98,239,57285,2,0,L|91:128,1,95.9999970703126,10|8,3:2|0:1,0:0:0:0:
318,135,57554,2,0,L|207:142,1,95.9999970703126,2|8,0:0|0:1,0:0:0:0:
447,138,57823,2,0,L|440:27,1,95.9999970703126,10|0,0:0|0:0,0:0:0:0:
226,87,58092,5,2,0:0:0:0:
337,87,58227,2,0,L|343:182,1,95.9999970703126,8|8,0:1|0:0,0:0:0:0:
86,247,58496,2,0,L|290:250,1,191.999994140625,10|8,0:1|0:1,0:0:0:0:
16,323,58899,1,10,0:0:0:0:
136,328,59034,1,0,0:0:0:0:
448,240,59168,5,10,0:1:0:0:
333,229,59303,1,8,0:3:0:0:
221,220,59437,1,10,3:2:0:0:
480,177,59572,1,8,0:3:0:0:
188,161,59706,2,0,L|296:164,2,95.9999970703126,10|8|0,0:1|0:3|0:0,0:0:0:0:
458,114,60110,6,0,L|248:107,1,191.999994140625,12|10,0:1|0:1,0:0:0:0:
51,108,60514,2,0,L|48:214,1,95.9999970703126,8|8,0:0|0:3,0:0:0:0:
259,237,60783,1,8,0:0:0:0:
139,239,60917,1,10,0:1:0:0:
373,239,61052,1,8,0:0:0:0:
56,330,61186,6,0,L|264:328,1,200,12|8,0:1|0:1,0:0:0:0:
387,328,61590,1,8,0:3:0:0:
134,331,61724,1,8,0:1:0:0:
464,220,61859,1,8,0:1:0:0:
336,213,61993,1,8,0:0:0:0:
44,223,62128,1,8,0:0:0:0:
483,138,62262,1,12,0:1:0:0:
165,150,63069,6,0,L|231:151,1,50,8|8,0:1|0:1,0:0:0:0:
394,151,63204,2,0,L|281:151,1,100,8|0,0:0|0:0,0:0:0:0:
26,152,63473,6,0,L|24:283,1,111.999996582031,12|0,0:1|0:0,0:0:0:0:
149,258,63742,1,8,0:0:0:0:
400,211,63877,2,0,L|277:211,1,111.999996582031,10|0,0:1|0:0,0:0:0:0:
71,196,64146,2,0,L|196:194,1,111.999996582031,8|10,0:1|0:0,0:0:0:0:
398,136,64415,6,0,L|168:134,1,223.999993164063,2|8,0:0|0:1,0:0:0:0:
311,130,64818,2,0,L|334:242,1,111.999996582031,10|8,0:0|0:1,0:0:0:0:
197,199,65087,2,0,L|174:311,1,111.999996582031,2|8,0:0|0:1,0:0:0:0:
381,319,65356,2,0,L|499:311,1,111.999996582031,10|0,0:0|0:0,0:0:0:0:
260,188,65625,6,0,L|373:186,2,111.999996582031,10|0|8,0:1|0:0|0:0,0:0:0:0:
491,138,66029,1,10,0:1:0:0:
363,137,66163,1,0,0:0:0:0:
128,129,66298,1,10,0:1:0:0:
256,128,66432,1,8,0:0:0:0:
18,190,66567,6,0,L|259:195,1,223.999993164063,2|8,0:0|0:1,0:0:0:0:
107,219,66971,2,0,L|92:340,1,111.999996582031,10|8,0:0|0:1,0:0:0:0:
319,294,67240,2,0,L|198:309,1,111.999996582031,2|8,0:0|0:1,0:0:0:0:
405,219,67509,2,0,L|420:340,1,111.999996582031,10|0,0:0|0:0,0:0:0:0:
111,112,67778,6,0,L|366:115,1,223.999993164063,12|8,0:1|0:0,0:0:0:0:
25,155,68181,2,0,L|25:281,1,111.999996582031,10|0,0:1|0:0,0:0:0:0:
142,266,68450,1,8,0:1:0:0:
344,260,68585,2,0,L|218:260,1,111.999996582031,10|2,0:0|0:0,0:0:0:0:
448,191,68854,6,0,L|302:198,1,111.999996582031,10|8,0:1|0:1,0:0:0:0:
200,190,69123,2,0,L|322:182,1,111.999996582031,10|8,0:0|0:1,0:0:0:0:
177,158,69392,2,0,L|31:165,1,111.999996582031,2|8,0:0|0:1,0:0:0:0:
373,185,69661,2,0,L|495:177,1,111.999996582031,10|0,0:0|0:0,0:0:0:0:
162,261,69930,6,0,B|49:251|49:251|56:188,1,167.999994873047,10|0,0:1|0:0,0:0:0:0:
201,203,70199,2,0,B|207:146|207:146|77:134,1,167.999994873047,12|0,0:0|0:0,0:0:0:0:
250,129,70468,6,0,L|115:122,1,111.999996582031,12|8,0:0|0:1,0:0:0:0:
363,109,70737,1,0,0:0:0:0:
149,73,70872,6,0,L|332:59,1,167.999994873047,12|0,0:1|0:0,0:0:0:0:
393,53,71141,1,8,0:1:0:0:
141,148,71275,2,0,L|30:159,1,111.999996582031,8|0,0:0|0:0,0:0:0:0:
327,187,71544,5,10,0:1:0:0:
193,186,71679,1,8,0:1:0:0:
470,213,71813,2,0,L|390:216,1,55.9999982910157,8|8,0:3|0:3,0:0:0:0:
351,217,71948,1,4,0:3:0:0:
26,268,72082,6,0,L|261:260,1,223.999993164063,12|8,0:1|0:0,0:0:0:0:
119,221,72486,1,8,0:1:0:0:
338,243,72620,2,0,L|342:127,1,111.999996582031,2|8,0:0|0:1,0:0:0:0:
210,181,72890,2,0,L|206:65,1,111.999996582031,10|2,0:0|0:0,0:0:0:0:
493,50,73159,6,0,L|262:40,1,223.999993164063,10|8,0:1|0:0,0:0:0:0:
22,126,73562,2,0,L|146:123,2,111.999996582031,10|0|8,0:1|0:0|0:1,0:0:0:0:
154,172,73966,2,0,L|283:167,1,111.999996582031,10|0,0:0|0:0,0:0:0:0:
18,194,74235,6,0,L|22:318,1,111.999996582031,10|0,0:1|0:0,0:0:0:0:
155,268,74504,2,0,L|151:388,1,111.999996582031,8|10,0:0|0:1,0:0:0:0:
361,258,74773,2,0,L|241:256,1,111.999996582031,0|10,0:0|0:1,0:0:0:0:
384,207,75042,2,0,L|503:211,1,111.999996582031,8|0,0:0|0:0,0:0:0:0:
274,138,75311,6,0,L|267:26,1,111.999996582031,10|8,0:1|0:1,0:0:0:0:
406,137,75580,2,0,L|416:22,1,111.999996582031,8|10,0:0|0:1,0:0:0:0:
144,193,75849,2,0,L|258:183,3,111.999996582031,0|8|10|0,0:0|0:1|0:0|0:0,0:0:0:0:
17,257,76387,6,0,L|258:249,1,223.999993164063,12|10,0:1|0:0,0:0:0:0:
376,247,76791,1,8,0:1:0:0:
133,210,76925,2,0,L|127:89,1,111.999996582031,2|8,0:0|0:1,0:0:0:0:
256,88,77194,1,10,0:0:0:0:
107,66,77329,1,0,0:0:0:0:
379,174,77463,6,0,L|385:295,1,111.999996582031,10|8,0:1|0:1,0:0:0:0:
256,296,77732,1,8,0:0:0:0:
404,319,77867,1,10,0:1:0:0:
159,167,78001,2,0,L|48:172,1,111.999996582031,0|8,0:0|0:1,0:0:0:0:
351,167,78270,2,0,L|463:172,1,111.999996582031,10|0,0:0|0:0,0:0:0:0:
124,244,78539,5,10,0:1:0:0:
255,230,78674,1,0,0:0:0:0:
384,244,78808,1,12,0:0:0:0:
95,192,78943,1,0,0:0:0:0:
414,195,79077,6,0,B|534:210|538:16|250:29,1,391.99998803711,8|0,0:0|0:0,0:0:0:0:
98,195,79616,6,0,B|-22:210|-26:16|262:29,1,391.99998803711,8|0,0:0|0:0,0:0:0:0:
499,65,80154,6,0,L|436:62,1,55.9999982910157,10|0,0:0|0:0,0:0:0:0:
307,90,80288,2,0,L|244:87,1,55.9999982910157,8|0,0:3|0:0,0:0:0:0:
114,197,80423,2,0,L|177:200,1,55.9999982910157,8|0,0:3|0:0,0:0:0:0:
306,172,80557,2,0,L|369:175,1,55.9999982910157,4|0,0:3|0:0,0:0:0:0:
62,205,80692,6,0,P|21:157|143:77,1,223.999993164063,12|8,0:1|0:0,0:0:0:0:
249,86,81095,1,8,0:1:0:0:
491,160,81230,2,0,L|366:152,2,111.999996582031,2|8|8,0:0|0:1|0:0,0:0:0:0:
220,212,81633,6,0,L|450:226,1,223.999993164063,2|8,0:0|0:1,0:0:0:0:
210,285,82037,2,0,L|58:276,1,111.999996582031,10|8,0:0|0:1,0:0:0:0:
320,282,82306,2,0,L|329:130,1,111.999996582031,2|8,0:0|0:1,0:0:0:0:
205,155,82575,2,0,L|357:146,1,111.999996582031,10|0,0:0|0:0,0:0:0:0:
30,92,82844,6,0,L|21:206,1,111.999996582031,10|0,0:1|0:0,0:0:0:0:
153,191,83113,2,0,L|162:305,1,111.999996582031,10|8,0:0|0:1,0:0:0:0:
369,291,83382,2,0,L|255:300,1,111.999996582031,0|10,0:0|0:1,0:0:0:0:
479,262,83651,1,8,0:0:0:0:
260,248,83786,6,0,L|26:245,1,223.999993164063,2|8,0:0|0:1,0:0:0:0:
169,215,84189,2,0,L|285:210,1,111.999996582031,10|8,0:0|0:1,0:0:0:0:
155,193,84458,2,0,L|150:77,1,111.999996582031,2|8,0:0|0:1,0:0:0:0:
354,183,84727,2,0,L|359:67,1,111.999996582031,10|0,0:0|0:0,0:0:0:0:
31,146,84996,6,0,L|261:135,1,223.999993164063,12|8,0:1|0:0,0:0:0:0:
489,197,85400,2,0,L|361:196,1,111.999996582031,10|0,0:1|0:0,0:0:0:0:
254,193,85669,1,8,0:1:0:0:
23,197,85804,2,0,L|151:196,1,111.999996582031,10|0,0:0|0:0,0:0:0:0:
375,127,86073,6,0,L|382:253,1,111.999996582031,10|8,0:1|0:1,0:0:0:0:
257,243,86342,1,8,0:0:0:0:
137,127,86476,2,0,L|130:253,1,111.999996582031,10|0,0:1|0:0,0:0:0:0:
257,243,86745,1,8,0:1:0:0:
388,302,86880,2,0,L|266:302,1,111.999996582031,10|0,0:0|0:0,0:0:0:0:
48,301,87149,6,0,L|248:303,1,167.999994873047,10|0,0:1|0:0,0:0:0:0:
387,200,87418,2,0,L|187:198,1,167.999994873047,12|0,0:0|0:0,0:0:0:0:
58,214,87687,5,8,0:0:0:0:
170,132,87821,2,0,L|53:143,1,111.999996582031,8|0,0:1|0:0,0:0:0:0:
363,82,88090,6,0,L|155:79,1,167.999994873047,12|0,0:1|0:0,0:0:0:0:
122,79,88359,1,8,0:1:0:0:
318,159,88494,1,10,0:0:0:0:
193,158,88629,1,0,0:0:0:0:
390,192,88763,6,0,L|409:280,1,55.9999982910157,10|8,0:0|0:0,0:0:0:0:
255,229,88898,2,0,L|236:317,1,55.9999982910157,8|8,0:0|0:0,0:0:0:0:
413,295,89032,2,0,L|501:276,1,55.9999982910157,10|8,0:0|0:0,0:0:0:0:
230,333,89167,2,0,L|142:314,1,55.9999982910157,8|8,0:0|0:0,0:0:0:0:
481,160,89301,6,0,L|249:153,1,223.999993164063,12|8,0:1|0:0,0:0:0:0:
123,149,89705,1,10,0:1:0:0:
481,120,89839,2,0,L|335:117,2,111.999996582031,0|8|8,0:0|0:1|0:0,0:0:0:0:
256,109,90243,6,0,L|-13:103,1,223.999993164063,0|8,0:0|0:1,0:0:0:0:
166,104,90646,2,0,L|174:237,1,111.999996582031,10|8,0:0|0:1,0:0:0:0:
397,190,90915,2,0,L|389:323,1,111.999996582031,2|8,0:0|0:1,0:0:0:0:
261,335,91184,2,0,L|394:327,1,111.999996582031,10|0,0:0|0:0,0:0:0:0:
145,294,91453,6,0,L|377:282,1,223.999993164063,10|8,0:1|0:0,0:0:0:0:
115,268,91857,2,0,P|39:237|117:158,1,223.999993164063,10|0,0:1|0:1,0:0:0:0:
250,142,92261,2,0,L|125:138,1,111.999996582031,10|0,0:1|0:0,0:0:0:0:
371,135,92530,6,0,L|378:261,1,111.999996582031,10|8,0:1|0:1,0:0:0:0:
238,232,92799,2,0,L|231:358,1,111.999996582031,10|8,0:0|0:1,0:0:0:0:
22,334,93068,2,0,L|148:327,1,111.999996582031,2|8,0:0|0:1,0:0:0:0:
367,255,93337,2,0,L|241:248,1,111.999996582031,10|0,0:0|0:0,0:0:0:0:
465,169,93606,6,0,L|223:170,1,223.999993164063,12|8,0:1|0:0,0:0:0:0:
115,175,94009,1,10,0:1:0:0:
247,198,94144,2,0,L|253:326,1,111.999996582031,0|8,0:0|0:1,0:0:0:0:
126,317,94413,2,0,L|254:311,1,111.999996582031,10|0,0:0|0:0,0:0:0:0:
487,311,94682,6,0,L|488:194,1,111.999996582031,10|8,0:1|0:1,0:0:0:0:
354,197,94951,2,0,L|353:80,1,111.999996582031,8|8,0:0|0:1,0:0:0:0:
132,86,95220,2,0,L|15:85,1,111.999996582031,2|8,0:0|0:1,0:0:0:0:
380,86,95489,2,0,L|497:85,1,111.999996582031,10|0,0:0|0:0,0:0:0:0:
250,154,95758,6,0,L|56:147,1,167.999994873047,10|0,0:1|0:0,0:0:0:0:
269,199,96027,2,0,L|463:192,1,167.999994873047,12|0,0:0|0:0,0:0:0:0:
195,181,96296,5,8,0:0:0:0:
318,173,96431,1,8,0:1:0:0:
96,217,96565,1,0,0:0:0:0:
486,213,96700,6,0,L|480:392,1,167.999994873047,12|0,0:0|0:0,0:0:0:0:
400,363,96969,1,8,0:1:0:0:
157,303,97103,1,8,0:0:0:0:
288,288,97238,1,0,0:0:0:0:
31,238,97372,5,8,0:1:0:0:
291,168,97507,2,0,L|365:171,1,55.9999982910157,8|8,0:0|0:0,0:0:0:0:
214,179,97641,2,0,L|140:182,1,55.9999982910157,8|0,0:0|0:0,0:0:0:0:
353,213,97776,2,0,L|427:216,1,55.9999982910157,8|0,0:0|0:0,0:0:0:0:
159,223,97910,6,0,P|76:188|152:124,1,191.999994140625,12|8,0:1|0:0,0:0:0:0:
254,118,98314,1,10,0:1:0:0:
17,90,98449,2,0,L|136:84,2,95.9999970703126,0|8|8,0:0|0:1|0:0,0:0:0:0:
353,223,98852,6,0,P|436:188|360:124,1,191.999994140625,10|8,0:1|0:1,0:0:0:0:
258,118,99256,1,10,0:0:0:0:
495,90,99391,2,0,L|376:84,2,95.9999970703126,8|2|8,0:1|0:0|0:1,0:0:0:0:
258,118,99794,1,8,0:0:0:0:
14,135,99928,6,0,L|215:147,1,191.999994140625,10|0,0:1|0:0,0:0:0:0:
439,201,100332,2,0,L|324:196,1,95.9999970703126,8|10,0:0|0:1,0:0:0:0:
73,201,100601,2,0,L|188:196,2,95.9999970703126,0|10|8,0:0|0:1|0:0,0:0:0:0:
498,135,101004,6,0,L|297:147,1,191.999994140625,10|8,0:1|0:1,0:0:0:0:
73,201,101408,2,0,L|188:196,1,95.9999970703126,8|10,0:0|0:1,0:0:0:0:
439,201,101677,2,0,L|324:196,2,95.9999970703126,0|10|8,0:0|0:1|0:0,0:0:0:0:
128,117,102081,6,0,P|74:190|144:224,1,191.999994140625,12|8,0:1|0:1,0:0:0:0:
384,117,102484,2,0,L|381:218,1,95.9999970703126,8|10,0:0|0:1,0:0:0:0:
134,116,102753,1,0,0:0:0:0:
258,114,102888,1,10,0:1:0:0:
384,117,103022,1,8,0:0:0:0:
59,239,103157,6,0,L|286:236,1,191.999994140625,12|10,0:1|0:1,0:0:0:0:
26,193,103560,1,8,0:0:0:0:
285,184,103695,1,10,0:1:0:0:
89,144,103829,1,0,0:0:0:0:
218,145,103964,1,10,0:1:0:0:
89,144,104098,1,8,0:0:0:0:
457,240,104233,6,0,L|220:237,1,223.999993164063,12|10,0:1|0:1,0:0:0:0:
488,192,104636,1,8,0:0:0:0:
193,185,104771,1,10,0:1:0:0:
463,148,104905,1,0,0:0:0:0:
218,145,105040,1,10,0:1:0:0:
463,148,105174,1,8,0:0:0:0:
131,227,105309,6,0,L|393:231,1,256,12|10,0:1|0:1,0:0:0:0:
82,194,105713,1,8,0:0:0:0:
430,194,105847,1,2,0:0:0:0:
114,154,105982,6,0,L|187:156,1,50,8|8,0:0|0:0,0:0:0:0:
398,154,106116,2,0,L|325:156,1,50,8|8,0:0|0:0,0:0:0:0:
81,122,106251,2,0,L|154:124,1,50,8|0,0:3|0:0,0:0:0:0:
416,115,106385,6,0,P|479:155|375:270,1,270.000010299683,12|0,0:1|0:0,0:0:0:0:
224,251,107058,6,0,L|221:207,1,30.0000011444092,2|2,0:0|0:0,0:0:0:0:
293,207,107192,2,0,L|290:163,1,30.0000011444092,2|2,0:0|0:0,0:0:0:0:
220,192,107327,2,0,L|217:139,1,40,8|0,0:0|0:0,0:0:0:0:
289,148,107461,2,0,L|286:95,1,40,8|0,0:0|0:0,0:0:0:0:
74,107,107596,5,10,0:1:0:0:
189,211,107731,2,0,L|42:208,1,120.000004577637,8|0,0:0|0:0,0:0:0:0:
447,108,108134,1,12,0:1:0:0:
128,80,108672,6,0,L|112:208,1,128,8|2,0:1|0:0,0:0:0:0:
352,176,109210,2,0,L|368:304,1,128,8|0,0:0|0:0,0:0:0:0:
160,176,109748,5,10,0:1:0:0:
352,176,110017,1,8,0:1:0:0:
128,80,110286,2,0,L|112:208,1,128,0|2,0:0|0:0,0:0:0:0:
288,144,110825,6,0,L|224:144,1,64,0|0,0:0|0:0,0:0:0:0:
304,160,111094,2,0,L|320:224,1,64,8|0,0:1|0:0,0:0:0:0:
208,224,111363,2,0,L|192:160,1,64,2|0,0:3|0:0,0:0:0:0:
288,240,111632,2,0,L|224:240,1,64,2|0,0:3|0:0,0:0:0:0:
320,192,111901,6,0,P|384:176|416:96,1,128,8|8,0:1|0:1,0:0:0:0:
191,192,112439,2,0,P|131:178|96:126,1,128,10|2,0:1|0:0,0:0:0:0:
320,96,112977,6,0,L|192:96,1,128,8|10,0:1|0:1,0:0:0:0:
400,96,113515,2,0,L|416:224,1,128,0|10,0:0|0:1,0:0:0:0:
192,288,114053,6,0,L|320:288,1,128,0|8,0:0|0:1,0:0:0:0:
112,288,114591,2,0,L|96:160,1,128,0|2,0:0|0:0,0:0:0:0:
256,144,115129,6,0,L|192:144,1,64,8|0,0:1|0:0,0:0:0:0:
320,192,115398,2,0,L|256:192,1,64,0|2,0:0|0:3,0:0:0:0:
384,192,115667,2,0,L|400:128,1,64,8|0,0:1|0:0,0:0:0:0:
272,128,115936,2,0,L|256:64,1,64,2|0,0:3|0:0,0:0:0:0:
128,64,116205,6,0,L|256:64,1,128,8|0,0:1|0:0,0:0:0:0:
64,96,116743,1,0,0:0:0:0:
448,112,117013,1,2,0:0:0:0:
192,128,117282,6,0,L|336:128,1,128,8|8,0:1|0:1,0:0:0:0:
144,192,117820,2,0,L|0:192,1,128,0|8,0:0|0:1,0:0:0:0:
320,256,118358,6,0,L|176:256,1,128,0|8,0:0|0:1,0:0:0:0:
368,192,118896,2,0,L|480:192,2,64,8|8|0,0:0|0:1|0:0,0:0:0:0:
128,112,119434,6,0,L|112:176,1,64,10|0,0:1|0:0,0:0:0:0:
208,176,119703,2,0,L|224:240,1,64,0|0,0:0|0:0,0:0:0:0:
320,160,119972,2,0,L|304:224,1,64,2|0,0:0|0:0,0:0:0:0:
400,224,120241,2,0,L|416:288,1,64,2|0,0:0|0:0,0:0:0:0:
288,288,120510,6,0,L|352:288,1,64,8|0,0:1|0:0,0:0:0:0:
224,288,120779,2,0,L|160:288,1,64,8|0,0:1|0:0,0:0:0:0:
256,240,121048,2,0,L|112:240,1,128,10|2,0:1|0:0,0:0:0:0:
192,192,121452,1,0,0:0:0:0:
64,192,121586,6,0,L|48:64,1,128,2|8,0:0|0:1,0:0:0:0:
256,192,122124,2,0,L|272:64,1,128,8|0,0:0|0:0,0:0:0:0:
208,64,122528,1,10,0:0:0:0:
336,64,122662,6,0,L|464:64,1,128,2|8,0:0|0:1,0:0:0:0:
256,128,123200,1,8,0:0:0:0:
320,160,123335,2,0,L|176:160,1,128,8|0,0:1|0:0,0:0:0:0:
320,256,123739,6,0,P|384:224|352:144,1,128,10|0,0:1|0:0,0:0:0:0:
304,176,124142,1,10,0:1:0:0:
192,256,124277,2,0,P|128:224|160:144,1,128,0|10,0:0|0:1,0:0:0:0:
353,129,124815,6,0,L|246:123,1,95.9999970703126,0|0,0:0|0:0,0:0:0:0:
485,139,125084,2,0,L|378:133,1,95.9999970703126,8|0,0:0|0:0,0:0:0:0:
189,188,125353,6,0,L|263:185,2,66.6666666666667,8|0|0,0:0|0:0|0:0,0:0:0:0:
20,234,125622,2,0,L|94:231,2,66.6666666666667,8|0|0,0:0|0:0|0:0,0:0:0:0:
194,275,125891,6,0,L|397:267,1,191.999994140625,12|10,0:1|0:0,0:0:0:0:
288,224,126294,1,0,0:0:0:0:
492,181,126429,2,0,L|396:178,2,95.9999970703126,8|10|0,0:1|0:1|0:0,0:0:0:0:
191,185,126833,6,0,P|143:148|229:87,1,191.999994140625,8|8,0:0|0:1,0:0:0:0:
352,127,127236,2,0,L|250:128,1,95.9999970703126,10|0,0:0|0:0,0:0:0:0:
473,220,127505,1,10,0:1:0:0:
220,202,127640,2,0,L|116:200,1,95.9999970703126,8|8,0:1|0:0,0:0:0:0:
385,173,127909,6,0,L|159:170,1,191.999994140625,2|0,0:0|0:0,0:0:0:0:
449,195,128312,2,0,L|468:308,1,95.9999970703126,10|0,0:0|0:0,0:0:0:0:
241,284,128581,2,0,L|222:171,1,95.9999970703126,10|8,0:1|0:1,0:0:0:0:
103,95,128850,2,0,L|84:208,1,95.9999970703126,8|2,0:0|0:0,0:0:0:0:
320,227,129119,6,0,L|209:227,2,95.9999970703126,0|8|10,0:0|0:1|0:0,0:0:0:0:
35,163,129523,2,0,L|243:160,1,191.999994140625,0|8,0:0|0:1,0:0:0:0:
496,153,129927,2,0,L|390:152,1,95.9999970703126,10|0,0:0|0:0,0:0:0:0:
62,132,130196,5,10,0:1:0:0:
450,132,130465,1,10,0:1:0:0:
119,160,130734,1,10,0:0:0:0:
395,164,130869,1,8,0:1:0:0:
161,204,131138,6,0,L|378:204,1,191.999994140625,10|0,0:1|0:0,0:0:0:0:
138,160,131541,2,0,L|122:255,1,95.9999970703126,10|0,0:1|0:0,0:0:0:0:
390,254,131810,1,8,0:0:0:0:
123,254,131945,1,8,0:1:0:0:
257,226,132079,2,0,L|378:223,1,95.9999970703126,2|2,0:0|0:0,0:0:0:0:
154,183,132348,6,0,L|-5:183,1,143.999995605469,12|0,0:1|0:0,0:0:0:0:
205,136,132617,2,0,L|61:136,1,143.999995605469,10|0,0:1|0:0,0:0:0:0:
358,183,132886,6,0,L|502:183,1,143.999995605469,12|0,0:1|0:0,0:0:0:0:
307,136,133155,2,0,L|451:136,1,143.999995605469,8|0,0:0|0:0,0:0:0:0:
151,73,133424,5,8,0:0:0:0:
362,82,133559,2,0,P|413:120|332:203,1,191.999994140625,10|8,0:1|0:0,0:0:0:0:
83,193,133962,5,8,0:1:0:0:
421,201,134097,2,0,L|475:203,1,47.9999985351563,8|10,0:0|0:0,0:0:0:0:
229,249,134231,2,0,L|283:251,1,47.9999985351563,8|10,0:0|0:0,0:0:0:0:
421,285,134366,2,0,L|475:287,1,47.9999985351563,8|0,0:0|0:0,0:0:0:0:
267,288,134500,6,0,P|218:254|271:193,1,143.999995605469,0|8,0:0|0:1,0:0:0:0:
480,148,134769,2,0,L|370:143,1,95.9999970703126,4|8,3:2|0:1,0:0:0:0:
160,133,135038,2,0,L|270:128,2,95.9999970703126,2|8|8,0:0|0:1|0:0,0:0:0:0:
366,198,135442,6,0,L|160:201,1,191.999994140625,2|8,0:0|0:1,0:0:0:0:
303,232,135845,1,10,0:0:0:0:
175,250,135980,1,8,0:1:0:0:
450,157,136115,1,2,0:0:0:0:
237,148,136249,2,0,L|237:264,1,95.9999970703126,8|8,0:1|0:0,0:0:0:0:
447,244,136518,1,2,0:0:0:0:
110,297,136653,6,0,L|103:193,1,95.9999970703126,8|0,0:1|0:0,0:0:0:0:
326,142,136922,1,10,3:2:0:0:
199,122,137056,1,8,0:1:0:0:
401,310,137191,2,0,L|408:206,1,95.9999970703126,2|8,0:0|0:1,0:0:0:0:
275,205,137460,1,10,0:0:0:0:
402,185,137594,1,0,0:0:0:0:
273,158,137729,6,0,L|388:153,2,95.9999970703126,2|8|8,0:0|0:1|0:0,0:0:0:0:
56,137,138132,2,0,L|271:127,1,191.999994140625,10|8,0:1|0:1,0:0:0:0:
31,179,138536,2,0,L|23:283,1,95.9999970703126,10|0,0:0|0:0,0:0:0:0:
318,190,138805,5,10,0:1:0:0:
195,195,138939,1,8,0:3:0:0:
404,232,139074,1,10,3:2:0:0:
118,236,139209,1,8,0:3:0:0:
420,160,139343,1,10,0:1:0:0:
166,150,139478,2,0,L|60:145,1,95.9999970703126,8|0,0:3|0:0,0:0:0:0:
347,232,139747,6,0,L|119:225,1,191.999994140625,12|10,0:1|0:1,0:0:0:0:
379,188,140150,1,8,0:0:0:0:
132,185,140285,1,8,0:3:0:0:
418,140,140419,2,0,L|359:143,1,47.9999985351563,8|0,0:0|0:0,0:0:0:0:
294,138,140554,2,0,L|235:135,1,47.9999985351563,10|8,0:1|0:1,0:0:0:0:
323,101,140688,1,8,0:0:0:0:
79,210,140823,6,0,P|42:178|122:99,1,191.999994140625,12|8,0:1|0:1,0:0:0:0:
239,102,141226,1,8,0:3:0:0:
109,146,141361,1,8,0:1:0:0:
247,154,141495,1,8,0:1:0:0:
102,191,141630,1,8,0:0:0:0:
392,184,141764,1,8,0:0:0:0:
92,251,141899,1,12,0:1:0:0:
311,127,142706,6,0,L|386:129,1,47.9999985351563,8|8,0:1|0:1,0:0:0:0:
206,135,142841,2,0,L|76:137,1,95.9999970703126,8|0,0:0|0:0,0:0:0:0:
487,193,143110,6,0,L|361:193,2,111.999996582031,12|0|8,0:1|0:0|0:0,0:0:0:0:
155,143,143513,2,0,L|144:255,1,111.999996582031,10|0,0:1|0:0,0:0:0:0:
357,143,143782,2,0,L|368:255,1,111.999996582031,8|10,0:1|0:0,0:0:0:0:
23,297,144051,6,0,L|268:291,1,223.999993164063,2|8,0:0|0:1,0:0:0:0:
352,337,144455,2,0,L|207:336,1,111.999996582031,10|8,0:0|0:1,0:0:0:0:
445,339,144724,2,0,L|454:216,1,111.999996582031,2|8,0:0|0:1,0:0:0:0:
133,340,144993,2,0,L|124:217,1,111.999996582031,10|0,0:0|0:0,0:0:0:0:
484,140,145262,6,0,L|351:136,1,111.999996582031,10|0,0:1|0:0,0:0:0:0:
141,140,145531,1,8,0:0:0:0:
493,183,145666,2,0,L|496:315,1,111.999996582031,10|0,0:1|0:0,0:0:0:0:
19,183,145935,2,0,L|16:315,1,111.999996582031,10|8,0:1|0:0,0:0:0:0:
362,202,146204,6,0,L|111:198,1,223.999993164063,2|8,0:0|0:1,0:0:0:0:
266,165,146607,2,0,L|403:164,1,111.999996582031,10|8,0:0|0:1,0:0:0:0:
135,158,146876,2,0,L|127:294,1,111.999996582031,2|8,0:0|0:1,0:0:0:0:
377,226,147145,2,0,L|385:90,1,111.999996582031,10|0,0:0|0:0,0:0:0:0:
18,117,147414,6,0,L|280:100,1,223.999993164063,12|8,0:1|0:0,0:0:0:0:
468,265,147818,2,0,L|206:282,1,223.999993164063,10|8,0:1|0:1,0:0:0:0:
377,226,148221,2,0,L|496:213,1,111.999996582031,10|2,0:0|0:0,0:0:0:0:
135,226,148490,6,0,L|16:213,1,111.999996582031,10|8,0:1|0:1,0:0:0:0:
258,174,148760,2,0,L|139:161,1,111.999996582031,10|8,0:0|0:1,0:0:0:0:
377,226,149029,2,0,L|496:213,1,111.999996582031,2|8,0:0|0:1,0:0:0:0:
135,226,149299,2,0,L|16:213,1,111.999996582031,10|0,0:0|0:0,0:0:0:0:
409,126,149567,6,0,B|406:67|406:67|272:68,1,167.999994873047,10|0,0:1|0:0,0:0:0:0:
103,127,149836,2,0,B|106:68|106:68|240:69,1,167.999994873047,12|0,0:0|0:0,0:0:0:0:
384,167,150105,6,0,L|260:166,1,111.999996582031,12|8,0:0|0:1,0:0:0:0:
405,224,150374,1,0,0:0:0:0:
167,97,150508,6,0,P|108:149|175:171,1,167.999994873047,12|0,0:1|0:0,0:0:0:0:
243,193,150777,1,8,0:1:0:0:
23,250,150912,2,0,L|169:252,1,111.999996582031,8|0,0:0|0:0,0:0:0:0:
369,252,151181,5,10,0:1:0:0:
243,247,151315,2,0,L|261:179,1,55.9999982910157,8|0,0:1|0:0,0:0:0:0:
341,172,151450,2,0,L|406:138,1,55.9999982910157,8|8,0:3|0:3,0:0:0:0:
163,123,151584,2,0,L|66:117,1,55.9999982910157,4|4,0:3|0:3,0:0:0:0:
409,178,151719,6,0,L|424:306,1,111.999996582031,12|0,0:1|0:0,0:0:0:0:
295,293,151988,2,0,L|423:278,1,111.999996582031,8|8,0:0|0:1,0:0:0:0:
103,178,152257,2,0,L|88:306,1,111.999996582031,2|8,0:0|0:1,0:0:0:0:
217,293,152526,2,0,L|89:278,1,111.999996582031,10|0,0:0|0:0,0:0:0:0:
480,183,152795,6,0,L|232:175,1,223.999993164063,10|8,0:1|0:0,0:0:0:0:
19,185,153199,2,0,L|176:174,1,111.999996582031,10|0,0:1|0:0,0:0:0:0:
255,122,153468,1,8,0:1:0:0:
393,139,153602,2,0,L|273:137,1,111.999996582031,10|0,0:0|0:0,0:0:0:0:
22,100,153871,6,0,L|20:216,1,111.999996582031,10|0,0:1|0:0,0:0:0:0:
148,238,154140,2,0,L|32:240,1,111.999996582031,8|10,0:0|0:1,0:0:0:0:
260,237,154409,2,0,L|376:239,1,111.999996582031,0|10,0:0|0:1,0:0:0:0:
243,237,154678,2,0,L|245:121,1,111.999996582031,8|0,0:0|0:0,0:0:0:0:
493,319,154948,6,0,L|489:193,1,111.999996582031,10|8,0:1|0:1,0:0:0:0:
362,198,155217,2,0,L|366:72,1,111.999996582031,8|10,0:0|0:1,0:0:0:0:
141,85,155486,2,0,L|277:81,3,111.999996582031,0|8|10|0,0:0|0:1|0:0|0:0,0:0:0:0:
36,89,156024,6,0,L|264:101,1,223.999993164063,12|10,0:1|0:0,0:0:0:0:
140,133,156427,1,8,0:1:0:0:
393,143,156562,2,0,L|411:288,1,111.999996582031,2|8,0:0|0:1,0:0:0:0:
186,317,156831,1,10,0:0:0:0:
315,279,156965,1,0,0:0:0:0:
71,184,157100,6,0,L|192:186,1,111.999996582031,10|8,0:1|0:1,0:0:0:0:
64,231,157369,1,8,0:0:0:0:
192,237,157503,1,10,0:1:0:0:
441,184,157638,6,0,L|320:186,1,111.999996582031,0|8,0:0|0:1,0:0:0:0:
448,231,157907,1,10,0:0:0:0:
320,237,158041,1,0,0:0:0:0:
91,107,158176,5,10,0:1:0:0:
216,106,158311,1,0,0:0:0:0:
427,114,158445,1,12,0:0:0:0:
46,194,158580,1,0,0:0:0:0:
352,288,158714,6,0,P|477:179|321:89,1,391.99998803711,8|0,0:0|0:0,0:0:0:0:
75,148,159252,6,0,P|130:118|460:83,1,391.99998803711,8|0,0:0|0:0,0:0:0:0:
197,151,159790,6,0,L|138:154,1,55.9999982910157,10|0,0:0|0:0,0:0:0:0:
319,140,159925,2,0,L|378:143,1,55.9999982910157,8|0,0:3|0:0,0:0:0:0:
191,213,160059,2,0,L|132:216,1,55.9999982910157,8|0,0:3|0:0,0:0:0:0:
313,202,160194,2,0,L|372:205,1,55.9999982910157,4|0,0:3|0:0,0:0:0:0:
119,291,160328,6,0,P|61:243|164:162,1,223.999993164063,12|8,0:1|0:0,0:0:0:0:
263,153,160732,1,8,0:1:0:0:
53,163,160866,1,2,0:0:0:0:
331,198,161001,2,0,L|341:331,1,111.999996582031,8|8,0:1|0:0,0:0:0:0:
101,313,161270,6,0,L|351:311,1,223.999993164063,2|8,0:0|0:1,0:0:0:0:
91,227,161674,2,0,L|239:225,1,111.999996582031,10|8,0:0|0:1,0:0:0:0:
434,221,161943,2,0,L|286:223,1,111.999996582031,2|8,0:0|0:1,0:0:0:0:
205,160,162212,2,0,L|353:158,1,111.999996582031,10|0,0:0|0:0,0:0:0:0:
53,150,162481,6,0,L|45:266,1,111.999996582031,10|0,0:1|0:0,0:0:0:0:
181,206,162750,2,0,L|189:322,1,111.999996582031,10|8,0:0|0:1,0:0:0:0:
318,308,163019,1,0,0:0:0:0:
188,317,163153,1,10,0:1:0:0:
476,244,163288,1,8,0:0:0:0:
246,248,163422,6,0,L|484:245,1,223.999993164063,2|8,0:0|0:1,0:0:0:0:
365,197,163826,2,0,L|487:194,1,111.999996582031,10|8,0:0|0:1,0:0:0:0:
212,166,164095,2,0,L|217:290,1,111.999996582031,2|8,0:0|0:1,0:0:0:0:
349,234,164364,2,0,L|344:358,1,111.999996582031,10|0,0:0|0:0,0:0:0:0:
14,172,164633,6,0,L|268:170,1,223.999993164063,12|8,0:1|0:0,0:0:0:0:
498,155,165037,2,0,L|368:153,2,111.999996582031,10|0|8,0:1|0:0|0:1,0:0:0:0:
136,121,165440,2,0,L|3:118,1,111.999996582031,10|0,0:0|0:0,0:0:0:0:
259,118,165709,6,0,L|513:117,1,223.999993164063,10|8,0:1|0:0,0:0:0:0:
259,173,166113,2,0,L|376:174,2,111.999996582031,10|0|8,0:1|0:0|0:1,0:0:0:0:
24,176,166516,2,0,L|147:176,1,111.999996582031,10|0,0:0|0:0,0:0:0:0:
431,176,166785,6,0,P|456:223|359:269,1,167.999994873047,10|0,0:1|0:0,0:0:0:0:
217,216,167054,2,0,P|191:263|289:309,1,167.999994873047,12|0,0:0|0:0,0:0:0:0:
431,176,167323,5,8,0:0:0:0:
186,161,167458,2,0,L|40:162,1,111.999996582031,8|0,0:1|0:0,0:0:0:0:
363,102,167727,6,0,L|101:103,1,223.999993164063,12|8,0:1|0:1,0:0:0:0:
437,161,168131,2,0,L|326:161,1,111.999996582031,10|0,0:0|0:0,0:0:0:0:
76,138,168400,6,0,L|84:213,1,55.9999982910157,10|8,0:0|0:0,0:0:0:0:
159,224,168534,2,0,L|234:216,1,55.9999982910157,8|8,0:0|0:0,0:0:0:0:
32,238,168669,2,0,L|40:313,1,55.9999982910157,10|8,0:0|0:0,0:0:0:0:
225,292,168803,2,0,L|300:284,1,55.9999982910157,8|8,0:0|0:0,0:0:0:0:
480,176,168938,6,0,L|244:182,1,223.999993164063,12|8,0:1|0:0,0:0:0:0:
360,129,169341,1,10,0:1:0:0:
232,129,169476,2,0,L|93:129,2,111.999996582031,0|8|8,0:0|0:1|0:0,0:0:0:0:
101,131,169879,6,0,P|32:176|139:232,1,223.999993164063,0|8,0:0|0:1,0:0:0:0:
238,274,170283,2,0,L|124:276,1,111.999996582031,10|8,0:0|0:1,0:0:0:0:
360,280,170552,2,0,L|367:162,1,111.999996582031,2|8,0:0|0:1,0:0:0:0:
243,185,170821,2,0,L|236:67,1,111.999996582031,10|0,0:0|0:0,0:0:0:0:
460,118,171090,6,0,L|224:111,1,223.999993164063,10|8,0:1|0:0,0:0:0:0:
457,158,171494,2,0,P|486:214|367:279,1,223.999993164063,10|0,0:1|0:1,0:0:0:0:
239,263,171897,2,0,L|363:263,1,111.999996582031,10|0,0:1|0:0,0:0:0:0:
134,228,172166,6,0,L|123:110,1,111.999996582031,10|8,0:1|0:1,0:0:0:0:
255,74,172435,2,0,L|137:85,1,111.999996582031,10|8,0:0|0:1,0:0:0:0:
274,120,172704,2,0,L|285:238,1,111.999996582031,2|8,0:0|0:1,0:0:0:0:
64,202,172973,2,0,L|53:320,1,111.999996582031,10|0,0:0|0:0,0:0:0:0:
371,195,173242,6,0,L|113:203,1,223.999993164063,12|10,0:1|0:0,0:0:0:0:
19,218,173646,1,8,0:1:0:0:
154,202,173780,2,0,L|158:314,1,111.999996582031,2|8,0:0|0:1,0:0:0:0:
291,251,174050,2,0,L|285:389,1,111.999996582031,10|0,0:0|0:0,0:0:0:0:
26,263,174319,6,0,L|137:259,3,111.999996582031,10|8|8|8,0:1|0:1|0:0|0:1,0:0:0:0:
265,249,174857,2,0,L|398:237,1,111.999996582031,2|8,0:0|0:1,0:0:0:0:
133,189,175126,2,0,L|0:177,1,111.999996582031,10|0,0:0|0:0,0:0:0:0:
258,112,175395,6,0,P|337:159|271:215,1,167.999994873047,10|0,0:1|0:0,0:0:0:0:
113,255,175664,2,0,L|291:253,1,167.999994873047,12|0,0:0|0:0,0:0:0:0:
453,247,175933,6,0,L|329:250,2,111.999996582031,8|8|0,0:0|0:1|0:0,0:0:0:0:
218,150,176336,6,0,L|403:142,1,167.999994873047,12|0,0:0|0:0,0:0:0:0:
299,108,176605,1,8,0:1:0:0:
93,126,176740,2,0,L|87:252,1,111.999996582031,8|0,0:0|0:0,0:0:0:0:
424,237,177009,5,8,0:1:0:0:
180,236,177144,2,0,L|172:160,1,55.9999982910157,8|8,0:0|0:0,0:0:0:0:
326,201,177278,2,0,L|334:125,1,55.9999982910157,8|0,0:0|0:0,0:0:0:0:
169,148,177413,2,0,L|93:140,1,55.9999982910157,8|0,0:0|0:0,0:0:0:0:
351,147,177547,6,0,P|392:193|334:213,2,128,8|0|8,0:1|0:0|0:1,0:0:0:0:
161,139,178354,1,2,0:0:0:0:
320,198,178623,2,0,L|172:198,1,128,0|8,0:0|0:1,0:0:0:0:
416,240,179161,5,10,0:1:0:0:
256,240,179430,1,0,0:0:0:0:
96,240,179699,1,8,0:1:0:0:
432,48,179968,1,2,0:0:0:0:
96,192,180237,2,0,L|80:64,1,128,0|8,0:0|0:1,0:0:0:0:
416,128,180775,6,0,L|288:128,1,128,8|0,0:1|0:0,0:0:0:0:
208,128,181179,1,2,0:0:0:0:
80,128,181313,2,0,L|208:128,1,128,8|8,0:1|0:0,0:0:0:0:
416,128,181851,2,0,L|288:128,1,128,0|8,0:0|0:1,0:0:0:0:
32,224,182389,6,0,L|32:96,1,128,8|0,0:1|0:0,0:0:0:0:
112,144,182793,1,0,0:0:0:0:
240,144,182927,2,0,L|96:144,1,128,8|2,0:1|0:0,0:0:0:0:
352,144,183465,2,0,L|496:144,1,128,0|8,0:0|0:1,0:0:0:0:
96,224,184004,5,10,0:1:0:0:
224,224,184273,1,0,0:0:0:0:
352,224,184542,1,8,0:1:0:0:
160,160,184811,1,8,0:0:0:0:
288,160,185080,1,0,0:0:0:0:
416,160,185349,1,8,0:1:0:0:
208,224,185618,6,0,P|192:192|176:96,1,128,8|2,0:1|0:0,0:0:0:0:
256,144,186021,1,10,0:0:0:0:
336,101,186156,6,0,P|328:165|304:224,1,128,8|2,0:1|0:0,0:0:0:0:
128,176,186694,1,0,0:0:0:0:
384,176,186963,1,8,0:1:0:0:
32,160,187232,6,0,L|160:160,1,128,10|0,0:1|0:0,0:0:0:0:
256,160,187636,1,0,0:0:0:0:
480,160,187770,2,0,L|416:160,2,64,8|0|10,0:1|0:0|0:0,0:0:0:0:
128,208,188308,1,8,0:0:0:0:
384,208,188577,1,8,0:1:0:0:
32,208,188846,6,0,L|32:64,1,128,10|8,0:1|0:1,0:0:0:0:
128,80,189250,1,0,0:0:0:0:
256,80,189384,2,0,L|128:80,1,128,8|8,0:1|0:1,0:0:0:0:
384,176,189922,5,8,0:0:0:0:
128,272,190057,2,0,P|112:224|128:128,1,150,12|0,0:0|0:0,0:0:0:0:
351,85,190326,1,12,0:1:0:0:
225,84,190461,6,0,P|161:88|129:164,1,143.999995605469,0|0,0:0|0:0,0:0:0:0:
285,155,190730,2,0,L|397:158,1,95.9999970703126,10|0,0:0|0:0,0:0:0:0:
155,202,190999,2,0,L|267:205,2,95.9999970703126,0|8|8,0:0|0:1|0:0,0:0:0:0:
356,210,191402,6,0,P|374:163|349:61,1,143.999995605469,10|0,0:1|0:0,0:0:0:0:
280,69,191671,1,8,0:1:0:0:
409,125,191806,2,0,L|307:121,1,95.9999970703126,10|0,0:0|0:0,0:0:0:0:
102,111,192075,2,0,L|204:115,2,95.9999970703126,10|8|8,0:1|0:1|0:0,0:0:0:0:
314,192,192478,6,0,L|141:185,1,143.999995605469,10|0,0:1|0:0,0:0:0:0:
93,183,192747,1,8,0:1:0:0:
314,192,192882,2,0,L|319:92,1,95.9999970703126,10|0,0:0|0:0,0:0:0:0:
97,87,193151,2,0,L|92:187,1,95.9999970703126,0|10,0:0|0:1,0:0:0:0:
225,200,193420,1,8,0:0:0:0:
20,264,193554,6,0,L|192:263,1,143.999995605469,10|0,0:1|0:0,0:0:0:0:
244,259,193824,1,8,0:1:0:0:
18,206,193958,2,0,L|128:203,1,95.9999970703126,10|0,0:0|0:0,0:0:0:0:
320,202,194227,2,0,L|210:199,2,95.9999970703126,10|8|8,0:1|0:1|0:0,0:0:0:0:
56,202,194631,6,0,P|17:162|90:109,1,143.999995605469,2|0,0:0|0:0,0:0:0:0:
146,99,194900,1,8,0:1:0:0:
353,167,195034,2,0,L|246:165,1,95.9999970703126,10|0,0:0|0:0,0:0:0:0:
492,265,195303,2,0,L|367:261,1,95.9999970703126,2|8,0:0|0:1,0:0:0:0:
163,263,195572,1,10,0:0:0:0:
396,219,195707,6,0,P|453:190|387:151,1,143.999995605469,8|0,0:1|0:0,0:0:0:0:
335,140,195976,1,8,0:1:0:0:
129,153,196110,2,0,L|233:150,1,95.9999970703126,10|0,0:0|0:0,0:0:0:0:
16,167,196379,2,0,L|21:267,1,95.9999970703126,10|8,0:1|0:1,0:0:0:0:
151,255,196648,1,10,0:0:0:0:
20,262,196783,1,8,0:1:0:0:
311,252,196918,6,0,P|357:225|317:150,1,143.999995605469,2|0,0:0|0:0,0:0:0:0:
93,157,197187,2,0,L|91:84,1,63.9999980468751,10|2,0:0|0:0,0:0:0:0:
172,94,197366,1,2,0:0:0:0:
372,110,197456,6,0,L|374:37,1,63.9999980468751,2|2,0:0|0:0,0:0:0:0:
293,47,197635,1,2,0:0:0:0:
25,62,197725,1,10,0:0:0:0:
109,59,197814,1,2,0:0:0:0:
193,57,197904,1,2,0:0:0:0:
488,160,197994,6,0,L|406:162,1,47.9999985351563,2|0,0:0|0:0,0:0:0:0:
366,158,198128,1,10,0:1:0:0:
148,158,198263,2,0,P|54:136|30:112,1,95.9999970703126,10|0,0:0|0:0,0:0:0:0:
261,107,198465,1,0,0:0:0:0:
149,112,198599,2,0,L|146:163,1,47.9999985351563,0|10,0:0|0:1,0:0:0:0:
370,193,198801,1,8,0:0:0:0:
30,232,198935,6,0,L|191:236,1,143.999995605469,12|0,0:1|0:0,0:0:0:0:
251,237,199204,1,8,0:1:0:0:
30,178,199339,2,0,L|137:178,1,95.9999970703126,10|0,0:0|0:0,0:0:0:0:
339,176,199608,2,0,L|232:176,2,95.9999970703126,2|10|8,0:0|0:1|0:0,0:0:0:0:
80,176,200012,6,0,P|50:129|136:108,1,143.999995605469,10|0,0:1|0:0,0:0:0:0:
188,91,200281,1,8,0:1:0:0:
399,107,200415,2,0,L|283:110,1,95.9999970703126,10|0,0:0|0:0,0:0:0:0:
95,119,200684,2,0,L|211:122,2,95.9999970703126,10|8|8,0:1|0:1|0:0,0:0:0:0:
482,232,201088,6,0,L|321:236,1,143.999995605469,10|0,0:1|0:0,0:0:0:0:
261,237,201357,1,8,0:1:0:0:
482,178,201492,2,0,L|375:178,1,95.9999970703126,10|0,0:0|0:0,0:0:0:0:
173,176,201761,2,0,L|280:176,2,95.9999970703126,2|10|0,0:0|0:1|0:0,0:0:0:0:
432,176,202165,6,0,P|462:129|376:108,1,143.999995605469,10|0,0:1|0:0,0:0:0:0:
324,91,202434,1,8,0:1:0:0:
113,107,202568,2,0,L|229:110,1,95.9999970703126,10|0,0:0|0:0,0:0:0:0:
483,127,202837,2,0,L|367:130,3,95.9999970703126,10|8|10|10,0:1|0:1|0:0|0:0,0:0:0:0:
187,185,203375,5,2,0:0:0:0:
154,153,203442,1,2,0:0:0:0:
170,111,203509,1,10,0:1:0:0:
215,109,203576,1,2,0:0:0:0:
292,114,203644,2,0,L|347:114,1,47.9999985351563,10|2,0:0|0:0,0:0:0:0:
179,233,203778,2,0,L|124:233,1,47.9999985351563,2|2,0:0|0:0,0:0:0:0:
206,233,203913,6,0,L|261:233,1,47.9999985351563,2|2,0:0|0:0,0:0:0:0:
93,225,204047,2,0,L|22:229,1,47.9999985351563,10|2,0:1|0:0,0:0:0:0:
43,262,204182,2,0,L|114:266,1,47.9999985351563,10|2,0:0|0:0,0:0:0:0:
172,264,204316,2,0,L|172:319,1,47.9999985351563,10|2,0:1|0:0,0:0:0:0:
14,300,204450,6,0,L|14:355,1,47.9999985351563,2|2,0:0|0:0,0:0:0:0:
88,350,204585,2,0,L|143:350,1,47.9999985351563,10|2,0:1|0:0,0:0:0:0:
291,350,204720,1,10,0:0:0:0:
288,302,204787,1,2,0:0:0:0:
244,299,204854,1,2,0:0:0:0:
196,300,204921,1,2,0:0:0:0:
120,304,204989,6,0,L|55:303,1,47.9999985351563,10|2,0:1|0:0,0:0:0:0:
245,256,205123,2,0,L|310:257,1,47.9999985351563,10|2,0:1|0:0,0:0:0:0:
218,252,205258,2,0,L|170:251,1,47.9999985351563,10|2,0:0|0:0,0:0:0:0:
322,249,205393,1,10,0:1:0:0:
370,250,205460,1,2,0:0:0:0:
415,247,205527,5,2,0:0:0:0:
417,199,205594,1,2,0:0:0:0:
337,193,205662,2,0,L|336:128,1,47.9999985351563,10|2,0:1|0:0,0:0:0:0:
494,142,205796,2,0,L|493:77,1,47.9999985351563,10|2,0:0|0:0,0:0:0:0:
421,92,205930,2,0,L|356:93,1,47.9999985351563,10|2,0:1|0:0,0:0:0:0:
158,94,206065,6,0,L|93:95,1,47.9999985351563,10|2,0:0|0:0,0:0:0:0:
284,144,206199,2,0,L|331:145,1,47.9999985351563,10|2,0:1|0:0,0:0:0:0:
128,154,206334,2,0,L|63:153,1,47.9999985351563,10|2,0:0|0:0,0:0:0:0:
249,204,206469,2,0,L|297:204,1,47.9999985351563,10|2,0:1|0:0,0:0:0:0:
439,205,206603,6,0,L|444:320,1,95.9999970703126,2|10,3:2|0:1,0:0:0:0:
72,178,206872,2,0,L|67:63,1,95.9999970703126,10|2,0:0|0:0,0:0:0:0:
318,139,207141,6,0,L|390:139,2,63.9999980468751,10|0|0,0:1|0:0|0:0,0:0:0:0:
133,135,207410,2,0,L|205:135,2,63.9999980468751,10|0|0,0:0|0:0|0:0,0:0:0:0:
480,228,207679,6,0,L|274:220,1,191.999994140625,12|10,0:1|0:0,0:0:0:0:
385,186,208083,1,0,0:0:0:0:
175,173,208217,2,0,L|280:178,2,95.9999970703126,8|10|0,0:1|0:1|0:0,0:0:0:0:
385,186,208621,6,0,P|429:151|346:75,1,191.999994140625,8|8,0:0|0:1,0:0:0:0:
153,77,209025,2,0,L|258:76,1,95.9999970703126,10|0,0:0|0:0,0:0:0:0:
39,132,209294,1,10,0:1:0:0:
248,135,209428,2,0,L|352:131,1,95.9999970703126,8|8,0:1|0:0,0:0:0:0:
127,173,209697,6,0,L|353:170,1,191.999994140625,2|0,0:0|0:0,0:0:0:0:
63,195,210100,2,0,L|44:308,1,95.9999970703126,10|0,0:0|0:0,0:0:0:0:
271,284,210369,2,0,L|290:171,1,95.9999970703126,10|8,0:1|0:1,0:0:0:0:
150,188,210638,2,0,L|131:301,1,95.9999970703126,8|2,0:0|0:0,0:0:0:0:
352,226,210907,6,0,L|241:226,2,95.9999970703126,0|8|10,0:0|0:1|0:0,0:0:0:0:
35,163,211311,2,0,L|243:160,1,191.999994140625,0|8,0:0|0:1,0:0:0:0:
496,153,211715,2,0,L|390:152,1,95.9999970703126,10|0,0:0|0:0,0:0:0:0:
62,132,211984,5,10,0:1:0:0:
450,132,212253,1,10,0:1:0:0:
119,160,212522,1,10,0:0:0:0:
395,164,212657,1,8,0:1:0:0:
161,204,212926,6,0,L|378:204,1,191.999994140625,10|10,0:1|0:1,0:0:0:0:
138,160,213329,2,0,L|122:255,1,95.9999970703126,10|0,0:1|0:0,0:0:0:0:
390,254,213598,1,8,0:0:0:0:
166,277,213733,1,8,0:1:0:0:
294,233,213867,2,0,L|415:230,1,95.9999970703126,2|2,0:0|0:0,0:0:0:0:
165,200,214136,6,0,L|10:197,1,143.999995605469,12|0,0:1|0:0,0:0:0:0:
185,125,214405,2,0,L|340:128,1,143.999995605469,10|0,0:1|0:0,0:0:0:0:
490,197,214674,6,0,L|347:200,1,143.999995605469,12|0,0:1|0:0,0:0:0:0:
208,161,214943,2,0,L|334:162,1,95.9999970703126,8|8,0:0|0:1,0:0:0:0:
253,132,215145,1,0,0:0:0:0:
39,113,215212,5,8,0:0:0:0:
151,106,215347,1,10,0:1:0:0:
362,103,215481,1,0,0:0:0:0:
473,113,215616,1,8,0:0:0:0:
177,150,215751,6,0,L|175:205,1,47.9999985351563,8|0,0:1|0:0,0:0:0:0:
338,156,215885,2,0,L|393:158,1,47.9999985351563,8|10,0:0|0:0,0:0:0:0:
174,228,216020,2,0,L|119:226,1,47.9999985351563,8|10,0:0|0:0,0:0:0:0:
335,150,216154,2,0,L|337:205,1,47.9999985351563,8|2,0:0|0:3,0:0:0:0:
188,115,216289,6,0,L|191:262,1,143.999995605469,0|8,0:0|0:1,0:0:0:0:
461,285,216558,2,0,L|359:285,1,95.9999970703126,4|8,3:2|0:1,0:0:0:0:
121,283,216827,2,0,L|223:283,2,95.9999970703126,2|8|8,0:0|0:1|0:0,0:0:0:0:
328,275,217230,6,0,P|381:221|285:169,1,191.999994140625,2|8,0:0|0:1,0:0:0:0:
181,153,217634,2,0,L|281:156,1,95.9999970703126,10|8,0:0|0:1,0:0:0:0:
29,147,217903,1,2,0:0:0:0:
242,210,218037,1,8,0:1:0:0:
122,209,218172,1,8,0:0:0:0:
379,307,218306,1,2,0:0:0:0:
248,305,218441,6,0,L|241:201,1,95.9999970703126,8|0,0:1|0:0,0:0:0:0:
465,192,218710,1,10,3:2:0:0:
340,186,218844,1,8,0:1:0:0:
475,148,218979,2,0,L|482:44,1,95.9999970703126,2|8,0:0|0:1,0:0:0:0:
355,102,219248,1,10,0:0:0:0:
482,82,219382,1,0,0:0:0:0:
277,105,219517,6,0,L|162:100,2,95.9999970703126,2|8|8,0:0|0:1|0:0,0:0:0:0:
70,181,219920,2,0,P|18:127|95:73,1,191.999994140625,10|8,0:1|0:1,0:0:0:0:
392,164,220324,1,10,0:0:0:0:
259,158,220458,1,0,0:0:0:0:
29,237,220593,5,10,0:1:0:0:
159,241,220727,1,8,0:3:0:0:
290,249,220862,1,10,3:2:0:0:
29,237,220997,1,8,0:3:0:0:
370,170,221131,1,10,0:1:0:0:
119,154,221266,2,0,L|225:149,1,95.9999970703126,8|0,0:3|0:0,0:0:0:0:
446,259,221535,6,0,L|218:252,1,191.999994140625,12|10,0:1|0:1,0:0:0:0:
478,215,221938,1,8,0:0:0:0:
231,212,222073,1,8,0:3:0:0:
434,175,222207,2,0,L|437:116,1,47.9999985351563,8|0,0:0|0:0,0:0:0:0:
367,131,222342,2,0,L|370:72,1,47.9999985351563,10|8,0:1|0:1,0:0:0:0:
437,76,222476,1,8,0:0:0:0:
148,254,222611,6,0,P|111:222|191:143,1,191.999994140625,12|8,0:1|0:1,0:0:0:0:
314,165,223014,1,8,0:3:0:0:
76,209,223149,1,8,0:1:0:0:
435,247,223283,1,8,0:1:0:0:
325,195,223418,1,8,0:0:0:0:
76,209,223552,1,8,0:0:0:0:
476,168,223687,1,12,0:1:0:0:
256,192,223822,12,0,226512,0:0:0:0:
357,101,226647,6,0,L|354:159,1,47.9999985351563,8|8,0:1|0:1,0:0:0:0:
161,217,226781,2,0,L|167:106,1,95.9999970703126,8|0,0:0|0:0,0:0:0:0:
487,202,227050,6,0,L|371:199,2,111.999996582031,12|0|8,0:1|0:0|0:0,0:0:0:0:
257,144,227454,2,0,L|373:147,1,111.999996582031,10|0,0:1|0:0,0:0:0:0:
141,163,227723,2,0,L|25:166,1,111.999996582031,8|10,0:1|0:0,0:0:0:0:
369,259,227992,6,0,L|97:252,1,223.999993164063,2|8,0:0|0:1,0:0:0:0:
269,209,228396,2,0,L|276:96,1,111.999996582031,10|8,0:0|0:1,0:0:0:0:
47,97,228665,2,0,L|40:210,1,111.999996582031,2|8,0:0|0:1,0:0:0:0:
393,210,228934,2,0,L|400:97,1,111.999996582031,10|0,0:0|0:0,0:0:0:0:
150,153,229203,6,0,L|263:154,1,111.999996582031,10|0,0:1|0:0,0:0:0:0:
30,212,229472,1,8,0:0:0:0:
484,209,229606,2,0,L|331:203,1,111.999996582031,10|0,0:1|0:0,0:0:0:0:
148,203,229875,2,0,L|301:197,1,111.999996582031,10|8,0:1|0:0,0:0:0:0:
29,149,230144,6,0,L|266:139,1,223.999993164063,2|8,0:0|0:1,0:0:0:0:
126,135,230548,2,0,L|124:258,1,111.999996582031,10|8,0:0|0:1,0:0:0:0:
368,239,230817,2,0,L|245:237,1,111.999996582031,2|8,0:0|0:1,0:0:0:0:
485,132,231086,2,0,L|487:255,1,111.999996582031,10|0,0:0|0:0,0:0:0:0:
257,179,231355,6,0,L|492:181,1,223.999993164063,12|8,0:1|0:0,0:0:0:0:
259,137,231759,2,0,L|136:136,2,111.999996582031,10|0|8,0:1|0:0|0:1,0:0:0:0:
30,146,232162,2,0,L|19:263,1,111.999996582031,10|2,0:0|0:0,0:0:0:0:
258,257,232431,6,0,L|141:258,1,111.999996582031,10|8,0:1|0:1,0:0:0:0:
482,146,232700,2,0,L|493:263,1,111.999996582031,10|8,0:0|0:1,0:0:0:0:
254,127,232969,2,0,L|371:126,1,111.999996582031,2|8,0:0|0:1,0:0:0:0:
110,167,233238,1,10,0:0:0:0:
402,167,233373,1,0,0:0:0:0:
186,225,233507,6,0,L|19:217,1,167.999994873047,10|0,0:1|0:0,0:0:0:0:
326,225,233776,2,0,L|493:217,1,167.999994873047,12|0,0:0|0:0,0:0:0:0:
200,131,234045,5,12,0:0:0:0:
312,128,234180,1,8,0:1:0:0:
98,169,234314,1,0,0:0:0:0:
414,169,234449,6,0,P|486:145|435:97,1,167.999994873047,12|0,0:1|0:0,0:0:0:0:
256,97,234718,1,8,0:1:0:0:
142,134,234853,1,8,0:0:0:0:
368,137,234987,1,0,0:0:0:0:
27,173,235122,5,10,0:1:0:0:
256,174,235256,2,0,L|344:178,1,55.9999982910157,8|0,0:1|0:0,0:0:0:0:
176,188,235391,2,0,L|176:268,1,55.9999982910157,8|8,0:3|0:3,0:0:0:0:
392,252,235525,2,0,L|392:172,1,55.9999982910157,4|4,0:3|0:3,0:0:0:0:
256,174,235660,6,0,L|14:162,1,223.999993164063,12|8,0:1|0:0,0:0:0:0:
258,123,236063,1,8,0:1:0:0:
140,119,236198,2,0,L|382:131,1,223.999993164063,2|10,0:0|0:0,0:0:0:0:
246,175,236601,1,0,0:0:0:0:
482,128,236736,6,0,L|490:246,1,111.999996582031,10|8,0:1|0:1,0:0:0:0:
361,239,237005,1,8,0:0:0:0:
141,188,237139,2,0,L|368:192,1,223.999993164063,10|8,0:1|0:1,0:0:0:0:
238,237,237543,2,0,L|117:233,1,111.999996582031,10|0,0:0|0:0,0:0:0:0:
373,218,237812,6,0,L|374:98,1,111.999996582031,10|0,0:1|0:0,0:0:0:0:
259,106,238081,1,8,0:0:0:0:
402,156,238216,1,10,0:1:0:0:
139,218,238350,2,0,L|138:98,1,111.999996582031,0|10,0:0|0:1,0:0:0:0:
253,106,238619,1,8,0:0:0:0:
114,164,238754,1,0,0:0:0:0:
320,157,238888,6,0,L|462:156,1,111.999996582031,10|8,0:1|0:1,0:0:0:0:
192,157,239157,2,0,L|50:156,1,111.999996582031,8|10,0:0|0:1,0:0:0:0:
437,215,239426,1,0,0:0:0:0:
319,218,239561,1,8,0:1:0:0:
199,220,239695,1,10,0:0:0:0:
78,226,239830,1,0,0:0:0:0:
489,140,239964,6,0,L|351:133,1,111.999996582031,12|0,0:1|0:0,0:0:0:0:
143,137,240233,2,0,L|281:130,1,111.999996582031,10|8,0:0|0:1,0:0:0:0:
22,228,240502,2,0,L|160:221,1,111.999996582031,2|8,0:0|0:1,0:0:0:0:
368,225,240771,2,0,L|230:218,1,111.999996582031,10|0,0:0|0:0,0:0:0:0:
486,225,241041,6,0,L|487:108,1,111.999996582031,10|8,0:1|0:1,0:0:0:0:
367,73,241310,2,0,L|484:74,1,111.999996582031,8|10,0:0|0:1,0:0:0:0:
253,46,241579,2,0,L|252:163,1,111.999996582031,0|8,0:0|0:1,0:0:0:0:
365,202,241848,2,0,L|248:201,1,111.999996582031,10|0,0:0|0:0,0:0:0:0:
26,193,242117,5,10,0:1:0:0:
148,184,242251,1,0,0:0:0:0:
26,193,242386,1,12,0:0:0:0:
148,184,242520,1,0,0:0:0:0:
342,243,242655,6,0,B|497:250|603:97|318:62,1,391.99998803711,8|0,0:0|0:0,0:0:0:0:
69,267,243193,6,0,P|99:237|453:166,1,391.99998803711,8|0,0:0|0:0,0:0:0:0:
176,112,243731,6,0,L|99:107,1,55.9999982910157,10|0,0:0|0:0,0:0:0:0:
336,112,243865,2,0,L|395:111,1,55.9999982910157,8|0,0:3|0:0,0:0:0:0:
174,168,244000,2,0,L|119:164,1,55.9999982910157,8|0,0:3|0:0,0:0:0:0:
342,163,244134,2,0,L|401:164,1,55.9999982910157,4|0,0:3|0:0,0:0:0:0:
50,225,244269,6,0,L|45:347,1,111.999996582031,12|0,0:1|0:0,0:0:0:0:
181,259,244538,2,0,L|186:381,1,111.999996582031,8|8,0:0|0:1,0:0:0:0:
476,324,244807,2,0,L|245:308,1,223.999993164063,2|8,0:0|0:0,0:0:0:0:
473,302,245211,6,0,L|476:191,1,111.999996582031,2|10,0:0|0:1,0:0:0:0:
346,184,245480,1,8,0:1:0:0:
137,178,245614,2,0,L|273:179,1,111.999996582031,10|8,0:0|0:1,0:0:0:0:
27,232,245883,2,0,L|28:96,1,111.999996582031,2|8,0:0|0:1,0:0:0:0:
250,108,246152,2,0,L|139:107,1,111.999996582031,10|0,0:0|0:0,0:0:0:0:
375,112,246421,6,0,L|510:114,1,111.999996582031,10|0,0:1|0:0,0:0:0:0:
250,108,246690,2,0,L|252:243,1,111.999996582031,10|8,0:0|0:1,0:0:0:0:
371,193,246959,1,0,0:0:0:0:
129,188,247094,1,10,0:1:0:0:
463,270,247228,1,8,0:0:0:0:
237,277,247363,6,0,L|476:276,1,223.999993164063,2|8,0:0|0:1,0:0:0:0:
334,221,247767,2,0,L|212:220,1,111.999996582031,10|8,0:0|0:1,0:0:0:0:
474,119,248036,2,0,L|480:234,1,111.999996582031,2|8,0:0|0:1,0:0:0:0:
251,219,248305,2,0,L|245:334,1,111.999996582031,10|0,0:0|0:0,0:0:0:0:
24,125,248574,6,0,L|258:121,1,223.999993164063,12|8,0:1|0:0,0:0:0:0:
492,142,248977,2,0,L|370:143,1,111.999996582031,10|0,0:1|0:0,0:0:0:0:
252,162,249246,1,8,0:1:0:0:
20,142,249381,2,0,L|142:143,1,111.999996582031,10|0,0:0|0:0,0:0:0:0:
442,256,249650,6,0,L|208:260,1,223.999993164063,10|8,0:1|0:0,0:0:0:0:
71,263,250053,2,0,L|193:262,1,111.999996582031,10|0,0:1|0:0,0:0:0:0:
314,261,250322,1,8,0:1:0:0:
446,239,250457,2,0,L|324:238,1,111.999996582031,10|0,0:0|0:0,0:0:0:0:
23,232,250726,6,0,B|26:117|26:117|90:118,1,167.999994873047,10|0,0:1|0:0,0:0:0:0:
243,119,250995,2,0,B|358:122|358:122|357:186,1,167.999994873047,12|0,0:0|0:0,0:0:0:0:
191,196,251264,5,8,0:0:0:0:
318,198,251399,2,0,L|318:316,1,111.999996582031,8|0,0:1|0:0,0:0:0:0:
21,272,251668,6,0,L|222:268,1,167.999994873047,12|0,0:1|0:0,0:0:0:0:
267,252,251937,1,8,0:1:0:0:
490,248,252071,2,0,L|355:249,1,111.999996582031,10|0,0:0|0:0,0:0:0:0:
163,199,252340,6,0,L|95:196,1,55.9999982910157,10|8,0:0|0:0,0:0:0:0:
254,169,252475,2,0,L|322:172,1,55.9999982910157,8|8,0:0|0:0,0:0:0:0:
443,199,252609,2,0,L|511:196,1,55.9999982910157,10|8,0:0|0:0,0:0:0:0:
363,140,252744,2,0,L|307:142,1,55.9999982910157,8|0,0:0|0:0,0:0:0:0:
76,80,252878,6,0,L|62:202,1,111.999996582031,12|0,0:1|0:0,0:0:0:0:
308,268,253147,2,0,L|186:254,1,111.999996582031,8|10,0:0|0:1,0:0:0:0:
413,212,253416,1,0,0:0:0:0:
107,194,253551,1,10,0:1:0:0:
365,155,253686,1,8,0:0:0:0:
141,159,253820,6,0,L|378:155,1,223.999993164063,0|8,0:0|0:1,0:0:0:0:
231,154,254224,2,0,L|222:283,1,111.999996582031,10|8,0:0|0:1,0:0:0:0:
477,207,254493,2,0,L|486:336,1,111.999996582031,2|8,0:0|0:1,0:0:0:0:
261,313,254762,2,0,L|390:322,1,111.999996582031,10|0,0:0|0:0,0:0:0:0:
136,314,255031,6,0,P|71:278|139:168,1,223.999993164063,10|8,0:1|0:0,0:0:0:0:
376,314,255434,2,0,P|441:278|373:168,1,223.999993164063,10|8,0:1|0:1,0:0:0:0:
254,138,255838,2,0,L|394:133,1,111.999996582031,10|0,0:0|0:0,0:0:0:0:
141,134,256107,6,0,L|132:248,1,111.999996582031,10|8,0:1|0:1,0:0:0:0:
259,237,256376,2,0,L|268:351,1,111.999996582031,10|8,0:0|0:1,0:0:0:0:
128,308,256645,1,2,0:0:0:0:
269,296,256780,1,8,0:1:0:0:
46,281,256914,2,0,L|35:158,1,111.999996582031,10|0,0:0|0:0,0:0:0:0:
451,291,257183,6,0,P|471:217|356:163,1,223.999993164063,12|8,0:1|0:0,0:0:0:0:
231,154,257587,1,10,0:1:0:0:
370,165,257721,2,0,L|376:302,1,111.999996582031,0|8,0:0|0:1,0:0:0:0:
240,270,257990,2,0,L|377:264,1,111.999996582031,10|0,0:0|0:0,0:0:0:0:
31,230,258259,6,0,L|25:93,1,111.999996582031,10|8,0:1|0:1,0:0:0:0:
156,163,258528,2,0,L|162:26,1,111.999996582031,10|8,0:0|0:1,0:0:0:0:
384,53,258797,1,2,0:0:0:0:
256,49,258932,1,8,0:1:0:0:
485,87,259066,1,10,0:0:0:0:
106,258,259201,6,0,P|51:208|151:124,1,223.999993164063,12|0,0:1|0:0,0:0:0:0:
396,208,259604,6,0,L|311:208,1,55.9999982910157,8|0,0:1|0:0,0:0:0:0:
175,205,259739,1,8,0:1:0:0:
401,194,259873,6,0,L|324:158,1,55.9999982910157,8|0,0:1|0:0,0:0:0:0:
183,165,260008,1,0,0:1:0:0:
410,183,260143,6,0,L|356:117,1,55.9999982910157,8|0,0:1|0:0,0:0:0:0:
209,132,260277,1,8,0:1:0:0:
433,160,260412,6,0,L|411:78,1,55.9999982910157,8|0,0:1|0:0,0:0:0:0:
254,106,260546,1,0,0:1:0:0:
481,130,260681,6,0,L|479:63,2,55.9999982910157,8|0|2,0:0|0:0|0:0,0:0:0:0:
146,166,261353,6,0,L|72:163,1,55.9999982910157,8|8,0:1|0:1,0:0:0:0:
371,87,261488,6,0,P|421:143|248:329,1,391.99998803711,8|0,0:0|0:0,0:0:0:0:
99,250,262026,6,0,L|398:244,1,279.999991455078,8|0,0:1|0:0,0:0:0:0:
106,282,262429,6,0,P|35:235|111:169,1,191.999994140625,12|0,0:1|0:0,0:0:0:0:
369,158,262833,2,0,L|167:156,1,191.999994140625,10|10,0:0|0:1,0:0:0:0:
411,163,263236,2,0,L|438:257,1,95.9999970703126,8|8,0:1|0:0,0:0:0:0:
173,266,263505,6,0,L|365:264,1,191.999994140625,10|8,0:1|0:1,0:0:0:0:
130,267,263909,2,0,P|63:254|116:163,1,191.999994140625,10|10,0:0|0:1,0:0:0:0:
341,163,264312,2,0,L|236:162,1,95.9999970703126,8|8,0:1|0:0,0:0:0:0:
482,129,264581,6,0,L|482:327,1,191.999994140625,12|8,0:1|0:1,0:0:0:0:
161,257,264985,2,0,L|359:257,1,191.999994140625,10|10,0:0|0:1,0:0:0:0:
28,258,265388,2,0,L|26:150,1,95.9999970703126,8|8,0:1|0:0,0:0:0:0:
372,173,265657,6,0,L|256:173,1,95.9999970703126,10|0,0:0|0:0,0:0:0:0:
152,172,265927,1,8,0:1:0:0:
401,201,266061,2,0,L|401:317,1,95.9999970703126,10|0,0:0|0:0,0:0:0:0:
185,294,266330,1,8,0:3:0:0:
493,292,266465,1,10,0:0:0:0:
301,293,266599,1,0,0:0:0:0:
36,203,266734,6,0,L|250:200,1,191.999994140625,12|0,0:1|0:0,0:0:0:0:
476,203,267137,2,0,L|262:200,1,191.999994140625,10|10,0:0|0:1,0:0:0:0:
154,171,267541,1,8,0:1:0:0:
361,169,267675,1,8,0:0:0:0:
101,94,267810,6,0,P|65:198|88:321,1,191.999994140625,12|8,0:1|0:1,0:0:0:0:
354,37,268213,2,0,L|127:24,1,191.999994140625,10|10,0:0|0:1,0:0:0:0:
411,290,268617,2,0,L|421:164,1,95.9999970703126,8|10,0:1|0:0,0:0:0:0:
81,265,268886,6,0,P|26:236|116:187,1,191.999994140625,8|0,0:1|0:0,0:0:0:0:
303,221,269290,2,0,P|358:192|268:143,1,191.999994140625,10|0,0:2|0:0,0:0:0:0:
491,86,269693,2,0,L|375:89,1,95.9999970703126,0|8,0:0|0:0,0:0:0:0:
78,130,269962,6,0,L|193:138,2,95.9999970703126,12|0|8,0:1|0:0|0:1,0:0:0:0:
303,203,270366,2,0,L|188:195,1,95.9999970703126,10|0,0:0|0:0,0:0:0:0:
434,130,270635,2,0,L|319:138,2,95.9999970703126,10|0|10,0:1|0:0|0:0,0:0:0:0:
216,84,271038,6,0,L|19:79,1,191.999994140625,12|8,0:1|0:1,0:0:0:0:
261,164,271442,2,0,L|458:169,1,191.999994140625,10|8,0:0|0:1,0:0:0:0:
164,128,271845,2,0,L|294:128,1,95.9999970703126,10|8,0:1|0:0,0:0:0:0:
487,79,272115,6,0,L|296:84,1,191.999994140625,12|8,0:1|0:1,0:0:0:0:
63,155,272518,2,0,L|254:150,1,191.999994140625,10|8,0:0|0:1,0:0:0:0:
29,204,272922,2,0,L|159:204,1,95.9999970703126,10|8,0:0|0:0,0:0:0:0:
442,75,273191,6,0,L|448:285,1,191.999994140625,12|0,0:1|0:0,0:0:0:0:
321,270,273594,1,8,0:2:0:0:
71,253,273729,1,2,0:0:0:0:
186,235,273863,1,0,0:0:0:0:
63,206,273998,1,8,0:1:0:0:
320,203,274132,1,10,0:0:0:0:
120,146,274267,6,0,L|288:141,1,143.999995605469,12|0,0:1|0:0,0:0:0:0:
427,165,274536,2,0,L|259:170,1,143.999995605469,10|0,0:1|0:0,0:0:0:0:
208,194,274805,1,10,0:1:0:0:
466,240,274939,2,0,P|496:193|406:119,1,191.999994140625,8|8,0:1|0:0,0:0:0:0:
151,96,275343,6,0,L|356:94,1,191.999994140625,12|0,0:1|0:0,0:0:0:0:
221,154,275747,1,10,0:0:0:0:
423,212,275881,2,0,L|317:210,1,95.9999970703126,0|10,0:0|0:1,0:0:0:0:
448,159,276150,2,0,L|281:156,1,143.999995605469,10|0,0:1|0:0,0:0:0:0:
127,147,276419,6,0,L|129:284,1,95.9999970703126,10|0,0:0|0:0,0:0:0:0:
384,209,276688,2,0,L|383:113,1,95.9999970703126,0|8,0:0|0:0,0:0:0:0:
135,111,276957,1,2,0:0:0:0:
359,176,277092,2,0,L|263:177,2,95.9999970703126,8|8|10,0:1|0:1|0:0,0:0:0:0:
32,183,277495,6,0,L|28:88,1,95.9999970703126,12|0,0:1|0:0,0:0:0:0:
365,73,277764,2,0,L|369:168,1,95.9999970703126,8|10,0:1|0:0,0:0:0:0:
258,141,278033,1,0,0:0:0:0:
482,174,278168,2,0,L|478:79,1,95.9999970703126,10|8,0:0|0:1,0:0:0:0:
352,73,278437,1,10,0:0:0:0:
105,82,278572,1,0,0:0:0:0:
396,129,278706,6,0,L|388:245,1,95.9999970703126,10|0,0:1|0:0,0:0:0:0:
260,220,278976,2,0,L|268:336,1,95.9999970703126,8|10,0:1|0:0,0:0:0:0:
399,324,279245,1,8,0:1:0:0:
189,265,279379,2,0,L|305:273,1,95.9999970703126,10|0,0:0|0:0,0:0:0:0:
415,274,279648,1,8,0:1:0:0:
206,231,279783,6,0,P|156:178|287:238,1,575.999982421876,12|0,0:1|0:0,0:0:0:0:
172,271,281935,6,0,B|-67:220|14:180|187:194|183:135|-8:130|-27:30|222:98,1,479.999985351563,2|0,3:2|0:0,0:0:0:0:
290,247,284075,6,0,P|340:194|241:252,1,479.999985351563,2|0,3:2|0:0,0:0:0:0:
340,271,286234,6,0,B|579:220|498:180|325:194|329:135|520:130|539:30|290:98,1,479.999985351563,2|0,3:2|0:0,0:0:0:0:
256,192,288394,5,2,3:2:0:0:
256,192,288461,12,0,290149,0:0:0:0:
256,192,290554,5,2,3:2:0:0:
256,192,290621,12,0,292309,0:0:0:0:
256,192,292701,5,2,3:2:0:0:
256,192,292768,12,0,294449,0:0:0:0:
256,192,294853,5,2,3:2:0:0:
256,192,294920,12,0,299432,0:0:0:0:
256,192,299499,12,0,302391,0:0:0:0:
