osu file format v14

[General]
AudioFilename: audio.mp3
AudioLeadIn: 0
PreviewTime: 88891
Countdown: 0
SampleSet: Soft
StackLeniency: 0.7
Mode: 0
LetterboxInBreaks: 0
WidescreenStoryboard: 0

[Editor]
DistanceSpacing: 1
BeatDivisor: 4
GridSize: 32
TimelineZoom: 2

[Metadata]
Title:Judgment
TitleUnicode:Judgment
Artist:Asriel
ArtistUnicode:Asriel
Creator:Adinda
Version:Illusion
Source:11eyes -Resona Forma-
Tags:metal symphonic gothic rock kokomi japanese 黒瀬圭亮 Keisuke Kurose video game AntiQue ~INDIES BEST SELECTION~ judgement ending ed vn visual novel eroge lass
BeatmapID:2836842
BeatmapSetID:1372170

[Difficulty]
HPDrainRate:6
CircleSize:4
OverallDifficulty:8.8
ApproachRate:9.3
SliderMultiplier:1.9
SliderTickRate:1

[Events]
//Background and Video events
0,0,"a.jpg",0,0
//Break Periods
//Storyboard Layer 0 (Background)
//Storyboard Layer 1 (Fail)
//Storyboard Layer 2 (Pass)
//Storyboard Layer 3 (Foreground)
//Storyboard Layer 4 (Overlay)
//Storyboard Sound Samples

[TimingPoints]
938,437.956204379562,4,2,1,75,1,0
28959,294.117647058823,4,2,1,75,1,0
28959,-133.333333333333,4,2,1,75,0,0
29694,-133.333333333333,4,2,1,80,0,0
30135,-76.9230769230769,4,2,1,85,0,0
30356,-76.9230769230769,4,2,1,5,0,0
30429,-90.9090909090909,4,2,1,85,0,0
31164,-76.9230769230769,4,2,1,85,0,0
31458,-90.9090909090909,4,2,1,85,0,0
32414,-76.9230769230769,4,2,1,5,0,0
32488,-76.9230769230769,4,2,1,85,0,0
32782,-90.9090909090909,4,2,1,85,0,0
33517,-76.9230769230769,4,2,1,85,0,0
33811,-90.9090909090909,4,2,1,85,0,0
34179,-90.9090909090909,4,2,1,5,0,0
34253,-90.9090909090909,4,2,1,85,0,0
34767,-76.9230769230769,4,2,1,5,0,0
34841,-76.9230769230769,4,2,1,85,0,0
35135,-90.9090909090909,4,2,1,85,0,0
35870,-76.9230769230769,4,2,1,85,0,0
36164,-90.9090909090909,4,2,1,85,0,0
37194,-76.9230769230769,4,2,1,85,0,0
37488,-90.9090909090909,4,2,1,85,0,0
37782,-76.9230769230769,4,2,1,85,0,0
38076,-90.9090909090909,4,2,1,85,0,0
38223,-76.9230769230769,4,2,1,85,0,0
38517,-90.9090909090909,4,2,1,85,0,0
38885,-90.9090909090909,4,2,1,5,0,0
38959,-90.9090909090909,4,2,1,85,0,0
39547,-76.9230769230769,4,2,1,85,0,0
39841,-90.9090909090909,4,2,1,85,0,0
40576,-76.9230769230769,4,2,1,85,0,0
40870,-90.9090909090909,4,2,1,85,0,0
41900,-76.9230769230769,4,2,1,85,0,0
42194,-90.9090909090909,4,2,1,85,0,0
42929,-76.9230769230769,4,2,1,85,0,0
43223,-90.9090909090909,4,2,1,85,0,0
44253,-76.9230769230769,4,2,1,85,0,0
44547,-90.9090909090909,4,2,1,85,0,0
44694,-76.9230769230769,4,2,1,85,0,0
44988,-90.9090909090909,4,2,1,85,0,0
45282,-76.9230769230769,4,2,1,85,0,0
45576,-90.9090909090909,4,2,1,85,0,0
46606,-76.9230769230769,4,2,1,85,0,0
46826,-76.9230769230769,4,2,1,5,0,0
46900,-90.9090909090909,4,2,1,85,0,0
47635,-76.9230769230769,4,2,1,85,0,0
47929,-90.9090909090909,4,2,1,85,0,0
51311,-153.846153846153,4,2,1,70,0,0
68664,-100,4,2,1,75,0,0
69841,-133.333333333333,4,2,1,75,0,0
70061,-133.333333333333,4,2,1,5,0,0
70135,-100,4,2,1,80,0,0
70356,-100,4,2,1,5,0,0
70429,-100,4,2,1,80,0,0
72414,-100,4,2,1,5,0,0
72487,-100,4,2,1,80,0,0
74767,-100,4,2,1,5,0,0
74840,-100,4,2,1,80,0,0
77120,-100,4,2,1,5,0,0
77193,-100,4,2,1,80,0,0
79767,-100,4,2,1,5,0,0
79840,-100,4,2,1,80,0,0
81826,-100,4,2,1,5,0,0
81899,-100,4,2,1,80,0,0
84179,-100,4,2,1,5,0,0
84253,-133.333333333333,4,2,1,75,0,0
85282,-100,4,2,1,80,0,0
86532,-100,4,2,1,5,0,0
86606,-133.333333333333,4,2,1,75,0,0
87635,-90.9090909090909,4,2,1,85,0,0
87856,-90.9090909090909,4,2,1,5,0,0
87929,-90.9090909090909,4,2,1,85,0,0
88150,-90.9090909090909,4,2,1,5,0,0
88223,-90.9090909090909,4,2,1,85,0,0
88370,-111.111111111111,4,2,1,85,0,0
88591,-90.9090909090909,4,2,1,85,0,0
88958,-71.4285714285714,4,2,1,90,0,1
89179,-71.4285714285714,4,2,1,5,0,1
89253,-83.3333333333333,4,2,1,90,0,1
89988,-71.4285714285714,4,2,1,90,0,1
90283,-83.3333333333333,4,2,1,90,0,1
91311,-71.4285714285714,4,2,1,90,0,1
91532,-71.4285714285714,4,2,1,5,0,1
91606,-83.3333333333333,4,2,1,90,0,1
92341,-71.4285714285714,4,2,1,90,0,1
92636,-83.3333333333333,4,2,1,90,0,1
93591,-71.4285714285714,4,2,1,5,0,1
93664,-71.4285714285714,4,2,1,90,0,1
93885,-71.4285714285714,4,2,1,5,0,1
93958,-83.3333333333333,4,2,1,90,0,1
94694,-71.4285714285714,4,2,1,90,0,1
94988,-83.3333333333333,4,2,1,90,0,1
95944,-71.4285714285714,4,2,1,5,0,1
96017,-71.4285714285714,4,2,1,90,0,1
96238,-71.4285714285714,4,2,1,5,0,1
96311,-83.3333333333333,4,2,1,90,0,1
97047,-71.4285714285714,4,2,1,90,0,1
97341,-83.3333333333333,4,2,1,90,0,1
98370,-71.4285714285714,4,2,1,90,0,1
98591,-71.4285714285714,4,2,1,5,0,1
98664,-83.3333333333333,4,2,1,90,0,1
99400,-71.4285714285714,4,2,1,90,0,1
99694,-83.3333333333333,4,2,1,90,0,1
100723,-71.4285714285714,4,2,1,90,0,1
101017,-83.3333333333333,4,2,1,90,0,1
101753,-71.4285714285714,4,2,1,90,0,1
102047,-83.3333333333333,4,2,1,90,0,1
103076,-71.4285714285714,4,2,1,90,0,1
103297,-71.4285714285714,4,2,1,5,0,1
103370,-83.3333333333333,4,2,1,90,0,1
104106,-71.4285714285714,4,2,1,90,0,1
104400,-83.3333333333333,4,2,1,90,0,1
105429,-71.4285714285714,4,2,1,90,0,1
105650,-71.4285714285714,4,2,1,5,0,1
105723,-83.3333333333333,4,2,1,90,0,1
106458,-71.4285714285714,4,2,1,90,0,1
106752,-83.3333333333333,4,2,1,90,0,1
107782,-71.4285714285714,4,2,1,90,0,1
108003,-71.4285714285714,4,2,1,5,0,1
108076,-83.3333333333333,4,2,1,90,0,1
108811,-71.4285714285714,4,2,1,90,0,1
109106,-83.3333333333333,4,2,1,90,0,1
110135,-71.4285714285714,4,2,1,90,0,1
110429,-83.3333333333333,4,2,1,90,0,1
111164,-71.4285714285714,4,2,1,90,0,1
111459,-83.3333333333333,4,2,1,90,0,1
112488,-71.4285714285714,4,2,1,90,0,1
112708,-71.4285714285714,4,2,1,5,0,1
112782,-83.3333333333333,4,2,1,90,0,1
113517,-71.4285714285714,4,2,1,90,0,1
113812,-83.3333333333333,4,2,1,90,0,1
114841,-133.333333333333,4,2,1,90,0,0
115870,-83.3333333333333,4,2,1,90,0,0
116753,-111.111111111111,4,2,1,90,0,0
117194,-76.9230769230769,4,2,1,85,0,0
117414,-76.9230769230769,4,2,1,5,0,0
117488,-90.9090909090909,4,2,1,85,0,0
118223,-76.9230769230769,4,2,1,85,0,0
118517,-90.9090909090909,4,2,1,85,0,0
119473,-76.9230769230769,4,2,1,5,0,0
119547,-76.9230769230769,4,2,1,85,0,0
119841,-90.9090909090909,4,2,1,85,0,0
120576,-76.9230769230769,4,2,1,85,0,0
120870,-90.9090909090909,4,2,1,85,0,0
121238,-90.9090909090909,4,2,1,5,0,0
121311,-90.9090909090909,4,2,1,85,0,0
121826,-76.9230769230769,4,2,1,5,0,0
121900,-76.9230769230769,4,2,1,85,0,0
122194,-90.9090909090909,4,2,1,85,0,0
122929,-76.9230769230769,4,2,1,85,0,0
123223,-90.9090909090909,4,2,1,85,0,0
124253,-76.9230769230769,4,2,1,85,0,0
124547,-90.9090909090909,4,2,1,85,0,0
124841,-76.9230769230769,4,2,1,85,0,0
125135,-90.9090909090909,4,2,1,85,0,0
125282,-76.9230769230769,4,2,1,85,0,0
125576,-90.9090909090909,4,2,1,85,0,0
126606,-76.9230769230769,4,2,1,85,0,0
126900,-90.9090909090909,4,2,1,85,0,0
127635,-76.9230769230769,4,2,1,85,0,0
127929,-90.9090909090909,4,2,1,85,0,0
128958,-76.9230769230769,4,2,1,85,0,0
129253,-90.9090909090909,4,2,1,85,0,0
129988,-76.9230769230769,4,2,1,85,0,0
130282,-90.9090909090909,4,2,1,85,0,0
131311,-76.9230769230769,4,2,1,85,0,0
131606,-90.9090909090909,4,2,1,85,0,0
131753,-76.9230769230769,4,2,1,85,0,0
132047,-90.9090909090909,4,2,1,85,0,0
132341,-76.9230769230769,4,2,1,85,0,0
132635,-90.9090909090909,4,2,1,85,0,0
133664,-76.9230769230769,4,2,1,85,0,0
133885,-76.9230769230769,4,2,1,5,0,0
133958,-90.9090909090909,4,2,1,85,0,0
134694,-76.9230769230769,4,2,1,85,0,0
134988,-90.9090909090909,4,2,1,85,0,0
138370,-153.846153846153,4,2,1,70,0,0
155723,-100,4,2,1,75,0,0
157194,-100,4,2,1,80,0,0
157414,-100,4,2,1,5,0,0
157488,-100,4,2,1,80,0,0
159473,-100,4,2,1,5,0,0
159547,-100,4,2,1,80,0,0
161826,-100,4,2,1,5,0,0
161900,-100,4,2,1,80,0,0
164179,-100,4,2,1,5,0,0
164253,-100,4,2,1,80,0,0
166826,-100,4,2,1,5,0,0
166900,-100,4,2,1,80,0,0
168885,-100,4,2,1,5,0,0
168959,-100,4,2,1,80,0,0
171238,-100,4,2,1,5,0,0
171311,-133.333333333333,4,2,1,75,0,0
172340,-100,4,2,1,80,0,0
173591,-100,4,2,1,5,0,0
173664,-133.333333333333,4,2,1,75,0,0
174693,-90.9090909090909,4,2,1,85,0,0
174914,-90.9090909090909,4,2,1,5,0,0
174988,-90.9090909090909,4,2,1,85,0,0
175208,-90.9090909090909,4,2,1,5,0,0
175282,-90.9090909090909,4,2,1,85,0,0
175428,-111.111111111111,4,2,1,85,0,0
176017,-71.4285714285714,4,2,1,90,0,1
176238,-71.4285714285714,4,2,1,5,0,1
176311,-83.3333333333333,4,2,1,90,0,1
177047,-71.4285714285714,4,2,1,90,0,1
177341,-83.3333333333333,4,2,1,90,0,1
178370,-71.4285714285714,4,2,1,90,0,1
178591,-71.4285714285714,4,2,1,5,0,1
178664,-83.3333333333333,4,2,1,90,0,1
179400,-71.4285714285714,4,2,1,90,0,1
179694,-83.3333333333333,4,2,1,90,0,1
180650,-71.4285714285714,4,2,1,5,0,1
180723,-71.4285714285714,4,2,1,90,0,1
180944,-71.4285714285714,4,2,1,5,0,1
181017,-83.3333333333333,4,2,1,90,0,1
181753,-71.4285714285714,4,2,1,90,0,1
182047,-83.3333333333333,4,2,1,90,0,1
183003,-71.4285714285714,4,2,1,5,0,1
183076,-71.4285714285714,4,2,1,90,0,1
183297,-71.4285714285714,4,2,1,5,0,1
183370,-83.3333333333333,4,2,1,90,0,1
184106,-71.4285714285714,4,2,1,90,0,1
184400,-83.3333333333333,4,2,1,90,0,1
185429,-71.4285714285714,4,2,1,90,0,1
185650,-71.4285714285714,4,2,1,5,0,1
185723,-83.3333333333333,4,2,1,90,0,1
186458,-71.4285714285714,4,2,1,90,0,1
186752,-83.3333333333333,4,2,1,90,0,1
187782,-71.4285714285714,4,2,1,90,0,1
188076,-83.3333333333333,4,2,1,90,0,1
188811,-71.4285714285714,4,2,1,90,0,1
189105,-83.3333333333333,4,2,1,90,0,1
190135,-71.4285714285714,4,2,1,90,0,1
190356,-71.4285714285714,4,2,1,5,0,1
190429,-83.3333333333333,4,2,1,90,0,1
191164,-71.4285714285714,4,2,1,90,0,1
191458,-83.3333333333333,4,2,1,90,0,1
192488,-71.4285714285714,4,2,1,90,0,1
192708,-71.4285714285714,4,2,1,5,0,1
192782,-83.3333333333333,4,2,1,90,0,1
193517,-71.4285714285714,4,2,1,90,0,1
193811,-83.3333333333333,4,2,1,90,0,1
194841,-71.4285714285714,4,2,1,90,0,1
195061,-71.4285714285714,4,2,1,5,0,1
195135,-83.3333333333333,4,2,1,90,0,1
195723,-71.4285714285714,4,2,1,90,0,1
196017,-83.3333333333333,4,2,1,90,0,1
197194,-71.4285714285714,4,2,1,90,0,1
197488,-83.3333333333333,4,2,1,90,0,1
198223,-71.4285714285714,4,2,1,90,0,1
198517,-83.3333333333333,4,2,1,90,0,1
199547,-71.4285714285714,4,2,1,90,0,1
199767,-71.4285714285714,4,2,1,5,0,1
199841,-83.3333333333333,4,2,1,90,0,1
200576,-71.4285714285714,4,2,1,90,0,1
200870,-83.3333333333333,4,2,1,90,0,1
201900,-100,4,2,1,90,0,0
204253,-100,4,2,1,80,0,0
204473,-100,4,2,1,5,0,0
204547,-100,4,2,1,80,0,0
211532,-100,4,2,1,5,0,0
211606,-100,4,2,1,80,0,0
213664,-133.333333333333,4,2,1,75,0,0
217782,-133.333333333333,4,2,1,80,0,0
218370,-181.818181818181,4,2,1,85,0,0
219253,-181.818181818181,4,2,1,65,0,0
220723,-181.818181818181,4,2,1,75,0,0
221900,-181.818181818181,4,2,1,85,0,0
223003,-181.818181818181,4,2,1,5,0,0
223076,-71.4285714285714,4,2,1,90,0,1
223370,-83.3333333333333,4,2,1,90,0,1
224106,-71.4285714285714,4,2,1,90,0,1
224400,-83.3333333333333,4,2,1,90,0,1
225429,-71.4285714285714,4,2,1,90,0,1
225650,-71.4285714285714,4,2,1,5,0,1
225723,-83.3333333333333,4,2,1,90,0,1
226458,-71.4285714285714,4,2,1,90,0,1
226752,-83.3333333333333,4,2,1,90,0,1
227120,-83.3333333333333,4,2,1,5,0,1
227194,-83.3333333333333,4,2,1,90,0,1
227782,-71.4285714285714,4,2,1,90,0,1
228076,-83.3333333333333,4,2,1,90,0,1
228811,-71.4285714285714,4,2,1,90,0,1
229105,-83.3333333333333,4,2,1,90,0,1
230135,-71.4285714285714,4,2,1,90,0,1
230356,-71.4285714285714,4,2,1,5,0,1
230429,-83.3333333333333,4,2,1,90,0,1
231164,-71.4285714285714,4,2,1,90,0,1
231458,-83.3333333333333,4,2,1,90,0,1
232488,-71.4285714285714,4,2,1,90,0,1
232708,-71.4285714285714,4,2,1,5,0,1
232782,-83.3333333333333,4,2,1,90,0,1
233517,-71.4285714285714,4,2,1,90,0,1
233811,-83.3333333333333,4,2,1,90,0,1
234841,-71.4285714285714,4,2,1,90,0,1
235061,-71.4285714285714,4,2,1,5,0,1
235135,-83.3333333333333,4,2,1,90,0,1
235870,-71.4285714285714,4,2,1,90,0,1
236164,-83.3333333333333,4,2,1,90,0,1
237194,-71.4285714285714,4,2,1,90,0,1
237488,-83.3333333333333,4,2,1,90,0,1
239547,-71.4285714285714,4,2,1,90,0,1
239767,-71.4285714285714,4,2,1,5,0,1
239841,-83.3333333333333,4,2,1,90,0,1
240576,-71.4285714285714,4,2,1,90,0,1
240870,-83.3333333333333,4,2,1,90,0,1
241311,377.358490566037,4,2,1,90,1,1
241311,-133.333333333333,4,2,1,90,0,0
242075,333.333333333333,4,2,1,50,1,0
262061,294.117647058823,4,2,1,75,1,0
262061,-133.333333333333,4,2,1,75,0,0
262649,-133.333333333333,4,2,1,85,0,0
263237,-71.4285714285714,4,2,1,90,0,1
263458,-71.4285714285714,4,2,1,5,0,1
263531,-83.3333333333333,4,2,1,90,0,1
264266,-71.4285714285714,4,2,1,90,0,1
264560,-83.3333333333333,4,2,1,90,0,1
265590,-71.4285714285714,4,2,1,90,0,1
265811,-71.4285714285714,4,2,1,5,0,1
265884,-83.3333333333333,4,2,1,90,0,1
266619,-71.4285714285714,4,2,1,90,0,1
266913,-83.3333333333333,4,2,1,90,0,1
267869,-71.4285714285714,4,2,1,5,0,1
267943,-71.4285714285714,4,2,1,90,0,1
268163,-71.4285714285714,4,2,1,5,0,1
268237,-83.3333333333333,4,2,1,90,0,1
268972,-71.4285714285714,4,2,1,90,0,1
269266,-83.3333333333333,4,2,1,90,0,1
270222,-71.4285714285714,4,2,1,5,0,1
270296,-71.4285714285714,4,2,1,90,0,1
270516,-71.4285714285714,4,2,1,5,0,1
270590,-83.3333333333333,4,2,1,90,0,1
271325,-71.4285714285714,4,2,1,90,0,1
271619,-83.3333333333333,4,2,1,90,0,1
272649,-71.4285714285714,4,2,1,90,0,1
272869,-71.4285714285714,4,2,1,5,0,1
272943,-83.3333333333333,4,2,1,90,0,1
273678,-71.4285714285714,4,2,1,90,0,1
273972,-83.3333333333333,4,2,1,90,0,1
275002,-71.4285714285714,4,2,1,90,0,1
275296,-83.3333333333333,4,2,1,90,0,1
276031,-71.4285714285714,4,2,1,90,0,1
276325,-83.3333333333333,4,2,1,90,0,1
277355,-71.4285714285714,4,2,1,90,0,1
277575,-71.4285714285714,4,2,1,5,0,1
277649,-83.3333333333333,4,2,1,90,0,1
278384,-71.4285714285714,4,2,1,90,0,1
278678,-83.3333333333333,4,2,1,90,0,1
279708,-71.4285714285714,4,2,1,90,0,1
279928,-71.4285714285714,4,2,1,5,0,1
280002,-83.3333333333333,4,2,1,90,0,1
280737,-71.4285714285714,4,2,1,90,0,1
281031,-83.3333333333333,4,2,1,90,0,1
282060,-71.4285714285714,4,2,1,90,0,1
282281,-71.4285714285714,4,2,1,5,0,1
282354,-83.3333333333333,4,2,1,90,0,1
283090,-71.4285714285714,4,2,1,90,0,1
283384,-83.3333333333333,4,2,1,90,0,1
284413,-71.4285714285714,4,2,1,90,0,1
284707,-83.3333333333333,4,2,1,90,0,1
285443,-71.4285714285714,4,2,1,90,0,1
285737,-83.3333333333333,4,2,1,90,0,1
286766,-71.4285714285714,4,2,1,90,0,1
286987,-71.4285714285714,4,2,1,5,0,1
287060,-83.3333333333333,4,2,1,90,0,1
287796,-71.4285714285714,4,2,1,90,0,1
288090,-83.3333333333333,4,2,1,90,0,1
288237,-71.4285714285714,4,2,1,90,0,1
288458,-71.4285714285714,4,2,1,5,0,1
288531,-83.3333333333333,4,2,1,90,0,1
289046,-83.3333333333333,4,2,1,5,0,1
289119,-83.3333333333333,4,2,1,90,0,1
290149,-71.4285714285714,4,2,1,90,0,0
290443,-83.3333333333333,4,2,1,90,0,0
291766,-71.4285714285714,4,2,1,90,0,1
292060,-83.3333333333333,4,2,1,90,0,1
292502,-71.4285714285714,4,2,1,90,0,1
292796,-83.3333333333333,4,2,1,90,0,1
293825,-71.4285714285714,4,2,1,90,0,1
294046,-71.4285714285714,4,2,1,5,0,1
294119,-83.3333333333333,4,2,1,90,0,1
294855,-71.4285714285714,4,2,1,90,0,1
295149,-83.3333333333333,4,2,1,90,0,1
296105,-71.4285714285714,4,2,1,5,0,1
296178,-71.4285714285714,4,2,1,90,0,1
296399,-71.4285714285714,4,2,1,5,0,1
296472,-83.3333333333333,4,2,1,90,0,1
297208,-71.4285714285714,4,2,1,90,0,1
297502,-83.3333333333333,4,2,1,90,0,1
298458,-71.4285714285714,4,2,1,5,0,1
298531,-71.4285714285714,4,2,1,90,0,1
298752,-71.4285714285714,4,2,1,5,0,1
298825,-83.3333333333333,4,2,1,90,0,1
299560,-71.4285714285714,4,2,1,90,0,1
299854,-83.3333333333333,4,2,1,90,0,1
300884,-71.4285714285714,4,2,1,90,0,1
301105,-71.4285714285714,4,2,1,5,0,1
301178,-83.3333333333333,4,2,1,90,0,1
301913,-71.4285714285714,4,2,1,90,0,1
302207,-83.3333333333333,4,2,1,90,0,1
303237,-71.4285714285714,4,2,1,90,0,1
303458,-71.4285714285714,4,2,1,5,0,1
303531,-83.3333333333333,4,2,1,90,0,1
304266,-71.4285714285714,4,2,1,90,0,1
304560,-83.3333333333333,4,2,1,90,0,1
305516,-71.4285714285714,4,2,1,5,0,1
305590,-71.4285714285714,4,2,1,90,0,1
305884,-83.3333333333333,4,2,1,90,0,1
306619,-83.3333333333333,4,2,1,85,0,0
309781,-83.3333333333333,4,2,1,5,0,0
309855,-83.3333333333333,4,2,1,85,0,0
310296,-100,4,2,1,85,0,0
319413,-100,4,2,1,95,0,0
319634,-100,4,2,1,85,0,0
320884,-100,4,2,1,75,0,0
322060,-100,4,2,1,65,0,0
323237,-100,4,2,1,55,0,0
324413,-100,4,2,1,45,0,0
325590,-100,4,2,1,35,0,0
326766,-100,4,2,1,25,0,0
327943,-100,4,2,1,15,0,0
329119,-100,4,2,1,5,0,0

[Colours]
Combo1 : 255,172,132
Combo2 : 255,176,216
Combo3 : 255,0,0
Combo4 : 192,192,192

[HitObjects]
48,57,28959,6,0,L|207:25,2,142.500005435944,2|2|2,0:0|0:0|0:0,0:0:0:0:
155,221,29694,5,2,0:0:0:0:
232,171,29841,1,2,0:0:0:0:
230,333,29988,1,2,0:0:0:0:
175,115,30135,6,0,B|196:186|276:184|276:184|288:156|323:130,1,185.249991519928,14|0,0:1|0:0,0:0:0:0:
350,108,30429,2,0,B|333:56|333:56|355:2,1,104.500003189087,8|0,0:0|0:0,0:0:0:0:
421,203,30723,1,10,0:1:0:0:
500,21,30870,2,0,B|517:73|517:73|495:127,1,104.500003189087,10|8,0:1|0:0,0:0:0:0:
400,343,31164,6,8,B|441:369|441:369|485:296|485:296|417:198,1,246.999988693238,14|8,0:1|0:1,0:1:0:0:
148,279,31606,2,0,L|266:342,1,104.500003189087,10|0,0:0|0:0,0:0:0:0:
98,119,31900,2,8,L|-20:182,1,104.500003189087,10|8,0:1|0:1,0:1:0:0:
165,14,32194,2,0,B|155:88|219:129|219:129|260:118,1,156.750004783631,10|0,0:0|0:0,0:0:0:0:
297,68,32488,6,0,B|389:42|466:95|466:95|505:34,2,246.999988693238,14|8|8,0:1|0:0|0:1,0:0:0:0:
165,14,33223,5,10,0:1:0:0:
79,223,33370,1,10,0:0:0:0:
297,68,33517,2,8,B|343:43|343:43|439:110|424:217,1,246.999988693238,14|8,0:1|0:1,0:1:0:0:
279,362,33959,6,0,B|266:299|305:236|305:236|337:253,1,156.750004783631,10|0,0:0|0:0,0:0:0:0:
362,280,34253,2,8,P|365:338|395:379,1,104.500003189087,10|8,0:1|0:1,0:1:0:0:
191,210,34547,2,0,B|133:190|85:214|85:214|50:151,1,156.750004783631,10|0,0:0|0:0,0:0:0:0:
34,82,34841,6,4,B|89:7|213:47|213:47|187:110,1,246.999988693238,14|8,0:1|0:0,0:0:0:0:
479,133,35282,2,0,L|432:17,1,104.500003189087,2|8,0:0|0:1,0:0:0:0:
191,210,35576,5,10,0:1:0:0:
303,146,35723,1,10,0:0:0:0:
177,342,35870,2,8,B|150:377|150:377|32:331|39:197,1,246.999988693238,14|8,0:1|0:1,0:1:0:0:
308,268,36311,6,0,P|308:319|343:371,1,104.500003189087,10|0,0:0|0:0,0:0:0:0:
303,146,36606,2,8,P|258:120|196:124,1,104.500003189087,10|8,0:1|0:1,0:1:0:0:
409,204,36900,2,0,P|453:178|480:122,1,104.500003189087,10|0,0:0|0:0,0:0:0:0:
178,6,37194,6,8,B|153:99|256:169|256:169|315:139,1,246.999988693238,14|8,0:1|0:0,0:0:0:0:
302,145,37635,1,0,0:0:0:0:
11,202,37782,2,8,B|54:198|54:198|74:211|74:211|151:206,1,123.499994346619,12|10,0:1|0:1,0:1:0:0:
178,6,38076,1,10,0:0:0:0:
409,204,38223,6,8,P|405:288|257:289,1,246.999988693238,14|8,0:1|0:1,0:1:0:0:
435,116,38664,2,0,B|472:120|472:120|491:33|405:13,1,156.750004783631,8|0,0:0|0:0,0:0:0:0:
345,41,38959,5,12,0:1:0:0:
409,204,39106,1,8,0:1:0:0:
178,6,39253,5,8,0:0:0:0:
127,18,39326,1,8,0:0:0:0:
84,47,39400,1,8,0:0:0:0:
52,88,39473,1,8,0:0:0:0:
37,137,39547,6,0,B|19:228|99:288|99:288|46:347,1,246.999988693238,14|8,0:1|0:0,0:0:0:0:
201,205,39988,2,0,P|212:257|250:300,1,104.500003189087,2|8,0:0|0:1,0:0:0:0:
345,41,40282,5,10,0:1:0:0:
267,1,40429,1,10,0:0:0:0:
409,204,40576,2,8,B|455:222|455:222|490:126|490:126|442:37,1,246.999988693238,14|8,0:1|0:1,0:1:0:0:
397,338,41017,6,0,P|469:318|504:312,1,104.500003189087,8|0,0:0|0:0,0:0:0:0:
314,376,41311,1,8,0:1:0:0:
314,376,41459,1,8,0:1:0:0:
409,204,41606,2,0,P|481:184|516:178,1,104.500003189087,8|0,0:0|0:0,0:0:0:0:
261,69,41900,6,8,B|114:15|170:122|14:69,1,246.999988693238,14|8,0:1|0:0,0:0:0:0:
239,248,42341,2,0,L|198:138,1,104.500003189087,2|8,0:0|0:1,0:0:0:0:
409,204,42635,5,10,0:1:0:0:
314,376,42782,1,10,0:0:0:0:
138,288,42929,2,8,B|217:275|217:275|254:298|254:298|383:276,1,246.999988693238,14|8,0:1|0:1,0:1:0:0:
70,371,43370,6,0,P|21:344|19:291,1,104.500003189087,10|0,0:0|0:0,0:0:0:0:
63,59,43664,2,8,P|110:30|157:54,1,104.500003189087,10|8,0:1|0:1,0:1:0:0:
274,165,43959,2,0,P|275:220|230:249,1,104.500003189087,10|0,0:0|0:0,0:0:0:0:
352,31,44253,6,8,B|398:10|398:10|439:50|439:50|482:68|482:68|495:171,1,246.999988693238,14|8,0:1|0:0,0:0:0:0:
265,371,44694,2,0,B|345:357|345:357|372:302|372:302|485:284,1,246.999988693238,2|8,0:0|0:1,0:0:0:0:
443,379,45135,5,10,0:0:0:0:
162,222,45282,2,8,B|191:188|191:188|188:55|72:24,1,246.999988693238,14|8,0:1|0:1,0:1:0:0:
45,148,45723,5,10,0:0:0:0:
352,31,45870,2,0,P|418:23|456:-16,1,104.500003189087,2|8,0:0|0:1,0:0:0:0:
270,0,46164,1,10,0:1:0:0:
419,112,46311,2,0,P|485:120|523:159,1,104.500003189087,8|0,0:0|0:0,0:0:0:0:
317,357,46606,6,0,B|295:275|375:226|375:226|421:237,1,185.249991519928,14|0,0:1|0:0,0:0:0:0:
434,226,46900,2,0,L|493:317,1,104.500003189087,8|0,0:0|0:0,0:0:0:0:
185,352,47194,5,10,0:1:0:0:
434,226,47341,1,8,0:1:0:0:
317,357,47488,1,8,0:0:0:0:
270,0,47635,6,0,B|327:99|241:175|241:175|170:166,1,246.999988693238,14|8,0:1|0:1,0:0:0:0:
13,260,48076,2,0,B|25:229|25:229|19:202|19:202|37:147,1,104.500003189087,8|8,0:0|0:0,0:0:0:0:
53,146,48297,1,8,0:0:0:0:
53,146,48370,1,8,0:0:0:0:
145,246,48517,5,8,0:3:0:0:
270,0,48664,1,4,0:3:0:0:
294,145,48811,1,4,0:3:0:0:
122,77,48959,1,14,0:1:0:0:
256,192,49032,12,0,50576,0:0:0:0:
294,145,50723,5,8,0:0:0:0:
420,92,50870,1,8,0:1:0:0:
294,145,51311,6,0,P|309:206|383:234,1,123.499994346619,14|0,0:1|0:0,0:0:0:0:
185,352,51900,2,0,P|236:321|249:262,1,123.499994346619,8|0,0:0|0:0,0:0:0:0:
170,137,52341,6,0,L|194:66,1,61.7499971733095,10|0,0:1|0:0,0:0:0:0:
107,30,52635,1,8,0:0:0:0:
146,145,52782,2,0,L|166:87,1,61.7499971733095,8|0,0:1|0:0,0:0:0:0:
37,103,53076,2,0,P|44:164|62:224,1,123.499994346619,8|0,0:0|0:1,0:0:0:0:
288,148,53664,6,0,P|305:88|312:27,1,123.499994346619,10|0,0:1|0:0,0:0:0:0:
472,328,54253,2,0,P|489:268|496:207,1,123.499994346619,8|0,0:0|0:0,0:0:0:0:
401,120,54694,6,0,P|435:111|471:98,1,61.7499971733095,10|0,0:1|0:0,0:0:0:0:
480,14,54988,1,8,0:0:0:0:
451,128,55135,2,0,P|422:139|392:144,1,61.7499971733095,8|0,0:1|0:0,0:0:0:0:
356,250,55429,2,0,P|325:195|287:147,1,123.499994346619,8|0,0:0|0:0,0:0:0:0:
139,371,56017,6,0,L|9:336,1,123.499994346619,10|0,0:1|0:0,0:0:0:0:
164,216,56606,2,0,L|294:181,1,123.499994346619,8|0,0:0|0:0,0:0:0:0:
181,108,57047,6,0,P|167:75|188:48,1,61.7499971733095,10|0,0:1|0:0,0:0:0:0:
261,0,57341,1,8,0:0:0:0:
276,71,57488,2,0,P|261:44|273:17,1,61.7499971733095,8|0,0:1|0:0,0:0:0:0:
178,54,57782,2,8,P|178:85|100:84,1,123.499994346619,8|0,0:0|0:0,0:0:0:0:
283,183,58370,6,0,P|283:214|361:213,1,123.499994346619,10|0,0:1|0:0,0:0:0:0:
512,62,58958,2,0,P|457:76|437:24,1,123.499994346619,8|0,0:0|0:0,0:0:0:0:
453,163,59400,6,0,P|435:214|461:285,1,123.499994346619,10|8,0:1|0:0,0:0:0:0:
455,278,59988,5,8,0:0:0:0:
455,278,60061,1,8,0:0:0:0:
455,278,60135,1,8,0:0:0:0:
283,183,60282,1,8,0:3:0:0:
453,163,60429,1,4,0:3:0:0:
283,183,60723,6,0,P|234:164|152:138,1,123.499994346619,14|0,0:1|0:0,0:0:0:0:
166,142,61164,1,2,0:0:0:0:
234,255,61311,2,0,P|283:236|365:210,1,123.499994346619,8|0,0:0|0:0,0:0:0:0:
299,318,61753,2,0,L|275:380,1,61.7499971733095,10|0,0:1|0:0,0:0:0:0:
276,375,62047,5,8,0:0:0:0:
234,255,62194,1,8,0:1:0:0:
152,362,62488,1,8,0:0:0:0:
358,268,62782,1,0,0:0:0:0:
166,142,63076,6,0,P|132:175|41:159,1,123.499994346619,10|0,0:1|0:0,0:0:0:0:
248,15,63664,2,0,P|282:48|373:32,1,123.499994346619,8|0,0:0|0:0,0:0:0:0:
306,178,64106,2,0,P|345:175|383:176,1,61.7499971733095,10|0,0:1|0:0,0:0:0:0:
367,175,64400,5,8,0:0:0:0:
354,46,64547,1,8,0:1:0:0:
367,175,64841,6,0,B|406:206|408:258|408:258|387:296,1,123.499994346619,10|8,0:0|0:1,0:0:0:0:
394,282,65282,1,0,0:0:0:0:
455,368,65429,6,0,P|483:356|494:260,1,123.499994346619,10|0,0:1|0:0,0:0:0:0:
196,379,66017,2,0,P|168:367|157:271,1,123.499994346619,8|0,0:0|0:0,0:0:0:0:
18,314,66458,2,0,L|42:376,1,61.7499971733095,10|0,0:1|0:0,0:0:0:0:
40,371,66753,5,8,0:0:0:0:
156,192,66900,1,8,0:1:0:0:
0,184,67194,1,8,0:0:0:0:
196,379,67488,1,0,0:0:0:0:
394,133,67782,6,0,B|340:133|330:72|330:72|361:55,1,123.499994346619,10|0,0:1|0:0,0:0:0:0:
452,0,68223,2,0,P|467:48|487:132,1,123.499994346619,10|0,0:1|0:0,0:0:0:0:
353,60,68664,6,0,B|279:36|224:79|224:79|167:32,1,190,14|0,0:0|0:0,0:0:0:0:
2,12,69106,1,8,0:0:0:0:
2,12,69179,1,8,0:0:0:0:
2,12,69253,1,8,0:0:0:0:
182,44,69400,5,8,0:0:0:0:
73,231,69547,1,8,0:0:0:0:
103,0,69694,1,8,0:0:0:0:
148,283,69841,6,0,B|141:329|187:342|187:342|210:317,1,106.875004076958,10|0,0:3|0:0,0:0:0:0:
276,273,70135,6,0,B|370:250|321:299|424:280,1,142.5,14|0,0:1|0:0,0:0:0:0:
453,293,70429,2,0,P|471:242|475:194,1,95,8|0,0:0|0:0,0:0:0:0:
432,9,70723,5,10,0:1:0:0:
487,86,70870,1,8,0:1:0:0:
370,137,71017,1,10,0:0:0:0:
255,96,71164,6,8,B|195:83|195:83|146:108|146:108|61:84,1,190,10|8,0:1|0:1,0:1:0:0:
15,227,71606,2,0,L|52:325,1,95,10|0,0:0|0:0,0:0:0:0:
242,361,71900,2,8,L|275:272,1,95,10|8,0:1|0:1,0:1:0:0:
388,8,72194,2,0,P|385:59|449:125,1,142.5,10|0,0:0|0:0,0:0:0:0:
477,200,72488,6,0,B|492:247|492:247|470:315|470:315|395:280,2,190,14|8|8,0:1|0:0|0:1,0:0:0:0:
275,272,73223,2,0,P|274:319|307:363,1,95,10|8,0:1|0:0,0:0:0:0:
174,209,73517,6,8,B|83:227|83:227|-4:158,1,190,10|8,0:1|0:1,0:1:0:0:
52,24,73958,2,0,P|99:52|143:62,1,95,10|0,0:0|0:0,0:0:0:0:
174,209,74253,2,8,P|127:237|83:247,1,95,10|8,0:1|0:1,0:1:0:0:
232,33,74547,2,0,B|220:100|277:131|277:131|311:116,1,142.5,10|0,0:0|0:0,0:0:0:0:
361,63,74841,6,0,B|397:40|397:40|481:80|466:162,1,190,12|10,0:1|0:0,0:0:0:0:
466,156,75282,1,0,0:0:0:0:
417,368,75429,2,8,L|512:320,1,95,10|8,0:1|0:1,0:1:0:0:
466,156,75723,5,10,0:0:0:0:
501,325,75870,2,8,B|434:311|387:345|387:345|335:290,1,190,10|8,0:1|0:1,0:1:0:0:
169,368,76311,2,0,P|219:344|225:305,1,95,10|0,0:0|0:0,0:0:0:0:
7,346,76606,2,8,P|57:322|63:283,1,95,10|8,0:1|0:1,0:1:0:0:
50,52,76900,2,0,B|27:100|53:158|53:158|95:175,1,142.5,10|0,0:0|0:0,0:0:0:0:
161,128,77194,6,8,B|232:120|232:120|261:148|261:148|351:137,2,190,14|8|8,0:1|0:0|0:1,0:0:0:0:
296,57,77929,2,0,P|348:42|388:13,1,95,10|8,0:1|0:0,0:0:0:0:
445,255,78223,6,8,B|475:232|475:232|487:143|419:95,1,190,10|8,0:1|0:1,0:1:0:0:
342,293,78664,2,0,L|385:379,1,95,10|0,0:0|0:0,0:0:0:0:
192,247,78958,2,8,L|149:333,1,95,10|8,0:1|0:1,0:1:0:0:
408,376,79253,2,0,L|365:291,1,95,10|0,0:0|0:0,0:0:0:0:
192,247,79547,6,0,B|154:292|174:349|174:349|222:378,1,142.5,12|0,0:1|0:0,0:0:0:0:
237,351,79841,1,10,0:0:0:0:
70,264,79988,1,2,0:0:0:0:
121,135,80135,2,8,P|118:87|121:28,1,95,10|8,0:1|0:1,0:1:0:0:
29,142,80429,5,10,0:0:0:0:
209,50,80576,2,0,B|256:39|256:39|317:79|399:76,1,190,10|0,0:1|0:0,0:0:0:0:
451,0,81017,2,0,P|490:71|429:169,1,190,8|10,0:0|0:1,0:0:0:0:
444,161,81458,1,8,0:1:0:0:
423,355,81606,2,0,B|451:366|451:366|476:323|476:323|439:258,1,142.5,10|0,0:0|0:0,0:0:0:0:
359,272,81900,6,0,B|349:346|257:365|257:365|195:309,2,190,14|8|8,0:1|0:0|0:1,0:0:0:0:
266,182,82635,2,0,L|207:102,1,95,10|8,0:1|0:0,0:0:0:0:
22,352,82929,6,8,B|84:334|84:334|107:287|107:287|192:266,1,190,10|8,0:1|0:1,0:1:0:0:
49,181,83370,2,0,P|39:232|15:274,1,95,10|0,0:0|0:0,0:0:0:0:
50,10,83664,2,8,P|40:61|16:103,1,95,10|8,0:1|0:1,0:1:0:0:
266,182,83958,2,0,B|326:170|367:192|367:192|389:152,1,142.5,10|0,0:0|0:0,0:0:0:0:
347,78,84253,6,8,P|290:73|232:-2,3,142.500005435944,14|10|10|10,0:1|0:1|0:1|0:1,0:1:0:0:
50,10,85282,6,0,B|21:28|21:28|-5:121|72:183,1,190,14|8,0:0|0:1,0:0:0:0:
266,182,85723,2,0,P|212:171|158:157,1,95,14|0,0:0|0:0,0:0:0:0:
235,12,86017,2,0,P|181:23|127:37,1,95,14|0,0:0|0:0,0:0:0:0:
457,25,86311,2,0,B|390:40|386:108|386:108|410:144,1,142.5,14|0,0:0|0:0,0:0:0:0:
449,205,86606,6,8,P|471:250|479:355,2,142.500005435944,14|10|10,0:1|0:1|0:0,0:1:0:0:
304,300,87341,2,0,L|323:399,1,71.2500027179719,10|8,0:1|0:0,0:0:0:0:
121,203,87635,6,0,L|90:362,1,156.750004783631,14|0,0:1|0:0,0:0:0:0:
112,372,87929,2,0,L|141:218,1,156.750004783631,14|0,0:1|0:0,0:0:0:0:
162,234,88223,1,14,0:1:0:0:
143,1,88370,2,0,P|145:46|175:89,1,85.4999973907472,8|8,0:0|0:0,0:0:0:0:
270,115,88591,1,8,0:0:0:0:
317,93,88664,1,8,0:0:0:0:
368,96,88738,1,8,0:0:0:0:
413,122,88811,1,8,0:0:0:0:
441,165,88885,1,8,0:0:0:0:
448,216,88958,6,0,B|425:142|468:71|468:71|416:29,1,199.499993911743,14|0,0:1|0:0,0:0:0:0:
394,22,89253,2,0,P|329:48|259:60,1,113.999996520996,8|0,0:0|0:0,0:0:0:0:
47,60,89547,5,10,0:1:0:0:
162,234,89694,1,8,0:1:0:0:
143,1,89841,1,8,0:0:0:0:
11,166,89988,6,8,B|95:152|95:152|145:191|145:191|280:166,1,265.999991882324,14|8,0:1|0:1,0:1:0:0:
138,342,90429,2,0,L|28:295,1,113.999996520996,10|0,0:0|0:0,0:0:0:0:
3,379,90723,1,10,0:1:0:0:
299,282,90870,1,8,0:1:0:0:
299,282,90944,1,8,0:1:0:0:
299,282,91017,2,0,L|409:235,1,113.999996520996,10|0,0:0|0:0,0:0:0:0:
505,21,91311,6,0,B|522:105|437:140|437:140|369:115,1,199.499993911743,14|0,0:1|0:0,0:0:0:0:
351,104,91606,2,0,B|344:76|344:76|354:42|354:42|339:-6,1,113.999996520996,10|0,0:0|0:0,0:0:0:0:
224,17,91900,5,8,0:1:0:0:
299,282,92047,1,10,0:1:0:0:
351,104,92194,1,8,0:0:0:0:
154,142,92341,6,8,B|117:178|117:178|-5:139|8:4,1,265.999991882324,14|8,0:1|0:1,0:1:0:0:
151,271,92782,2,0,P|131:333|127:386,1,113.999996520996,8|0,0:0|0:0,0:0:0:0:
279,177,93076,5,10,0:1:0:0:
428,336,93223,1,8,0:1:0:0:
258,201,93370,2,0,B|369:175|315:225|431:205,1,170.999994781494,10|0,0:0|0:0,0:0:0:0:
493,137,93664,6,0,B|536:58|466:5|466:5|401:15,1,199.499993911743,14|0,0:1|0:0,0:0:0:0:
391,33,93958,2,0,B|336:50|336:50|271:25,1,113.999996520996,10|0,0:0|0:0,0:0:0:0:
142,214,94253,1,10,0:1:0:0:
258,201,94400,2,8,B|203:218|203:218|138:193,1,113.999996520996,10|8,0:1|0:0,0:1:0:0:
0,8,94694,6,8,B|-7:73|-7:73|63:145|63:145|149:46,1,265.999991882324,14|8,0:1|0:1,0:1:0:0:
21,353,95135,2,0,P|34:291|60:232,1,113.999996520996,10|0,0:0|0:0,0:0:0:0:
388,260,95429,2,8,P|409:312|420:368,1,113.999996520996,10|8,0:1|0:1,0:1:0:0:
444,361,95650,1,8,0:1:0:0:
468,349,95723,2,0,B|492:329|492:329|520:249|459:197,1,170.999994781494,10|0,0:0|0:0,0:0:0:0:
437,107,96017,6,0,B|310:77|405:24|256:10,1,199.499993911743,14|0,0:1|0:0,0:0:0:0:
235,47,96311,2,0,L|267:170,1,113.999996520996,10|0,0:0|0:0,0:0:0:0:
79,86,96606,5,10,0:1:0:0:
253,258,96753,1,8,0:1:0:0:
263,157,96900,1,10,0:0:0:0:
367,252,97047,6,8,B|406:286|406:286|473:223|473:223|432:91,1,265.999991882324,14|8,0:1|0:1,0:1:0:0:
370,35,97488,1,8,0:0:0:0:
176,202,97635,5,8,0:0:0:0:
165,228,97708,1,8,0:0:0:0:
163,256,97782,1,8,0:0:0:0:
168,284,97855,1,8,0:0:0:0:
180,310,97929,1,8,0:0:0:0:
198,331,98002,1,8,0:0:0:0:
219,342,98076,5,10,0:0:0:0:
171,371,98149,1,8,0:0:0:0:
115,366,98223,1,8,0:0:0:0:
74,329,98296,1,8,0:0:0:0:
63,275,98370,6,0,B|81:223|81:223|57:145|57:145|87:66,1,199.499993911743,14|0,0:1|0:0,0:0:0:0:
121,73,98664,2,0,P|130:138|154:200,1,113.999996520996,10|0,0:0|0:0,0:0:0:0:
474,105,98958,2,8,P|491:158|498:215,1,113.999996520996,10|8,0:1|0:1,0:1:0:0:
512,304,99253,5,10,0:0:0:0:
399,86,99400,2,8,B|225:69|349:0|143:-1,1,265.999991882324,14|8,0:1|0:1,0:1:0:0:
259,323,99841,2,0,B|318:310|318:310|376:321,1,113.999996520996,8|0,0:0|0:0,0:0:0:0:
85,252,100135,5,10,0:1:0:0:
161,362,100282,1,8,0:1:0:0:
70,280,100429,2,0,L|26:162,1,113.999996520996,10|0,0:0|0:0,0:0:0:0:
259,8,100723,6,0,B|273:156|144:102|177:258,2,265.999991882324,14|8|8,0:1|0:0|0:1,0:0:0:0:
321,173,101458,2,0,P|379:171|430:115,1,113.999996520996,10|8,0:1|0:0,0:0:0:0:
512,375,101753,6,0,B|423:352|423:352|388:291|388:291|279:260,1,265.999991882324,14|8,0:1|0:1,0:0:0:0:
24,250,102194,2,0,L|69:359,1,113.999996520996,10|0,0:0|0:0,0:0:0:0:
2,158,102488,5,10,0:1:0:0:
109,197,102635,1,8,0:1:0:0:
87,105,102782,2,0,L|43:0,1,113.999996520996,10|0,0:0|0:0,0:0:0:0:
274,123,103076,6,0,B|354:141|411:86|411:86|460:115,1,199.499993911743,14|0,0:1|0:0,0:0:0:0:
487,124,103370,2,0,B|500:69|500:69|471:11,1,113.999996520996,10|0,0:0|0:0,0:0:0:0:
274,123,103664,5,10,0:1:0:0:
186,333,103811,1,8,0:1:0:0:
87,105,103958,1,10,0:0:0:0:
330,247,104106,6,8,B|360:197|360:197|446:266|446:266|407:371,1,265.999991882324,14|8,0:1|0:1,0:1:0:0:
274,346,104547,2,0,P|214:320|172:286,1,113.999996520996,8|0,0:0|0:0,0:0:0:0:
406,112,104841,6,8,P|466:86|508:52,1,113.999996520996,10|8,0:1|0:1,0:1:0:0:
309,0,105135,2,0,P|249:26|207:60,1,113.999996520996,10|0,0:0|0:0,0:0:0:0:
439,271,105429,6,0,B|469:246|469:246|486:154|401:109,1,199.499993911743,14|0,0:1|0:0,0:0:0:0:
395,71,105723,2,0,B|437:71|437:71|455:82|455:82|505:80,1,113.999996520996,10|0,0:0|0:0,0:0:0:0:
211,55,106017,5,10,0:1:0:0:
180,269,106164,1,10,0:1:0:0:
13,124,106311,1,8,0:0:0:0:
130,144,106458,6,8,B|73:118|73:118|-52:186|27:318,1,265.999991882324,14|8,0:1|0:1,0:1:0:0:
91,351,106900,5,14,0:0:0:0:
211,55,107047,1,8,0:1:0:0:
130,144,107194,5,14,0:0:0:0:
290,367,107341,1,8,0:1:0:0:
439,271,107488,5,10,0:0:0:0:
416,231,107561,1,8,0:0:0:0:
409,186,107635,1,8,0:0:0:0:
417,142,107708,1,8,0:0:0:0:
441,104,107782,6,8,B|499:169|506:259|506:259|481:296,1,199.499993911743,14|0,0:1|0:0,0:0:0:0:
473,322,108076,2,0,P|408:319|355:326,1,113.999996520996,10|0,0:0|0:0,0:0:0:0:
215,111,108370,2,8,P|150:108|97:115,1,113.999996520996,10|8,0:1|0:1,0:1:0:0:
51,44,108664,5,10,0:0:0:0:
236,227,108811,2,8,B|281:251|281:251|375:173|314:46,1,265.999991882324,14|8,0:1|0:1,0:1:0:0:
140,269,109253,2,0,P|149:332|178:384,1,113.999996520996,8|0,0:0|0:0,0:0:0:0:
461,235,109547,5,10,0:1:0:0:
390,311,109694,1,8,0:1:0:0:
431,235,109841,2,0,P|456:184|462:127,1,113.999996520996,10|0,0:0|0:0,0:0:0:0:
204,31,110135,6,8,B|305:18|305:18|343:51|343:51|461:33,2,265.999991882324,14|8|8,0:1|0:0|0:1,0:0:0:0:
26,131,110870,2,0,L|60:10,1,113.999996520996,10|8,0:1|0:0,0:0:0:0:
13,236,111164,6,0,B|18:351|140:377|140:377|212:346,1,265.999991882324,14|8,0:1|0:1,0:0:0:0:
258,237,111606,2,0,P|201:228|146:200,1,113.999996520996,10|0,0:0|0:0,0:0:0:0:
464,316,111900,5,10,0:1:0:0:
505,163,112047,1,8,0:1:0:0:
405,216,112194,2,0,P|462:207|517:179,1,113.999996520996,10|0,0:0|0:0,0:0:0:0:
343,23,112488,6,0,P|346:96|237:112,1,199.499993911743,14|0,0:1|0:0,0:0:0:0:
198,111,112782,2,0,B|191:76|191:76|202:53|202:53|192:-4,1,113.999996520996,10|0,0:0|0:0,0:0:0:0:
41,136,113076,5,10,0:1:0:0:
198,111,113223,1,8,0:1:0:0:
20,26,113370,1,10,0:0:0:0:
220,219,113517,6,8,B|202:283|202:283|264:376|264:376|355:320,1,265.999991882324,14|8,0:1|0:1,0:1:0:0:
198,111,113958,5,10,0:0:0:0:
339,331,114106,1,8,0:1:0:0:
374,78,114253,1,10,0:0:0:0:
163,364,114400,1,8,0:1:0:0:
490,302,114547,5,14,0:0:0:0:
403,198,114694,1,8,0:0:0:0:
476,126,114841,2,0,P|489:92|472:57,1,71.2500027179719,12|0,0:1|0:0,0:0:0:0:
374,78,115135,2,0,P|387:44|370:9,1,71.2500027179719,8|0,0:1|0:0,0:0:0:0:
90,49,115429,5,14,0:0:0:0:
218,59,115576,1,8,0:1:0:0:
241,224,115723,1,8,0:1:0:0:
102,28,115870,6,0,B|32:6|32:6|10:162,1,227.999993041992,14|8,0:0|0:1,0:0:0:0:
173,371,116311,2,0,B|129:275|210:200|210:200|277:251,1,227.999993041992,14|8,0:0|0:0,0:0:0:0:
397,365,116753,6,8,L|379:311,1,42.7499986953736,10|8,0:0|0:0,0:0:0:0:
499,223,116900,2,8,L|517:169,1,42.7499986953736,10|8,0:3|0:3,0:3:0:0:
341,220,117047,2,8,L|323:166,1,42.7499986953736,10|8,0:3|0:3,0:0:0:0:
396,0,117194,6,0,B|389:63|453:114|453:114|414:149,1,185.249991519928,14|0,0:1|0:0,0:0:0:0:
424,193,117488,2,0,P|424:256|467:301,1,104.500003189087,8|0,0:0|0:0,0:0:0:0:
240,223,117782,1,10,0:1:0:0:
55,368,117929,2,0,P|81:324|78:272,1,104.500003189087,10|8,0:1|0:0,0:0:0:0:
28,24,118223,6,8,B|17:126|105:153|105:153|136:115|123:74,1,246.999988693238,14|8,0:1|0:1,0:1:0:0:
165,329,118664,2,0,L|50:255,1,104.500003189087,10|0,0:0|0:0,0:0:0:0:
351,312,118958,2,8,L|438:368,1,104.500003189087,10|8,0:1|0:1,0:1:0:0:
430,191,119253,2,0,B|458:153|458:153|447:86|391:60,1,156.750004783631,10|0,0:0|0:0,0:0:0:0:
326,113,119547,6,0,B|241:82|153:136|153:136|110:51,2,246.999988693238,14|8|8,0:1|0:0|0:1,0:0:0:0:
258,19,120282,5,10,0:1:0:0:
430,191,120429,1,10,0:0:0:0:
123,77,120576,2,8,B|24:97|10:216|10:216|51:276,1,246.999988693238,14|8,0:1|0:1,0:1:0:0:
228,359,121017,6,0,B|217:311|217:311|243:244|243:244|284:270,1,156.750004783631,10|0,0:0|0:0,0:0:0:0:
311,305,121311,2,8,B|363:291|363:291|420:307,1,104.500003189087,10|8,0:1|0:1,0:1:0:0:
449,79,121606,2,0,P|460:157|385:135,1,156.750004783631,10|0,0:0|0:0,0:0:0:0:
360,82,121900,6,0,B|198:21|266:136|107:70,1,246.999988693238,14|8,0:1|0:0,0:0:0:0:
19,256,122341,2,0,P|39:314|47:370,1,104.500003189087,2|8,0:0|0:1,0:0:0:0:
197,160,122635,5,10,0:1:0:0:
122,76,122782,1,10,0:0:0:0:
311,305,122929,2,8,B|350:331|350:331|452:263|398:151,1,246.999988693238,14|8,0:1|0:1,0:1:0:0:
454,17,123370,6,0,L|491:129,1,104.500003189087,10|0,0:0|0:0,0:0:0:0:
197,160,123664,2,8,L|229:60,1,104.500003189087,10|8,0:1|0:1,0:1:0:0:
412,254,123958,2,0,L|449:366,1,104.500003189087,10|0,0:0|0:0,0:0:0:0:
197,160,124253,6,0,B|208:66|97:30|97:30|65:110,1,246.999988693238,14|8,0:1|0:0,0:0:0:0:
72,91,124694,1,0,0:0:0:0:
321,126,124841,2,8,B|325:88|325:88|311:57|311:57|318:-8,1,123.499994346619,8|10,0:1|0:1,0:1:0:0:
420,29,125135,1,10,0:0:0:0:
225,318,125282,6,8,B|138:298|138:298|85:343|85:343|-13:318,1,246.999988693238,14|8,0:1|0:1,0:1:0:0:
321,126,125723,2,0,L|376:363,1,209.000006378174,8|8,0:0|0:1,0:0:0:0:
203,173,126164,5,8,0:0:0:0:
215,122,126237,1,8,0:0:0:0:
203,72,126311,1,8,0:0:0:0:
170,32,126384,1,8,0:0:0:0:
122,12,126458,1,8,0:0:0:0:
70,16,126531,1,8,0:0:0:0:
29,44,126606,6,0,B|17:108|17:108|71:189|71:189|130:129,1,246.999988693238,14|8,0:1|0:0,0:0:0:0:
17,278,127047,2,0,P|13:343|41:378,1,104.500003189087,2|8,0:0|0:1,0:0:0:0:
297,215,127341,5,10,0:1:0:0:
130,128,127488,1,10,0:0:0:0:
302,242,127635,2,8,B|370:217|428:252|428:252|448:178|406:138,1,246.999988693238,14|8,0:1|0:1,0:1:0:0:
398,366,128076,6,0,L|510:339,1,104.500003189087,8|0,0:0|0:0,0:0:0:0:
308,84,128370,1,8,0:1:0:0:
308,84,128517,1,8,0:1:0:0:
231,152,128664,2,0,L|119:125,1,104.500003189087,8|0,0:0|0:0,0:0:0:0:
379,26,128958,6,0,B|422:13|422:13|524:94|495:214,1,246.999988693238,14|8,0:1|0:0,0:0:0:0:
398,366,129400,2,0,P|453:355|498:325,1,104.500003189087,2|8,0:0|0:1,0:0:0:0:
231,152,129694,5,10,0:1:0:0:
379,260,129841,1,10,0:0:0:0:
166,339,129988,2,8,B|106:287|2:322|2:322|48:238,1,246.999988693238,14|8,0:1|0:1,0:1:0:0:
45,18,130429,6,0,L|92:144,1,104.500003189087,10|0,0:0|0:0,0:0:0:0:
166,339,130723,2,8,L|251:235,1,104.500003189087,10|8,0:1|0:1,0:1:0:0:
334,169,131017,2,0,L|201:146,1,104.500003189087,10|0,0:0|0:0,0:0:0:0:
390,40,131311,6,8,B|425:17|425:17|496:66|496:66|488:197,1,246.999988693238,14|8,0:1|0:0,0:0:0:0:
370,304,131753,2,0,B|419:317|419:317|397:189|397:189|324:165,1,246.999988693238,2|8,0:0|0:1,0:0:0:0:
294,69,132194,5,10,0:0:0:0:
46,215,132341,2,8,P|31:289|185:320,1,246.999988693238,14|8,0:1|0:1,0:1:0:0:
370,304,132782,5,10,0:0:0:0:
148,102,132929,2,0,L|193:213,1,104.500003189087,2|8,0:0|0:1,0:0:0:0:
370,304,133223,1,10,0:1:0:0:
509,161,133370,2,0,L|464:272,1,104.500003189087,8|0,0:0|0:0,0:0:0:0:
294,69,133664,6,0,B|292:153|362:188|362:188|427:169,1,185.249991519928,14|0,0:1|0:0,0:0:0:0:
404,136,133958,2,0,B|419:86|419:86|397:29,1,104.500003189087,8|0,0:0|0:0,0:0:0:0:
154,30,134253,5,10,0:1:0:0:
247,225,134400,1,8,0:1:0:0:
294,69,134547,1,8,0:0:0:0:
106,186,134694,6,0,B|74:221|74:221|7:156|7:156|75:56,1,246.999988693238,14|8,0:1|0:1,0:0:0:0:
62,322,135135,2,0,B|114:302|114:302|216:314|216:314|189:380,1,209.000006378174,8|8,0:0|0:1,0:0:0:0:
294,69,135576,1,8,0:1:0:0:
404,136,135723,5,8,0:0:0:0:
390,185,135796,1,8,0:0:0:0:
414,229,135870,1,8,0:0:0:0:
463,244,135943,1,8,0:0:0:0:
508,221,136017,1,14,0:1:0:0:
256,192,136091,12,0,137635,0:0:0:0:
297,72,137782,5,8,0:0:0:0:
141,143,137929,1,8,0:1:0:0:
141,143,138370,6,0,P|136:81|190:19,1,123.499994346619,14|0,0:1|0:0,0:0:0:0:
193,238,138958,2,0,P|188:300|242:362,1,123.499994346619,8|0,0:0|0:0,0:0:0:0:
338,374,139400,6,0,L|399:353,1,61.7499971733095,10|0,0:1|0:0,0:0:0:0:
480,346,139694,1,8,0:0:0:0:
314,365,139841,2,0,L|375:344,1,61.7499971733095,8|0,0:1|0:0,0:0:0:0:
434,249,140135,2,0,P|373:243|322:276,1,123.499994346619,8|0,0:0|0:0,0:0:0:0:
440,33,140723,6,0,L|477:164,1,123.499994346619,10|0,0:1|0:0,0:0:0:0:
168,31,141311,2,0,L|131:162,1,123.499994346619,8|0,0:0|0:0,0:0:0:0:
242,89,141753,6,0,P|265:106|306:121,1,61.7499971733095,10|0,0:1|0:0,0:0:0:0:
349,32,142047,1,8,0:0:0:0:
304,140,142194,2,8,P|275:128|250:110,1,61.7499971733095,8|0,0:1|0:1,0:1:0:0:
134,149,142488,2,0,L|100:267,1,123.499994346619,8|0,0:0|0:0,0:0:0:0:
174,364,143076,6,0,P|211:355|309:341,1,123.499994346619,10|0,0:1|0:0,0:0:0:0:
134,149,143664,2,0,P|97:140|-1:126,1,123.499994346619,8|0,0:0|0:0,0:0:0:0:
89,0,144106,6,0,P|67:19|93:57,1,61.7499971733095,10|0,0:1|0:0,0:0:0:0:
160,67,144400,1,8,0:0:0:0:
192,1,144547,2,0,P|170:20|196:58,1,61.7499971733095,8|0,0:1|0:0,0:0:0:0:
300,59,144841,2,0,P|361:51|421:38,1,123.499994346619,8|0,0:0|0:0,0:0:0:0:
406,251,145429,6,0,P|452:256|462:183,1,123.499994346619,10|0,0:1|0:0,0:0:0:0:
173,363,146017,2,0,P|116:361|109:305,1,123.499994346619,8|0,0:0|0:0,0:0:0:0:
188,260,146458,6,0,P|219:251|260:224,1,61.7499971733095,10|0,0:1|0:0,0:0:0:0:
171,239,146753,2,0,P|202:230|243:203,1,61.7499971733095,8|0,0:0|0:1,0:0:0:0:
290,125,147047,2,8,L|246:-4,2,123.499994346619,8|8|0,0:0|0:0|0:0,0:0:0:0:
469,192,147782,6,0,P|499:155|492:61,1,123.499994346619,14|0,0:1|0:0,0:0:0:0:
502,81,148223,1,2,0:0:0:0:
383,200,148370,2,0,P|353:237|360:331,1,123.499994346619,8|0,0:0|0:0,0:0:0:0:
445,374,148811,2,0,L|455:302,1,61.7499971733095,10|0,0:1|0:0,0:0:0:0:
453,312,149106,5,8,0:0:0:0:
233,279,149253,1,8,0:1:0:0:
383,200,149547,1,8,0:0:0:0:
306,378,149841,1,0,0:0:0:0:
74,323,150135,6,0,B|51:309|51:309|36:249|88:231,1,123.499994346619,10|0,0:1|0:0,0:0:0:0:
24,22,150723,2,0,P|22:80|76:149,1,123.499994346619,8|0,0:0|0:0,0:0:0:0:
172,58,151164,2,0,P|127:62|96:53,1,61.7499971733095,10|0,0:1|0:0,0:0:0:0:
111,58,151458,5,8,0:0:0:0:
265,22,151606,1,8,0:1:0:0:
111,58,151900,6,0,B|161:66|161:66|188:84|188:84|232:93,1,123.499994346619,8|0,0:0|0:0,0:0:0:0:
227,92,152341,1,0,0:0:0:0:
312,177,152488,6,0,P|351:164|450:148,1,123.499994346619,10|0,0:1|0:0,0:0:0:0:
193,350,153076,2,0,P|134:331|73:322,1,123.499994346619,8|0,0:0|0:0,0:0:0:0:
110,191,153517,2,0,L|137:249,1,61.7499971733095,10|0,0:1|0:0,0:0:0:0:
136,246,153811,5,8,0:0:0:0:
55,76,153958,1,8,0:1:0:0:
13,210,154253,1,8,0:0:0:0:
179,114,154547,1,0,0:0:0:0:
326,249,154841,6,0,B|319:290|345:325|345:325|388:331,1,123.499994346619,10|0,0:1|0:0,0:0:0:0:
512,280,155282,2,0,B|441:260|490:240|399:219,1,123.499994346619,10|0,0:1|0:0,0:0:0:0:
421,48,155723,6,0,B|417:114|495:156|495:156|515:103,1,190,14|0,0:0|0:0,0:0:0:0:
279,23,156164,2,0,P|278:73|304:118,1,95,8|8,0:1|0:0,0:0:0:0:
321,118,156385,1,8,0:0:0:0:
321,118,156458,1,8,0:0:0:0:
99,84,156606,1,8,0:0:0:0:
279,23,156753,5,8,0:0:0:0:
68,183,156900,1,10,0:0:0:0:
364,211,157047,1,8,0:0:0:0:
153,371,157194,6,0,B|125:310|189:271|189:271|234:298,1,142.5,14|0,0:1|0:0,0:0:0:0:
252,288,157488,2,0,L|283:383,1,95,8|0,0:0|0:0,0:0:0:0:
364,211,157782,5,10,0:1:0:0:
504,195,157929,1,8,0:1:0:0:
466,38,158076,1,10,0:0:0:0:
430,124,158223,6,8,B|470:132|470:132|506:226|440:282,1,190,10|8,0:1|0:1,0:1:0:0:
293,111,158664,2,0,P|310:65|319:9,1,95,10|0,0:0|0:0,0:0:0:0:
95,0,158958,2,8,P|103:46|120:91,1,95,10|8,0:1|0:1,0:1:0:0:
26,291,159253,2,0,B|6:228|58:194|58:194|102:206,1,142.5,10|0,0:0|0:0,0:0:0:0:
165,245,159547,6,0,B|235:232|235:232|263:251|263:251|348:237,2,190,14|8|8,0:1|0:0|0:1,0:0:0:0:
271,363,160282,2,0,P|225:346|179:334,1,95,10|8,0:1|0:0,0:0:0:0:
346,237,160576,6,8,P|409:249|445:361,1,190,10|8,0:1|0:1,0:1:0:0:
468,127,161017,2,0,P|463:73|469:21,1,95,10|0,0:0|0:0,0:0:0:0:
344,142,161311,2,8,P|349:196|343:248,1,95,10|8,0:1|0:1,0:1:0:0:
246,64,161606,2,0,B|153:44|219:17|97:8,1,142.5,10|0,0:0|0:0,0:0:0:0:
59,78,161900,6,0,B|20:62|20:62|-39:127|1:200,1,190,12|10,0:1|0:0,0:0:0:0:
0,197,162341,1,0,0:0:0:0:
108,266,162488,2,8,L|205:237,1,95,10|8,0:1|0:1,0:1:0:0:
339,265,162782,5,10,0:0:0:0:
199,238,162929,2,8,B|250:279|318:241|318:241|312:208|325:177,1,190,10|8,0:1|0:1,0:1:0:0:
246,64,163370,2,0,P|219:111|215:154,1,95,10|0,0:0|0:0,0:0:0:0:
412,4,163664,2,8,P|439:51|443:94,1,95,10|8,0:1|0:1,0:1:0:0:
425,364,163958,2,0,B|450:380|450:380|483:345|483:345|458:275,1,142.5,10|0,0:0|0:0,0:0:0:0:
377,293,164253,6,0,B|249:265|318:328|188:315,2,190,14|8|8,0:1|0:0|0:1,0:0:0:0:
289,164,164988,2,0,L|192:135,1,95,10|8,0:1|0:0,0:0:0:0:
412,4,165282,6,8,B|432:110|502:58|501:181,1,190,10|8,0:1|0:1,0:1:0:0:
289,164,165723,2,0,P|348:155|390:142,1,95,10|0,0:0|0:0,0:0:0:0:
284,311,166017,2,8,P|343:302|385:289,1,95,10|8,0:1|0:1,0:1:0:0:
197,136,166311,2,0,P|256:127|298:114,1,95,10|0,0:0|0:0,0:0:0:0:
194,315,166606,6,0,B|109:294|165:266|52:255,1,142.5,12|0,0:1|0:0,0:0:0:0:
48,273,166900,1,10,0:0:0:0:
71,75,167047,1,2,0:0:0:0:
197,136,167194,2,8,L|230:233,1,95,10|8,0:1|0:1,0:1:0:0:
194,315,167488,5,10,0:0:0:0:
309,136,167635,2,8,B|300:90|300:90|347:17|347:17|389:67,1,190,10|8,0:1|0:1,0:1:0:0:
492,131,168076,2,0,P|443:150|408:273,1,190,8|10,0:0|0:1,0:0:0:0:
407,272,168517,1,8,0:1:0:0:
384,61,168664,2,0,B|333:47|333:47|318:19|318:19|239:-1,1,142.5,10|0,0:0|0:0,0:0:0:0:
174,66,168958,6,0,P|108:84|-10:58,2,190,14|8|8,0:1|0:0|0:1,0:0:0:0:
52,186,169694,2,0,L|28:279,1,95,10|8,0:1|0:0,0:0:0:0:
226,368,169988,6,8,B|234:295|154:262|154:262|121:323,1,190,10|8,0:1|0:1,0:1:0:0:
325,325,170429,2,0,P|374:349|413:363,1,95,10|0,0:0|0:0,0:0:0:0:
425,156,170723,2,8,P|474:132|513:118,1,95,10|8,0:1|0:1,0:1:0:0:
310,84,171017,2,0,B|284:120|284:120|264:79|264:79|212:42,1,142.5,14|0,0:0|0:0,0:0:0:0:
151,93,171311,6,8,B|137:151|170:195|170:195|143:230,3,142.500005435944,14|10|10|10,0:1|0:1|0:1|0:1,0:1:0:0:
155,360,172341,6,0,B|124:327|124:327|41:304|41:304|34:366,1,190,12|8,0:0|0:1,0:0:0:0:
148,222,172782,2,0,P|108:185|97:147,1,95,12|0,0:0|0:0,0:0:0:0:
279,311,173076,2,0,P|314:280|329:236,1,95,12|0,0:0|0:0,0:0:0:0:
371,26,173370,2,0,B|405:11|405:11|459:42|460:106,1,142.5,12|0,0:0|0:0,0:0:0:0:
492,170,173664,6,0,P|481:217|473:319,1,142.500005435944,14|10,0:0|0:1,0:1:0:0:
279,311,174253,5,14,0:0:0:0:
329,236,174400,2,0,B|365:249|365:249|396:231,1,71.2500027179719,10|8,0:1|0:0,0:0:0:0:
217,142,174694,6,0,B|226:158|263:157|263:157|280:93|223:63,1,156.750004783631,14|0,0:1|0:0,0:0:0:0:
190,147,174988,2,0,B|199:163|236:162|236:162|253:98|196:68,1,156.750004783631,14|0,0:1|0:0,0:0:0:0:
171,74,175282,5,8,0:0:0:0:
171,74,175356,1,8,0:0:0:0:
171,74,175429,1,8,0:0:0:0:
160,281,175576,1,8,0:0:0:0:
328,131,175723,1,8,0:0:0:0:
3,224,175870,1,8,0:0:0:0:
354,145,176017,6,0,B|401:192|389:277|389:277|454:320,1,199.499993911743,14|0,0:1|0:0,0:0:0:0:
470,287,176311,2,0,B|485:230|485:230|454:161,1,113.999996520996,8|0,0:0|0:0,0:0:0:0:
432,56,176606,5,10,0:1:0:0:
213,193,176753,1,8,0:1:0:0:
462,179,176900,1,8,0:0:0:0:
171,74,177047,6,8,B|117:55|117:55|26:140|62:250,1,265.999991882324,14|8,0:1|0:1,0:1:0:0:
135,377,177488,2,0,L|11:344,1,113.999996520996,10|0,0:0|0:0,0:0:0:0:
171,74,177782,1,10,0:1:0:0:
266,106,177929,1,8,0:1:0:0:
266,106,178003,1,8,0:1:0:0:
266,106,178076,2,8,L|390:73,1,113.999996520996,10|0,0:0|0:0,0:0:0:0:
332,354,178370,6,0,B|307:262|403:239|403:239|454:299,1,199.499993911743,14|0,0:1|0:0,0:0:0:0:
472,257,178664,2,0,B|461:224|461:224|466:195|466:195|449:144,1,113.999996520996,10|0,0:0|0:0,0:0:0:0:
304,0,178958,5,8,0:1:0:0:
252,204,179106,1,10,0:1:0:0:
76,22,179253,1,8,0:0:0:0:
24,122,179400,6,8,B|75:106|75:106|128:117|128:117|169:201|259:204,1,265.999991882324,14|8,0:1|0:1,0:1:0:0:
126,300,179841,2,0,P|70:271|23:252,1,113.999996520996,8|0,0:0|0:0,0:0:0:0:
327,138,180135,5,10,0:1:0:0:
251,203,180282,1,8,0:1:0:0:
348,160,180429,2,0,B|407:152|407:152|435:171|435:171|517:159,1,170.999994781494,10|0,0:0|0:0,0:0:0:0:
501,250,180723,6,0,P|506:320|393:329,1,199.499993911743,14|0,0:1|0:0,0:0:0:0:
354,348,181017,2,0,B|365:315|365:315|360:286|360:286|377:235,1,113.999996520996,10|0,0:0|0:0,0:0:0:0:
106,78,181311,1,10,0:1:0:0:
116,211,181458,2,8,L|85:90,1,113.999996520996,10|8,0:1|0:0,0:1:0:0:
12,246,181753,6,8,B|16:364|141:367|141:367|187:307,1,265.999991882324,14|8,0:1|0:1,0:1:0:0:
212,84,182194,2,0,B|154:100|154:100|90:70,1,113.999996520996,10|0,0:0|0:0,0:0:0:0:
287,321,182488,2,8,B|229:337|229:337|165:307,1,113.999996520996,10|8,0:1|0:1,0:1:0:0:
200,282,182708,1,8,0:1:0:0:
224,260,182782,2,0,B|215:208|215:208|257:153|257:153|308:200,1,170.999994781494,10|0,0:0|0:0,0:0:0:0:
378,227,183076,6,0,B|410:245|410:245|447:168|447:168|399:100,1,199.499993911743,14|0,0:1|0:0,0:0:0:0:
368,100,183370,2,0,P|346:35|379:3,1,113.999996520996,10|0,0:0|0:0,0:0:0:0:
473,41,183664,5,10,0:1:0:0:
228,100,183811,1,8,0:1:0:0:
471,18,183958,1,10,0:0:0:0:
227,80,184106,6,8,B|136:63|65:126|65:126|8:49,1,265.999991882324,14|8,0:1|0:1,0:1:0:0:
91,0,184547,1,8,0:0:0:0:
180,214,184694,5,8,0:0:0:0:
172,241,184767,1,8,0:0:0:0:
172,269,184841,1,8,0:0:0:0:
180,296,184914,1,8,0:0:0:0:
196,320,184988,1,8,0:0:0:0:
217,339,185061,1,8,0:0:0:0:
246,349,185135,5,10,0:0:0:0:
225,297,185208,1,8,0:0:0:0:
250,248,185282,1,8,0:0:0:0:
303,234,185355,1,8,0:0:0:0:
350,266,185429,6,0,B|383:291|383:291|451:229|398:141,1,199.499993911743,14|0,0:1|0:0,0:0:0:0:
433,131,185723,2,0,P|426:74|428:14,1,113.999996520996,10|0,0:0|0:0,0:0:0:0:
350,266,186017,2,8,P|357:323|355:383,1,113.999996520996,10|8,0:1|0:1,0:1:0:0:
491,277,186311,5,10,0:0:0:0:
302,132,186458,2,8,B|216:102|216:102|186:35|186:35|90:-1,1,265.999991882324,14|8,0:1|0:1,0:1:0:0:
32,204,186900,2,0,P|53:259|64:316,1,113.999996520996,8|0,0:0|0:0,0:0:0:0:
302,132,187194,5,10,0:1:0:0:
203,180,187341,1,8,0:1:0:0:
324,119,187488,2,0,P|303:174|292:231,1,113.999996520996,10|0,0:0|0:0,0:0:0:0:
330,30,187782,6,0,B|385:6|385:6|496:68|473:204,2,265.999991882324,14|8|8,0:1|0:0|0:1,0:0:0:0:
405,317,188517,2,0,L|514:272,1,113.999996520996,10|8,0:1|0:0,0:0:0:0:
215,338,188811,6,8,B|143:306|55:358|55:358|15:253,1,265.999991882324,14|8,0:1|0:1,0:1:0:0:
50,7,189253,2,0,P|20:59|24:118,1,113.999996520996,10|0,0:0|0:0,0:0:0:0:
157,44,189547,5,10,0:1:0:0:
173,252,189694,1,8,0:1:0:0:
143,168,189841,2,0,P|142:111|171:63,1,113.999996520996,10|0,0:0|0:0,0:0:0:0:
374,5,190135,6,0,B|389:111|459:65|470:181,1,199.499993911743,14|0,0:1|0:0,0:0:0:0:
445,205,190429,2,0,B|390:221|390:221|327:196,1,113.999996520996,10|0,0:0|0:0,0:0:0:0:
352,345,190723,5,10,0:1:0:0:
290,86,190870,1,8,0:1:0:0:
143,168,191017,1,10,0:0:0:0:
61,115,191164,6,8,B|160:149|149:279|149:279|82:325,1,265.999991882324,14|8,0:1|0:1,0:1:0:0:
352,345,191606,2,0,P|288:331|235:299,1,113.999996520996,8|0,0:0|0:0,0:0:0:0:
290,86,191900,6,8,P|340:59|396:48,1,113.999996520996,10|8,0:1|0:1,0:1:0:0:
406,214,192194,2,0,P|456:187|512:176,1,113.999996520996,10|0,0:0|0:0,0:0:0:0:
231,149,192488,6,0,B|134:179|134:179|51:106,1,199.499993911743,14|0,0:1|0:0,0:0:0:0:
24,121,192782,2,0,B|36:88|36:88|30:59|30:59|49:10,1,113.999996520996,10|0,0:0|0:0,0:0:0:0:
37,230,193076,5,10,0:0:0:0:
12,279,193149,1,8,0:0:0:0:
33,330,193223,1,10,0:3:0:0:
86,348,193296,1,8,0:3:0:0:
134,321,193370,1,8,0:0:0:0:
242,55,193517,6,0,B|251:193|364:146|332:308,1,265.999991882324,14|8,0:1|0:1,0:0:0:0:
415,49,193958,5,10,0:0:0:0:
218,197,194106,1,8,0:0:0:0:
334,292,194253,1,10,0:0:0:0:
242,55,194400,1,8,0:0:0:0:
86,348,194547,5,14,0:0:0:0:
39,266,194841,6,0,B|25:228|3:215|3:215|-14:130|63:98,1,199.499993911743,14|0,0:1|0:0,0:0:0:0:
99,77,195135,2,0,P|80:144|80:195,1,113.999996520996,10|0,0:0|0:0,0:0:0:0:
419,316,195429,2,8,P|438:249|438:198,1,113.999996520996,10|8,0:1|0:1,0:1:0:0:
511,140,195723,5,10,0:0:0:0:
241,17,195870,2,8,B|243:75|243:75|337:140|337:140|397:42,1,265.999991882324,14|8,0:1|0:1,0:1:0:0:
216,233,196311,2,0,L|256:346,1,113.999996520996,8|0,0:0|0:0,0:0:0:0:
18,134,196606,5,10,0:1:0:0:
99,77,196753,1,8,0:1:0:0:
38,150,196900,2,0,L|-2:263,1,113.999996520996,10|0,0:0|0:0,0:0:0:0:
201,94,197194,6,0,B|282:115|332:38|332:38|406:35|457:82,2,265.999991882324,14|8|8,0:1|0:0|0:1,0:0:0:0:
370,249,197929,2,8,P|359:191|391:134,1,113.999996520996,10|8,0:1|0:0,0:0:0:0:
314,372,198223,6,0,B|221:335|129:378|129:378|87:302,1,265.999991882324,14|8,0:1|0:1,0:0:0:0:
18,189,198664,2,0,L|115:130,1,113.999996520996,10|0,0:0|0:0,0:0:0:0:
329,38,198958,5,10,0:1:0:0:
417,136,199106,1,8,0:1:0:0:
321,63,199253,2,0,L|224:4,1,113.999996520996,10|0,0:0|0:0,0:0:0:0:
370,206,199547,6,0,B|412:180|412:180|499:226|480:313,1,199.499993911743,14|0,0:1|0:0,0:0:0:0:
499,340,199841,2,0,B|443:358|443:358|383:328,1,113.999996520996,10|0,0:0|0:0,0:0:0:0:
175,245,200135,5,10,0:0:0:0:
152,296,200208,1,8,0:3:0:0:
172,347,200282,1,8,0:3:0:0:
223,370,200355,1,8,0:3:0:0:
275,352,200429,1,10,0:0:0:0:
243,162,200576,6,0,B|138:145|138:145|104:187|104:187|-10:168,1,265.999991882324,14|8,0:1|0:1,0:0:0:0:
17,0,201017,2,0,P|32:66|67:100,1,113.999996520996,10|0,0:0|0:0,0:0:0:0:
435,49,201311,5,10,0:1:0:0:
417,134,201458,1,8,0:1:0:0:
390,219,201606,2,0,P|375:285|340:319,1,113.999996520996,10|0,0:0|0:0,0:0:0:0:
172,361,201900,6,8,B|108:339|38:381|38:381|-18:328,2,190,14|8|8,0:1|0:1|0:0,0:1:0:0:
119,174,202635,2,8,L|145:267,1,95,10|8,0:1|0:1,0:1:0:0:
200,138,202929,6,0,B|193:-6|67:2|67:2|71:62|51:102,1,285,14|10,0:0|0:1,0:0:0:0:
204,0,203664,5,10,0:0:0:0:
318,224,203811,1,8,0:1:0:0:
318,224,204253,6,0,B|354:217|354:217|400:240|470:231,1,142.5,14|0,0:1|0:0,0:0:0:0:
468,209,204547,1,8,0:0:0:0:
324,357,204694,2,8,P|253:337|137:317,1,190,8|8,0:1|0:1,0:1:0:0:
19,284,205135,2,0,L|50:377,1,95,8|0,0:0|0:0,0:0:0:0:
98,209,205429,6,8,B|174:192|161:109|161:109|126:100|90:66,1,190,8|10,0:1|0:0,0:0:0:0:
300,70,205870,1,8,0:1:0:0:
219,17,206017,2,0,P|241:60|283:97,1,95,2|8,0:0|0:1,0:0:0:0:
411,130,206311,2,0,P|445:97|466:55,1,95,10|8,0:0|0:1,0:0:0:0:
291,187,206606,6,8,B|293:290|365:245|368:371,1,190,14|8,0:1|0:0,0:0:0:0:
437,250,207047,2,8,B|471:256|471:256|492:161|410:129,1,190,10|8,0:1|0:1,0:1:0:0:
128,192,207488,2,0,P|201:231|295:179,1,190,10|8,0:0|0:1,0:0:0:0:
206,131,207929,5,8,0:1:0:0:
81,343,208076,1,10,0:0:0:0:
81,343,208370,5,10,0:0:0:0:
206,131,208517,1,8,0:0:0:0:
26,88,208664,1,10,0:3:0:0:
97,21,208811,1,4,0:3:0:0:
206,131,208958,6,0,B|314:121|243:52|374:57,1,190,14|8,0:1|0:0,0:0:0:0:
512,215,209400,2,8,B|404:205|475:136|344:141,1,190,12|8,0:1|0:1,0:1:0:0:
349,309,209841,2,0,P|347:260|375:212,1,95,8|0,0:0|0:0,0:0:0:0:
246,248,210135,5,8,0:1:0:0:
349,309,210282,1,8,0:1:0:0:
246,278,210429,1,10,0:0:0:0:
349,339,210576,1,8,0:1:0:0:
130,363,210723,6,0,P|132:316|111:273,1,95,2|8,0:0|0:1,0:0:0:0:
206,131,211017,2,0,P|208:84|187:41,1,95,10|0,0:0|0:0,0:0:0:0:
359,110,211311,6,0,B|394:86|394:86|446:124|437:181,1,142.5,10|0,0:1|0:0,0:0:0:0:
453,191,211606,1,10,0:0:0:0:
479,359,211753,2,0,L|515:261,1,95,10|0,0:1|0:0,0:0:0:0:
512,270,212047,1,10,0:1:0:0:
453,191,212194,2,0,L|420:280,1,95,8|0,0:0|0:0,0:0:0:0:
405,43,212488,5,8,0:0:0:0:
420,280,212635,1,8,0:0:0:0:
263,171,212782,1,8,0:3:0:0:
295,57,212929,5,4,0:3:0:0:
295,57,213003,1,4,0:3:0:0:
295,57,213076,1,4,0:3:0:0:
453,191,213223,1,4,0:3:0:0:
162,378,213370,1,4,0:1:0:0:
112,306,213664,6,8,B|178:378|253:321|253:321|245:286|246:237,2,213.750008153916,14|8|8,0:1|0:1|0:1,0:1:0:0:
14,154,214694,5,2,0:0:0:0:
40,226,214841,2,0,P|46:170|67:66,1,142.500005435944,2|8,0:0|0:1,0:0:0:0:
224,126,215429,2,0,P|237:195|246:266,1,142.500005435944,10|0,0:0|0:0,0:0:0:0:
278,48,215870,5,8,0:1:0:0:
356,160,216017,2,0,B|395:167|395:167|445:71|377:5,1,213.750008153916,10|8,0:1|0:1,0:0:0:0:
378,6,216900,5,10,0:1:0:0:
466,66,217047,1,2,0:0:0:0:
356,160,217194,1,2,0:0:0:0:
278,48,217488,5,10,0:1:0:0:
224,126,217782,5,10,0:0:0:0:
491,217,217929,1,8,0:0:0:0:
137,371,218076,1,10,0:1:0:0:
137,371,218370,6,0,B|339:372|183:258|432:282,1,313.500009567261,14|2,0:1|0:0,0:0:0:0:
418,280,220723,6,0,B|377:267|377:267|359:275|359:275|303:255,3,104.500003189087,2|2|2|2,0:0|0:0|0:0|0:0,0:0:0:0:
393,28,221900,5,8,0:0:0:0:
418,31,221973,1,4,0:3:0:0:
442,42,222047,1,4,0:3:0:0:
460,60,222120,1,4,0:3:0:0:
472,83,222194,1,4,0:3:0:0:
339,225,222341,5,8,0:0:0:0:
364,228,222414,1,4,0:3:0:0:
388,239,222488,1,4,0:3:0:0:
406,257,222561,1,4,0:3:0:0:
418,280,222635,1,6,0:3:0:0:
199,155,222782,6,0,P|187:182|140:168,1,78.3750023918153,10|0,0:0|0:0,0:0:0:0:
57,164,223076,6,0,B|-36:214|5:338|5:338|46:352|95:396,2,265.999991882324,14|8|8,0:1|0:0|0:1,0:0:0:0:
238,261,223811,2,0,P|237:328|268:373,1,113.999996520996,10|8,0:1|0:0,0:0:0:0:
502,155,224106,6,8,B|415:126|415:126|379:54|379:54|289:24,1,265.999991882324,14|8,0:1|0:1,0:1:0:0:
404,290,224547,2,0,P|468:268|515:255,1,113.999996520996,8|0,0:0|0:0,0:0:0:0:
256,142,224841,5,10,0:1:0:0:
404,290,224988,1,8,0:1:0:0:
353,80,225135,1,8,0:0:0:0:
316,359,225282,1,2,0:0:0:0:
199,304,225429,6,0,B|75:285|157:219|12:216,1,199.499993911743,14|0,0:1|0:0,0:0:0:0:
10,245,225723,2,0,P|14:329|146:364,1,227.999993041992,10|8,0:0|0:1,0:0:0:0:
105,275,226164,1,8,0:1:0:0:
105,275,226238,1,8,0:1:0:0:
105,275,226311,1,8,0:0:0:0:
252,11,226458,6,0,B|254:140|363:92|341:249,1,265.999991882324,12|8,0:1|0:1,0:0:0:0:
352,33,226900,2,0,B|401:81|470:87|470:87|505:66,1,170.999994781494,10|0,0:0|0:0,0:0:0:0:
488,39,227194,1,10,0:1:0:0:
442,213,227341,2,0,P|471:269|489:330,1,113.999996520996,10|8,0:1|0:0,0:0:0:0:
512,167,227635,5,2,0:0:0:0:
236,148,227782,2,0,B|105:182|105:182|-2:86,2,265.999991882324,14|8|8,0:1|0:0|0:1,0:0:0:0:
295,37,228517,5,10,0:1:0:0:
512,167,228664,1,10,0:0:0:0:
203,341,228811,2,0,B|294:331|294:331|336:364|336:364|465:346,1,265.999991882324,14|8,0:1|0:1,0:0:0:0:
136,267,229253,6,0,P|86:311|30:337,1,113.999996520996,10|0,0:0|0:0,0:0:0:0:
43,332,229547,1,8,0:1:0:0:
33,131,229694,2,0,P|83:87|139:61,1,113.999996520996,10|8,0:1|0:0,0:0:0:0:
125,65,229988,1,0,0:0:0:0:
364,152,230135,6,0,B|270:154|259:56|259:56|314:26,1,199.499993911743,14|0,0:1|0:0,0:0:0:0:
339,50,230429,2,0,B|383:46|383:46|399:55|399:55|452:50,1,113.999996520996,8|0,0:0|0:0,0:0:0:0:
364,152,230723,5,10,0:1:0:0:
445,50,230870,1,8,0:1:0:0:
512,262,231017,1,10,0:0:0:0:
476,367,231164,6,8,B|392:394|344:326|344:326|281:310|234:354,1,265.999991882324,14|8,0:1|0:1,0:1:0:0:
64,193,231606,1,10,0:0:0:0:
17,282,231753,2,0,L|69:389,1,113.999996520996,2|8,0:0|0:1,0:0:0:0:
66,384,232047,1,8,0:1:0:0:
176,196,232194,5,10,0:0:0:0:
160,142,232267,1,8,0:0:0:0:
183,91,232341,1,8,0:0:0:0:
233,67,232414,1,8,0:0:0:0:
285,86,232488,6,0,B|366:98|418:55|418:55|469:97,1,199.499993911743,14|0,0:1|0:0,0:0:0:0:
493,113,232782,2,0,P|483:176|497:241,1,113.999996520996,8|0,0:0|0:0,0:0:0:0:
290,306,233076,5,10,0:1:0:0:
171,356,233223,1,8,0:1:0:0:
262,222,233370,1,10,0:0:0:0:
139,346,233517,6,8,B|189:375|189:375|234:262|234:262|152:189,1,265.999991882324,14|8,0:1|0:1,0:1:0:0:
41,26,233958,2,0,P|40:93|70:138,1,113.999996520996,10|0,0:0|0:0,0:0:0:0:
291,40,234253,5,10,0:1:0:0:
170,56,234400,1,8,0:1:0:0:
309,54,234547,2,0,B|344:52|344:52|360:62|360:62|431:58,1,113.999996520996,10|0,0:0|0:0,0:0:0:0:
362,307,234841,6,0,B|330:232|410:177|410:177|465:209,1,199.499993911743,14|0,0:1|0:0,0:0:0:0:
463,236,235135,2,0,L|492:352,1,113.999996520996,8|0,0:0|0:0,0:0:0:0:
221,198,235429,5,10,0:1:0:0:
362,307,235576,1,8,0:1:0:0:
170,56,235723,1,10,0:0:0:0:
79,371,235870,6,8,B|90:213|197:331|201:127,1,265.999991882324,14|8,0:1|0:1,0:1:0:0:
59,65,236311,2,0,P|70:134|96:178,1,113.999996520996,10|0,0:0|0:0,0:0:0:0:
13,240,236606,5,10,0:1:0:0:
170,56,236753,1,8,0:1:0:0:
241,335,236900,1,10,0:0:0:0:
270,248,237194,6,0,B|371:234|371:234|411:280|411:280|515:263,2,265.999991882324,14|8|8,0:1|0:0|0:1,0:0:0:0:
270,248,237929,1,8,0:1:0:0:
339,130,238076,5,10,0:0:0:0:
376,364,238223,1,14,0:1:0:0:
426,85,238370,1,2,0:0:0:0:
270,248,238517,1,10,0:1:0:0:
246,90,238664,5,10,0:0:0:0:
376,364,238811,1,2,0:0:0:0:
432,209,238958,5,10,0:1:0:0:
164,364,239106,1,10,0:1:0:0:
464,209,239253,1,10,0:0:0:0:
196,364,239401,1,2,0:0:0:0:
121,285,239547,6,0,B|63:233|104:152|104:152|42:115,1,199.499993911743,14|0,0:1|0:0,0:0:0:0:
13,124,239841,2,0,P|9:67|52:22,1,113.999996520996,10|0,0:0|0:0,0:0:0:0:
4,313,240135,5,10,0:0:0:0:
191,162,240282,1,8,0:1:0:0:
13,124,240429,1,8,0:1:0:0:
196,364,240576,6,0,B|257:344|338:380|338:380|418:342|361:260,1,265.999991882324,14|8,0:0|0:0,0:0:0:0:
284,220,240944,1,8,0:0:0:0:
230,203,241017,1,8,0:3:0:0:
191,162,241091,1,8,0:3:0:0:
178,107,241164,1,4,0:3:0:0:
193,53,241238,1,4,0:3:0:0:
233,13,241311,6,0,L|307:4,1,71.2500027179719,14|2,0:1|0:0,0:0:0:0:
284,220,241688,2,0,L|208:209,1,71.2500027179719,2|2,0:0|0:0,0:0:0:0:
304,5,242075,5,14,0:1:0:0:
284,220,242241,1,0,0:0:0:0:
217,106,242408,1,0,0:0:0:0:
371,119,242575,1,2,0:0:0:0:
371,119,243075,5,2,0:0:0:0:
139,235,243408,5,2,0:0:0:0:
62,206,243575,1,0,0:0:0:0:
0,269,243741,1,0,0:0:0:0:
77,298,243908,1,2,0:0:0:0:
217,106,244241,5,2,0:0:0:0:
231,311,244741,5,2,0:0:0:0:
371,119,245241,5,2,0:0:0:0:
371,119,245741,5,2,0:0:0:0:
231,311,246075,5,2,0:0:0:0:
304,253,246241,1,0,0:0:0:0:
244,337,246408,1,0,0:0:0:0:
317,279,246575,1,2,0:0:0:0:
44,171,246908,5,2,0:0:0:0:
217,106,247408,5,2,0:0:0:0:
144,48,247575,1,0,0:0:0:0:
204,132,247741,1,0,0:0:0:0:
131,74,247908,1,2,0:0:0:0:
512,289,248741,5,2,0:0:0:0:
457,375,248908,1,0,0:0:0:0:
424,300,249075,1,0,0:0:0:0:
479,214,249241,1,2,0:0:0:0:
330,46,249741,5,2,0:0:0:0:
400,298,250075,5,2,0:0:0:0:
455,212,250241,1,0,0:0:0:0:
488,287,250408,1,0,0:0:0:0:
433,373,250575,1,2,0:0:0:0:
104,356,250908,5,2,0:0:0:0:
179,332,251075,1,0,0:0:0:0:
168,220,251241,1,0,0:0:0:0:
43,169,251408,5,2,0:0:0:0:
116,44,251575,1,0,0:0:0:0:
126,129,251741,1,0,0:0:0:0:
32,82,251908,1,2,0:0:0:0:
330,46,252241,5,2,0:0:0:0:
319,143,252408,1,0,0:0:0:0:
238,89,252575,1,0,0:0:0:0:
415,102,252741,1,2,0:0:0:0:
415,102,253241,1,2,0:0:0:0:
383,318,253575,5,2,0:0:0:0:
409,241,253741,1,0,0:0:0:0:
441,375,253908,1,0,0:0:0:0:
307,342,254075,1,2,0:0:0:0:
70,378,254575,1,2,0:0:0:0:
265,135,255075,1,2,0:0:0:0:
25,171,255408,1,2,0:0:0:0:
164,57,255741,5,0,0:0:0:0:
136,146,255908,1,2,0:0:0:0:
152,177,256241,5,2,0:0:0:0:
180,88,256408,1,0,0:0:0:0:
265,135,256575,1,0,0:0:0:0:
237,224,256741,1,2,0:0:0:0:
356,21,257241,1,2,0:0:0:0:
491,174,257741,1,2,0:0:0:0:
372,377,258075,5,2,0:0:0:0:
237,224,259408,1,2,0:0:0:0:
491,174,260741,1,2,0:0:0:0:
491,174,262061,6,0,L|332:142,1,142.500005435944,2|2,0:0|0:0,0:0:0:0:
43,185,262649,5,10,0:0:0:0:
67,209,262722,1,8,0:0:0:0:
102,217,262796,1,8,0:0:0:0:
135,204,262869,1,8,0:0:0:0:
155,176,262943,1,10,0:0:0:0:
157,141,263016,1,8,0:0:0:0:
140,110,263090,1,8,0:0:0:0:
109,94,263163,1,8,0:0:0:0:
83,81,263237,6,0,B|10:125|55:212|55:212|75:220|105:246,1,199.499993911743,14|0,0:1|0:0,0:0:0:0:
133,265,263531,2,0,P|193:246|253:240,1,113.999996520996,8|0,0:0|0:0,0:0:0:0:
290,164,263825,5,10,0:1:0:0:
357,365,263972,1,8,0:1:0:0:
492,104,264119,1,8,0:0:0:0:
395,53,264266,6,8,B|357:153|449:242|449:242|383:275,1,265.999991882324,14|8,0:1|0:1,0:1:0:0:
290,164,264708,2,0,P|266:96|237:43,1,113.999996520996,10|0,0:0|0:0,0:0:0:0:
145,9,265002,1,10,0:1:0:0:
133,265,265149,1,8,0:1:0:0:
133,265,265222,1,8,0:1:0:0:
133,265,265296,2,0,P|107:316|89:370,1,113.999996520996,10|0,0:0|0:0,0:0:0:0:
181,162,265590,6,0,B|82:186|82:186|5:112,1,199.499993911743,14|0,0:1|0:0,0:0:0:0:
29,108,265884,2,0,B|19:77|19:77|31:52|31:52|16:-9,1,113.999996520996,10|0,0:0|0:0,0:0:0:0:
14,252,266178,5,8,0:1:0:0:
181,162,266325,1,10,0:1:0:0:
215,378,266472,1,8,0:0:0:0:
401,164,266619,6,8,B|483:199|486:328|486:328|430:382,1,265.999991882324,14|8,0:1|0:1,0:1:0:0:
488,106,267061,2,0,B|506:53|506:53|470:3,1,113.999996520996,8|0,0:0|0:0,0:0:0:0:
181,162,267355,5,10,0:1:0:0:
401,164,267502,1,8,0:1:0:0:
194,193,267649,2,0,B|140:179|140:179|101:203|101:203|17:174,1,170.999994781494,10|0,0:0|0:0,0:0:0:0:
72,108,267943,6,0,B|54:62|54:62|102:-11|102:-11|162:62,1,199.499993911743,14|0,0:1|0:0,0:0:0:0:
181,62,268237,2,0,P|245:47|304:7,1,113.999996520996,10|0,0:0|0:0,0:0:0:0:
305,263,268531,1,10,0:1:0:0:
194,193,268678,2,0,P|258:208|317:248,1,113.999996520996,10|8,0:1|0:0,0:0:0:0:
485,40,268972,6,8,B|515:85|515:85|486:200|486:200|396:162,1,265.999991882324,14|8,0:1|0:1,0:1:0:0:
381,366,269413,2,0,L|501:331,1,113.999996520996,10|0,0:0|0:0,0:0:0:0:
194,193,269708,2,8,L|74:158,1,113.999996520996,10|8,0:1|0:1,0:1:0:0:
76,143,269928,1,8,0:1:0:0:
67,127,270002,2,0,B|34:47|114:9|114:9|159:38,1,170.999994781494,10|0,0:0|0:0,0:0:0:0:
210,80,270296,6,0,B|285:69|285:69|316:88|316:88|413:69,1,199.499993911743,14|0,0:1|0:0,0:0:0:0:
431,95,270590,2,0,B|406:144|406:144|432:204,1,113.999996520996,10|0,0:0|0:0,0:0:0:0:
381,366,270884,5,10,0:1:0:0:
194,193,271031,1,8,0:1:0:0:
429,198,271178,1,10,0:0:0:0:
223,331,271325,6,8,B|149:351|117:295|117:295|118:272|118:272|75:218|-5:250,1,265.999991882324,14|8,0:1|0:1,0:1:0:0:
194,193,271766,5,8,0:0:0:0:
210,189,271839,1,8,0:0:0:0:
227,185,271913,1,8,0:0:0:0:
244,181,271986,1,8,0:0:0:0:
260,177,272060,1,8,0:0:0:0:
166,3,272208,5,8,0:0:0:0:
175,47,272281,1,8,0:0:0:0:
163,90,272355,1,10,0:0:0:0:
133,124,272428,1,8,0:0:0:0:
91,140,272502,1,8,0:0:0:0:
46,136,272575,1,8,0:0:0:0:
5,111,272649,6,0,B|75:81|139:128|139:128|184:77,1,199.499993911743,14|0,0:1|0:0,0:0:0:0:
157,55,272943,2,0,P|133:123|126:177,1,113.999996520996,10|0,0:0|0:0,0:0:0:0:
441,232,273237,2,8,P|465:164|472:110,1,113.999996520996,10|8,0:1|0:1,0:1:0:0:
372,8,273531,5,10,0:0:0:0:
189,264,273678,2,8,B|215:353|346:378|346:378|408:324,1,265.999991882324,14|8,0:1|0:1,0:1:0:0:
77,262,274119,2,0,B|53:316|53:316|77:372,1,113.999996520996,8|0,0:0|0:0,0:0:0:0:
157,55,274413,5,10,0:1:0:0:
253,124,274561,1,8,0:1:0:0:
166,88,274708,2,0,L|42:44,1,113.999996520996,10|0,0:0|0:0,0:0:0:0:
341,62,275002,6,8,B|376:23|376:23|445:78|445:78|432:214,2,265.999991882324,14|8|8,0:1|0:0|0:1,0:0:0:0:
367,280,275737,2,0,P|368:353|404:393,1,113.999996520996,10|8,0:1|0:0,0:0:0:0:
254,223,276031,6,0,B|173:201|173:201|117:226|117:226|-3:191,1,265.999991882324,14|8,0:1|0:1,0:0:0:0:
48,10,276472,2,0,P|76:79|95:133,1,113.999996520996,10|0,0:0|0:0,0:0:0:0:
328,118,276766,5,10,0:1:0:0:
245,3,276913,1,8,0:1:0:0:
346,106,277061,2,0,P|365:52|387:0,1,113.999996520996,10|0,0:0|0:0,0:0:0:0:
254,223,277355,6,0,B|249:276|249:276|293:351|293:351|354:309,1,199.499993911743,14|0,0:1|0:0,0:0:0:0:
385,328,277649,2,0,B|442:313|442:313|499:327,1,113.999996520996,10|0,0:0|0:0,0:0:0:0:
254,223,277943,5,10,0:1:0:0:
346,106,278090,1,8,0:1:0:0:
407,216,278237,1,10,0:0:0:0:
154,358,278384,6,8,B|103:303|26:324|26:324|57:248|125:242,1,265.999991882324,14|8,0:1|0:1,0:1:0:0:
135,64,278825,2,0,P|73:57|23:32,1,113.999996520996,8|0,0:0|0:0,0:0:0:0:
346,106,279119,6,8,P|408:113|458:138,1,113.999996520996,10|8,0:1|0:1,0:1:0:0:
401,28,279413,2,0,P|463:35|513:60,1,113.999996520996,10|0,0:0|0:0,0:0:0:0:
496,371,279708,6,0,B|415:383|358:326|358:326|310:357,1,199.499993911743,14|0,0:1|0:0,0:0:0:0:
299,332,280002,2,0,B|315:275|315:275|280:218,1,113.999996520996,10|0,0:0|0:0,0:0:0:0:
135,64,280296,5,10,0:0:0:0:
135,64,280369,1,8,0:0:0:0:
135,64,280443,1,10,0:1:0:0:
401,28,280590,1,8,0:0:0:0:
150,355,280737,6,0,B|113:381|113:381|-29:348|11:203,1,265.999991882324,12|8,0:1|0:1,0:0:0:0:
24,26,281178,1,10,0:0:0:0:
150,355,281325,1,8,0:0:0:0:
69,319,281472,5,10,0:0:0:0:
189,0,281619,1,8,0:0:0:0:
401,28,281766,1,14,0:0:0:0:
357,110,282060,6,0,B|351:161|351:161|408:233|408:233|462:209,1,199.499993911743,14|0,0:1|0:0,0:0:0:0:
484,232,282355,2,0,L|414:338,1,113.999996520996,10|0,0:0|0:0,0:0:0:0:
69,319,282649,2,8,L|6:223,1,113.999996520996,10|8,0:1|0:1,0:1:0:0:
2,377,282943,5,10,0:0:0:0:
182,139,283090,2,8,B|234:225|347:186|347:186|345:128|367:86,1,265.999991882324,14|8,0:1|0:1,0:1:0:0:
218,313,283531,2,0,P|283:335|328:371,1,113.999996520996,8|0,0:0|0:0,0:0:0:0:
396,30,283825,5,10,0:1:0:0:
356,109,283972,1,8,0:1:0:0:
412,51,284119,2,0,P|477:29|522:-7,1,113.999996520996,10|0,0:0|0:0,0:0:0:0:
182,139,284413,6,0,B|127:82|27:108|27:108|112:37,2,265.999991882324,14|8|8,0:1|0:0|0:1,0:0:0:0:
54,339,285149,2,0,B|68:303|68:303|58:273|58:273|78:222,1,113.999996520996,10|8,0:1|0:0,0:0:0:0:
326,49,285443,6,8,B|370:23|370:23|468:77|459:209,1,265.999991882324,14|8,0:1|0:1,0:1:0:0:
404,368,285884,2,0,L|365:249,1,113.999996520996,10|0,0:0|0:0,0:0:0:0:
181,374,286178,5,10,0:1:0:0:
140,160,286325,1,8,0:1:0:0:
203,252,286472,2,0,L|167:360,1,113.999996520996,10|0,0:0|0:0,0:0:0:0:
140,160,286766,6,0,B|108:181|108:181|60:121|60:121|91:19,1,199.499993911743,14|0,0:1|0:0,0:0:0:0:
122,26,287060,2,0,B|178:44|178:44|235:21,1,113.999996520996,10|0,0:0|0:0,0:0:0:0:
140,160,287355,5,10,0:0:0:0:
229,23,287502,1,8,0:1:0:0:
203,252,287649,1,8,0:0:0:0:
265,313,287796,6,0,B|312:289|445:286|352:370|453:380|530:351,1,265.999991882324,14|8,0:1|0:1,0:0:0:0:
398,199,288237,2,0,B|438:170|438:170|438:78|364:52,1,199.499993911743,14|0,0:0|0:0,0:0:0:0:
343,33,288531,1,10,0:1:0:0:
488,5,288678,1,8,0:1:0:0:
294,172,288825,2,0,B|227:153|168:188|168:188|129:149,1,170.999994781494,14|0,0:0|0:0,0:0:0:0:
66,98,289119,5,14,0:0:0:0:
13,329,289266,1,8,0:1:0:0:
294,172,289413,1,10,0:0:0:0:
185,40,289560,1,8,0:1:0:0:
66,98,289708,5,10,0:0:0:0:
296,12,289855,1,8,0:1:0:0:
38,0,290002,1,10,0:0:0:0:
294,172,290149,6,0,B|348:112|348:112|462:200|462:200|426:407,1,398.999987823487,14|2,0:1|0:0,0:0:0:0:
116,241,290884,5,10,0:0:0:0:
127,209,290958,5,8,0:0:0:0:
93,179,291031,5,8,0:0:0:0:
104,147,291105,5,8,0:0:0:0:
71,115,291178,5,10,0:0:0:0:
82,83,291252,5,8,0:0:0:0:
54,60,291325,5,8,0:0:0:0:
65,28,291399,5,8,0:0:0:0:
38,0,291472,5,10,0:0:0:0:
38,0,291766,6,0,P|34:84|198:95,1,265.999991882324,14|8,0:0|0:1,0:0:0:0:
364,31,292208,2,0,B|324:20|324:20|300:30|300:30|247:15,1,113.999996520996,10|8,0:1|0:0,0:0:0:0:
365,199,292502,6,8,B|442:160|442:160|491:335,1,265.999991882324,14|8,0:1|0:1,0:1:0:0:
264,361,292943,2,0,P|319:342|368:307,1,113.999996520996,10|0,0:0|0:0,0:0:0:0:
365,199,293237,1,10,0:1:0:0:
90,252,293384,1,8,0:1:0:0:
90,252,293458,1,8,0:1:0:0:
90,252,293531,2,0,P|78:309|84:369,1,113.999996520996,10|0,0:0|0:0,0:0:0:0:
178,82,293825,6,0,B|301:81|230:16|369:31,1,199.499993911743,14|0,0:1|0:0,0:0:0:0:
392,69,294119,2,0,B|446:94|446:94|496:63,1,113.999996520996,10|0,0:0|0:0,0:0:0:0:
178,82,294413,5,8,0:1:0:0:
392,69,294560,1,10,0:1:0:0:
263,16,294708,1,8,0:0:0:0:
363,199,294855,6,8,B|333:306|463:365|463:365|512:317,1,265.999991882324,14|8,0:1|0:1,0:1:0:0:
190,255,295296,2,0,B|136:280|136:280|86:249,1,113.999996520996,8|0,0:0|0:0,0:0:0:0:
178,82,295590,5,10,0:1:0:0:
363,199,295737,1,8,0:1:0:0:
206,103,295884,2,0,B|145:86|145:86|114:106|114:106|29:82,1,170.999994781494,10|0,0:0|0:0,0:0:0:0:
5,161,296178,6,0,P|-12:232|104:226,1,199.499993911743,14|0,0:1|0:0,0:0:0:0:
128,266,296472,2,0,P|102:326|90:379,1,113.999996520996,10|0,0:0|0:0,0:0:0:0:
430,312,296766,1,10,0:1:0:0:
362,199,296913,2,0,P|386:250|400:306,1,113.999996520996,10|8,0:1|0:0,0:0:0:0:
512,102,297208,6,8,B|428:84|428:84|386:17|386:17|262:-4,1,265.999991882324,14|8,0:1|0:1,0:1:0:0:
400,306,297649,2,0,L|511:263,1,113.999996520996,10|0,0:0|0:0,0:0:0:0:
230,92,297943,2,8,L|119:49,1,113.999996520996,10|8,0:1|0:1,0:1:0:0:
105,59,298163,1,8,0:1:0:0:
85,73,298237,2,0,B|68:140|132:175|132:175|75:220,1,170.999994781494,10|0,0:0|0:0,0:0:0:0:
29,261,298531,6,0,B|24:306|24:306|81:371|81:371|136:328,1,199.499993911743,14|0,0:1|0:0,0:0:0:0:
165,335,298825,2,0,P|228:331|283:336,1,113.999996520996,10|0,0:0|0:0,0:0:0:0:
500,372,299119,5,10,0:1:0:0:
300,228,299266,1,8,0:1:0:0:
408,38,299413,1,10,0:0:0:0:
492,157,299560,6,8,B|440:243|327:204|327:204|329:146|307:104,1,265.999991882324,14|8,0:1|0:1,0:1:0:0:
20,25,300002,2,0,B|13:133|136:161|136:161|186:128,1,227.999993041992,8|8,0:0|0:1,0:0:0:0:
141,17,300443,1,8,0:1:0:0:
43,229,300590,5,10,0:0:0:0:
30,272,300663,1,8,0:0:0:0:
41,316,300737,1,8,0:0:0:0:
72,349,300810,1,8,0:0:0:0:
116,364,300884,6,0,B|232:377|172:295|327:322,1,199.499993911743,14|0,0:1|0:0,0:0:0:0:
326,286,301178,2,0,B|312:229|312:229|333:168,1,113.999996520996,8|0,0:0|0:0,0:0:0:0:
141,17,301472,5,10,0:1:0:0:
433,64,301619,1,10,0:1:0:0:
300,0,301766,1,10,0:0:0:0:
326,286,301913,6,8,B|346:378|458:370|458:370|483:318|444:270,1,265.999991882324,14|8,0:1|0:1,0:1:0:0:
212,366,302355,2,0,B|125:369|100:280|100:280|26:291,1,227.999993041992,8|10,0:0|0:1,0:0:0:0:
0,377,302796,1,8,0:1:0:0:
161,108,302943,2,0,P|166:171|195:229,1,113.999996520996,10|0,0:0|0:0,0:0:0:0:
410,156,303237,6,0,B|435:182|435:182|456:79|381:26,1,199.499993911743,14|0,0:1|0:0,0:0:0:0:
408,9,303531,2,0,B|464:31|464:31|524:0,1,113.999996520996,8|0,0:0|0:0,0:0:0:0:
451,316,303825,1,10,0:1:0:0:
335,300,303972,2,0,B|391:322|391:322|438:297,1,113.999996520996,10|8,0:1|0:0,0:0:0:0:
265,167,304266,6,8,B|168:148|168:148|123:180|123:180|-4:151,1,265.999991882324,14|8,0:1|0:1,0:1:0:0:
36,345,304708,2,0,P|92:323|145:264,1,113.999996520996,10|0,0:0|0:0,0:0:0:0:
208,8,305002,2,8,P|264:30|317:89,1,113.999996520996,10|8,0:1|0:1,0:1:0:0:
499,175,305296,2,0,B|516:95|450:53|450:53|409:86,1,170.999994781494,10|0,0:0|0:0,0:0:0:0:
396,159,305590,6,0,P|398:233|450:268,1,132.999995941162,14|0,0:1|0:0,0:0:0:0:
302,66,305884,2,0,B|266:59|266:59|245:71|245:71|184:62,1,113.999996520996,10|0,0:0|0:0,0:0:0:0:
20,33,306178,5,8,0:0:0:0:
2,86,306251,1,8,0:0:0:0:
11,142,306325,1,10,0:3:0:0:
43,188,306398,1,8,0:3:0:0:
93,215,306472,1,4,0:3:0:0:
150,218,306545,1,4,0:3:0:0:
201,194,306619,1,14,0:1:0:0:
256,192,306693,12,2,307649,0:0:0:0:
357,220,307943,6,0,B|395:200|395:200|481:245|477:366,1,227.999993041992,14|0,0:0|0:0,0:0:0:0:
272,305,308384,2,0,B|125:258|182:360|37:307,1,227.999993041992,14|8,0:0|0:1,0:0:0:0:
47,22,308825,6,0,B|29:128|172:191|172:191|227:149|217:79,1,341.999989562989,14|8,0:0|0:1,0:0:0:0:
219,93,309413,1,8,0:1:0:0:
460,60,309560,2,0,B|407:42|407:42|378:62|378:62|286:35,1,170.999994781494,8|0,0:0|0:0,0:0:0:0:
303,4,309855,5,8,0:3:0:0:
357,220,310002,1,8,0:3:0:0:
357,220,310296,5,14,0:1:0:0:
384,138,310443,1,2,0:0:0:0:
454,275,310590,2,0,P|472:333|474:369,1,95,10|0,0:0|0:0,0:0:0:0:
357,220,310884,2,8,P|341:264|337:312,1,95,10|8,0:1|0:1,0:1:0:0:
223,97,311178,5,2,0:0:0:0:
168,211,311325,2,0,B|134:237|134:237|93:165|93:165|129:95,1,190,10|10,0:0|0:1,0:0:0:0:
1,285,311766,6,0,B|61:305|61:305|88:355|88:355|162:384,1,190,10|10,0:0|0:1,0:0:0:0:
47,64,312208,1,10,0:1:0:0:
122,107,312355,2,0,L|146:214,1,95,10|0,0:0|0:0,0:0:0:0:
387,21,312649,5,10,0:1:0:0:
291,156,312796,1,2,0:0:0:0:
366,113,312943,2,8,L|390:6,1,95,10|0,0:0|0:0,0:0:0:0:
291,156,313237,2,8,L|311:248,1,95,10|8,0:1|0:1,0:1:0:0:
366,113,313531,5,2,0:0:0:0:
450,297,313678,2,8,B|475:317|475:317|511:236|440:170,1,190,10|8,0:0|0:1,0:0:0:0:
221,371,314119,5,10,0:0:0:0:
137,310,314266,1,2,0:0:0:0:
170,203,314413,1,10,0:1:0:0:
86,142,314560,1,10,0:1:0:0:
20,331,314708,5,10,0:0:0:0:
20,331,314855,2,0,L|40:238,1,95,2|12,0:0|0:1,0:0:0:0:
90,38,315149,5,10,0:1:0:0:
170,203,315296,1,14,0:0:0:0:
272,67,315443,1,10,0:1:0:0:
192,232,315590,1,14,0:0:0:0:
188,38,315737,5,10,0:1:0:0:
326,280,315884,1,10,0:1:0:0:
403,4,316031,2,0,B|417:102|485:49|492:183,1,190,14|8,0:0|0:1,0:0:0:0:
424,360,316472,2,0,P|479:353|512:323,1,95,14|0,0:0|0:0,0:0:0:0:
399,243,316766,5,8,0:0:0:0:
352,233,316839,1,8,0:0:0:0:
305,226,316913,1,8,0:0:0:0:
258,227,316986,1,8,0:0:0:0:
214,245,317060,1,8,0:0:0:0:
177,275,317133,1,8,0:0:0:0:
132,287,317207,1,8,0:0:0:0:
84,284,317280,1,8,0:0:0:0:
38,275,317354,5,14,0:1:0:0:
235,111,317502,1,8,0:1:0:0:
34,237,317649,1,12,0:0:0:0:
231,73,317797,1,8,0:1:0:0:
103,60,317943,5,14,0:0:0:0:
170,306,318090,1,8,0:1:0:0:
231,73,318237,1,8,0:1:0:0:
186,326,318384,2,0,B|152:320|152:320|135:329|135:329|76:320,1,95,14|0,0:0|0:0,0:0:0:0:
25,367,318678,1,8,0:1:0:0:
311,203,318825,6,0,B|345:197|345:197|362:206|362:206|421:197,1,95,14|0,0:0|0:0,0:0:0:0:
329,370,319119,2,0,P|322:321|345:284,1,95,14|0,0:0|0:0,0:0:0:0:
390,21,319413,5,10,0:0:0:0:
503,381,319560,1,14,0:0:0:0:
256,192,319634,12,0,330296,0:0:0:0:
