osu file format v14

[General]
AudioFilename: audio.mp3
AudioLeadIn: 0
PreviewTime: 125060
Countdown: 0
SampleSet: Normal
StackLeniency: 0.4
Mode: 0
LetterboxInBreaks: 0
WidescreenStoryboard: 1

[Editor]
Bookmarks: 347,13868,27389,47671,78826,88183,106914,125060,144377,163109,183459,216947,230280,243800,270842,287743,314919,333650,352382,371114,387504
DistanceSpacing: 0.3
BeatDivisor: 4
GridSize: 16
TimelineZoom: 1.1

[Metadata]
Title:Devils Lullaby
TitleUnicode:Devils Lullaby
Artist:Asriel
ArtistUnicode:Asriel
Creator:Asonate
Version:Chousen
Source:
Tags:KOKOMI KUROSE KEISUKE gothic rock metal
BeatmapID:2174840
BeatmapSetID:1040626

[Difficulty]
HPDrainRate:5
CircleSize:3.7
OverallDifficulty:8.7
ApproachRate:9.5
SliderMultiplier:1.5
SliderTickRate:1

[Events]
//Background and Video events
0,0,"Saya.jpg",0,0
//Break Periods
2,163309,179753
2,230480,239895
//Storyboard Layer 0 (Background)
//Storyboard Layer 1 (Fail)
//Storyboard Layer 2 (Pass)
//Storyboard Layer 3 (Foreground)
//Storyboard Layer 4 (Overlay)
//Storyboard Sound Samples

[TimingPoints]
347,422.535211267606,4,2,0,65,1,0
558,-100,4,2,0,5,0,0
663,-100,4,2,0,65,0,0
875,-100,4,2,0,5,0,0
980,-100,4,2,0,65,0,0
1192,-100,4,2,0,5,0,0
1403,-100,4,2,0,65,0,0
2248,-100,4,2,0,5,0,0
2354,-100,4,2,0,65,0,0
2565,-100,4,2,0,5,0,0
2670,-100,4,2,0,65,0,0
2882,-100,4,2,0,5,0,0
3093,-100,4,2,0,65,0,0
3938,-100,4,2,0,5,0,0
4044,-100,4,2,0,65,0,0
4255,-100,4,2,0,5,0,0
4361,-100,4,2,0,65,0,0
4572,-100,4,2,0,5,0,0
4783,-100,4,2,0,65,0,0
6473,-100,4,2,0,5,0,0
6685,-133.333333333333,4,2,0,65,0,0
7001,-133.333333333333,4,2,0,5,0,0
7107,-100,4,2,0,65,0,0
9008,-100,4,2,0,5,0,0
9114,-100,4,2,0,65,0,0
9325,-100,4,2,0,5,0,0
9431,-100,4,2,0,65,0,0
9642,-100,4,2,0,5,0,0
9854,-100,4,2,0,65,0,0
10699,-100,4,2,0,5,0,0
10804,-100,4,2,0,65,0,0
11016,-100,4,2,0,5,0,0
11121,-100,4,2,0,65,0,0
11332,-100,4,2,0,5,0,0
11544,-100,4,2,0,65,0,0
12177,-66.6666666666667,4,3,0,65,0,0
12283,-66.6666666666667,4,3,0,5,0,0
12389,-66.6666666666667,4,3,0,65,0,0
12917,-66.6666666666667,4,3,0,5,0,0
13023,-66.6666666666667,4,3,0,65,0,0
13868,211.267605633803,4,1,0,65,1,1
13973,-100,4,1,0,40,0,1
14079,-100,4,1,0,65,0,1
14290,-100,4,1,0,40,0,1
14396,-100,4,1,0,65,0,1
14713,-100,4,1,0,40,0,1
14819,-100,4,1,0,65,0,1
15029,-100,4,1,0,40,0,1
15135,-100,4,1,0,65,0,1
15241,-100,4,1,0,40,0,1
15347,-100,4,1,0,65,0,1
15452,-100,4,1,0,40,0,1
15558,-100,4,1,0,65,0,1
15663,-100,4,1,0,40,0,1
15769,-100,4,1,0,65,0,1
15980,-100,4,1,0,40,0,1
16086,-100,4,1,0,65,0,1
16403,-100,4,1,0,40,0,1
16509,-100,4,1,0,65,0,1
16720,-100,4,1,0,40,0,1
16826,-100,4,1,0,65,0,1
16931,-100,4,1,0,40,0,1
17037,-100,4,1,0,65,0,1
17142,-100,4,1,0,40,0,1
17248,-100,4,1,0,65,0,1
17353,-100,4,1,0,40,0,1
17459,-100,4,1,0,65,0,1
17670,-100,4,1,0,40,0,1
17776,-100,4,1,0,65,0,1
18093,-100,4,1,0,40,0,1
18199,-100,4,1,0,65,0,1
18410,-100,4,1,0,40,0,1
18516,-100,4,1,0,65,0,1
18621,-100,4,1,0,40,0,1
18727,-100,4,1,0,65,0,1
18832,-100,4,1,0,40,0,1
18938,-100,4,1,0,65,0,1
19044,-100,4,1,0,40,0,1
19150,-100,4,1,0,65,0,1
19360,-100,4,1,0,40,0,1
19466,-100,4,1,0,65,0,1
19783,-100,4,1,0,40,0,1
19889,-100,4,1,0,65,0,1
20100,-100,4,1,0,40,0,1
20206,-100,4,1,0,65,0,1
20734,-100,4,1,0,40,0,1
20840,-100,4,1,0,65,0,1
21051,-100,4,1,0,40,0,1
21157,-100,4,1,0,65,0,1
21473,-100,4,1,0,40,0,1
21579,-100,4,1,0,65,0,1
21790,-100,4,1,0,40,0,1
21896,-100,4,1,0,65,0,1
22001,-100,4,1,0,40,0,1
22107,-100,4,1,0,65,0,1
22213,-100,4,1,0,40,0,1
22319,-100,4,1,0,65,0,1
22424,-100,4,1,0,40,0,1
22530,-100,4,1,0,65,0,1
22741,-100,4,1,0,40,0,1
22847,-100,4,1,0,65,0,1
23163,-100,4,1,0,40,0,1
23269,-100,4,1,0,65,0,1
23480,-100,4,1,0,40,0,1
23586,-100,4,1,0,65,0,1
23691,-100,4,1,0,40,0,1
23797,-100,4,1,0,65,0,1
23903,-100,4,1,0,40,0,1
24009,-100,4,1,0,65,0,1
24114,-100,4,1,0,40,0,1
24220,-100,4,1,0,65,0,1
24431,-100,4,1,0,40,0,1
24537,-100,4,1,0,65,0,1
24853,-100,4,1,0,40,0,1
24959,-100,4,1,0,65,0,1
25170,-100,4,1,0,40,0,1
25276,-100,4,1,0,65,0,1
25382,-100,4,1,0,40,0,1
25488,-100,4,1,0,65,0,1
25593,-100,4,1,0,40,0,1
25699,-100,4,1,0,65,0,1
25910,-100,4,1,0,40,0,1
26016,-100,4,1,0,65,0,1
26121,-100,4,1,0,40,0,1
26227,-100,4,1,0,65,0,1
26438,-100,4,1,0,40,0,1
26544,-100,4,1,0,65,0,1
27177,-200,4,1,0,65,0,1
27389,422.550089791894,4,3,0,65,1,0
27389,-66.6666666666667,4,3,0,65,0,0
28973,-66.6666666666667,4,3,0,5,0,0
29079,-66.6666666666667,4,3,0,65,0,0
30663,-66.6666666666667,4,3,0,5,0,0
30769,-66.6666666666667,4,3,0,65,0,0
32353,-66.6666666666667,4,3,0,5,0,0
32459,-66.6666666666667,4,3,0,65,0,0
34044,-66.6666666666667,4,3,0,5,0,0
34149,-66.6666666666667,4,3,0,65,0,0
35734,-66.6666666666667,4,3,0,5,0,0
35840,-66.6666666666667,4,3,0,65,0,0
37424,-66.6666666666667,4,3,0,5,0,0
37530,-66.6666666666667,4,3,0,65,0,0
39114,-66.6666666666667,4,3,0,5,0,0
39220,-100,4,3,0,65,0,0
47301,-100,4,3,0,5,0,0
47460,-100,4,3,0,65,0,0
47512,-100,4,3,0,5,0,0
47671,422.550089791894,3,2,0,65,1,0
47987,-100,3,2,0,5,0,0
48093,-100,3,2,0,65,0,0
57706,-100,3,2,0,5,0,0
57812,-100,3,2,0,65,0,0
64467,-100,3,2,0,5,0,0
64573,-100,3,2,0,65,0,0
68692,-100,3,2,0,5,0,0
68798,-100,3,2,0,65,0,0
72918,-100,3,2,0,5,0,0
73024,-100,3,2,0,65,0,0
74186,-100,3,2,0,5,0,0
74291,-100,3,2,0,65,0,0
75031,-100,3,2,0,5,0,0
75136,-100,3,2,0,65,0,0
76721,-100,3,2,0,5,0,0
76826,666.666666666667,3,2,0,65,1,0
78659,-100,3,2,0,5,0,0
78826,588.29296989901,4,2,0,65,1,0
83238,535.714285714286,4,2,0,65,1,0
83505,584.795321637427,4,2,0,65,1,0
85844,-100,4,3,0,65,0,0
88183,292.682926829268,4,1,0,65,1,0
88183,-80,4,1,0,65,0,1
88402,-80,4,1,0,5,0,1
88475,-80,4,1,0,65,0,1
89426,-80,4,1,0,5,0,1
89500,-80,4,1,0,65,0,1
90597,-80,4,1,0,5,0,1
90670,-80,4,1,0,65,0,1
91768,-80,4,1,0,5,0,1
91841,-80,4,1,0,65,0,1
92792,-80,4,1,0,5,0,1
92865,-80,4,1,0,65,0,1
93012,-80,4,1,0,5,0,1
93085,-80,4,1,0,65,0,1
93231,-80,4,1,0,5,0,1
93304,-80,4,1,0,65,0,1
94109,-80,4,1,0,5,0,1
94183,-80,4,1,0,65,0,1
95280,-80,4,1,0,5,0,1
95353,-80,4,1,0,65,0,1
97768,-80,4,1,0,5,0,1
97841,-80,4,1,0,65,0,1
98792,-80,4,1,0,5,0,1
98865,-80,4,1,0,65,0,1
99963,-80,4,1,0,5,0,1
100036,-80,4,1,0,65,0,1
101134,-80,4,1,0,5,0,1
101207,-80,4,1,0,65,0,1
102158,-80,4,1,0,5,0,1
102231,-80,4,1,0,65,0,1
102451,-80,4,1,0,5,0,1
102524,-80,4,1,0,65,0,1
103475,-80,4,1,0,5,0,1
103548,-80,4,1,0,65,0,1
104646,-80,4,1,0,5,0,1
104719,-80,4,1,0,65,0,1
105158,-100,4,1,0,65,0,1
106914,585.422968094448,4,3,0,65,1,0
114231,-100,4,3,0,5,0,0
114378,-100,4,3,0,65,0,0
114670,-100,4,3,0,5,0,0
114817,-100,4,3,0,65,0,0
115109,-100,4,3,0,5,0,0
115256,-100,4,3,0,65,0,0
115988,-133.333333333333,4,3,0,65,0,0
116207,-100,4,3,0,5,0,0
116280,292.682926829268,4,1,0,65,1,0
118621,-79.9999999999999,4,1,0,65,0,0
118840,-79.9999999999999,4,1,0,5,0,0
118914,-79.9999999999999,4,1,0,65,0,0
121182,-79.9999999999999,4,1,0,5,0,0
121255,-79.9999999999999,4,1,0,65,0,0
122645,-79.9999999999999,4,1,0,5,0,0
122719,-79.9999999999999,4,1,0,65,0,0
122938,-79.9999999999999,4,1,0,5,0,0
123011,-79.9999999999999,4,1,0,65,0,0
123231,-79.9999999999999,4,1,0,5,0,0
123304,-79.9999999999999,4,1,0,65,0,0
124328,-200,4,1,0,65,0,0
125645,-80,4,1,0,65,0,1
126158,-80,4,1,0,5,0,1
126231,-80,4,1,0,65,0,1
126889,-80,4,1,0,5,0,1
126962,-80,4,1,0,65,0,1
128206,-80,4,1,0,5,0,1
128279,-80,4,1,0,65,0,1
128792,-80,4,1,0,5,0,1
128865,-80,4,1,0,65,0,1
129670,-80,4,1,0,5,0,1
129743,-80,4,1,0,65,0,1
130548,-80,4,1,0,5,0,1
130621,-80,4,1,0,65,0,1
131572,-80,4,1,0,5,0,1
131645,-80,4,1,0,65,0,1
132889,-80,4,1,0,5,0,1
132962,-80,4,1,0,65,0,1
133914,-80,4,1,0,5,0,1
133987,-80,4,1,0,65,0,1
134499,-80,4,1,0,5,0,1
134572,-80,4,1,0,65,0,1
134938,-80,4,1,0,5,0,1
135011,-80,4,1,0,65,0,1
136255,-80,4,1,0,5,0,1
136328,-80,4,1,0,65,0,1
137353,-66.6666666666667,4,1,0,65,0,1
137572,-66.6666666666667,4,1,0,5,0,1
137645,-66.6666666666667,4,1,0,65,0,1
138158,-66.6666666666667,4,1,0,5,0,1
138231,-66.6666666666667,4,1,0,65,0,1
138597,-66.6666666666667,4,1,0,5,0,1
138670,-80,4,1,0,65,0,1
139036,-80,4,1,0,5,0,1
139109,-80,4,1,0,65,0,1
139694,-80,4,1,0,65,0,1
139914,-80,4,1,0,5,0,1
139987,-80,4,1,0,65,0,1
140938,-80,4,1,0,5,0,1
141011,-80,4,1,0,65,0,1
141377,-80,4,1,0,5,0,1
141450,-80,4,1,0,65,0,1
142255,-80,4,1,0,5,0,1
142328,-80,4,1,0,65,0,1
143279,-80,4,1,0,5,0,1
143353,-80,4,1,0,65,0,1
144377,-80,4,1,0,65,0,1
144597,-80,4,1,0,5,0,1
144670,-80,4,1,0,65,0,1
145109,-133.333333333333,4,1,0,65,0,1
145401,-80,4,1,0,65,0,1
146279,-133.333333333333,4,1,0,65,0,1
146572,-80,4,1,0,65,0,1
149279,-80,4,1,0,5,0,1
149353,-80,4,1,0,65,0,1
149792,-133.333333333333,4,1,0,65,0,1
150084,-80,4,1,0,65,0,1
152645,-80,4,1,0,5,0,1
152719,-80,4,1,0,65,0,1
153962,-80,4,1,0,5,0,1
154036,-80,4,1,0,65,0,1
154475,-133.333333333333,4,1,0,65,0,1
154767,-80,4,1,0,65,0,1
155645,-133.333333333333,4,1,0,65,0,1
155938,-80,4,1,0,65,0,1
158645,-80,4,1,0,5,0,1
158719,-80,4,1,0,65,0,1
161792,-133.333333333333,4,1,0,65,0,1
163109,365.296803652968,3,2,0,65,1,0
167127,346.820809248555,3,2,0,65,1,0
167473,357.142857142857,3,2,0,65,1,0
171669,-100,3,2,0,5,0,0
171758,355.029585798817,3,2,0,65,1,0
180278,1190.47619047619,3,2,0,65,1,0
182361,-100,3,2,0,5,0,0
182658,545.454545454546,3,2,0,65,1,0
182930,705.882352941176,3,2,0,65,1,0
183459,247.933884297521,6,3,0,65,1,1
183459,-66.6666666666667,6,3,0,65,0,1
183768,-66.6666666666667,6,3,0,5,0,1
183830,-66.6666666666667,6,3,0,65,0,1
184140,-66.6666666666667,6,3,0,5,0,1
184202,-133.333333333333,6,3,0,65,0,1
184326,283.018867924528,6,3,0,5,1,1
184467,270.27027027027,6,3,0,65,1,1
184737,270.27027027027,6,3,0,65,1,1
185007,235.294117647059,6,3,0,65,1,1
185007,-66.6666666666667,6,3,0,65,0,1
185301,-66.6666666666667,6,3,0,5,0,1
185359,-66.6666666666667,6,3,0,65,0,1
185654,-66.6666666666667,6,3,0,5,0,1
185712,272.727272727273,6,3,0,65,1,1
185712,-133.333333333333,6,3,0,65,0,1
185848,-133.333333333333,6,3,0,5,0,1
185984,-133.333333333333,6,3,0,65,0,1
186257,255.31914893617,6,3,0,65,1,1
186512,235.294117647059,6,3,0,65,1,1
186512,-66.6666666666667,6,3,0,65,0,1
186806,-66.6666666666667,6,3,0,5,0,1
186864,240,6,3,0,65,1,1
186864,-66.6666666666667,6,3,0,65,0,1
187164,-66.6666666666667,6,3,0,5,0,1
187224,-133.333333333333,6,3,0,65,0,1
187344,333.333333333333,6,3,0,5,1,1
187510,272.727272727273,6,3,0,65,1,1
187782,250,6,3,0,65,1,1
188032,228.571428571429,6,3,0,65,1,1
188032,-66.6666666666667,6,3,0,65,0,1
188317,-66.6666666666667,6,3,0,5,0,1
188374,-66.6666666666667,6,3,0,65,0,1
188660,-66.6666666666667,6,3,0,5,0,1
188717,300,6,3,0,65,1,1
188717,-133.333333333333,6,3,0,65,0,1
188867,-133.333333333333,6,3,0,5,0,1
189017,266.666666666667,6,3,0,65,1,1
189550,235.294117647059,6,3,0,65,1,1
189550,-66.6666666666667,6,3,0,65,0,1
189667,-66.6666666666667,6,3,0,5,0,1
189726,-66.6666666666667,6,3,0,65,0,1
189844,-66.6666666666667,6,3,0,5,0,1
189902,-66.6666666666667,6,3,0,65,0,1
190197,-66.6666666666667,6,3,0,5,0,1
190255,279.06976744186,6,3,0,65,1,1
190255,-133.333333333333,6,3,0,65,0,1
190394,-133.333333333333,6,3,0,5,0,1
190534,-133.333333333333,6,3,0,65,0,1
190813,260.869565217391,6,3,0,65,1,1
191073,235.294117647059,6,3,0,65,1,1
191073,-66.6666666666667,6,3,0,65,0,1
191190,-66.6666666666667,6,3,0,5,0,1
191249,-66.6666666666667,6,3,0,65,0,1
191367,-66.6666666666667,6,3,0,5,0,1
191425,-66.6666666666667,6,3,0,65,0,1
191720,-66.6666666666667,6,3,0,5,0,1
191778,285.714285714286,6,3,0,65,1,1
191778,-133.333333333333,6,3,0,65,0,1
191920,-133.333333333333,6,3,0,5,0,1
192063,260.869565217391,6,3,0,65,1,1
192584,235.294117647059,6,3,0,65,1,1
192584,-66.6666666666667,6,3,0,65,0,1
192878,-66.6666666666667,6,3,0,5,0,1
192936,285.714285714286,6,3,0,65,1,1
192936,-66.6666666666667,6,3,0,65,0,1
193221,300,6,3,0,5,1,1
193296,272.727272727273,6,3,0,65,1,1
193296,-133.333333333333,6,3,0,65,0,1
193568,279.06976744186,6,3,0,65,1,1
193568,-133.333333333333,6,3,0,65,0,1
193847,263.157894736842,6,3,0,65,1,1
193847,-133.333333333333,6,3,0,65,0,1
194110,364.188163884674,6,3,0,65,1,1
194474,352.941176470588,6,3,0,65,1,1
194826,272.727272727273,6,3,0,65,1,1
195098,257.510729613734,6,3,0,65,1,1
195613,222.222222222222,6,3,0,65,1,1
195779,-100,6,3,0,5,0,1
195835,-100,6,3,0,65,0,1
196835,-100,6,3,0,40,0,1
196946,-100,6,3,0,65,0,1
197279,-100,6,3,0,40,0,1
197390,-133.333333333333,6,3,0,65,0,1
197557,-133.333333333333,6,3,0,5,0,1
197613,-66.6666666666667,6,3,0,65,0,1
197724,-66.6666666666667,6,3,0,40,0,1
197835,-100,6,3,0,65,0,1
198279,-100,6,3,0,65,0,1
198446,-100,6,3,0,5,0,1
198501,-100,6,3,0,65,0,1
199113,-100,6,3,0,5,0,1
199168,-100,6,3,0,65,0,1
199279,-100,6,3,0,40,0,1
199390,-100,6,3,0,65,0,1
199501,-100,6,3,0,40,0,1
199613,-100,6,3,0,65,0,1
199779,-100,6,3,0,5,0,1
199835,-100,6,3,0,65,0,1
200613,-100,6,3,0,40,0,1
200724,-100,6,3,0,65,0,1
200835,-100,6,3,0,40,0,1
200946,-100,6,3,0,65,0,1
201113,-100,6,3,0,5,0,1
201168,-100,6,3,0,65,0,1
202168,-100,6,3,0,40,0,1
202279,-133.333333333333,6,3,0,65,0,1
202446,-133.333333333333,6,3,0,5,0,1
202501,-66.6666666666667,6,3,0,65,0,1
202613,-66.6666666666667,6,3,0,40,0,1
202724,-133.333333333333,6,3,0,65,0,1
202890,-133.333333333333,6,3,0,5,0,1
202946,-66.6666666666667,6,3,0,65,0,1
203057,-66.6666666666667,6,3,0,40,0,1
203168,-100,6,3,0,65,0,1
203613,-100,6,3,0,65,0,1
203779,-100,6,3,0,5,0,1
203835,-100,6,3,0,65,0,1
203946,-100,6,3,0,40,0,1
204057,-100,6,3,0,65,0,1
204446,-100,6,3,0,5,0,1
204501,-100,6,3,0,65,0,1
204613,-100,6,3,0,40,0,1
204724,-100,6,3,0,65,0,1
204835,-100,6,3,0,40,0,1
204946,-100,6,3,0,65,0,1
205113,-100,6,3,0,5,0,1
205168,-100,6,3,0,65,0,1
205779,-100,6,3,0,5,0,1
205835,-100,6,3,0,65,0,1
206131,-100,6,3,0,30,0,1
206279,-100,6,3,0,65,0,1
207057,-100,6,3,0,40,0,1
207168,-100,6,3,0,65,0,1
207279,-100,6,3,0,40,0,1
207390,-100,6,3,0,65,0,1
207501,-100,6,3,0,40,0,1
207613,-100,6,3,0,65,0,1
207779,-100,6,3,0,5,0,1
207835,-100,6,3,0,65,0,1
208446,-100,6,3,0,5,0,1
208501,-100,6,3,0,65,0,1
208890,-100,6,3,0,5,0,1
208946,-100,6,3,0,65,0,1
209724,-100,6,3,0,40,0,1
209835,-100,6,3,0,65,0,1
210224,-100,6,3,0,5,0,1
210279,-133.333333333333,6,3,0,65,0,1
210446,-133.333333333333,6,3,0,5,0,1
210501,-66.6666666666667,6,3,0,65,0,1
210613,-66.6666666666667,6,3,0,40,0,1
210724,-133.333333333333,6,3,0,65,0,1
210890,-133.333333333333,6,3,0,5,0,1
210946,-66.6666666666667,6,3,0,65,0,1
211057,-66.6666666666667,6,3,0,40,0,1
211168,-133.333333333333,6,3,0,65,0,1
211335,-133.333333333333,6,3,0,5,0,1
211390,-66.6666666666667,6,3,0,65,0,1
211501,-66.6666666666667,6,3,0,40,0,1
211612,-100,6,3,0,65,0,1
212390,-100,6,3,0,40,0,1
212501,-100,6,3,0,65,0,1
212612,-100,6,3,0,40,0,1
212724,-100,6,3,0,65,0,1
212835,-100,6,3,0,40,0,1
212946,-100,6,3,0,65,0,1
213112,-100,6,3,0,5,0,1
213168,-100,6,3,0,65,0,1
213946,-100,6,3,0,40,0,1
214057,-100,6,3,0,65,0,1
214168,-100,6,3,0,40,0,1
214279,-79.9999999999999,6,3,0,65,0,1
214446,-79.9999999999999,6,3,0,5,0,1
214501,-79.9999999999999,6,3,0,65,0,1
214612,-79.9999999999999,6,3,0,40,0,1
214724,-100,6,3,0,65,0,1
215279,-100,6,3,0,40,0,1
215390,-100,6,3,0,65,0,1
215724,-80,6,3,0,65,0,1
216835,-80,6,3,0,5,0,1
216946,444.444444444444,6,3,0,65,1,0
218168,-100,6,3,0,5,0,0
218279,-100,6,3,0,65,0,0
218834,-100,6,3,0,5,0,0
218946,-100,6,3,0,65,0,0
219501,-100,6,3,0,5,0,0
219612,-100,6,3,0,65,0,0
221501,-100,6,3,0,5,0,0
221612,-100,6,3,0,65,0,0
223501,-100,6,3,0,5,0,0
223612,-100,6,3,0,65,0,0
224168,-100,6,3,0,5,0,0
224279,-100,6,3,0,65,0,0
224834,-100,6,3,0,5,0,0
224946,-100,6,3,0,65,0,0
225501,-100,6,3,0,5,0,0
225612,-100,6,3,0,65,0,0
226168,-100,6,3,0,5,0,0
226279,-100,6,3,0,65,0,0
226834,-100,6,3,0,5,0,0
226946,-100,6,3,0,65,0,0
230279,422.505457362158,4,3,0,65,1,0
242109,-66.6666666666667,4,3,0,65,0,0
242848,-66.6666666666667,4,3,0,5,0,0
242954,-66.6666666666667,4,3,0,65,0,0
243799,211.267605633803,4,3,0,65,1,1
243904,-100,4,3,0,40,0,1
244010,-100,4,3,0,65,0,1
244221,-100,4,3,0,40,0,1
244327,-100,4,3,0,65,0,1
244644,-100,4,3,0,40,0,1
244750,-100,4,3,0,65,0,1
244960,-100,4,3,0,40,0,1
245066,-100,4,3,0,65,0,1
245172,-100,4,3,0,40,0,1
245278,-100,4,3,0,65,0,1
245383,-100,4,3,0,40,0,1
245489,-100,4,3,0,65,0,1
245594,-100,4,3,0,40,0,1
245700,-100,4,3,0,65,0,1
245911,-100,4,3,0,40,0,1
246017,-100,4,3,0,65,0,1
246334,-100,4,3,0,40,0,1
246440,-100,4,3,0,65,0,1
246651,-100,4,3,0,40,0,1
246757,-100,4,3,0,65,0,1
246862,-100,4,3,0,40,0,1
246968,-100,4,3,0,65,0,1
247073,-100,4,3,0,40,0,1
247179,-100,4,3,0,65,0,1
247284,-100,4,3,0,40,0,1
247390,-100,4,3,0,65,0,1
247601,-100,4,3,0,40,0,1
247707,-100,4,3,0,65,0,1
248024,-100,4,3,0,40,0,1
248130,-100,4,3,0,65,0,1
248341,-100,4,3,0,40,0,1
248447,-100,4,3,0,65,0,1
248552,-100,4,3,0,40,0,1
248658,-100,4,3,0,65,0,1
248763,-100,4,3,0,40,0,1
248869,-100,4,3,0,65,0,1
248975,-100,4,3,0,40,0,1
249081,-100,4,3,0,65,0,1
249291,-100,4,3,0,40,0,1
249397,-100,4,3,0,65,0,1
249608,-100,4,3,0,40,0,1
249714,-100,4,3,0,65,0,1
250665,-100,4,3,0,40,0,1
250771,-100,4,3,0,65,0,1
250982,-100,4,3,0,40,0,1
251088,-100,4,3,0,65,0,1
251404,-100,4,3,0,40,0,1
251510,-100,4,3,0,65,0,1
251721,-100,4,3,0,40,0,1
251827,-100,4,3,0,65,0,1
251932,-100,4,3,0,40,0,1
252038,-100,4,3,0,65,0,1
252144,-100,4,3,0,40,0,1
252250,-100,4,3,0,65,0,1
252355,-100,4,3,0,40,0,1
252461,-100,4,3,0,65,0,1
252672,-100,4,3,0,40,0,1
252778,-100,4,3,0,65,0,1
253094,-100,4,3,0,40,0,1
253200,-100,4,3,0,65,0,1
253411,-100,4,3,0,40,0,1
253517,-100,4,3,0,65,0,1
253622,-100,4,3,0,40,0,1
253728,-100,4,3,0,65,0,1
253834,-100,4,3,0,40,0,1
253940,-100,4,3,0,65,0,1
254045,-100,4,3,0,40,0,1
254151,-100,4,3,0,65,0,1
254362,-100,4,3,0,40,0,1
254468,-100,4,3,0,65,0,1
254784,-100,4,3,0,40,0,1
254890,-100,4,3,0,65,0,1
255101,-100,4,3,0,40,0,1
255207,-100,4,3,0,65,0,1
255313,-100,4,3,0,40,0,1
255419,-100,4,3,0,65,0,1
255524,-100,4,3,0,40,0,1
255630,-100,4,3,0,65,0,1
255735,-100,4,3,0,40,0,1
255841,-100,4,3,0,65,0,1
257425,-100,4,3,0,40,0,1
257531,-100,4,3,0,65,0,1
257742,-100,4,3,0,40,0,1
257848,-100,4,3,0,65,0,1
258165,-100,4,3,0,40,0,1
258271,-100,4,3,0,65,0,1
258482,-100,4,3,0,40,0,1
258588,-100,4,3,0,65,0,1
258904,-100,4,3,0,40,0,1
259010,-100,4,3,0,65,0,1
259115,-100,4,3,0,40,0,1
259221,-100,4,3,0,65,0,1
259432,-100,4,3,0,40,0,1
259538,-100,4,3,0,65,0,1
259855,-100,4,3,0,40,0,1
259961,-100,4,3,0,65,0,1
260172,-100,4,3,0,40,0,1
260278,-100,4,3,0,65,0,1
260383,-100,4,3,0,40,0,1
260489,-100,4,3,0,65,0,1
260594,-100,4,3,0,40,0,1
260700,-100,4,3,0,65,0,1
260806,-100,4,3,0,40,0,1
260912,-100,4,3,0,65,0,1
261122,-100,4,3,0,40,0,1
261228,-100,4,3,0,65,0,1
261545,-100,4,3,0,40,0,1
261651,-100,4,3,0,65,0,1
261862,-100,4,3,0,40,0,1
261968,-100,4,3,0,65,0,1
262073,-100,4,3,0,40,0,1
262179,-100,4,3,0,65,0,1
262284,-100,4,3,0,40,0,1
262390,-100,4,3,0,65,0,1
262496,-100,4,3,0,40,0,1
262602,-100,4,3,0,65,0,1
262813,-100,4,3,0,40,0,1
262919,-100,4,3,0,65,0,1
263235,-100,4,3,0,40,0,1
263341,-100,4,3,0,65,0,1
263552,-100,4,3,0,40,0,1
263658,-100,4,3,0,65,0,1
264027,-100,4,3,0,5,0,1
264080,-100,4,3,0,65,0,1
264186,-100,4,3,0,40,0,1
264292,-100,4,3,0,65,0,1
264503,-100,4,3,0,40,0,1
264609,-100,4,3,0,65,0,1
264925,-100,4,3,0,40,0,1
265031,-100,4,3,0,65,0,1
265242,-100,4,3,0,40,0,1
265348,-100,4,3,0,65,0,1
265453,-100,4,3,0,40,0,1
265559,-100,4,3,0,65,0,1
265665,-100,4,3,0,40,0,1
265771,-100,4,3,0,65,0,1
265876,-100,4,3,0,40,0,1
265982,-100,4,3,0,65,0,1
266193,-100,4,3,0,40,0,1
266299,-100,4,3,0,65,0,1
266615,-100,4,3,0,40,0,1
266721,-100,4,3,0,65,0,1
266932,-100,4,3,0,40,0,1
267038,-100,4,3,0,65,0,1
267144,-100,4,3,0,40,0,1
267250,-100,4,3,0,65,0,1
267355,-100,4,3,0,40,0,1
267461,-100,4,3,0,65,0,1
267566,-100,4,3,0,40,0,1
267672,-100,4,3,0,65,0,1
267883,-100,4,3,0,40,0,1
267989,-100,4,3,0,65,0,1
268306,-100,4,3,0,40,0,1
268412,-100,4,3,0,65,0,1
268622,-100,4,3,0,40,0,1
268728,-100,4,3,0,65,0,1
268834,-100,4,3,0,40,0,1
268940,-100,4,3,0,65,0,1
269045,-100,4,3,0,40,0,1
269151,-100,4,3,0,65,0,1
269890,-100,4,3,0,40,0,1
269996,-100,4,3,0,65,0,1
270841,422.535211267606,4,3,0,65,1,0
287742,-100,4,1,0,65,0,0
288059,-100,4,1,0,40,0,0
288164,-100,4,1,0,65,0,0
289010,-100,4,1,0,40,0,0
289221,-100,4,1,0,65,0,0
289538,-100,4,1,0,40,0,0
289643,-100,4,1,0,65,0,0
290594,-100,4,1,0,40,0,0
290699,-100,4,1,0,65,0,0
291439,-100,4,1,0,40,0,0
291544,-100,4,1,0,65,0,0
292390,-100,4,1,0,40,0,0
292601,-100,4,1,0,65,0,0
294819,-100,4,1,0,40,0,0
294924,-100,4,1,0,65,0,0
295136,-100,4,1,0,40,0,0
295348,-100,4,1,0,65,0,0
296298,-100,4,1,0,40,0,0
296403,-100,4,1,0,65,0,0
297038,-100,4,1,0,40,0,0
297249,-100,4,1,0,65,0,0
298200,-100,4,1,0,40,0,0
298305,-100,4,1,0,65,0,0
298939,-100,4,1,0,40,0,0
299150,-100,4,1,0,65,0,0
299679,-100,4,1,0,40,0,0
299784,-100,4,1,0,65,0,0
300524,-100,4,1,0,40,0,0
300629,-100,4,1,0,65,0,0
301157,-100,4,1,0,40,0,0
301262,-100,4,1,0,65,0,0
301580,-100,4,1,0,40,0,0
301685,-100,4,1,0,65,0,0
303059,-100,4,1,0,40,0,0
303164,-100,4,1,0,65,0,0
304115,-100,4,1,0,40,0,0
304220,-100,4,1,0,65,0,0
304960,-100,4,1,0,40,0,0
305065,-100,4,1,0,65,0,0
305488,-100,4,1,0,40,0,0
305700,-100,4,1,0,65,0,0
305911,-100,4,1,0,40,0,0
306122,-100,4,1,0,65,0,0
307918,-100,4,1,0,40,0,0
308023,-100,4,1,0,65,0,0
308341,-100,4,1,0,40,0,0
308446,-100,4,1,0,65,0,0
308657,-100,4,1,0,40,0,0
308869,-100,4,1,0,65,0,0
309819,-100,4,1,0,40,0,0
309924,-100,4,1,0,65,0,0
311404,293.040293040293,3,1,0,65,1,0
311404,-200,3,1,0,65,0,0
311623,-200,3,1,0,5,0,0
311697,-133.333333333333,3,1,0,65,0,0
311916,-133.333333333333,3,1,0,5,0,0
311990,-100,3,1,0,65,0,0
312209,-100,3,1,0,5,0,0
312283,-80,3,1,0,65,0,0
312649,-80,3,1,0,5,0,0
312722,-80,3,1,0,65,0,0
313455,267.857142857143,3,1,0,65,1,0
313722,283.018867924528,3,1,0,65,1,0
314288,327.868852459016,3,1,0,65,1,0
314615,303.030303030303,3,1,0,65,1,0
314918,292.684354557827,4,1,0,65,1,1
314918,-72.7272727272727,4,1,0,65,0,1
315431,-72.7272727272727,4,1,0,5,0,1
315504,-72.7272727272727,4,1,0,65,0,1
315722,-72.7272727272727,4,1,0,5,0,1
315796,-72.7272727272727,4,1,0,65,0,1
316162,-72.7272727272727,4,1,0,5,0,1
316235,-72.7272727272727,4,1,0,65,0,1
317039,-72.7272727272727,4,1,0,5,0,1
317113,-72.7272727272727,4,1,0,65,0,1
317479,-72.7272727272727,4,1,0,5,0,1
317552,-72.7272727272727,4,1,0,65,0,1
318065,-72.7272727272727,4,1,0,5,0,1
318138,-72.7272727272727,4,1,0,65,0,1
318943,-72.7272727272727,4,1,0,5,0,1
319016,-72.7272727272727,4,1,0,65,0,1
319821,-72.7272727272727,4,1,0,5,0,1
319894,-72.7272727272727,4,1,0,65,0,1
320405,-72.7272727272727,4,1,0,5,0,1
320479,-72.7272727272727,4,1,0,65,0,1
320845,-72.7272727272727,4,1,0,5,0,1
320918,-72.7272727272727,4,1,0,65,0,1
322162,-72.7272727272727,4,1,0,5,0,1
322235,-72.7272727272727,4,1,0,65,0,1
323187,-72.7272727272727,4,1,0,5,0,1
323260,-72.7272727272727,4,1,0,65,0,1
323772,-72.7272727272727,4,1,0,5,0,1
323845,-72.7272727272727,4,1,0,65,0,1
324211,-72.7272727272727,4,1,0,5,0,1
324284,-72.7272727272727,4,1,0,65,0,1
324796,-72.7272727272727,4,1,0,5,0,1
324869,-72.7272727272727,4,1,0,65,0,1
325088,-72.7272727272727,4,1,0,5,0,1
325161,-72.7272727272727,4,1,0,65,0,1
325528,-72.7272727272727,4,1,0,5,0,1
325601,-72.7272727272727,4,1,0,65,0,1
326405,-72.7272727272727,4,1,0,5,0,1
326479,-72.7272727272727,4,1,0,65,0,1
326626,-72.7272727272727,4,1,0,65,0,1
326845,-72.7272727272727,4,1,0,5,0,1
326918,-72.7272727272727,4,1,0,65,0,1
327431,-72.7272727272727,4,1,0,5,0,1
327504,-72.7272727272727,4,1,0,65,0,1
327870,-72.7272727272727,4,1,0,5,0,1
327943,-72.7272727272727,4,1,0,65,0,1
328309,-72.7272727272727,4,1,0,5,0,1
328382,-72.7272727272727,4,1,0,65,0,1
328747,-72.7272727272727,4,1,0,5,0,1
328820,-72.7272727272727,4,1,0,65,0,1
328893,-72.7272727272727,4,1,0,5,0,1
328967,-72.7272727272727,4,1,0,65,0,1
329187,-72.7272727272727,4,1,0,5,0,1
329260,-72.7272727272727,4,1,0,65,0,1
330211,-72.7272727272727,4,1,0,5,0,1
330284,-72.7272727272727,4,1,0,65,0,1
330650,-72.7272727272727,4,1,0,5,0,1
330723,-72.7272727272727,4,1,0,65,0,1
330942,-72.7272727272727,4,1,0,5,0,1
331015,-72.7272727272727,4,1,0,65,0,1
331235,-72.7272727272727,4,1,0,5,0,1
331308,-72.7272727272727,4,1,0,65,0,1
331528,-72.7272727272727,4,1,0,5,0,1
331601,-72.7272727272727,4,1,0,65,0,1
332113,-72.7272727272727,4,1,0,5,0,1
332186,-72.7272727272727,4,1,0,65,0,1
332552,-72.7272727272727,4,1,0,5,0,1
332626,-72.7272727272727,4,1,0,65,0,1
333649,-66.6666666666667,4,1,0,65,0,1
333869,-66.6666666666667,4,1,0,5,0,1
333942,-66.6666666666667,4,1,0,65,0,1
334381,-133.333333333333,4,1,0,65,0,1
334673,-66.6666666666667,4,1,0,65,0,1
334893,-66.6666666666667,4,1,0,5,0,1
334966,-66.6666666666667,4,1,0,65,0,1
335551,-133.333333333333,4,1,0,65,0,1
335844,-66.6666666666667,4,1,0,65,0,1
336064,-66.6666666666667,4,1,0,5,0,1
336137,-66.6666666666667,4,1,0,65,0,1
337235,-66.6666666666667,4,1,0,5,0,1
337308,-66.6666666666667,4,1,0,65,0,1
338551,-66.6666666666667,4,1,0,5,0,1
338625,-66.6666666666667,4,1,0,65,0,1
339064,-133.333333333333,4,1,0,65,0,1
339356,-66.6666666666667,4,1,0,65,0,1
339576,-66.6666666666667,4,1,0,5,0,1
339649,-66.6666666666667,4,1,0,65,0,1
340747,-66.6666666666667,4,1,0,5,0,1
340820,-66.6666666666667,4,1,0,65,0,1
341917,-66.6666666666667,4,1,0,5,0,1
341991,-66.6666666666667,4,1,0,65,0,1
343234,-66.6666666666667,4,1,0,5,0,1
343308,-66.6666666666667,4,1,0,65,0,1
343747,-133.333333333333,4,1,0,65,0,1
344039,-66.6666666666667,4,1,0,65,0,1
344259,-66.6666666666667,4,1,0,5,0,1
344332,-66.6666666666667,4,1,0,65,0,1
344917,-133.333333333333,4,1,0,65,0,1
345210,-66.6666666666667,4,1,0,65,0,1
345430,-66.6666666666667,4,1,0,5,0,1
345503,-66.6666666666667,4,1,0,65,0,1
346601,-66.6666666666667,4,1,0,5,0,1
346674,-66.6666666666667,4,1,0,65,0,1
347917,-66.6666666666667,4,1,0,5,0,1
347991,-66.6666666666667,4,1,0,65,0,1
348942,-66.6666666666667,4,1,0,5,0,1
349015,-66.6666666666667,4,1,0,65,0,1
349674,-66.6666666666667,4,1,0,5,0,1
349747,-66.6666666666667,4,1,0,65,0,1
351064,-133.333333333333,4,1,0,65,0,1
352381,-80,4,1,0,65,0,1
352601,-80,4,1,0,5,0,1
352674,-80,4,1,0,65,0,1
353332,-80,4,1,0,5,0,1
353405,-80,4,1,0,65,0,1
353625,-80,4,1,0,5,0,1
353698,-80,4,1,0,65,0,1
354064,-80,4,1,0,5,0,1
354137,-80,4,1,0,65,0,1
354357,-80,4,1,0,5,0,1
354430,-80,4,1,0,65,0,1
354942,-80,4,1,0,5,0,1
355015,-80,4,1,0,65,0,1
355381,-80,4,1,0,5,0,1
355454,-80,4,1,0,65,0,1
355674,-80,4,1,0,5,0,1
355747,-80,4,1,0,65,0,1
355966,-80,4,1,0,5,0,1
356040,-80,4,1,0,65,0,1
356406,-80,4,1,0,5,0,1
356479,-80,4,1,0,65,0,1
356698,-80,4,1,0,5,0,1
356771,-80,4,1,0,65,0,1
357284,-80,4,1,0,5,0,1
357357,-80,4,1,0,65,0,1
357723,-80,4,1,0,5,0,1
357796,-80,4,1,0,65,0,1
358015,-80,4,1,0,5,0,1
358088,-80,4,1,0,65,0,1
358308,-80,4,1,0,5,0,1
358381,-80,4,1,0,65,0,1
358747,-80,4,1,0,5,0,1
358820,-80,4,1,0,65,0,1
359040,-80,4,1,0,5,0,1
359113,-80,4,1,0,65,0,1
359186,-80,4,1,0,5,0,1
359259,-80,4,1,0,65,0,1
359332,-80,4,1,0,5,0,1
359406,-80,4,1,0,65,0,1
361820,-80,4,1,0,5,0,1
361893,-80,4,1,0,65,0,1
361967,-80,4,1,0,5,0,1
362040,-80,4,1,0,65,0,1
362259,-80,4,1,0,5,0,1
362332,-80,4,1,0,65,0,1
362552,-80,4,1,0,5,0,1
362625,-80,4,1,0,65,0,1
362991,-80,4,1,0,5,0,1
363064,-80,4,1,0,65,0,1
363723,-80,4,1,0,5,0,1
363796,-80,4,1,0,65,0,1
364015,-80,4,1,0,5,0,1
364088,-80,4,1,0,65,0,1
364308,-80,4,1,0,5,0,1
364381,-80,4,1,0,65,0,1
364747,-80,4,1,0,5,0,1
364820,-80,4,1,0,65,0,1
365040,-80,4,1,0,5,0,1
365113,-80,4,1,0,65,0,1
365332,-80,4,1,0,5,0,1
365406,-80,4,1,0,65,0,1
365771,-80,4,1,0,5,0,1
365845,-80,4,1,0,65,0,1
366064,-80,4,1,0,5,0,1
366137,-80,4,1,0,65,0,1
366503,-80,4,1,0,5,0,1
366576,-80,4,1,0,65,0,1
366649,-80,4,1,0,5,0,1
366723,-80,4,1,0,65,0,1
366942,-80,4,1,0,5,0,1
367015,-80,4,1,0,65,0,1
367381,-80,4,1,0,5,0,1
367454,-80,4,1,0,65,0,1
367674,-80,4,1,0,5,0,1
367747,-80,4,1,0,65,0,1
368113,-80,4,1,0,5,0,1
368186,-80,4,1,0,65,0,1
368406,-80,4,1,0,5,0,1
368479,-80,4,1,0,65,0,1
368698,-80,4,1,0,5,0,1
368771,-80,4,1,0,65,0,1
371113,-100,4,1,0,65,0,0
371332,-100,4,1,0,5,0,0
371406,-100,4,1,0,65,0,0
372064,-100,4,1,0,5,0,0
372137,-100,4,1,0,65,0,0
372357,-100,4,1,0,5,0,0
372430,-100,4,1,0,65,0,0
373381,-100,4,1,0,5,0,0
373454,-100,4,1,0,65,0,0
374406,-100,4,1,0,5,0,0
374479,-100,4,1,0,65,0,0
374698,-100,4,1,0,5,0,0
374771,-100,4,1,0,65,0,0
376454,-100,4,1,0,5,0,0
376528,-100,4,1,0,65,0,0
376747,-100,4,1,0,5,0,0
376820,-100,4,1,0,65,0,0
377040,-100,4,1,0,5,0,0
377113,-100,4,1,0,65,0,0
378064,-100,4,1,0,5,0,0
378137,-100,4,1,0,65,0,0
379089,-100,4,1,0,5,0,0
379162,-100,4,1,0,65,0,0
379381,-100,4,1,0,5,0,0
379454,-100,4,1,0,65,0,0
379674,-100,4,1,0,5,0,0
379747,-100,4,1,0,65,0,0
380698,-100,4,1,0,5,0,0
380771,-100,4,1,0,65,0,0
381137,-100,4,1,0,5,0,0
381211,-100,4,1,0,65,0,0
381430,-100,4,1,0,5,0,0
381503,-100,4,1,0,65,0,0
381723,-100,4,1,0,5,0,0
381796,-100,4,1,0,65,0,0
383332,-100,4,1,0,5,0,0
383406,-100,4,1,0,65,0,0
384064,-100,4,1,0,5,0,0
384137,-100,4,1,0,65,0,0
384357,-100,4,1,0,5,0,0
384430,-100,4,1,0,65,0,0
384796,-100,4,1,0,5,0,0
384869,-100,4,1,0,65,0,0
385089,-100,4,1,0,5,0,0
385162,-100,4,1,0,65,0,0
385381,-100,4,1,0,5,0,0
385454,-100,4,1,0,65,0,0
385820,-100,4,1,0,5,0,0
385893,-100,4,1,0,65,0,0
386406,-100,4,1,0,5,0,0
386479,-100,4,1,0,65,0,0
387503,292.682926829268,4,1,0,65,1,0
388527,-100,4,1,0,5,0,0
388673,-100,4,1,0,65,0,0
389990,524.017467248908,4,1,0,65,1,0
391038,285.714285714286,4,1,0,65,1,0
391395,352.941176470588,4,1,0,65,1,0
391483,454.545454545455,4,1,0,65,1,0
391596,491.803278688525,4,1,0,65,1,0
391718,535.714285714286,4,1,0,65,1,0
391985,521.739130434783,4,1,0,65,1,0
392767,662.983425414365,4,1,0,65,1,0
392932,677.966101694915,4,1,0,65,1,0
393101,833.333333333333,4,1,0,65,1,0
393309,250,4,1,0,65,1,0
393371,645.161290322581,4,1,0,65,1,0
393693,500,4,1,0,65,1,0
394193,322.58064516129,4,1,0,65,1,0
394193,-200,4,1,0,65,0,0
394838,526.315789473684,4,1,0,65,1,0
395232,805.369127516779,3,1,0,65,1,0
396037,574.162679425837,4,1,0,65,1,0
396611,500,4,1,0,65,1,0
396986,292.682926829268,4,1,0,65,1,0
398156,-100,4,1,0,25,0,0

[Colours]
Combo1 : 197,225,250
Combo2 : 250,222,197
Combo3 : 197,250,222
Combo4 : 222,197,250

[HitObjects]
117,118,347,6,0,P|147:101|198:102,1,75
77,49,663,2,0,L|81:133,1,75
170,177,980,2,0,P|171:223|154:256,1,75
50,306,1403,5,0,0:0:0:0:
94,202,1614,1,0,0:0:0:0:
37,310,1825,1,0,0:0:0:0:
24,314,2037,6,0,L|112:311,1,75
177,268,2354,2,0,P|212:289|254:293,1,75
231,138,2670,2,0,L|236:212,1,75
172,83,3093,5,0,0:0:0:0:
307,110,3304,1,0,0:0:0:0:
431,48,3516,1,0,0:0:0:0:
236,212,3727,6,0,L|310:206,1,75
494,143,4044,2,0,P|453:134|419:137,1,75
415,356,4361,2,0,P|440:326|446:275,1,75
368,291,4783,5,0,0:0:0:0:
368,291,4994,2,0,L|293:296,1,75
92,228,5417,5,0,0:0:0:0:
117,316,5628,1,0,0:0:0:0:
117,316,5734,1,0,0:0:0:0:
117,316,5839,1,0,0:0:0:0:
28,293,6051,2,0,L|189:282,1,150
419,344,6685,6,0,P|391:303|399:264,1,84.3750032186509
406,262,7107,5,0,0:0:0:0:
314,259,7318,1,0,0:0:0:0:
241,202,7530,1,0,0:0:0:0:
215,112,7741,1,0,0:0:0:0:
215,112,8163,5,0,0:0:0:0:
198,230,8375,1,0,0:0:0:0:
341,193,8586,1,0,0:0:0:0:
324,75,8797,6,0,P|356:94|410:92,1,75
274,12,9114,2,0,L|278:92,1,75
459,126,9431,2,0,P|427:107|373:109,1,75
300,241,9854,5,0,0:0:0:0:
403,184,10065,1,0,0:0:0:0:
277,86,10276,1,0,0:0:0:0:
442,9,10487,6,0,L|436:83,1,75
401,155,10804,2,0,P|427:130|478:127,1,75
328,189,11121,2,0,L|416:183,1,75
495,250,11544,5,0,0:0:0:0:
401,155,11755,1,0,0:0:0:0:
269,135,11966,1,0,0:0:0:0:
500,315,12177,6,0,B|506:287|506:287|495:234,1,56.2500021457673
348,259,12389,1,0,0:0:0:0:
424,287,12494,2,0,B|392:284|392:284|376:290|376:290|308:282,1,112.500004291535
410,151,12811,2,0,B|416:179|416:179|410:207,1,56.2500021457673
270,86,13023,5,0,0:0:0:0:
361,75,13128,2,0,L|391:72,2,28.1250010728836
249,70,13339,1,0,0:0:0:0:
304,259,13445,5,0,0:0:0:0:
323,148,13551,1,0,0:0:0:0:
213,223,13656,5,0,0:0:0:0:
384,205,13762,1,0,0:0:0:0:
163,159,13868,6,0,L|168:254,1,75
76,130,14079,1,0,0:0:0:0:
192,68,14184,2,0,L|187:163,1,75
279,39,14396,1,0,0:0:0:0:
163,159,14501,2,0,P|228:144|291:205,1,150
213,223,14818,5,0,0:0:0:0:
390,132,14924,2,0,P|393:176|374:219,1,75
204,43,15135,2,0,L|289:38,1,75
163,159,15346,2,0,L|88:154,1,75
201,328,15558,6,0,P|235:309|283:308,1,75
362,351,15769,1,0,0:0:0:0:
344,188,15875,2,0,L|339:263,1,75
281,122,16086,1,0,0:0:0:0:
415,151,16191,2,0,P|371:113|284:135,1,150
344,188,16508,5,0,0:0:0:0:
439,60,16614,2,0,L|427:153,1,75
281,122,16825,2,0,P|312:102|366:101,1,75
407,254,17037,2,0,P|376:274|322:275,1,75
196,136,17248,6,0,L|290:131,1,75
182,42,17459,1,0,0:0:0:0:
107,145,17565,2,0,L|201:150,1,75
93,239,17776,1,0,0:0:0:0:
93,66,17882,2,0,P|27:160|50:202,1,150
107,145,18198,5,0,0:0:0:0:
217,205,18304,2,0,P|253:192|309:197,1,75
96,314,18515,2,0,L|93:239,1,75
227,114,18727,2,0,L|224:189,1,75
80,59,18938,6,0,P|119:63|175:39,1,75
284,82,19149,1,0,0:0:0:0:
228,22,19255,2,0,P|205:61|210:115,1,75
261,171,19466,1,0,0:0:0:0:
100,166,19572,2,0,B|177:138|173:197|260:153,1,150
284,82,19889,5,0,0:0:0:0:
372,197,19994,2,0,L|383:94,1,75
195,251,20206,5,0,0:0:0:0:
288,324,20311,2,0,L|285:362,2,37.5
246,159,20522,1,0,0:0:0:0:
108,271,20628,6,0,L|203:262,1,75
72,196,20839,1,0,0:0:0:0:
90,353,20945,2,0,L|99:258,1,75
8,351,21156,1,0,0:0:0:0:
182,263,21262,2,0,P|143:201|71:196,1,150
102,272,21579,5,0,0:0:0:0:
266,246,21684,2,0,L|184:244,1,75
386,327,21896,2,0,P|398:292|394:256,1,75
316,113,22107,2,0,P|311:149|323:184,1,75
362,32,22318,6,0,L|287:33,1,75
393,139,22529,1,0,0:0:0:0:
456,47,22635,2,0,L|381:45,1,75
268,17,22846,1,0,0:0:0:0:
316,113,22952,2,0,P|254:167|276:253,1,150
331,193,23269,5,0,0:0:0:0:
191,254,23375,2,0,L|285:249,1,75
381,106,23586,2,0,L|287:101,1,75
95,57,23797,2,0,L|100:151,1,75
241,319,24008,6,0,P|265:287|270:237,1,75
99,249,24220,1,0,0:0:0:0:
191,254,24325,2,0,L|101:260,1,75
261,165,24537,1,0,0:0:0:0:
282,257,24642,2,0,P|284:194|356:146,1,150
358,227,24959,5,0,0:0:0:0:
265,343,25065,2,0,L|272:267,1,75
440,273,25276,2,0,P|402:310|346:318,1,75
276,181,25487,2,0,P|314:144|370:136,1,75
219,284,25698,6,0,B|159:311|143:243|51:293,1,150
255,102,26015,2,0,P|292:101|325:116,1,75
245,270,26227,1,0,0:0:0:0:
276,181,26332,2,0,L|270:268,1,75
176,46,26544,5,0,0:0:0:0:
358,87,26649,1,0,0:0:0:0:
140,147,26755,5,0,0:0:0:0:
284,145,26861,1,0,0:0:0:0:
164,251,26966,5,0,0:0:0:0:
257,235,27072,1,0,0:0:0:0:
225,339,27177,6,0,L|278:321,1,37.5
410,139,27389,5,0,0:0:0:0:
389,334,27494,1,0,0:0:0:0:
374,212,27705,5,0,0:0:0:0:
392,345,27811,1,0,0:0:0:0:
279,260,28022,5,0,0:0:0:0:
460,239,28128,1,0,0:0:0:0:
357,103,28339,5,0,0:0:0:0:
374,212,28445,1,0,0:0:0:0:
374,212,28656,6,0,B|352:217|330:203|330:203|321:214|321:214|303:207|282:213|282:213|245:219|200:197,1,168.750006437302
158,141,29079,5,0,0:0:0:0:
187,279,29184,1,0,0:0:0:0:
224,91,29396,5,0,0:0:0:0:
183,287,29501,1,0,0:0:0:0:
312,172,29713,5,0,0:0:0:0:
158,141,29818,1,0,0:0:0:0:
347,91,30029,5,0,0:0:0:0:
223,253,30135,1,0,0:0:0:0:
223,253,30346,6,0,B|201:216|223:171|223:171|215:143|215:143|228:118|223:77,1,168.750006437302
197,13,30769,5,0,0:0:0:0:
312,172,30875,1,0,0:0:0:0:
268,61,31086,5,0,0:0:0:0:
217,237,31191,1,0,0:0:0:0:
192,121,31403,5,0,0:0:0:0:
370,108,31508,1,0,0:0:0:0:
293,261,31720,5,0,0:0:0:0:
276,74,31825,1,0,0:0:0:0:
276,74,32037,6,0,B|282:101|277:127|277:127|265:152|265:152|270:170|270:170|257:204|272:248,1,168.750006437302
324,297,32459,5,0,0:0:0:0:
148,268,32565,1,0,0:0:0:0:
266,152,32776,5,0,0:0:0:0:
237,353,32882,1,0,0:0:0:0:
224,228,33093,5,0,0:0:0:0:
244,362,33199,1,0,0:0:0:0:
338,202,33410,5,0,0:0:0:0:
101,190,33515,1,0,0:0:0:0:
101,190,33727,6,0,B|127:191|149:176|149:176|157:184|157:184|183:174|213:182|213:182|245:189|279:175,1,168.750006437302
335,148,34149,5,0,0:0:0:0:
302,315,34255,1,0,0:0:0:0:
275,92,34466,5,0,0:0:0:0:
312,302,34572,1,0,0:0:0:0:
224,210,34783,5,0,0:0:0:0:
411,189,34889,1,0,0:0:0:0:
298,169,35100,5,0,0:0:0:0:
424,195,35206,1,0,0:0:0:0:
424,195,35417,6,0,B|388:208|367:243|367:243|356:238|356:238|336:276|276:287,1,168.750006437302
214,262,35840,5,0,0:0:0:0:
397,321,35945,1,0,0:0:0:0:
274,179,36156,5,0,0:0:0:0:
291,351,36262,1,0,0:0:0:0:
352,230,36473,5,0,0:0:0:0:
196,261,36579,1,0,0:0:0:0:
211,112,36790,5,0,0:0:0:0:
276,272,36896,1,0,0:0:0:0:
276,272,37107,6,0,B|260:240|269:207|269:207|265:188|265:188|303:164|306:110,1,168.750006437302
286,41,37530,5,0,0:0:0:0:
375,209,37635,1,0,0:0:0:0:
382,75,37847,5,0,0:0:0:0:
363,221,37952,1,0,0:0:0:0:
251,159,38164,5,0,0:0:0:0:
431,138,38269,1,0,0:0:0:0:
409,309,38480,5,0,0:0:0:0:
330,143,38586,1,0,0:0:0:0:
330,143,38797,6,0,B|338:190|305:219|305:219|311:229|311:229|299:262|316:307,1,168.750006437302
356,370,39220,5,0,0:0:0:0:
270,330,39642,5,0,0:0:0:0:
175,336,40065,5,0,0:0:0:0:
105,275,40488,5,0,0:0:0:0:
91,272,40558,1,0,0:0:0:0:
79,271,40628,1,0,0:0:0:0:
66,271,40699,1,0,0:0:0:0:
54,273,40769,1,0,0:0:0:0:
42,277,40840,1,0,0:0:0:0:
30,281,40910,6,0,L|44:183,1,75
40,206,41227,1,0,0:0:0:0:
31,126,41333,1,0,0:0:0:0:
95,347,41544,6,0,P|146:314|209:323,1,112.5
262,362,41966,1,0,0:0:0:0:
240,251,42178,1,0,0:0:0:0:
274,144,42389,1,0,0:0:0:0:
90,231,42600,6,0,L|180:222,1,75
164,223,42917,1,0,0:0:0:0:
240,251,43023,1,0,0:0:0:0:
139,63,43234,1,0,0:0:0:0:
139,63,43340,1,0,0:0:0:0:
139,63,43445,5,0,0:0:0:0:
164,223,43657,1,0,0:0:0:0:
389,110,43868,1,0,0:0:0:0:
248,99,44079,1,0,0:0:0:0:
442,196,44291,6,0,L|361:188,1,75
368,189,44607,1,0,0:0:0:0:
292,215,44713,1,0,0:0:0:0:
512,373,44924,6,0,P|470:328|408:327,1,112.5
357,371,45347,1,0,0:0:0:0:
257,319,45558,1,0,0:0:0:0:
147,340,45769,1,0,0:0:0:0:
367,215,45981,5,0,0:0:0:0:
167,199,46086,1,0,0:0:0:0:
337,185,46192,5,0,0:0:0:0:
180,208,46298,1,0,0:0:0:0:
274,131,46615,5,0,0:0:0:0:
257,241,46720,1,0,0:0:0:0:
248,158,46826,5,0,0:0:0:0:
262,255,46932,1,0,0:0:0:0:
454,138,47248,6,0,L|451:171,1,18.75
63,195,47460,6,0,L|66:227,1,18.75
274,131,47671,6,0,P|275:183|218:179,1,112.5
248,158,48093,2,0,L|242:248,1,75
179,31,48516,2,0,L|183:105,1,75
218,310,48938,5,0,0:0:0:0:
218,310,49361,2,0,L|306:307,1,75
163,250,49783,1,0,0:0:0:0:
347,367,49995,1,0,0:0:0:0:
274,131,50206,5,0,0:0:0:0:
274,131,50628,2,0,L|279:211,1,75
328,69,51051,1,0,0:0:0:0:
248,54,51262,1,0,0:0:0:0:
402,156,51473,6,0,P|412:120|406:83,1,75
342,277,51896,2,0,P|331:241|337:204,1,75
381,349,52319,1,0,0:0:0:0:
237,292,52530,1,0,0:0:0:0:
413,235,52741,5,0,0:0:0:0:
413,235,53164,2,0,L|500:231,1,75
337,204,53586,1,0,0:0:0:0:
402,154,53797,1,0,0:0:0:0:
272,254,54009,5,0,0:0:0:0:
272,254,54431,2,0,L|279:167,1,75
327,315,54854,1,0,0:0:0:0:
223,118,55065,1,0,0:0:0:0:
109,249,55276,5,0,0:0:0:0:
109,249,55699,2,0,L|19:244,1,75
250,291,56122,2,0,L|176:296,1,75
326,261,56544,5,0,0:0:0:0:
326,261,56967,1,0,0:0:0:0:
418,153,57178,1,0,0:0:0:0:
376,332,57389,2,0,P|390:290|337:255,1,112.5
326,261,57812,5,0,0:0:0:0:
326,261,58234,2,0,L|335:172,1,75
178,325,58657,2,0,P|213:314|251:317,1,75
114,257,59079,5,0,0:0:0:0:
114,257,59502,2,0,L|122:171,1,75
60,319,59924,1,0,0:0:0:0:
174,120,60136,1,0,0:0:0:0:
362,278,60347,5,0,0:0:0:0:
268,271,60558,1,0,0:0:0:0:
197,211,60770,1,0,0:0:0:0:
380,284,60981,5,0,0:0:0:0:
278,345,61192,1,0,0:0:0:0:
162,337,61404,1,0,0:0:0:0:
398,290,61615,5,0,0:0:0:0:
398,290,62037,2,0,L|318:283,1,75
466,244,62460,1,0,0:0:0:0:
255,329,62671,1,0,0:0:0:0:
334,80,62882,6,0,P|369:76|415:98,1,75
206,148,63305,2,0,P|241:152|287:130,1,75
78,80,63727,2,0,P|113:76|159:98,1,75
12,127,64150,6,0,P|1:55|23:19,1,112.5
85,160,64573,2,0,L|76:252,1,75
151,113,64995,1,0,0:0:0:0:
11,281,65206,1,0,0:0:0:0:
302,233,65418,5,0,0:0:0:0:
302,233,65840,2,0,L|393:226,1,75
156,266,66263,2,0,L|247:273,1,75
79,242,66685,5,0,0:0:0:0:
79,242,67108,1,0,0:0:0:0:
302,233,67319,5,0,0:0:0:0:
66,128,67530,5,0,0:0:0:0:
370,116,67742,5,0,0:0:0:0:
175,355,67953,6,0,B|211:322|215:278|215:278|227:264|227:264|211:223|226:181|255:151|307:152,1,262.5
374,244,68798,2,0,P|337:245|302:233,1,75
329,78,69221,6,0,P|356:97|377:147,1,75
226,265,69643,2,0,L|221:184,1,75
406,335,70066,2,0,L|325:330,1,75
73,296,70488,6,0,B|62:300|54:310|53:326|59:342|76:352|99:354|121:347|138:328|150:303|151:278|144:258|133:241|122:228|122:228|188:280|270:224|270:224|274:226|274:226|273:188|301:162,1,450
433,246,72178,5,0,0:0:0:0:
355,223,72390,1,0,0:0:0:0:
355,223,72495,1,0,0:0:0:0:
355,223,72601,2,0,L|483:217,1,112.5
299,163,73024,6,0,B|226:249|327:336|395:294|395:294|418:305|418:305|446:294|478:302|478:302|445:264|471:211,1,412.5
512,149,74291,6,0,P|520:56|378:59,1,262.5
450,97,75136,2,0,L|374:93,1,75
250,40,75559,6,0,B|276:80|281:126|246:172|198:187|150:175|123:140|123:140|146:203|105:251|105:251|133:248|156:227,1,412.5
186,90,76826,5,0,0:0:0:0:
186,90,77048,1,0,0:0:0:0:
186,90,77270,1,0,0:0:0:0:
186,90,77492,6,0,L|184:109,3,12.5
38,262,78159,6,0,P|87:235|143:236,1,112.5
218,283,78826,5,0,0:0:0:0:
218,283,78973,2,0,L|274:279,1,37.5
352,244,79267,1,0,0:0:0:0:
352,244,79414,2,0,L|348:300,1,37.5
439,156,79708,2,0,L|443:212,1,37.5
380,72,80002,5,0,0:0:0:0:
308,120,80149,1,0,0:0:0:0:
221,116,80296,1,0,0:0:0:0:
152,61,80443,1,0,0:0:0:0:
383,197,80590,6,0,L|386:159,1,37.5
337,322,80885,2,0,L|334:284,1,37.5
474,353,81179,5,0,0:0:0:0:
474,353,81326,2,0,L|424:351,1,37.5
337,322,81620,1,0,0:0:0:0:
337,322,81767,2,0,L|287:324,1,37.5
393,234,82061,2,0,L|343:236,1,37.5
469,305,82355,5,0,0:0:0:0:
421,233,82502,1,0,0:0:0:0:
424,146,82649,1,0,0:0:0:0:
477,77,82796,1,0,0:0:0:0:
506,113,82944,5,0,0:0:0:0:
424,146,83091,1,0,0:0:0:0:
338,126,83238,1,0,0:0:0:0:
282,61,83371,1,0,0:0:0:0:
78,111,83505,6,0,L|81:149,3,37.5
141,230,84089,6,0,L|138:268,3,37.5
180,98,84674,6,0,L|183:136,3,37.5
243,217,85258,6,0,L|240:255,3,37.5
78,111,85844,5,0,0:0:0:0:
428,152,86136,5,0,0:0:0:0:
184,193,86428,5,0,0:0:0:0:
300,124,86575,1,0,0:0:0:0:
170,189,86721,1,0,0:0:0:0:
314,128,86867,1,0,0:0:0:0:
244,311,87013,5,0,0:0:0:0:
213,61,87306,5,0,0:0:0:0:
470,243,87598,5,0,0:0:0:0:
448,230,87671,1,0,0:0:0:0:
424,224,87744,1,0,0:0:0:0:
399,224,87817,1,0,0:0:0:0:
372,261,87890,5,0,0:0:0:0:
334,261,87963,1,0,0:0:0:0:
298,252,88036,1,0,0:0:0:0:
267,234,88109,1,0,0:0:0:0:
236,190,88183,6,0,P|161:197|150:271,1,140.625
191,319,88475,1,0,0:0:0:0:
144,150,88622,2,0,P|123:205|132:257,1,93.75
225,90,88914,1,0,0:0:0:0:
45,164,89061,1,0,0:0:0:0:
191,319,89207,6,0,P|230:248|200:177,1,140.625
144,150,89500,1,0,0:0:0:0:
468,109,89646,2,0,P|464:165|425:207,1,93.75
225,90,89939,2,0,L|323:80,1,93.75
396,47,90231,1,0,0:0:0:0:
346,283,90378,6,0,P|301:231|306:162,1,140.625
386,132,90670,1,0,0:0:0:0:
225,90,90817,1,0,0:0:0:0:
183,251,90963,1,0,0:0:0:0:
211,78,91109,5,0,0:0:0:0:
197,263,91256,1,0,0:0:0:0:
17,303,91402,1,0,0:0:0:0:
31,118,91548,6,0,P|82:152|181:127,1,140.625
211,78,91841,1,0,0:0:0:0:
119,310,91987,2,0,P|163:295|197:263,1,93.75
211,78,92280,1,0,0:0:0:0:
330,135,92426,1,0,0:0:0:0:
479,24,92573,2,0,P|428:78|455:172,1,140.625
484,204,92865,6,0,P|417:194|379:204,1,93.75
335,261,93085,2,0,P|388:249|417:212,1,93.75
275,200,93304,1,0,0:0:0:0:
275,200,93451,2,0,L|266:94,1,93.75
319,40,93743,1,0,0:0:0:0:
97,263,93890,6,0,P|128:202|193:178,1,140.625
275,200,94183,1,0,0:0:0:0:
90,37,94329,2,0,P|68:78|65:125,1,93.75
195,278,94622,1,0,0:0:0:0:
267,106,94768,1,0,0:0:0:0:
36,204,94914,1,0,0:0:0:0:
294,297,95061,6,0,P|342:252|432:268,1,140.625
477,308,95353,1,0,0:0:0:0:
281,216,95500,2,0,P|271:261|283:307,1,93.75
393,145,95792,1,0,0:0:0:0:
205,27,95939,1,0,0:0:0:0:
372,259,96085,1,0,0:0:0:0:
453,64,96231,6,0,B|466:48|496:51|496:51|469:61|429:48|429:48|394:38|339:57,1,187.5
452,303,96670,2,0,P|416:274|372:259,1,93.75
175,197,96963,5,0,0:0:0:0:
150,215,97036,1,0,0:0:0:0:
134,242,97109,1,0,0:0:0:0:
132,273,97182,1,0,0:0:0:0:
167,311,97256,5,0,0:0:0:0:
164,264,97329,1,0,0:0:0:0:
161,217,97402,1,0,0:0:0:0:
158,170,97475,1,0,0:0:0:0:
125,123,97548,6,0,P|173:138|247:80,1,140.625
226,8,97841,2,0,P|216:73|248:123,1,93.75
366,170,98134,5,0,0:0:0:0:
298,54,98280,1,0,0:0:0:0:
255,249,98426,1,0,0:0:0:0:
55,108,98573,6,0,P|109:167|95:258,1,140.625
52,283,98865,1,0,0:0:0:0:
208,41,99012,2,0,L|115:47,1,93.75
126,220,99304,2,0,P|140:176|138:130,1,93.75
33,26,99597,1,0,0:0:0:0:
220,294,99743,6,0,P|160:298|134:225,1,140.625
186,168,100036,1,0,0:0:0:0:
129,326,100182,2,0,P|114:281|117:235,1,93.75
338,155,100475,1,0,0:0:0:0:
303,283,100622,1,0,0:0:0:0:
222,91,100768,1,0,0:0:0:0:
453,49,100914,6,0,P|468:103|402:173,1,140.625
338,155,101207,1,0,0:0:0:0:
467,297,101353,2,0,P|430:269|385:261,1,93.75
197,334,101646,1,0,0:0:0:0:
102,243,101792,1,0,0:0:0:0:
171,98,101939,2,0,P|123:154|40:135,1,140.625
12,84,102231,6,0,P|45:153|9:226,1,140.625
33,293,102524,2,0,P|11:244|26:182,1,93.75
206,262,102817,1,0,0:0:0:0:
3,373,102963,1,0,0:0:0:0:
95,187,103109,1,0,0:0:0:0:
154,330,103256,6,0,P|230:343|287:283,1,140.625
283,223,103548,1,0,0:0:0:0:
397,361,103695,2,0,P|420:297|399:232,1,93.75
238,115,103987,1,0,0:0:0:0:
283,223,104134,1,0,0:0:0:0:
333,79,104280,1,0,0:0:0:0:
60,140,104426,6,0,P|111:185|179:176,1,140.625
238,115,104719,1,0,0:0:0:0:
299,306,104865,2,0,P|250:274|187:285,1,93.75
129,212,105158,2,0,P|166:208|199:191,1,75
163,62,105451,5,0,0:0:0:0:
188,335,105597,1,0,0:0:0:0:
202,139,105890,5,0,0:0:0:0:
149,258,106182,5,0,0:0:0:0:
270,211,106475,5,0,0:0:0:0:
81,186,106622,1,0,0:0:0:0:
293,66,106768,1,0,0:0:0:0:
167,238,106914,6,0,P|214:209|289:219,1,112.5
339,260,107499,2,0,L|424:254,1,75
349,136,107938,2,0,L|346:178,1,37.5
429,322,108231,2,0,L|423:240,1,75
453,148,108670,5,0,0:0:0:0:
369,89,108816,1,0,0:0:0:0:
287,151,108962,1,0,0:0:0:0:
320,248,109109,1,0,0:0:0:0:
423,247,109255,6,0,L|341:241,1,75
287,151,109694,1,0,0:0:0:0:
287,151,109841,1,0,0:0:0:0:
287,151,109987,2,0,L|246:153,1,37.5
369,89,110280,2,0,L|363:171,1,75
316,259,110719,2,0,L|313:221,1,37.5
408,321,111011,5,0,0:0:0:0:
408,321,111085,1,0,0:0:0:0:
408,321,111158,1,0,0:0:0:0:
319,269,111304,1,0,0:0:0:0:
216,279,111451,1,0,0:0:0:0:
138,347,111597,6,0,L|132:264,1,75
182,166,112036,1,0,0:0:0:0:
182,166,112109,1,0,0:0:0:0:
182,166,112182,2,0,L|178:215,1,37.5
104,127,112475,1,0,0:0:0:0:
260,205,112621,6,0,L|342:199,1,75
254,117,113060,2,0,L|295:114,1,37.5
223,18,113353,5,0,0:0:0:0:
119,16,113500,1,0,0:0:0:0:
85,115,113646,1,0,0:0:0:0:
169,177,113792,1,0,0:0:0:0:
254,117,113939,6,0,P|246:156|263:203,1,75
302,261,114378,2,0,L|295:352,1,75
340,184,114817,2,0,P|378:172|428:179,1,75
454,314,115256,5,0,0:0:0:0:
454,314,115402,1,0,0:0:0:0:
388,257,115548,1,0,0:0:0:0:
403,100,115695,5,0,0:0:0:0:
406,118,115768,1,0,0:0:0:0:
408,137,115841,1,0,0:0:0:0:
410,155,115914,1,0,0:0:0:0:
412,174,115988,6,0,L|418:120,1,42.1875016093255
328,194,116280,6,0,P|293:187|235:199,1,75
181,313,116572,1,0,0:0:0:0:
421,42,116719,2,0,P|447:110|412:174,1,150
204,91,117158,5,0,0:0:0:0:
361,104,117304,2,0,B|299:131|276:74|181:120,1,150
373,172,117743,2,0,L|370:77,1,75
265,275,118036,2,0,L|360:278,1,75
489,369,118328,2,0,P|432:368|400:344,1,75
191,229,118621,6,0,P|113:220|66:260,1,140.625
64,269,118914,1,0,0:0:0:0:
323,56,119060,6,0,B|334:89|361:105|361:105|357:115|357:115|385:169|357:230,1,187.5
47,90,119499,6,0,B|77:74|107:77|107:77|110:63|110:63|154:111|228:93,1,187.5
426,47,119938,1,0,0:0:0:0:
426,47,120084,2,0,P|404:107|413:153,1,93.75
458,293,120377,2,0,L|464:200,1,93.75
301,356,120670,2,0,P|347:364|391:349,1,93.75
266,127,120962,6,0,P|208:162|191:229,1,140.625
194,238,121255,1,0,0:0:0:0:
47,90,121401,2,0,P|94:86|151:115,1,93.75
63,350,121694,2,0,P|38:308|41:255,1,93.75
274,270,121987,2,0,P|202:323|121:286,1,187.5
162,138,122426,6,0,P|218:193|178:244,1,140.625
183,233,122719,2,0,L|192:81,1,140.625
185,84,123011,2,0,B|241:87|241:87|257:101|257:101|335:97,1,140.625
333,92,123304,5,0,0:0:0:0:
105,228,123450,1,0,0:0:0:0:
131,229,123523,1,0,0:0:0:0:
157,231,123597,1,0,0:0:0:0:
8,9,123743,6,0,L|13:105,1,93.75
289,337,124036,5,0,0:0:0:0:
289,337,124328,6,0,L|295:208,1,112.5
183,233,125060,5,0,0:0:0:0:
183,233,125353,5,0,0:0:0:0:
431,146,125645,5,0,0:0:0:0:
431,146,125792,1,0,0:0:0:0:
410,276,125938,2,0,P|433:219|385:126,1,140.625
340,99,126231,1,0,0:0:0:0:
487,311,126377,2,0,P|446:288|399:285,1,93.75
65,352,126670,6,0,P|150:332|159:266,1,140.625
125,215,126962,1,0,0:0:0:0:
335,244,127109,1,0,0:0:0:0:
136,82,127255,1,0,0:0:0:0:
262,314,127401,2,0,P|247:250|256:212,1,93.75
360,341,127694,1,0,0:0:0:0:
360,341,127840,1,0,0:0:0:0:
239,101,127987,6,0,P|266:158|218:238,1,140.625
155,208,128279,1,0,0:0:0:0:
428,237,128426,2,0,L|335:244,1,93.75
192,97,128719,2,0,L|239:101,1,46.875
317,70,128865,1,0,0:0:0:0:
75,240,129011,6,0,P|139:232|190:354,1,187.5
62,239,129450,2,0,P|101:181|165:155,1,140.625
244,182,129743,1,0,0:0:0:0:
44,49,129889,1,0,0:0:0:0:
350,289,130036,2,0,P|348:238|320:195,1,93.75
144,242,130328,6,0,P|201:278|268:261,1,140.625
287,344,130621,2,0,P|236:311|178:316,1,93.75
327,202,130914,1,0,0:0:0:0:
275,353,131060,1,0,0:0:0:0:
228,112,131206,1,0,0:0:0:0:
395,332,131353,6,0,P|454:280|438:186,1,140.625
402,160,131645,1,0,0:0:0:0:
507,35,131792,2,0,P|477:70|432:80,1,93.75
279,23,132084,5,0,0:0:0:0:
279,23,132158,1,0,0:0:0:0:
279,23,132231,1,0,0:0:0:0:
318,206,132377,1,0,0:0:0:0:
158,305,132523,1,0,0:0:0:0:
368,137,132670,6,0,P|309:175|225:166,1,140.625
179,116,132962,1,0,0:0:0:0:
404,234,133109,2,0,P|364:210|318:206,2,93.75
487,213,133548,5,0,0:0:0:0:
128,342,133694,2,0,P|145:280|99:215,1,140.625
22,216,133987,5,0,0:0:0:0:
273,240,134133,1,0,0:0:0:0:
423,37,134279,2,0,P|398:82|441:187,1,140.625
487,213,134572,5,0,0:0:0:0:
157,73,134719,2,0,P|212:37|304:52,1,140.625
354,86,135011,6,0,P|298:79|266:48,1,93.75
133,154,135304,1,0,0:0:0:0:
365,90,135450,1,0,0:0:0:0:
314,287,135597,1,0,0:0:0:0:
283,68,135743,1,0,0:0:0:0:
396,309,135889,1,0,0:0:0:0:
130,259,136036,6,0,P|183:225|275:229,1,140.625
314,287,136328,1,0,0:0:0:0:
232,136,136475,1,0,0:0:0:0:
365,30,136621,1,0,0:0:0:0:
218,130,136767,5,0,0:0:0:0:
379,36,136914,1,0,0:0:0:0:
379,36,136987,1,0,0:0:0:0:
379,36,137060,1,0,0:0:0:0:
314,287,137206,1,0,0:0:0:0:
82,126,137353,6,0,B|123:113|163:132|163:132|204:157|245:141,1,168.750006437302
313,91,137645,1,0,0:0:0:0:
480,309,137792,2,0,L|491:197,1,112.500004291535
245,141,138084,2,0,L|252:219,1,56.2500021457673
291,272,138231,1,0,0:0:0:0:
469,95,138377,6,0,B|428:75|384:86|384:86|331:99|258:63,1,168.750006437302
245,20,138670,1,0,0:0:0:0:
41,207,138816,2,0,P|105:227|151:170,1,140.625
115,101,139109,1,0,0:0:0:0:
44,338,139255,1,0,0:0:0:0:
296,253,139401,2,0,P|280:308|234:333,1,93.75
230,199,139694,6,0,P|296:218|385:156,1,140.625
392,113,139987,2,0,P|354:148|341:201,1,93.75
478,123,140279,1,0,0:0:0:0:
259,72,140426,1,0,0:0:0:0:
253,312,140572,1,0,0:0:0:0:
34,261,140719,6,0,P|97:239|98:148,1,140.625
56,111,141011,1,0,0:0:0:0:
256,336,141158,2,0,P|205:293|141:314,1,140.625
87,378,141450,1,0,0:0:0:0:
192,142,141597,1,0,0:0:0:0:
34,261,141743,2,0,P|86:281|150:271,1,93.75
333,119,142036,6,0,P|403:131|394:225,1,140.625
373,261,142328,2,0,P|384:209|415:173,1,93.75
435,317,142621,1,0,0:0:0:0:
213,307,142767,1,0,0:0:0:0:
333,119,142914,1,0,0:0:0:0:
287,347,143060,6,0,P|311:289|281:197,1,140.625
222,176,143353,2,0,P|253:217|295:232,1,93.75
435,107,143645,1,0,0:0:0:0:
133,230,143792,5,0,0:0:0:0:
217,218,143889,5,0,0:0:0:0:
301,206,143987,5,0,0:0:0:0:
385,194,144084,5,0,0:0:0:0:
22,55,144377,6,0,P|77:102|170:59,1,140.625
185,21,144670,1,0,0:0:0:0:
133,230,144816,1,0,0:0:0:0:
333,309,144962,1,0,0:0:0:0:
224,96,145109,2,0,L|281:100,1,56.2500021457673
179,353,145401,6,0,P|208:272|133:230,1,187.5
62,129,145840,1,0,0:0:0:0:
240,180,145987,1,0,0:0:0:0:
49,151,146133,1,0,0:0:0:0:
304,125,146279,2,0,P|302:161|293:183,1,56.2500021457673
475,356,146572,6,0,P|405:336|415:206,1,187.5
486,106,147011,1,0,0:0:0:0:
289,235,147158,1,0,0:0:0:0:
135,59,147304,1,0,0:0:0:0:
365,101,147450,1,0,0:0:0:0:
59,193,147597,1,0,0:0:0:0:
382,70,147743,6,0,P|290:97|208:25,1,187.5
486,106,148182,2,0,P|449:85|388:82,1,93.75
214,196,148475,2,0,P|168:195|121:201,1,93.75
417,179,148767,2,0,P|376:213|299:205,1,93.75
24,343,149060,6,0,P|87:278|154:283,1,140.625
200,325,149353,1,0,0:0:0:0:
161,103,149499,1,0,0:0:0:0:
371,22,149645,1,0,0:0:0:0:
332,244,149792,2,0,L|326:182,1,56.2500021457673
450,326,150084,6,0,P|370:284|284:314,1,187.5
131,252,150523,1,0,0:0:0:0:
340,182,150670,1,0,0:0:0:0:
115,234,150816,1,0,0:0:0:0:
283,330,150962,1,0,0:0:0:0:
165,91,151109,1,0,0:0:0:0:
410,132,151255,6,0,P|315:148|239:62,1,187.5
500,143,151694,2,0,P|449:133|386:159,1,93.75
283,330,151987,1,0,0:0:0:0:
125,320,152133,1,0,0:0:0:0:
22,200,152279,1,0,0:0:0:0:
410,132,152426,6,0,P|410:178|347:253,1,140.625
274,227,152719,5,0,0:0:0:0:
493,153,152865,1,0,0:0:0:0:
215,75,153011,1,0,0:0:0:0:
91,342,153158,5,0,0:0:0:0:
50,318,153231,1,0,0:0:0:0:
26,279,153304,1,0,0:0:0:0:
23,233,153377,1,0,0:0:0:0:
43,191,153450,5,0,0:0:0:0:
50,168,153523,1,0,0:0:0:0:
53,145,153596,1,0,0:0:0:0:
51,122,153669,1,0,0:0:0:0:
45,100,153743,6,0,P|95:124|186:61,1,140.625
183,11,154036,1,0,0:0:0:0:
387,57,154182,1,0,0:0:0:0:
251,225,154328,1,0,0:0:0:0:
455,179,154475,2,0,P|409:172|387:157,1,56.2500021457673
251,342,154767,6,0,P|339:329|367:245,1,187.5
231,102,155206,1,0,0:0:0:0:
182,294,155353,1,0,0:0:0:0:
217,85,155499,1,0,0:0:0:0:
260,354,155645,2,0,P|266:313|264:289,1,56.2500021457673
51,151,155938,6,0,P|64:284|116:301,1,187.5
239,218,156377,1,0,0:0:0:0:
385,301,156523,1,0,0:0:0:0:
512,240,156670,1,0,0:0:0:0:
371,348,156816,1,0,0:0:0:0:
219,170,156962,1,0,0:0:0:0:
31,359,157109,6,0,P|132:284|126:224,1,187.5
31,52,157548,2,0,L|142:46,1,93.75
311,175,157840,2,0,L|422:181,1,93.75
153,29,158133,2,0,P|134:68|147:134,1,93.75
420,285,158426,6,0,P|430:217|394:158,1,140.625
311,175,158719,1,0,0:0:0:0:
474,126,158865,1,0,0:0:0:0:
217,85,159011,1,0,0:0:0:0:
271,303,159158,1,0,0:0:0:0:
341,48,159304,1,0,0:0:0:0:
82,264,159450,6,0,P|152:206|242:223,1,187.5
402,172,159889,2,0,P|357:182|311:175,1,93.75
71,271,160182,2,0,P|85:229|125:184,1,93.75
37,53,160475,1,0,0:0:0:0:
64,281,160621,6,0,P|39:216|111:108,1,187.5
232,202,161060,1,0,0:0:0:0:
321,125,161206,1,0,0:0:0:0:
420,237,161353,1,0,0:0:0:0:
331,105,161499,1,0,0:0:0:0:
308,348,161645,1,0,0:0:0:0:
278,91,161792,6,0,L|284:146,1,56.2500021457673
327,21,162084,5,0,0:0:0:0:
308,348,162377,5,0,0:0:0:0:
278,91,162670,5,0,0:0:0:0:
327,159,162816,6,0,L|320:214,1,56.2500021457673
278,91,163109,5,0,0:0:0:0:
256,192,180278,12,0,182361,0:0:0:0:
228,201,182658,5,0,0:0:0:0:
256,192,182748,1,0,0:0:0:0:
280,173,182839,1,0,0:0:0:0:
372,273,182930,5,0,0:0:0:0:
372,273,183459,5,0,0:0:0:0:
185,292,183582,2,0,B|279:260|263:324|359:292,1,168.750006437302
372,273,183830,2,0,B|363:295|375:323|399:333|427:332|446:320|469:282|443:232|443:232|450:218|450:218|423:179|445:115,1,281.250010728836
464,127,184202,6,0,P|462:154|450:180,1,56.2500021457673
286,144,184467,5,0,0:0:0:0:
382,133,184602,1,0,0:0:0:0:
199,145,184737,5,0,0:0:0:0:
295,156,184872,1,0,0:0:0:0:
131,200,185007,5,0,0:0:0:0:
68,122,185124,2,0,B|97:107|103:76|103:76|70:142|111:200,1,168.750006437302
131,200,185359,2,0,P|70:213|166:309,1,281.250010728836
161,285,185712,6,0,P|129:306|114:331,1,56.2500021457673
246,318,185984,5,0,0:0:0:0:
233,217,186121,1,0,0:0:0:0:
325,277,186257,5,0,0:0:0:0:
332,130,186384,1,0,0:0:0:0:
413,289,186512,5,0,0:0:0:0:
246,318,186629,2,0,B|293:322|325:276|325:276|338:288|338:288|363:266|409:272,1,168.750006437302
413,289,186864,2,0,B|363:305|326:276|326:276|321:279|321:279|228:232|138:292,1,281.250010728836
138,324,187224,6,0,P|172:297|185:264,1,56.2500021457673
92,141,187510,5,0,0:0:0:0:
105,248,187646,1,0,0:0:0:0:
169,109,187782,5,0,0:0:0:0:
14,85,187907,1,0,0:0:0:0:
105,248,188032,5,0,0:0:0:0:
2,292,188146,2,0,P|52:329|122:260,1,168.750006437302
105,248,188374,2,0,B|144:269|181:241|181:241|201:262|201:262|179:209|212:159|256:134|315:159,1,281.250010728836
315,177,188717,6,0,P|278:174|252:160,1,56.2500021457673
404,231,189017,5,0,0:0:0:0:
422,106,189150,1,0,0:0:0:0:
295,357,189283,5,0,0:0:0:0:
277,232,189417,1,0,0:0:0:0:
368,320,189550,6,0,P|308:309|271:232,1,112.500004291535
277,232,189726,2,0,P|315:284|317:349,1,112.500004291535
295,357,189902,2,0,B|270:303|300:263|326:250|326:250|299:239|299:239|321:207|313:171|313:171|316:165|316:165|300:131|309:68,1,281.250010728836
327,85,190255,6,0,P|327:119|316:148,1,56.2500021457673
106,127,190534,5,0,0:0:0:0:
246,102,190673,1,0,0:0:0:0:
75,205,190813,5,0,0:0:0:0:
300,239,190943,1,0,0:0:0:0:
108,283,191073,6,0,P|169:281|205:242,1,112.500004291535
189,212,191249,2,0,P|169:289|181:320,1,112.500004291535
213,337,191425,2,0,B|176:277|107:283|107:283|159:256|181:186|122:135,1,281.250010728836
104,148,191778,6,0,P|119:176|149:197,1,56.2500021457673
384,172,192063,5,0,0:0:0:0:
238,143,192193,1,0,0:0:0:0:
291,81,192323,5,0,0:0:0:0:
327,295,192454,1,0,0:0:0:0:
238,143,192584,6,0,B|257:161|261:197|237:220|210:227|176:217|161:185|157:155|157:155|136:171|136:171|98:154|38:176,1,281.250010728836
41,191,192936,2,0,B|85:168|90:118|90:118|62:154|73:222|125:268,1,225.000008583069
159,256,193296,6,0,L|114:262,3,28.1250010728836
244,334,193568,6,0,L|205:329,2,37.5000014305115
371,283,193847,6,0,L|306:292,1,56.2500021457673
450,313,194110,5,0,0:0:0:0:
100,241,194474,5,0,0:0:0:0:
417,189,194826,5,0,0:0:0:0:
154,135,195098,1,0,0:0:0:0:
161,155,195323,1,0,0:0:0:0:
358,114,195613,6,0,P|324:167|338:240,1,112.5
339,238,195835,1,0,0:0:0:0:
324,330,195946,1,0,0:0:0:0:
417,189,196057,1,0,0:0:0:0:
432,281,196168,1,0,0:0:0:0:
334,108,196279,6,0,P|399:73|472:86,1,150
253,191,196613,1,0,0:0:0:0:
169,37,196724,2,0,P|178:73|170:110,1,75
24,197,196946,5,0,0:0:0:0:
115,210,197057,1,0,0:0:0:0:
5,208,197168,2,0,L|88:200,1,75
239,216,197390,6,0,L|230:299,1,84.3750032186509
250,328,197613,6,0,L|235:180,1,112.500004291535
169,37,197835,1,0,0:0:0:0:
137,152,197946,1,0,0:0:0:0:
331,143,198057,1,0,0:0:0:0:
288,31,198168,1,0,0:0:0:0:
239,216,198279,6,0,P|289:182|363:199,1,112.5
356,199,198501,1,0,0:0:0:0:
445,81,198613,2,0,L|440:156,1,75
380,14,198835,1,0,0:0:0:0:
395,239,198946,6,0,P|369:190|319:168,1,112.5
290,182,199168,2,0,L|364:176,1,75
231,124,199390,2,0,L|156:118,1,75
390,47,199613,6,0,P|346:80|292:72,1,112.5
278,59,199835,1,0,0:0:0:0:
364,176,199946,2,0,L|369:101,2,75
293,236,200279,5,0,0:0:0:0:
414,305,200390,1,0,0:0:0:0:
265,220,200501,2,0,L|339:214,1,75
439,325,200723,2,0,L|364:319,1,75
176,245,200946,6,0,P|201:288|266:312,1,112.5
273,307,201168,1,0,0:0:0:0:
80,345,201279,2,0,L|87:271,1,75
167,378,201501,1,0,0:0:0:0:
56,183,201613,6,0,P|129:188|176:245,1,150
265,220,201946,1,0,0:0:0:0:
70,163,202057,2,0,P|116:163|152:181,1,75
192,353,202279,6,0,P|167:319|159:278,1,84.3750032186509
176,245,202501,6,0,P|195:297|192:353,1,112.500004291535
100,152,202724,6,0,L|193:145,1,84.3750032186509
71,138,202946,6,0,L|189:146,1,112.500004291535
245,41,203168,5,0,0:0:0:0:
263,240,203279,1,0,0:0:0:0:
364,69,203390,1,0,0:0:0:0:
375,192,203501,1,0,0:0:0:0:
477,121,203613,6,0,P|453:180|473:248,1,112.5
488,250,203835,2,0,P|480:206|465:180,1,75
415,308,204057,1,0,0:0:0:0:
501,342,204168,1,0,0:0:0:0:
329,274,204279,6,0,L|196:290,1,112.5
200,306,204501,2,0,P|213:270|205:226,1,75
267,99,204724,2,0,P|263:136|276:171,1,75
468,140,204946,6,0,P|410:104|347:119,1,112.5
356,126,205168,1,0,0:0:0:0:
490,33,205279,2,0,P|454:23|417:24,1,75
356,126,205501,1,0,0:0:0:0:
166,35,205613,6,0,L|182:153,1,112.5
199,173,205835,6,0,L|204:135,1,37.5
109,270,205946,1,0,0:0:0:0:
109,270,206001,1,0,0:0:0:0:
109,270,206057,2,0,L|184:260,2,50
29,248,206279,6,0,B|68:255|99:238|99:238|112:243|112:243|188:250,1,150
267,99,206613,2,0,L|359:90,1,75
439,204,206835,1,0,0:0:0:0:
401,342,206946,6,0,P|381:301|382:249,1,75
276,325,207168,2,0,P|279:280|305:235,1,75
175,248,207390,2,0,P|200:210|245:185,1,75
121,324,207613,6,0,P|145:265|126:202,1,112.5
118,210,207835,1,0,0:0:0:0:
232,119,207946,2,0,L|223:193,1,75
158,61,208168,1,0,0:0:0:0:
215,238,208279,6,0,P|200:186|223:116,1,112.5
232,119,208501,1,0,0:0:0:0:
109,126,208613,1,0,0:0:0:0:
291,182,208724,2,0,L|405:177,1,112.5
420,166,208946,6,0,P|407:208|482:291,1,150
338,315,209279,1,0,0:0:0:0:
291,182,209390,1,0,0:0:0:0:
248,272,209501,1,0,0:0:0:0:
381,225,209613,6,0,L|297:218,1,75
161,136,209835,1,0,0:0:0:0:
161,136,209946,1,0,0:0:0:0:
291,182,210057,2,0,P|275:222|202:218,1,112.5
196,242,210279,6,0,L|88:237,1,84.3750032186509
212,226,210501,2,0,L|324:220,1,112.500004291535
399,70,210724,6,0,P|381:108|378:150,1,84.3750032186509
401,177,210946,2,0,P|413:123|399:69,1,112.500004291535
284,56,211168,6,0,L|176:51,1,84.3750032186509
161,136,211390,2,0,L|48:141,1,112.500004291535
196,242,211612,6,0,P|243:237|247:146,1,150
188,60,211946,2,0,L|272:63,1,84.3750032186509
438,26,212168,1,0,0:0:0:0:
458,166,212279,6,0,P|426:147|409:114,1,75
419,250,212501,2,0,P|381:249|350:229,1,75
427,342,212724,2,0,P|394:360|357:358,1,75
258,239,212946,6,0,P|208:247|189:311,1,112.5
196,318,213168,1,0,0:0:0:0:
86,199,213279,2,0,P|85:236|93:273,2,75
325,42,213612,5,0,0:0:0:0:
196,143,213724,1,0,0:0:0:0:
348,61,213835,2,0,L|255:54,1,75
171,163,214057,2,0,L|264:156,1,75
377,251,214279,6,0,P|347:312|281:307,1,140.625
263,282,214501,2,0,L|170:275,1,93.75
35,164,214725,5,0,0:0:0:0:
108,332,214835,2,0,L|105:372,2,37.5
169,115,215058,1,0,0:0:0:0:
17,259,215168,2,0,L|106:251,1,75
94,108,215390,2,0,L|168:114,1,75
319,145,215612,5,0,0:0:0:0:
319,145,215724,2,0,B|348:196|329:323|198:281|192:189|268:134|344:205|344:205|354:199|354:199|383:228|432:238|507:240|569:117|486:10|363:33|334:113|334:113|312:98|312:98|251:150|163:112,1,937.5
411,141,216947,6,0,B|450:219|410:279|410:279|432:330|432:330|398:312|349:320|349:320|338:313|338:313|281:344|226:317,1,412.5
190,196,218279,6,0,P|81:197|53:266,1,187.5
214,287,218946,2,0,B|224:252|209:222|209:222|234:190|234:190|203:153|213:99,1,187.5
136,259,219612,6,0,B|113:340|180:404|266:388|315:330|291:258|291:258|318:223|318:223|291:152|364:66|475:108|477:195,1,637.5
214,287,221612,1,0,0:0:0:0:
395,196,221835,2,0,L|305:192,1,75
108,113,222279,6,0,B|81:112|54:96|42:55|58:16|96:2|137:11|162:47|155:94|118:126|118:126|144:156|144:156|110:203|136:259,1,412.5
287,316,223613,6,0,P|302:232|220:214,1,187.5
192,334,224279,2,0,B|230:326|264:342|264:342|290:330|290:330|335:352|385:330,1,187.5
401,77,224947,6,0,P|320:115|322:204,1,187.5
372,334,225612,2,0,B|406:289|386:243|386:243|416:231|416:231|413:192|390:159,1,206.25
127,291,226279,2,0,B|209:289|209:289|235:274|235:274|311:277,1,187.5
185,208,226947,5,0,0:0:0:0:
256,356,227168,1,0,0:0:0:0:
307,103,227391,1,0,0:0:0:0:
56,331,227612,5,0,0:0:0:0:
56,331,229613,5,0,0:0:0:0:
311,277,229835,1,0,0:0:0:0:
311,277,230280,5,0,0:0:0:0:
139,118,240420,5,0,0:0:0:0:
351,248,240842,5,0,0:0:0:0:
161,248,241265,5,0,0:0:0:0:
373,118,241687,5,0,0:0:0:0:
40,143,242109,6,0,B|88:139|88:139|103:124|103:124|158:130,1,112.500004291535
230,330,242426,2,0,P|180:306|159:255,1,112.500004291535
379,114,242743,2,0,L|373:176,1,56.2500021457673
240,250,242954,5,0,0:0:0:0:
384,292,243059,2,0,L|429:285,2,28.1250010728836
294,146,243271,1,0,0:0:0:0:
311,330,243376,5,0,0:0:0:0:
374,102,243483,1,0,0:0:0:0:
195,182,243588,5,0,0:0:0:0:
441,162,243694,1,0,0:0:0:0:
279,65,243800,6,0,L|285:148,1,75
204,101,244011,1,0,0:0:0:0:
350,24,244115,2,0,P|392:20|438:41,1,75
428,168,244328,1,0,0:0:0:0:
381,100,244432,2,0,P|346:172|403:247,1,150
484,272,244748,5,0,0:0:0:0:
313,167,244856,2,0,L|219:172,1,75
380,315,245066,2,0,L|385:221,1,75
235,384,245277,2,0,L|231:309,1,75
165,135,245489,6,0,P|157:178|175:221,1,75
326,129,245700,1,0,0:0:0:0:
247,179,245806,2,0,L|321:175,1,75
244,85,246017,1,0,0:0:0:0:
158,221,246122,2,0,L|316:229,1,150
447,178,246440,5,0,0:0:0:0:
332,310,246546,2,0,P|309:280|305:243,1,75
512,310,246757,2,0,L|507:392,1,75
365,172,246968,2,0,L|447:167,1,75
258,250,247179,6,0,L|176:245,1,75
306,316,247391,1,0,0:0:0:0:
253,149,247497,2,0,P|230:178|223:214,1,75
333,132,247708,1,0,0:0:0:0:
145,227,247814,2,0,P|155:153|196:91,1,150
333,132,248129,5,0,0:0:0:0:
271,261,248235,2,0,L|189:256,1,75
419,215,248446,2,0,L|424:297,1,75
330,63,248658,2,0,L|326:138,1,75
476,155,248870,6,0,P|445:136|408:132,1,75
280,225,249081,1,0,0:0:0:0:
438,360,249186,2,0,P|438:322|423:288,1,75
265,352,249398,1,0,0:0:0:0:
359,339,249504,2,0,L|273:332,1,75
126,223,249715,5,0,0:0:0:0:
177,338,249820,2,0,L|174:382,2,37.5
204,169,250032,1,0,0:0:0:0:
87,309,250137,5,0,0:0:0:0:
274,277,250242,1,0,0:0:0:0:
116,218,250349,5,0,0:0:0:0:
264,284,250453,1,0,0:0:0:0:
180,288,250560,6,0,L|274:292,1,75
416,259,250770,1,0,0:0:0:0:
389,349,250876,2,0,L|385:255,1,75
295,137,251088,1,0,0:0:0:0:
359,184,251194,2,0,P|286:217|221:176,1,150
138,103,251511,5,0,0:0:0:0:
205,255,251616,2,0,P|225:223|229:187,1,75
37,334,251828,2,0,L|132:338,1,75
293,246,252038,2,0,L|218:249,1,75
440,342,252250,6,0,P|461:305|460:248,1,75
391,103,252461,1,0,0:0:0:0:
414,194,252567,2,0,L|421:94,1,75
258,240,252778,1,0,0:0:0:0:
336,217,252884,2,0,P|272:160|195:190,1,150
316,296,253200,5,0,0:0:0:0:
395,316,253307,2,0,L|316:311,1,75
119,242,253517,2,0,L|123:316,1,75
219,97,253728,2,0,L|214:171,1,75
3,27,253939,6,0,L|77:22,1,75
45,185,254152,1,0,0:0:0:0:
24,106,254256,2,0,L|19:180,1,75
0,373,254469,1,0,0:0:0:0:
130,341,254574,2,0,P|57:333|5:384,1,150
119,242,254891,5,0,0:0:0:0:
216,302,254997,2,0,L|311:295,1,75
372,180,255207,2,0,L|446:185,1,75
303,367,255418,2,0,L|297:292,1,75,0|0,0:0|2:0,2:0:0:0:
416,111,255629,6,0,P|411:149|384:184,1,75,0|0,0:0|2:0,2:0:0:0:
250,81,255841,1,0,0:0:0:0:
335,119,255946,2,0,L|253:116,1,75
101,47,256158,2,0,L|97:4,2,37.5
163,203,256370,1,0,0:0:0:0:
173,108,256476,5,0,0:0:0:0:
68,193,256580,1,0,0:0:0:0:
153,298,256686,1,0,0:0:0:0:
258,213,256791,1,0,0:0:0:0:
60,181,256897,5,0,0:0:0:0:
253,128,257003,1,0,0:0:0:0:
164,284,257109,5,0,0:0:0:0:
112,102,257215,1,0,0:0:0:0:
0,348,257321,6,0,L|94:343,1,75
246,287,257532,1,0,0:0:0:0:
153,298,257637,2,0,L|247:303,1,75
404,252,257849,1,0,0:0:0:0:
291,363,257954,2,0,P|267:285|329:241,1,150
372,371,258270,5,0,0:0:0:0:
494,281,258376,2,0,L|489:365,1,75
393,173,258587,2,0,L|398:257,1,75
496,57,258799,2,0,L|412:52,1,75
247,140,259010,6,0,P|296:135|329:101,1,75
190,82,259222,1,0,0:0:0:0:
258,226,259328,2,0,L|255:143,1,75
185,265,259538,1,0,0:0:0:0:
325,274,259645,2,0,P|256:248|169:300,1,150
334,192,259961,5,0,0:0:0:0:
288,345,260067,2,0,P|311:327|332:286,1,75
113,305,260277,2,0,L|120:404,1,75
251,272,260489,2,0,L|258:173,1,75
374,384,260700,6,0,P|402:380|441:355,1,75
344,258,260912,1,0,0:0:0:0:
251,272,261018,2,0,L|348:275,1,75
426,261,261229,1,0,0:0:0:0:
206,340,261334,2,0,P|170:282|200:209,1,150
251,272,261652,5,0,0:0:0:0:
112,351,261756,2,0,L|10:343,1,75
182,131,261968,2,0,L|190:233,1,75
80,8,262179,2,0,L|74:82,1,75
258,104,262391,6,0,P|238:73|207:54,1,75
161,236,262602,1,0,0:0:0:0:
173,142,262707,2,0,L|181:244,1,75
237,308,262919,1,0,0:0:0:0:
106,310,263025,2,0,P|156:273|249:308,1,150
37,354,263342,5,0,0:0:0:0:
166,161,263446,2,0,L|161:236,1,75
64,104,263659,5,0,0:0:0:0:
236,293,263764,1,0,0:0:0:0:
65,221,263869,2,0,L|178:216,1,112.5
192,205,264081,6,0,P|228:216|286:198,1,75
248,41,264292,1,0,0:0:0:0:
233,134,264398,2,0,L|230:47,1,75
314,145,264608,1,0,0:0:0:0:
238,272,264715,2,0,P|273:208|244:142,1,150
192,205,265032,5,0,0:0:0:0:
256,351,265138,2,0,L|250:253,1,75
314,145,265348,2,0,L|216:139,1,75
388,259,265559,2,0,L|486:253,1,75
310,77,265771,6,0,P|308:114|323:148,1,75
480,71,265983,1,0,0:0:0:0:
390,101,266087,2,0,L|488:95,1,75
371,20,266299,1,0,0:0:0:0:
456,194,266405,2,0,P|403:145|331:157,1,150
380,224,266722,5,0,0:0:0:0:
300,296,266828,2,0,L|193:287,1,75
402,329,267038,2,0,L|509:320,1,75
380,130,267249,2,0,L|371:237,1,75
505,63,267460,6,0,P|470:52|433:53,1,75
287,122,267673,1,0,0:0:0:0:
380,130,267777,2,0,P|344:141|307:140,1,75
134,64,267989,1,0,0:0:0:0:
231,181,268095,2,0,P|259:114|227:49,1,150
154,207,268412,5,0,0:0:0:0:
279,264,268518,2,0,L|273:347,1,75
385,204,268728,2,0,L|379:129,1,75
231,181,268939,2,0,L|306:187,1,75
512,384,269152,6,0,P|461:334|362:345,1,150
253,384,269469,2,0,P|205:380|160:354,1,75
127,223,269680,1,0,0:0:0:0:
26,305,269785,2,0,L|101:299,1,75
385,204,269997,5,0,0:0:0:0:
115,125,270208,5,0,0:0:0:0:
179,315,270419,5,0,0:0:0:0:
451,66,270630,5,0,0:0:0:0:
0,191,270842,5,0,0:0:0:0:
308,268,271264,5,0,0:0:0:0:
285,145,271405,1,0,0:0:0:0:
272,292,271546,5,0,0:0:0:0:
321,121,271687,1,0,0:0:0:0:
179,228,271897,5,0,0:0:0:0:
413,184,272108,1,0,0:0:0:0:
134,159,272319,5,0,0:0:0:0:
458,253,272531,1,0,0:0:0:0:
321,121,272954,5,0,0:0:0:0:
293,245,273095,1,0,0:0:0:0:
197,93,273235,1,0,0:0:0:0:
169,217,273376,1,0,0:0:0:0:
324,17,273587,5,0,0:0:0:0:
396,248,273798,1,0,0:0:0:0:
93,89,274010,1,0,0:0:0:0:
165,320,274221,1,0,0:0:0:0:
293,245,274644,5,0,0:0:0:0:
143,227,274785,1,0,0:0:0:0:
313,237,274926,5,0,0:0:0:0:
122,234,275066,1,0,0:0:0:0:
232,119,275277,5,0,0:0:0:0:
204,351,275488,1,0,0:0:0:0:
219,87,275700,5,0,0:0:0:0:
215,383,275911,1,0,0:0:0:0:
339,258,276334,5,0,0:0:0:0:
194,232,276475,1,0,0:0:0:0:
364,113,276615,1,0,0:0:0:0:
219,87,276756,1,0,0:0:0:0:
423,293,276967,5,0,0:0:0:0:
158,315,277179,1,0,0:0:0:0:
399,29,277390,1,0,0:0:0:0:
134,51,277601,1,0,0:0:0:0:
281,247,278024,5,0,0:0:0:0:
276,97,278163,1,0,0:0:0:0:
263,269,278306,5,0,0:0:0:0:
295,76,278446,1,0,0:0:0:0:
135,176,278657,5,0,0:0:0:0:
422,168,278869,1,0,0:0:0:0:
95,142,279080,5,0,0:0:0:0:
462,202,279291,1,0,0:0:0:0:
161,254,279715,5,0,0:0:0:0:
198,118,279856,1,0,0:0:0:0:
334,154,279995,1,0,0:0:0:0:
297,290,280136,1,0,0:0:0:0:
84,109,280348,5,0,0:0:0:0:
342,39,280559,1,0,0:0:0:0:
410,298,280770,1,0,0:0:0:0:
152,368,280981,1,0,0:0:0:0:
321,211,281405,5,0,0:0:0:0:
164,192,281546,1,0,0:0:0:0:
345,197,281685,5,0,0:0:0:0:
139,205,281826,1,0,0:0:0:0:
258,67,282038,5,0,0:0:0:0:
226,335,282249,1,0,0:0:0:0:
236,25,282460,5,0,0:0:0:0:
248,377,282671,1,0,0:0:0:0:
424,159,283094,5,0,0:0:0:0:
378,316,283235,1,0,0:0:0:0:
221,270,283376,1,0,0:0:0:0:
267,113,283517,1,0,0:0:0:0:
472,281,283728,5,0,0:0:0:0:
160,189,283939,1,0,0:0:0:0:
343,33,284150,5,0,0:0:0:0:
369,328,284362,5,0,0:0:0:0:
369,328,285208,5,0,0:0:0:0:
369,328,285841,5,0,0:0:0:0:
369,328,286898,5,0,0:0:0:0:
369,328,287109,1,0,0:0:0:0:
342,194,287320,1,0,0:0:0:0:
240,285,287743,6,0,L|119:275,1,112.5
54,309,288165,2,0,L|134:302,1,75
9,225,288588,1,0,0:0:0:0:
38,374,288798,2,0,L|45:294,1,75
128,344,289221,6,0,L|249:333,1,112.5
317,359,289644,5,0,0:0:0:0:
352,271,289856,1,0,0:0:0:0:
432,220,290066,1,0,0:0:0:0:
317,359,290277,6,0,L|327:237,1,112.5
295,172,290701,1,0,0:0:0:0:
432,220,290912,1,0,0:0:0:0:
224,368,291122,6,0,L|234:246,1,112.5
196,184,291545,2,0,L|203:268,1,75
265,118,291968,1,0,0:0:0:0:
131,168,292179,2,0,L|215:175,1,75
94,97,292601,6,0,L|107:253,1,150
76,321,293236,5,0,0:0:0:0:
233,255,293447,1,0,0:0:0:0:
68,174,293657,5,0,0:0:0:0:
187,367,293870,1,0,0:0:0:0:
173,100,294081,5,0,0:0:0:0:
135,219,294292,1,0,0:0:0:0:
0,55,294502,6,0,L|112:46,1,112.5
173,100,294925,2,0,L|88:92,1,75
242,36,295349,1,0,0:0:0:0:
190,167,295559,2,0,L|182:82,1,75
164,257,295981,6,0,L|276:247,1,112.5
351,278,296405,1,0,0:0:0:0:
395,195,296616,1,0,0:0:0:0:
382,101,296826,2,0,L|389:16,1,75
351,278,297250,5,0,0:0:0:0:
512,183,297461,1,0,0:0:0:0:
260,110,297672,1,0,0:0:0:0:
73,344,297883,6,0,L|63:231,1,112.5
111,166,298305,2,0,L|103:251,1,75
39,44,298728,2,0,L|46:129,1,75
181,43,299151,1,0,0:0:0:0:
63,231,299362,6,0,L|175:221,1,112.5
248,257,299785,1,0,0:0:0:0:
110,84,299995,1,0,0:0:0:0:
68,313,300207,6,0,L|180:303,1,112.5
253,339,300630,1,0,0:0:0:0:
460,105,300841,6,0,L|450:217,1,112.5
379,178,301263,6,0,L|266:187,1,112.5
195,150,301687,5,0,0:0:0:0:
139,227,301898,1,0,0:0:0:0:
48,248,302109,1,0,0:0:0:0:
195,150,302320,5,0,0:0:0:0:
48,248,302532,1,0,0:0:0:0:
195,150,302742,6,0,L|185:262,1,112.5
141,330,303165,5,0,0:0:0:0:
235,326,303376,1,0,0:0:0:0:
320,367,303588,1,0,0:0:0:0:
141,330,303798,6,0,L|131:217,1,112.5
89,148,304222,1,0,0:0:0:0:
235,326,304433,1,0,0:0:0:0:
28,204,304643,6,0,L|140:213,1,112.5
217,186,305067,1,0,0:0:0:0:
371,328,305277,6,0,L|378:242,1,75
265,35,305700,2,0,L|271:109,1,75
503,77,306122,6,0,L|354:64,1,150
265,35,306757,5,0,0:0:0:0:
332,210,306968,1,0,0:0:0:0:
107,115,307180,5,0,0:0:0:0:
433,37,307390,1,0,0:0:0:0:
233,354,307601,6,0,L|223:241,1,112.5
176,175,308024,6,0,L|288:165,1,112.5
360,201,308446,2,0,L|285:194,1,75
419,145,308870,5,0,0:0:0:0:
468,226,309081,1,0,0:0:0:0:
412,302,309292,1,0,0:0:0:0:
419,145,309502,6,0,L|428:257,1,112.5
494,306,309925,1,0,0:0:0:0:
338,139,310136,6,0,L|418:132,1,75
209,275,310559,2,0,L|289:282,1,75
92,81,310981,2,0,L|172:74,1,75
131,295,311404,6,0,P|137:267|130:241,1,56.25
138,226,311698,6,0,P|152:265|147:307,1,84.3750032186509
53,333,311990,6,0,P|7:308|49:272,1,112.5
51,277,312284,5,0,0:0:0:0:
192,242,312429,6,0,P|199:304|137:308,1,140.625
132,296,312722,1,0,0:0:0:0:
231,110,312870,2,0,L|341:122,1,93.75
171,164,313163,1,0,0:0:0:0:
128,33,313309,1,0,0:0:0:0:
128,33,313383,1,0,0:0:0:0:
128,33,313456,1,0,0:0:0:0:
284,211,313589,5,0,0:0:0:0:
53,333,313723,2,0,B|91:317|129:336|129:336|166:354|224:328,1,150
436,230,314289,5,0,0:0:0:0:
364,179,314452,1,0,0:0:0:0:
132,296,314615,5,0,0:0:0:0:
444,142,314918,5,0,0:0:0:0:
444,142,315081,1,0,0:0:0:0:
204,245,315210,2,0,P|273:274|289:362,1,154.687501475215
210,330,315503,1,0,0:0:0:0:
364,179,315649,2,0,L|373:248,1,51.5625004917383
372,91,315796,1,0,0:0:0:0:
444,357,315942,6,0,B|364:325|363:380|284:341,1,154.687501475215
210,330,316235,1,0,0:0:0:0:
436,230,316381,1,0,0:0:0:0:
132,296,316527,1,0,0:0:0:0:
292,128,316674,1,0,0:0:0:0:
356,267,316820,1,0,0:0:0:0:
356,267,316893,1,0,0:0:0:0:
356,267,316966,2,0,L|287:258,1,51.5625004917383
428,318,317113,1,0,0:0:0:0:
129,161,317259,6,0,P|97:229|132:296,1,154.687501475215
183,227,317552,1,0,0:0:0:0:
28,358,317698,2,0,P|72:302|70:232,1,103.125000983477
40,89,317991,2,0,L|46:141,1,51.5625004917383
82,15,318137,1,0,0:0:0:0:
77,272,318283,6,0,P|106:338|242:300,1,206.250001966953
202,134,318722,2,0,P|160:197|162:274,1,154.687501475215
305,304,319015,5,0,0:0:0:0:
259,70,319161,1,0,0:0:0:0:
243,248,319308,5,0,0:0:0:0:
275,87,319454,1,0,0:0:0:0:
499,266,319600,6,0,P|434:226|361:242,1,154.687501475215
305,304,319893,2,0,P|361:289|392:253,1,103.125000983477
202,134,320186,1,0,0:0:0:0:
230,265,320332,2,0,L|221:326,1,51.5625004917383
267,190,320479,1,0,0:0:0:0:
17,258,320625,2,0,P|87:281|149:239,1,154.687501475215
75,198,320918,5,0,0:0:0:0:
193,340,321064,1,0,0:0:0:0:
275,87,321210,1,0,0:0:0:0:
275,87,321283,1,0,0:0:0:0:
275,87,321357,1,0,0:0:0:0:
79,315,321503,5,0,0:0:0:0:
267,190,321649,1,0,0:0:0:0:
485,253,321796,1,0,0:0:0:0:
155,224,321942,6,0,B|238:204|226:257|327:217,1,154.687501475215
367,166,322235,1,0,0:0:0:0:
54,220,322381,2,0,P|100:242|151:237,1,103.125000983477
332,88,322674,1,0,0:0:0:0:
332,88,322747,1,0,0:0:0:0:
332,88,322820,1,0,0:0:0:0:
251,352,322966,6,0,P|252:276|306:224,1,154.687501475215
387,248,323259,5,0,0:0:0:0:
130,260,323405,1,0,0:0:0:0:
50,14,323552,2,0,P|98:81|91:176,1,154.687501475215
54,220,323844,5,0,0:0:0:0:
422,376,323991,2,0,P|435:302|385:247,1,154.687501475215
355,326,324283,5,0,0:0:0:0:
355,326,324430,1,0,0:0:0:0:
391,110,324576,2,0,P|347:170|366:242,1,154.687501475215
430,187,324869,1,0,0:0:0:0:
275,51,325015,2,0,L|327:56,1,51.5625004917383
202,93,325161,1,0,0:0:0:0:
511,62,325308,6,0,P|465:121|391:121,1,154.687501475215
429,45,325600,5,0,0:0:0:0:
366,242,325747,1,0,0:0:0:0:
202,93,325893,1,0,0:0:0:0:
447,216,326040,1,0,0:0:0:0:
285,268,326186,1,0,0:0:0:0:
285,268,326259,1,0,0:0:0:0:
285,268,326332,2,0,L|219:262,1,51.5625004917383
349,326,326479,1,0,0:0:0:0:
44,234,326625,6,0,P|83:297|158:302,1,154.687501475215
127,224,326918,1,0,0:0:0:0:
432,316,327064,2,0,P|412:267|424:210,1,103.125000983477
467,100,327357,2,0,L|473:152,1,51.5625004917383
510,27,327503,1,0,0:0:0:0:
285,268,327649,6,0,P|209:259|167:163,1,154.687501475215
191,117,327942,1,0,0:0:0:0:
28,248,328088,2,0,P|71:217|184:284,1,154.687501475215
99,297,328381,1,0,0:0:0:0:
49,72,328527,1,0,0:0:0:0:
105,183,328674,2,0,L|111:132,1,51.5625004917383
28,248,328820,2,0,L|22:196,1,51.5625004917383
99,297,328966,6,0,P|148:260|254:279,1,154.687501475215
302,320,329259,2,0,P|246:308|208:273,1,103.125000983477
294,86,329552,1,0,0:0:0:0:
380,285,329698,2,0,L|386:220,1,51.5625004917383
450,336,329844,1,0,0:0:0:0:
224,137,329991,6,0,P|166:153|151:258,1,154.687501475215
212,278,330283,1,0,0:0:0:0:
21,353,330430,6,0,B|105:318|99:379|170:350,1,154.687501475215
212,278,330722,2,0,P|301:261|298:332,1,154.687501475215
268,373,331015,2,0,B|248:288|319:288|268:181,1,154.687501475215
223,163,331308,6,0,P|205:107|266:33,1,154.687501475215
339,52,331601,2,0,P|284:76|228:59,1,103.125000983477
408,101,331893,1,0,0:0:0:0:
283,222,332040,2,0,L|346:228,1,51.5625004917383
201,244,332186,1,0,0:0:0:0:
415,16,332332,6,0,P|377:82|438:155,1,154.687501475215
494,164,332625,1,0,0:0:0:0:
261,304,332771,2,0,P|307:276|367:277,1,103.125000983477
490,360,333064,1,0,0:0:0:0:
251,131,333210,1,0,0:0:0:0:
253,125,333283,1,0,0:0:0:0:
255,119,333357,5,0,0:0:0:0:
269,179,333430,1,0,0:0:0:0:
241,240,333503,1,0,0:0:0:0:
174,267,333576,1,0,0:0:0:0:
97,235,333649,6,0,B|196:212|178:278|290:231,1,168.750006437302
402,151,333942,1,0,0:0:0:0:
126,104,334088,1,0,0:0:0:0:
414,169,334235,1,0,0:0:0:0:
82,225,334381,2,0,P|106:219|157:219,1,56.2500021457673
296,353,334674,6,0,P|235:308|269:193,1,168.750006437302
393,103,334966,1,0,0:0:0:0:
310,269,335113,1,0,0:0:0:0:
128,297,335259,1,0,0:0:0:0:
289,49,335406,1,0,0:0:0:0:
414,323,335552,2,0,P|405:279|410:248,1,56.2500021457673
512,67,335844,6,0,P|512:148|445:193,1,168.750006437302
251,125,336137,1,0,0:0:0:0:
438,108,336283,1,0,0:0:0:0:
487,290,336430,1,0,0:0:0:0:
289,49,336576,1,0,0:0:0:0:
339,250,336722,1,0,0:0:0:0:
153,340,336869,1,0,0:0:0:0:
438,108,337015,6,0,B|354:85|353:159|245:117,1,168.750006437302
154,40,337308,1,0,0:0:0:0:
489,194,337454,2,0,P|459:149|468:71,1,112.500004291535
427,375,337747,2,0,P|458:329|458:274,1,112.500004291535
273,125,338040,2,0,P|245:173|248:228,1,112.500004291535
104,355,338333,6,0,P|153:330|156:223,1,168.750006437302
17,168,338625,1,0,0:0:0:0:
273,125,338771,1,0,0:0:0:0:
69,49,338918,1,0,0:0:0:0:
180,318,339064,2,0,P|191:288|185:244,1,56.2500021457673
311,306,339357,6,0,P|378:327|432:245,1,168.750006437302
370,161,339649,1,0,0:0:0:0:
502,85,339796,1,0,0:0:0:0:
294,38,339942,1,0,0:0:0:0:
486,193,340088,1,0,0:0:0:0:
238,269,340235,1,0,0:0:0:0:
379,27,340381,1,0,0:0:0:0:
458,343,340527,6,0,P|445:262|353:220,1,168.750006437302
238,269,340820,1,0,0:0:0:0:
346,106,340966,2,0,P|338:169|365:222,1,112.500004291535
502,85,341259,1,0,0:0:0:0:
294,38,341405,1,0,0:0:0:0:
120,163,341552,1,0,0:0:0:0:
420,63,341698,6,0,P|423:115|520:168,1,168.750006437302
502,85,341991,5,0,0:0:0:0:
375,219,342137,1,0,0:0:0:0:
462,321,342283,1,0,0:0:0:0:
342,140,342430,5,0,0:0:0:0:
314,141,342503,1,0,0:0:0:0:
288,152,342576,1,0,0:0:0:0:
266,170,342649,1,0,0:0:0:0:
254,209,342723,5,0,0:0:0:0:
199,216,342796,1,0,0:0:0:0:
149,192,342869,1,0,0:0:0:0:
123,144,342942,1,0,0:0:0:0:
159,69,343015,6,0,B|189:161|131:147|159:251,1,168.750006437302
223,333,343308,1,0,0:0:0:0:
40,165,343454,1,0,0:0:0:0:
244,73,343601,1,0,0:0:0:0:
54,352,343747,2,0,P|46:312|49:292,1,56.2500021457673
269,219,344040,6,0,P|291:293|222:332,1,168.750006437302
123,144,344332,1,0,0:0:0:0:
379,121,344479,1,0,0:0:0:0:
137,329,344625,1,0,0:0:0:0:
244,73,344771,1,0,0:0:0:0:
299,304,344918,2,0,P|309:269|294:232,1,56.2500021457673
137,329,345210,6,0,B|197:292|231:373|328:310,1,168.750006437302
443,220,345503,1,0,0:0:0:0:
383,342,345649,1,0,0:0:0:0:
301,142,345796,1,0,0:0:0:0:
466,360,345942,1,0,0:0:0:0:
360,202,346088,1,0,0:0:0:0:
171,224,346235,1,0,0:0:0:0:
443,220,346381,6,0,P|470:166|356:103,1,168.750006437302
279,224,346674,1,0,0:0:0:0:
456,103,346820,2,0,P|398:77|335:97,1,112.500004291535
319,297,347113,2,0,P|356:257|360:202,1,112.500004291535
78,101,347405,2,0,P|67:163|103:219,1,112.500004291535
315,143,347698,6,0,B|228:171|241:114|151:148,1,168.750006437302
25,261,347991,1,0,0:0:0:0:
117,25,348137,1,0,0:0:0:0:
178,331,348284,1,0,0:0:0:0:
65,97,348430,1,0,0:0:0:0:
295,60,348576,1,0,0:0:0:0:
52,93,348723,6,0,P|71:143|190:147,1,168.750006437302
295,60,349015,1,0,0:0:0:0:
420,314,349162,2,0,P|451:268|448:197,1,112.500004291535
290,306,349454,2,0,P|214:270|116:329,1,168.750006437302
105,374,349747,1,0,0:0:0:0:
327,274,349893,6,0,P|223:239|128:293,1,225.000008583069
371,109,350332,2,0,P|318:90|244:96,1,112.500004291535
97,200,350625,1,0,0:0:0:0:
392,218,350771,1,0,0:0:0:0:
83,208,350918,1,0,0:0:0:0:
461,168,351064,5,0,0:0:0:0:
63,204,351357,1,0,0:0:0:0:
512,236,351649,1,0,0:0:0:0:
172,120,351942,5,0,0:0:0:0:
367,306,352088,1,0,0:0:0:0:
152,128,352235,1,0,0:0:0:0:
443,74,352381,6,0,P|382:140|304:117,1,140.625
284,74,352674,1,0,0:0:0:0:
432,249,352820,2,0,L|425:156,2,93.75
202,187,353259,6,0,L|258:193,1,46.875
126,222,353405,2,0,P|164:170|88:176,1,140.625
126,183,353698,1,0,0:0:0:0:
355,317,353845,2,0,P|263:308|231:247,1,140.625
315,243,354137,1,0,0:0:0:0:
209,111,354284,2,0,L|201:157,1,46.875
284,74,354430,2,0,P|228:92|158:67,1,93.75
437,5,354723,6,0,P|500:36|475:127,1,140.625
444,159,355015,1,0,0:0:0:0:
506,320,355162,1,0,0:0:0:0:
315,243,355308,2,0,L|389:235,1,46.875
245,290,355454,1,0,0:0:0:0:
364,107,355601,6,0,L|359:154,1,46.875
295,61,355747,2,0,P|384:26|439:71,1,140.625
447,121,356040,1,0,0:0:0:0:
175,337,356186,2,0,P|164:270|213:213,1,140.625
245,290,356479,1,0,0:0:0:0:
61,147,356625,2,0,L|66:219,1,46.875
16,76,356771,2,0,P|42:111|91:129,1,93.75
295,61,357064,6,0,P|343:88|325:191,1,140.625
277,210,357357,1,0,0:0:0:0:
471,158,357503,1,0,0:0:0:0:
180,273,357649,2,0,L|227:278,1,46.875
130,341,357796,1,0,0:0:0:0:
413,217,357942,6,0,L|420:284,1,46.875
389,137,358088,2,0,P|404:194|331:208,1,140.625
365,57,358381,1,0,0:0:0:0:
208,234,358527,2,0,P|270:203|338:213,1,140.625
214,253,358820,2,0,P|146:238|98:188,1,140.625
291,286,359113,2,0,L|286:337,1,46.875
123,166,359259,2,0,L|128:213,1,46.875
285,81,359406,5,0,0:0:0:0:
214,253,359552,1,0,0:0:0:0:
41,321,359698,1,0,0:0:0:0:
88,79,359845,5,0,0:0:0:0:
303,75,359991,1,0,0:0:0:0:
424,253,360137,1,0,0:0:0:0:
296,359,360284,5,0,0:0:0:0:
317,59,360430,1,0,0:0:0:0:
368,315,360576,5,0,0:0:0:0:
282,42,360723,1,0,0:0:0:0:
319,47,360796,1,0,0:0:0:0:
356,52,360869,1,0,0:0:0:0:
307,257,361015,5,0,0:0:0:0:
309,251,361088,1,0,0:0:0:0:
311,245,361162,5,0,0:0:0:0:
306,290,361235,1,0,0:0:0:0:
274,324,361308,1,0,0:0:0:0:
229,330,361381,1,0,0:0:0:0:
181,298,361454,5,0,0:0:0:0:
218,342,361527,1,0,0:0:0:0:
273,358,361600,1,0,0:0:0:0:
328,340,361673,1,0,0:0:0:0:
388,280,361747,6,0,L|464:287,1,46.875
278,167,361893,2,0,L|324:162,1,46.875
174,243,362040,2,0,P|116:253|91:175,1,140.625
188,153,362332,1,0,0:0:0:0:
222,330,362479,2,0,L|217:378,1,46.875
264,257,362625,1,0,0:0:0:0:
7,356,362771,6,0,P|73:341|98:279,1,140.625
25,174,363064,1,0,0:0:0:0:
173,241,363210,2,0,L|266:250,1,93.75
98,278,363503,1,0,0:0:0:0:
337,205,363649,2,0,L|252:213,1,46.875
340,289,363796,2,0,P|393:267|418:181,1,140.625
135,92,364088,6,0,B|209:64|207:120|281:85,1,140.625
328,28,364381,1,0,0:0:0:0:
266,250,364527,2,0,P|289:205|243:117,1,140.625
206,192,364820,1,0,0:0:0:0:
424,99,364967,6,0,L|378:96,1,46.875
481,37,365113,2,0,P|509:99|456:177,1,140.625
399,180,365406,1,0,0:0:0:0:
493,362,365552,2,0,P|439:315|348:314,1,140.625
259,322,365845,2,0,P|309:341|316:257,1,140.625
229,89,366138,5,0,0:0:0:0:
226,112,366211,1,0,0:0:0:0:
223,136,366284,1,0,0:0:0:0:
220,160,366357,1,0,0:0:0:0:
265,229,366430,6,0,P|238:216|201:213,1,46.875
56,272,366576,2,0,P|85:269|119:253,1,46.875
141,191,366723,2,0,P|149:252|211:295,1,140.625
346,253,367015,1,0,0:0:0:0:
220,160,367162,1,0,0:0:0:0:
429,92,367308,2,0,L|423:149,1,46.875
505,56,367454,6,0,P|448:10|362:41,1,140.625
344,91,367747,1,0,0:0:0:0:
126,19,367893,6,0,P|58:11|7:56,1,140.625
83,92,368186,1,0,0:0:0:0:
39,258,368332,2,0,L|43:314,1,46.875
13,179,368479,2,0,P|67:179|122:255,1,140.625
97,319,368771,5,0,0:0:0:0:
246,175,368918,1,0,0:0:0:0:
450,201,369064,1,0,0:0:0:0:
358,338,369210,5,0,0:0:0:0:
316,73,369357,1,0,0:0:0:0:
338,352,369503,5,0,0:0:0:0:
385,25,369649,1,0,0:0:0:0:
119,202,369796,5,0,0:0:0:0:
376,162,370089,5,0,0:0:0:0:
49,154,370381,5,0,0:0:0:0:
295,184,370674,5,0,0:0:0:0:
247,330,370820,1,0,0:0:0:0:
189,114,370967,1,0,0:0:0:0:
396,303,371113,6,0,P|341:307|304:268,1,112.5
295,184,371406,2,0,P|313:224|308:271,1,75
150,222,371698,1,0,0:0:0:0:
231,238,371845,1,0,0:0:0:0:
69,206,371991,6,0,L|72:247,1,37.5
123,142,372137,2,0,P|130:87|60:62,1,112.5
77,63,372430,1,0,0:0:0:0:
295,184,372576,6,0,L|381:179,1,75
249,114,372869,1,0,0:0:0:0:
203,44,373015,1,0,0:0:0:0:
420,245,373162,2,0,P|452:191|434:127,1,112.5
388,85,373454,6,0,P|396:124|429:158,1,75
349,291,373747,1,0,0:0:0:0:
477,350,373893,2,0,P|415:306|323:315,1,150
122,272,374332,6,0,L|117:221,1,37.5
79,344,374479,2,0,P|132:355|192:318,1,112.5
187,318,374771,1,0,0:0:0:0:
369,179,374918,6,0,P|353:231|315:270,1,75
282,128,375210,2,0,P|242:165|189:179,1,75
232,40,375503,2,0,P|178:52|126:38,1,75
480,253,375796,6,0,P|481:215|470:180,1,75
435,323,376089,1,0,0:0:0:0:
494,100,376235,2,0,P|453:141|391:118,1,112.5
399,122,376528,1,0,0:0:0:0:
241,258,376674,6,0,L|302:252,1,37.5
187,193,376820,2,0,P|139:188|81:232,1,112.5
85,235,377113,1,0,0:0:0:0:
246,134,377259,6,0,L|240:50,1,75
327,155,377552,1,0,0:0:0:0:
408,176,377698,1,0,0:0:0:0:
165,113,377845,2,0,P|214:91|281:99,1,112.5
327,155,378137,6,0,P|283:147|259:113,1,75
471,120,378430,1,0,0:0:0:0:
285,227,378576,2,0,P|335:174|408:176,1,150
471,328,379015,6,0,L|467:369,1,37.5
512,255,379162,2,0,P|450:247|402:281,1,112.5
407,283,379454,1,0,0:0:0:0:
285,227,379601,2,0,L|289:268,1,37.5
317,149,379747,2,0,P|291:188|241:207,1,75
170,323,380040,5,0,0:0:0:0:
84,210,380186,1,0,0:0:0:0:
77,68,380332,1,0,0:0:0:0:
91,352,380479,6,0,P|121:314|201:311,1,112.5
191,311,380771,1,0,0:0:0:0:
317,149,380918,2,0,P|315:187|367:252,1,112.5
398,174,381211,1,0,0:0:0:0:
271,284,381357,6,0,L|276:341,1,37.5
207,228,381503,2,0,P|161:196|161:139,1,112.5
168,137,381796,1,0,0:0:0:0:
355,245,381942,6,0,P|377:275|387:312,1,75
418,164,382235,2,0,P|452:179|479:206,1,75
433,64,382528,2,0,P|470:60|507:70,1,75
254,357,382820,6,0,P|263:320|259:283,1,75
74,122,383113,2,0,P|117:155|168:137,1,112.5
169,126,383406,1,0,0:0:0:0:
137,314,383552,1,0,0:0:0:0:
165,116,383698,1,0,0:0:0:0:
210,271,383845,6,0,P|256:281|318:248,1,112.5
353,181,384137,2,0,L|346:300,1,112.5
351,303,384430,1,0,0:0:0:0:
292,123,384576,2,0,P|341:99|399:111,1,112.5
437,182,384869,2,0,L|430:63,1,112.5
490,248,385162,6,0,P|454:215|375:218,1,112.5
417,290,385454,1,0,0:0:0:0:
209,146,385601,2,0,P|252:184|257:253,1,112.5,0|0,0:0|0:0,0:0:0:0:
96,211,385893,1,0,0:0:0:0:
178,224,386040,1,0,0:0:0:0:
52,53,386186,6,0,P|96:86|152:83,1,112.5
251,74,386479,6,0,L|247:41,2,25
273,156,386625,1,0,0:0:0:0:
241,151,386699,1,0,0:0:0:0:
209,146,386772,1,0,0:0:0:0:
333,94,386917,6,0,P|315:132|330:179,1,75
375,229,387211,1,0,0:0:0:0:
416,102,387504,6,0,B|382:70|336:87|310:119|311:168|356:197|391:187|391:187|374:228|374:228|408:251|408:311|355:331|324:315|324:315|310:322|310:322|261:289|186:310,1,525
125,249,388673,5,0,0:0:0:0:
107,247,388746,1,0,0:0:0:0:
28,357,388893,5,0,0:0:0:0:
46,355,388966,1,0,0:0:0:0:
65,353,389039,1,0,0:0:0:0:
83,351,389112,1,0,0:0:0:0:
102,349,389185,1,0,0:0:0:0:
120,348,389259,1,0,0:0:0:0:
94,146,389406,5,0,0:0:0:0:
375,228,389624,5,0,0:0:0:0:
357,226,389697,1,0,0:0:0:0:
338,224,389770,1,0,0:0:0:0:
320,222,389843,1,0,0:0:0:0:
301,220,389916,1,0,0:0:0:0:
283,219,389990,2,0,L|225:223,1,37.5
187,278,390186,5,0,0:0:0:0:
187,278,390252,2,0,L|129:273,1,37.5
130,193,390448,5,0,0:0:0:0:
130,193,390514,2,0,L|168:196,1,37.5
226,139,390710,1,0,0:0:0:0:
226,139,390776,2,0,L|264:137,1,37.5
331,91,390972,5,0,0:0:0:0:
331,91,391038,1,0,0:0:0:0:
367,97,391109,1,0,0:0:0:0:
397,120,391180,1,0,0:0:0:0:
413,153,391252,1,0,0:0:0:0:
412,190,391323,1,0,0:0:0:0:
395,223,391395,6,0,L|397:261,1,37.5
311,209,391596,6,0,L|314:260,1,37.5
227,195,391851,5,0,0:0:0:0:
227,195,391985,2,0,L|230:246,1,37.5
143,181,392246,5,0,0:0:0:0:
143,181,392312,1,0,0:0:0:0:
143,181,392377,1,0,0:0:0:0:
54,306,392506,6,0,L|91:303,1,37.5
167,263,392767,6,0,L|204:265,1,37.5
284,294,393101,6,0,L|321:291,1,37.5
331,296,393371,6,0,L|337:204,1,75
412,324,394193,6,0,L|423:155,1,150
493,352,395102,5,0,0:0:0:0:
493,352,395232,2,0,L|504:183,1,150
198,52,396611,2,0,L|203:126,1,75
256,192,396987,5,0,0:0:0:0:
256,192,397060,12,0,398157,0:0:0:0:
