osu file format v14

[General]
AudioFilename: audio.mp3
AudioLeadIn: 0
PreviewTime: 78175
Countdown: 0
SampleSet: Soft
StackLeniency: 0.7
Mode: 0
LetterboxInBreaks: 0
WidescreenStoryboard: 0

[Editor]
Bookmarks: 21236,75489,121834
DistanceSpacing: 1.3
BeatDivisor: 8
GridSize: 8
TimelineZoom: 2.799999

[Metadata]
Title:Altair
TitleUnicode:Altair
Artist:Asriel
ArtistUnicode:Asriel
Creator:nhule12345
Version:Brightest Star
Source:Angelrhythm
Tags:asriel angelrhythm
BeatmapID:1851198
BeatmapSetID:885722

[Difficulty]
HPDrainRate:5.7
CircleSize:5
OverallDifficulty:9
ApproachRate:9
SliderMultiplier:1.4
SliderTickRate:1

[Events]
//Background and Video events
0,0,"den.png",0,0
//Break Periods
2,6273,14929
//Storyboard Layer 0 (Background)
//Storyboard Layer 1 (Fail)
//Storyboard Layer 2 (Pass)
//Storyboard Layer 3 (Foreground)
//Storyboard Sound Samples

[TimingPoints]
530,326.086956521739,4,2,0,100,1,0
15978,-66.6666666666667,4,2,0,100,0,0
16508,-100,4,2,0,100,0,0
21236,-66.6666666666667,4,2,0,100,0,0
21873,-100,4,2,0,100,0,0
80176,-50,4,2,0,100,0,1
95665,-66.6666666666667,4,2,0,100,0,1
121834,-66.6666666666667,4,2,0,100,0,0
130638,-40,4,2,0,100,0,0

[HitObjects]
256,192,530,12,0,6073,0:0:0:0:
288,64,15529,5,0,0:0:0:0:
288,64,15978,5,0,0:0:0:0:
288,64,16060,1,0,0:0:0:0:
288,64,16141,1,0,0:0:0:0:
288,64,16263,2,0,L|413:123|413:123,1,131.25000500679
144,112,16630,5,0,0:0:0:0:
384,296,16793,1,0,0:0:0:0:
152,296,16956,2,0,L|208:240,1,70
272,152,17282,5,0,0:0:0:0:
280,192,17445,1,0,0:0:0:0:
384,80,17608,2,0,L|328:136,1,70
448,192,17934,1,0,0:0:0:0:
256,32,18097,1,0,0:0:0:0:
256,336,18260,1,0,0:0:0:0:
256,192,18424,1,0,0:0:0:0:
256,192,18587,1,0,0:0:0:0:
304,224,18750,5,0,0:0:0:0:
256,136,18913,1,0,0:0:0:0:
304,224,19076,1,0,0:0:0:0:
208,224,19240,1,0,0:0:0:0:
256,104,19403,5,0,0:0:0:0:
352,256,19566,1,0,0:0:0:0:
352,256,19729,1,0,0:0:0:0:
168,256,19892,1,0,0:0:0:0:
376,272,20055,5,2,0:0:0:0:
256,64,20218,1,0,0:0:0:0:
136,272,20382,1,0,0:0:0:0:
376,272,20543,1,0,0:0:0:0:
248,184,20706,5,0,0:0:0:0:
248,184,20788,1,0,0:0:0:0:
248,184,20869,1,0,0:0:0:0:
248,184,20951,1,0,0:0:0:0:
248,184,21032,1,0,0:0:0:0:
248,184,21236,2,0,B|288:240|232:272|312:312|320:312,1,140
256,192,21725,5,0,0:0:0:0:
32,192,21888,1,0,0:0:0:0:
128,192,22051,2,0,L|184:136,1,70
256,336,22377,1,0,0:0:0:0:
496,192,22540,5,0,0:0:0:0:
352,280,22622,1,0,0:0:0:0:
342,239,22704,1,0,0:0:0:0:
364,307,22866,1,0,0:0:0:0:
364,307,23029,1,0,0:0:0:0:
339,241,23192,1,0,0:0:0:0:
364,307,23355,1,0,0:0:0:0:
339,241,23518,1,0,0:0:0:0:
328,240,23682,6,6,L|368:304,1,70
152,192,24007,5,0,0:0:0:0:
240,88,24170,1,0,0:0:0:0:
352,128,24333,1,0,0:0:0:0:
352,240,24497,1,0,0:0:0:0:
240,288,24659,5,0,0:0:0:0:
152,192,24822,1,0,0:0:0:0:
240,288,24986,1,0,0:0:0:0:
352,240,25149,1,0,0:0:0:0:
240,288,25312,1,0,0:0:0:0:
152,192,25475,1,0,0:0:0:0:
240,288,25638,1,2,0:0:0:0:
288,192,25801,6,0,L|272:160,1,35
248,120,25964,2,0,L|240:80,1,35
240,56,26127,2,0,L|200:56,1,35
168,56,26290,2,0,L|144:48,1,17.5
104,64,26453,5,0,0:0:0:0:
104,64,26616,2,0,L|176:224,1,140
200,56,27106,2,0,L|256:184,1,140
304,48,27595,2,0,L|368:192,1,140
256,176,28083,1,0,0:0:0:0:
280,216,28165,1,0,0:0:0:0:
232,216,28247,1,0,0:0:0:0:
256,176,28411,5,0,0:0:0:0:
232,216,28573,1,0,0:0:0:0:
280,216,28736,1,0,0:0:0:0:
104,320,28899,1,0,0:0:0:0:
104,320,29061,1,0,0:0:0:0:
104,320,29225,2,0,L|152:184,1,140
208,328,29715,2,0,L|256:192,1,140
328,328,30204,2,0,L|376:192,1,140
374,195,30693,5,0,0:0:0:0:
416,224,30774,1,0,0:0:0:0:
448,248,30855,1,0,0:0:0:0:
448,248,31018,1,0,0:0:0:0:
392,320,31181,1,0,0:0:0:0:
448,248,31345,1,0,0:0:0:0:
392,320,31507,1,0,0:0:0:0:
448,248,31670,1,0,0:0:0:0:
208,112,31834,5,0,0:0:0:0:
168,80,31915,1,0,0:0:0:0:
48,128,31996,1,0,0:0:0:0:
125,50,32159,1,0,0:0:0:0:
48,128,32322,1,0,0:0:0:0:
125,50,32486,1,0,0:0:0:0:
48,128,32648,1,0,0:0:0:0:
125,50,32811,1,0,0:0:0:0:
416,56,32975,5,0,0:0:0:0:
320,144,33138,1,0,0:0:0:0:
416,56,33301,1,0,0:0:0:0:
368,96,33383,1,0,0:0:0:0:
320,144,33464,1,0,0:0:0:0:
416,56,33627,1,0,0:0:0:0:
320,144,33790,1,0,0:0:0:0:
416,56,33953,1,0,0:0:0:0:
96,304,34117,5,0,0:0:0:0:
144,272,34198,1,0,0:0:0:0:
184,240,34279,1,0,0:0:0:0:
224,280,34442,1,0,0:0:0:0:
144,200,34605,1,0,0:0:0:0:
224,280,34768,1,0,0:0:0:0:
144,200,34931,1,0,0:0:0:0:
224,280,35094,1,0,0:0:0:0:
320,280,35257,5,0,0:0:0:0:
301,335,35339,1,0,0:0:0:0:
360,320,35420,1,0,0:0:0:0:
296,208,35583,5,0,0:0:0:0:
280,256,35746,1,0,0:0:0:0:
336,240,35909,1,0,0:0:0:0:
328,288,36072,5,0,0:0:0:0:
368,320,36235,1,0,0:0:0:0:
312,336,36398,1,0,0:0:0:0:
304,240,36561,5,0,0:0:0:0:
304,192,36724,1,0,0:0:0:0:
264,208,36887,1,0,0:0:0:0:
339,241,37050,5,0,0:0:0:0:
296,200,37213,1,0,0:0:0:0:
339,241,37376,1,0,0:0:0:0:
296,186,37540,1,0,0:0:0:0:
339,241,37703,1,0,0:0:0:0:
296,186,37866,1,0,0:0:0:0:
339,241,38029,1,0,0:0:0:0:
288,192,38192,1,0,0:0:0:0:
342,239,38355,5,0,0:0:0:0:
296,186,38518,1,0,0:0:0:0:
339,241,38681,1,0,0:0:0:0:
296,186,38844,1,0,0:0:0:0:
339,241,39007,1,0,0:0:0:0:
296,186,39170,5,0,0:0:0:0:
339,241,39333,1,0,0:0:0:0:
308,213,39415,1,0,0:0:0:0:
296,186,39496,1,0,0:0:0:0:
339,241,39659,1,0,0:0:0:0:
288,192,39822,1,0,0:0:0:0:
342,239,39985,1,0,0:0:0:0:
296,186,40148,5,0,0:0:0:0:
339,241,40311,1,0,0:0:0:0:
296,186,40474,1,0,0:0:0:0:
339,241,40637,1,0,0:0:0:0:
296,186,40801,1,0,0:0:0:0:
339,241,40964,1,0,0:0:0:0:
296,186,41127,5,0,0:0:0:0:
339,241,41290,1,0,0:0:0:0:
288,192,41453,1,0,0:0:0:0:
342,239,41616,1,0,0:0:0:0:
296,186,41779,1,0,0:0:0:0:
296,186,41861,1,0,0:0:0:0:
339,241,41942,1,0,0:0:0:0:
296,186,42105,5,0,0:0:0:0:
339,241,42268,1,0,0:0:0:0:
296,186,42431,1,0,0:0:0:0:
296,186,42595,1,0,0:0:0:0:
339,241,42758,1,0,0:0:0:0:
296,186,42921,1,0,0:0:0:0:
339,241,43084,5,0,0:0:0:0:
296,186,43247,1,0,0:0:0:0:
296,186,43328,1,0,0:0:0:0:
339,241,43410,1,0,0:0:0:0:
296,186,43573,1,0,0:0:0:0:
339,241,43736,1,0,0:0:0:0:
288,192,43899,1,0,0:0:0:0:
342,239,44062,5,0,0:0:0:0:
296,186,44225,1,0,0:0:0:0:
319,220,44307,1,0,0:0:0:0:
339,241,44388,1,0,0:0:0:0:
296,186,44551,1,0,0:0:0:0:
339,241,44714,1,0,0:0:0:0:
296,186,44878,1,0,0:0:0:0:
339,241,45041,5,0,0:0:0:0:
296,186,45204,1,0,0:0:0:0:
339,241,45367,1,0,0:0:0:0:
288,192,45530,1,0,0:0:0:0:
342,239,45693,1,0,0:0:0:0:
296,186,45856,1,0,0:0:0:0:
339,241,46019,5,0,0:0:0:0:
296,186,46182,1,0,0:0:0:0:
339,241,46345,1,0,0:0:0:0:
296,186,46508,1,0,0:0:0:0:
339,241,46671,1,0,0:0:0:0:
328,208,46752,1,0,0:0:0:0:
296,186,46834,1,0,0:0:0:0:
339,241,46997,5,0,0:0:0:0:
328,208,47078,1,0,0:0:0:0:
288,192,47160,1,0,0:0:0:0:
328,208,47241,1,0,0:0:0:0:
342,239,47323,1,0,0:0:0:0:
328,208,47404,1,0,0:0:0:0:
296,186,47486,1,0,0:0:0:0:
339,241,47649,1,0,0:0:0:0:
296,186,47812,1,0,0:0:0:0:
339,241,47975,5,0,0:0:0:0:
296,186,48139,1,0,0:0:0:0:
339,241,48302,1,0,0:0:0:0:
296,186,48465,1,0,0:0:0:0:
339,241,48628,1,0,0:0:0:0:
328,248,48709,1,0,0:0:0:0:
288,192,48791,1,0,0:0:0:0:
342,239,48954,5,0,0:0:0:0:
296,186,49117,1,0,0:0:0:0:
339,241,49280,1,0,0:0:0:0:
296,186,49443,1,0,0:0:0:0:
339,241,49606,1,0,0:0:0:0:
296,186,49769,1,0,0:0:0:0:
328,240,49850,1,0,0:0:0:0:
339,241,49932,5,0,0:0:0:0:
296,186,50096,1,0,0:0:0:0:
339,241,50259,1,0,0:0:0:0:
296,186,50422,1,0,0:0:0:0:
339,241,50585,1,0,0:0:0:0:
288,192,50748,1,0,0:0:0:0:
336,216,50828,1,0,0:0:0:0:
342,239,50911,5,0,0:0:0:0:
296,186,51074,1,0,0:0:0:0:
339,241,51237,1,0,0:0:0:0:
296,186,51400,1,0,0:0:0:0:
339,241,51563,1,0,0:0:0:0:
296,186,51726,1,0,0:0:0:0:
328,224,51807,1,0,0:0:0:0:
339,241,51888,5,0,0:0:0:0:
296,186,52052,1,0,0:0:0:0:
339,241,52133,1,0,0:0:0:0:
339,241,52215,1,0,0:0:0:0:
296,186,52378,1,0,0:0:0:0:
339,241,52541,1,0,0:0:0:0:
288,192,52704,1,0,0:0:0:0:
342,239,52867,5,0,0:0:0:0:
296,186,53030,1,0,0:0:0:0:
339,241,53193,1,0,0:0:0:0:
296,186,53356,1,0,0:0:0:0:
339,241,53519,1,0,0:0:0:0:
296,186,53682,1,0,0:0:0:0:
339,241,53763,1,0,0:0:0:0:
339,241,53845,5,0,0:0:0:0:
296,186,54009,1,0,0:0:0:0:
339,241,54172,1,0,0:0:0:0:
296,186,54335,1,0,0:0:0:0:
339,241,54498,1,0,0:0:0:0:
288,192,54661,1,0,0:0:0:0:
342,239,54824,5,0,0:0:0:0:
339,241,54904,1,0,0:0:0:0:
296,186,54987,1,0,0:0:0:0:
329,210,55068,1,0,0:0:0:0:
339,241,55150,1,0,0:0:0:0:
296,186,55313,1,0,0:0:0:0:
339,241,55476,1,0,0:0:0:0:
296,186,55638,1,0,0:0:0:0:
339,241,55801,5,0,0:0:0:0:
296,186,55964,1,0,0:0:0:0:
296,186,56127,1,0,0:0:0:0:
238,291,56290,1,0,0:0:0:0:
222,251,56372,1,0,0:0:0:0:
297,329,56453,1,0,0:0:0:0:
297,329,56616,1,0,0:0:0:0:
297,329,56779,5,0,0:0:0:0:
297,329,56942,1,0,0:0:0:0:
239,289,57105,1,0,0:0:0:0:
272,296,57187,1,0,0:0:0:0:
297,329,57268,1,0,0:0:0:0:
272,296,57350,1,0,0:0:0:0:
239,289,57431,1,0,0:0:0:0:
272,296,57513,1,0,0:0:0:0:
297,329,57594,1,0,0:0:0:0:
280,304,57676,1,0,0:0:0:0:
239,289,57757,5,0,0:0:0:0:
297,329,57920,1,0,0:0:0:0:
238,291,58083,1,0,0:0:0:0:
297,329,58246,1,0,0:0:0:0:
297,329,58410,1,0,0:0:0:0:
297,329,58573,1,0,0:0:0:0:
238,291,58654,1,0,0:0:0:0:
297,329,58736,5,0,0:0:0:0:
239,289,58899,1,0,0:0:0:0:
297,329,59062,1,0,0:0:0:0:
239,289,59225,1,0,0:0:0:0:
297,329,59388,1,0,0:0:0:0:
239,289,59551,1,0,0:0:0:0:
297,329,59714,5,0,0:0:0:0:
238,291,59877,1,0,0:0:0:0:
297,329,60040,1,0,0:0:0:0:
297,329,60203,1,0,0:0:0:0:
297,329,60366,1,0,0:0:0:0:
297,329,60529,1,0,0:0:0:0:
269,300,60611,1,0,0:0:0:0:
239,289,60692,5,0,0:0:0:0:
297,329,60855,1,0,0:0:0:0:
239,289,61018,1,0,0:0:0:0:
297,329,61181,1,0,0:0:0:0:
267,298,61263,1,0,0:0:0:0:
239,289,61344,1,0,0:0:0:0:
239,289,61426,1,0,0:0:0:0:
297,329,61507,1,0,0:0:0:0:
238,291,61671,5,0,0:0:0:0:
297,329,61833,1,0,0:0:0:0:
238,291,61997,1,0,0:0:0:0:
297,329,62160,1,0,0:0:0:0:
239,289,62323,1,0,0:0:0:0:
394,302,62486,1,0,0:0:0:0:
368,288,62568,1,0,0:0:0:0:
394,302,62649,5,0,0:0:0:0:
368,288,62731,1,0,0:0:0:0:
394,302,62812,1,0,0:0:0:0:
368,288,62894,1,0,0:0:0:0:
394,302,62975,1,0,0:0:0:0:
312,256,63057,1,0,0:0:0:0:
394,302,63138,1,0,0:0:0:0:
394,302,63301,1,0,0:0:0:0:
394,302,63464,1,0,0:0:0:0:
394,302,63627,5,0,0:0:0:0:
394,302,63791,1,0,0:0:0:0:
394,302,63954,1,0,0:0:0:0:
394,302,64117,1,0,0:0:0:0:
394,302,64280,1,0,0:0:0:0:
394,302,64443,1,0,0:0:0:0:
394,302,64606,5,0,0:0:0:0:
394,302,64769,1,0,0:0:0:0:
394,302,64932,1,0,0:0:0:0:
394,302,65095,1,0,0:0:0:0:
394,302,65258,1,0,0:0:0:0:
394,302,65421,1,0,0:0:0:0:
394,302,65584,5,0,0:0:0:0:
394,302,65747,1,0,0:0:0:0:
394,302,65910,1,0,0:0:0:0:
394,302,66073,1,0,0:0:0:0:
394,302,66236,1,0,0:0:0:0:
394,302,66400,1,0,0:0:0:0:
394,302,66563,5,0,0:0:0:0:
394,302,66726,1,0,0:0:0:0:
394,302,66889,1,0,0:0:0:0:
394,302,67052,1,0,0:0:0:0:
394,302,67215,1,0,0:0:0:0:
394,302,67378,1,0,0:0:0:0:
394,302,67541,5,0,0:0:0:0:
394,302,67704,1,0,0:0:0:0:
400,296,67785,1,0,0:0:0:0:
394,302,67867,1,0,0:0:0:0:
400,296,67948,1,0,0:0:0:0:
394,302,68030,1,0,0:0:0:0:
400,296,68111,1,0,0:0:0:0:
394,302,68193,1,0,0:0:0:0:
400,296,68274,1,0,0:0:0:0:
394,302,68356,1,0,0:0:0:0:
394,302,68519,5,0,0:0:0:0:
394,302,68682,1,0,0:0:0:0:
394,302,68845,1,0,0:0:0:0:
394,302,69009,1,0,0:0:0:0:
394,302,69172,1,0,0:0:0:0:
394,302,69335,1,0,0:0:0:0:
362,273,69415,1,0,0:0:0:0:
394,302,69498,5,0,0:0:0:0:
394,302,69661,1,0,0:0:0:0:
394,302,69824,1,0,0:0:0:0:
394,302,69987,1,0,0:0:0:0:
364,272,70068,1,0,0:0:0:0:
394,302,70150,1,0,0:0:0:0:
394,302,70312,1,0,0:0:0:0:
394,302,70475,5,0,0:0:0:0:
394,302,70638,1,0,0:0:0:0:
394,302,70801,1,0,0:0:0:0:
394,302,70964,1,0,0:0:0:0:
362,274,71046,1,0,0:0:0:0:
394,302,71127,1,0,0:0:0:0:
394,302,71290,1,0,0:0:0:0:
346,260,71372,1,0,0:0:0:0:
394,302,71453,5,0,0:0:0:0:
394,302,71617,1,0,0:0:0:0:
394,302,71780,1,0,0:0:0:0:
394,302,71943,1,0,0:0:0:0:
394,302,72106,1,0,0:0:0:0:
394,302,72269,1,0,0:0:0:0:
394,302,72432,5,0,0:0:0:0:
394,302,72595,1,0,0:0:0:0:
394,302,72758,1,0,0:0:0:0:
394,302,72921,1,0,0:0:0:0:
394,302,73084,1,0,0:0:0:0:
394,302,73247,1,0,0:0:0:0:
394,302,73410,5,0,0:0:0:0:
394,302,73573,1,0,0:0:0:0:
373,265,73654,1,0,0:0:0:0:
394,302,73736,1,0,0:0:0:0:
372,265,73818,1,0,0:0:0:0:
394,302,73899,1,0,0:0:0:0:
394,302,74062,1,0,0:0:0:0:
394,302,74225,1,0,0:0:0:0:
394,302,74388,5,0,0:0:0:0:
389,233,74551,1,0,0:0:0:0:
382,234,74633,1,0,0:0:0:0:
395,302,74714,1,0,0:0:0:0:
393,372,74877,1,0,0:0:0:0:
400,302,75040,1,0,0:0:0:0:
382,234,75203,1,0,0:0:0:0:
394,302,75366,1,0,0:0:0:0:
378,215,75529,1,0,0:0:0:0:
389,233,75693,5,0,0:0:0:0:
395,302,75856,1,0,0:0:0:0:
378,263,75937,1,0,0:0:0:0:
393,372,76019,1,0,0:0:0:0:
400,302,76182,1,0,0:0:0:0:
382,234,76345,1,0,0:0:0:0:
394,302,76508,1,0,0:0:0:0:
378,215,76671,5,0,0:0:0:0:
389,233,76834,1,0,0:0:0:0:
395,302,76997,1,0,0:0:0:0:
393,372,77160,1,0,0:0:0:0:
256,184,77323,6,2,L|256:136,9,35
256,96,78179,5,0,0:0:0:0:
208,112,78261,1,0,0:0:0:0:
176,144,78342,1,0,0:0:0:0:
160,192,78424,1,0,0:0:0:0:
176,240,78505,1,0,0:0:0:0:
208,272,78587,1,0,0:0:0:0:
256,296,78668,1,0,0:0:0:0:
304,272,78750,1,0,0:0:0:0:
336,240,78831,1,0,0:0:0:0:
352,192,78913,5,0,0:0:0:0:
336,144,78994,1,0,0:0:0:0:
304,112,79076,1,0,0:0:0:0:
256,96,79157,1,0,0:0:0:0:
256,96,79239,1,0,0:0:0:0:
256,96,79320,1,0,0:0:0:0:
256,96,79402,1,0,0:0:0:0:
256,96,79483,1,0,0:0:0:0:
256,96,79565,1,0,0:0:0:0:
320,264,79728,5,2,0:0:0:0:
296,296,79810,1,2,0:0:0:0:
256,320,79891,1,2,0:0:0:0:
216,296,79973,1,2,0:0:0:0:
184,264,80054,1,2,0:0:0:0:
152,232,80176,6,0,P|96:168|120:160,1,140
104,168,80462,1,0,0:0:0:0:
104,168,80543,1,0,0:0:0:0:
256,192,80625,1,0,0:0:0:0:
112,312,80706,1,0,0:0:0:0:
159,127,80788,1,0,0:0:0:0:
416,312,80869,1,2,0:0:0:0:
256,192,81073,5,0,0:0:0:0:
256,192,81154,1,0,0:0:0:0:
176,192,81236,1,0,0:0:0:0:
256,192,81318,1,0,0:0:0:0:
336,192,81400,1,8,0:0:0:0:
112,192,81563,1,0,0:0:0:0:
408,192,81726,1,0,0:0:0:0:
112,192,81889,1,8,0:0:0:0:
408,192,82052,5,0,0:0:0:0:
112,192,82215,1,0,0:0:0:0:
256,192,82296,1,0,0:0:0:0:
408,192,82379,1,8,0:0:0:0:
256,192,82459,1,0,0:0:0:0:
364,307,82540,1,0,0:0:0:0:
364,307,82703,5,8,0:0:0:0:
339,241,82866,1,0,0:0:0:0:
364,307,83029,5,0,0:0:0:0:
336,272,83111,1,0,0:0:0:0:
339,241,83192,1,0,0:0:0:0:
364,307,83355,1,0,0:0:0:0:
342,239,83519,1,0,0:0:0:0:
256,216,83600,1,0,0:0:0:0:
364,307,83682,1,0,0:0:0:0:
256,216,83763,1,0,0:0:0:0:
364,307,83845,1,0,0:0:0:0:
339,241,84008,5,8,0:0:0:0:
280,232,84089,1,0,0:0:0:0:
364,307,84171,1,0,0:0:0:0:
339,241,84334,1,0,0:0:0:0:
364,307,84497,1,8,0:0:0:0:
342,239,84578,1,0,0:0:0:0:
280,232,84660,1,0,0:0:0:0:
364,307,84823,1,0,0:0:0:0:
256,208,84904,1,0,0:0:0:0:
364,307,84986,1,8,0:0:0:0:
256,208,85068,1,0,0:0:0:0:
339,241,85149,1,0,0:0:0:0:
364,307,85312,1,8,0:0:0:0:
339,241,85475,1,0,0:0:0:0:
364,307,85638,1,0,0:0:0:0:
352,272,85720,1,0,0:0:0:0:
342,239,85802,5,0,0:0:0:0:
364,307,85964,1,0,0:0:0:0:
364,307,86127,1,0,0:0:0:0:
339,241,86290,1,0,0:0:0:0:
364,307,86453,1,0,0:0:0:0:
352,272,86535,1,0,0:0:0:0:
339,241,86616,1,8,0:0:0:0:
364,307,86779,1,0,0:0:0:0:
342,239,86943,5,0,0:0:0:0:
352,272,87024,1,0,0:0:0:0:
364,307,87106,1,8,0:0:0:0:
364,307,87269,1,0,0:0:0:0:
339,241,87432,1,0,0:0:0:0:
352,272,87513,1,0,0:0:0:0:
364,307,87595,1,8,0:0:0:0:
339,241,87758,1,0,0:0:0:0:
364,307,87921,1,8,0:0:0:0:
342,239,88085,1,0,0:0:0:0:
364,307,88247,5,0,0:0:0:0:
360,264,88328,1,0,0:0:0:0:
364,307,88410,1,0,0:0:0:0:
328,48,88573,5,0,0:0:0:0:
128,112,88736,1,0,0:0:0:0:
405,233,88899,1,0,0:0:0:0:
196,305,89062,1,0,0:0:0:0:
405,233,89226,1,0,0:0:0:0:
200,304,89388,1,0,0:0:0:0:
364,307,89551,5,0,0:0:0:0:
339,241,89714,1,0,0:0:0:0:
344,280,89796,1,0,0:0:0:0:
364,307,89877,1,0,0:0:0:0:
339,241,90040,1,0,0:0:0:0:
364,307,90203,5,0,0:0:0:0:
352,274,90285,1,0,0:0:0:0:
342,239,90367,1,0,0:0:0:0:
348,265,90448,1,0,0:0:0:0:
364,307,90529,1,2,0:0:0:0:
364,307,90692,5,0,0:0:0:0:
368,280,90774,1,0,0:0:0:0:
339,241,90855,1,0,0:0:0:0:
364,307,91018,1,0,0:0:0:0:
339,241,91181,1,0,0:0:0:0:
364,307,91344,1,0,0:0:0:0:
342,239,91508,1,0,0:0:0:0:
364,307,91671,1,0,0:0:0:0:
364,307,91834,5,0,0:0:0:0:
339,241,91997,1,0,0:0:0:0:
364,307,92160,1,0,0:0:0:0:
339,241,92323,1,0,0:0:0:0:
364,307,92486,1,0,0:0:0:0:
342,239,92650,1,0,0:0:0:0:
364,307,92812,1,0,0:0:0:0:
364,307,92975,1,0,0:0:0:0:
339,241,93138,5,0,0:0:0:0:
344,272,93220,1,0,0:0:0:0:
364,307,93301,1,0,0:0:0:0:
339,241,93464,5,0,0:0:0:0:
344,280,93546,1,0,0:0:0:0:
364,307,93627,1,0,0:0:0:0:
342,239,93790,5,0,0:0:0:0:
364,307,93953,1,0,0:0:0:0:
364,307,94116,1,0,0:0:0:0:
339,241,94279,1,0,0:0:0:0:
364,307,94442,1,0,0:0:0:0:
339,241,94605,1,0,0:0:0:0:
364,307,94768,1,0,0:0:0:0:
342,239,94932,1,0,0:0:0:0:
364,307,95095,5,0,0:0:0:0:
352,256,95176,1,0,0:0:0:0:
364,307,95258,1,0,0:0:0:0:
352,256,95339,1,0,0:0:0:0:
339,241,95421,1,0,0:0:0:0:
352,256,95502,1,0,0:0:0:0:
364,307,95584,1,0,0:0:0:0:
184,192,95747,6,0,P|256:304|328:192,2,315.000012016297
256,192,96766,12,0,97255,0:0:0:0:
339,241,97377,5,0,0:0:0:0:
352,272,97459,1,0,0:0:0:0:
296,186,97540,1,0,0:0:0:0:
339,241,97703,1,0,0:0:0:0:
296,186,97866,5,0,0:0:0:0:
339,241,98029,1,0,0:0:0:0:
296,186,98192,1,0,0:0:0:0:
339,241,98355,1,0,0:0:0:0:
288,192,98518,1,0,0:0:0:0:
342,239,98681,1,0,0:0:0:0:
296,186,98844,1,0,0:0:0:0:
339,241,99007,1,0,0:0:0:0:
296,186,99170,1,0,0:0:0:0:
339,241,99333,1,0,0:0:0:0:
336,96,99497,5,0,0:0:0:0:
216,56,99660,1,0,0:0:0:0:
256,96,99741,1,0,0:0:0:0:
296,56,99823,1,0,0:0:0:0:
256,192,99986,5,0,0:0:0:0:
296,312,100149,5,0,0:0:0:0:
256,272,100231,1,0,0:0:0:0:
216,312,100312,1,0,0:0:0:0:
416,256,100475,5,0,0:0:0:0:
144,248,100638,1,0,0:0:0:0:
144,208,100720,1,0,0:0:0:0:
144,168,100801,1,0,0:0:0:0:
144,128,100882,1,0,0:0:0:0:
144,88,100964,1,0,0:0:0:0:
296,186,101127,5,0,0:0:0:0:
339,241,101290,1,0,0:0:0:0:
296,186,101453,1,0,0:0:0:0:
312,208,101535,1,0,0:0:0:0:
339,241,101616,1,0,0:0:0:0:
288,192,101779,1,0,0:0:0:0:
342,239,101942,1,0,0:0:0:0:
296,186,102105,1,0,0:0:0:0:
339,241,102268,1,8,0:0:0:0:
296,186,102431,1,0,0:0:0:0:
339,241,102594,1,0,0:0:0:0:
296,186,102758,5,8,0:0:0:0:
339,241,102921,1,0,0:0:0:0:
320,216,103002,1,0,0:0:0:0:
296,186,103084,1,0,0:0:0:0:
320,216,103165,1,0,0:0:0:0:
339,241,103247,1,8,0:0:0:0:
288,192,103410,1,0,0:0:0:0:
342,239,103573,1,8,0:0:0:0:
296,186,103736,1,0,0:0:0:0:
320,232,103818,1,0,0:0:0:0:
339,241,103899,1,0,0:0:0:0:
320,232,103981,1,0,0:0:0:0:
296,186,104062,1,0,0:0:0:0:
339,241,104225,1,0,0:0:0:0:
296,186,104388,5,0,0:0:0:0:
336,224,104470,1,0,0:0:0:0:
339,241,104551,1,0,0:0:0:0:
296,186,104714,1,0,0:0:0:0:
339,241,104877,1,8,0:0:0:0:
288,192,105040,1,0,0:0:0:0:
342,239,105203,1,0,0:0:0:0:
312,208,105285,1,0,0:0:0:0:
296,186,105366,1,8,0:0:0:0:
339,241,105529,1,0,0:0:0:0:
312,208,105611,1,0,0:0:0:0:
296,186,105692,1,0,0:0:0:0:
312,208,105774,1,0,0:0:0:0:
339,241,105855,1,8,0:0:0:0:
312,208,105937,1,0,0:0:0:0:
296,186,106019,5,0,0:0:0:0:
339,241,106182,1,8,0:0:0:0:
320,208,106263,1,0,0:0:0:0:
296,186,106345,1,0,0:0:0:0:
180,57,106508,1,0,0:0:0:0:
288,192,106671,1,0,0:0:0:0:
342,239,106834,1,0,0:0:0:0:
296,186,106997,1,0,0:0:0:0:
339,241,107160,1,0,0:0:0:0:
296,186,107323,1,0,0:0:0:0:
339,241,107486,1,8,0:0:0:0:
296,186,107649,5,0,0:0:0:0:
312,216,107731,1,0,0:0:0:0:
339,241,107812,1,0,0:0:0:0:
296,186,107975,1,8,0:0:0:0:
320,208,108057,1,0,0:0:0:0:
339,241,108138,1,0,0:0:0:0:
288,192,108301,1,0,0:0:0:0:
342,239,108464,1,8,0:0:0:0:
336,224,108546,1,0,0:0:0:0:
296,186,108627,1,0,0:0:0:0:
339,241,108790,1,8,0:0:0:0:
304,208,108872,1,0,0:0:0:0:
296,186,108953,1,0,0:0:0:0:
339,241,109116,1,0,0:0:0:0:
296,186,109279,5,8,0:0:0:0:
339,241,109442,1,8,0:0:0:0:
296,186,109605,1,0,0:0:0:0:
339,241,109768,1,0,0:0:0:0:
288,192,109931,1,0,0:0:0:0:
342,239,110094,1,0,0:0:0:0:
296,186,110257,1,0,0:0:0:0:
339,241,110420,1,0,0:0:0:0:
296,186,110583,1,10,0:0:0:0:
320,224,110665,1,2,0:0:0:0:
339,241,110746,1,2,0:0:0:0:
296,186,110910,5,2,0:0:0:0:
320,208,110991,1,2,0:0:0:0:
339,241,111073,1,8,0:0:0:0:
320,208,111154,1,2,0:0:0:0:
296,186,111236,1,2,0:0:0:0:
320,208,111318,1,2,0:0:0:0:
339,241,111399,5,10,0:0:0:0:
288,192,111562,1,0,0:0:0:0:
342,239,111725,1,0,0:0:0:0:
296,186,111888,1,0,0:0:0:0:
339,241,112051,1,0,0:0:0:0:
296,186,112214,1,0,0:0:0:0:
312,200,112296,1,0,0:0:0:0:
339,241,112377,1,0,0:0:0:0:
296,186,112540,5,0,0:0:0:0:
339,241,112703,1,0,0:0:0:0:
296,186,112866,1,0,0:0:0:0:
339,241,113029,1,0,0:0:0:0:
288,192,113192,1,0,0:0:0:0:
342,239,113355,1,0,0:0:0:0:
296,186,113518,1,0,0:0:0:0:
339,241,113681,1,0,0:0:0:0:
296,186,113844,1,0,0:0:0:0:
339,241,114007,1,0,0:0:0:0:
320,216,114089,1,0,0:0:0:0:
296,186,114171,5,0,0:0:0:0:
339,241,114334,1,0,0:0:0:0:
296,186,114497,1,0,0:0:0:0:
339,241,114660,1,0,0:0:0:0:
320,224,114741,1,0,0:0:0:0:
288,192,114823,1,0,0:0:0:0:
342,239,114986,1,0,0:0:0:0:
296,186,115149,1,0,0:0:0:0:
339,241,115312,1,0,0:0:0:0:
328,232,115394,1,0,0:0:0:0:
296,186,115475,1,0,0:0:0:0:
339,241,115638,1,0,0:0:0:0:
352,240,115720,1,0,0:0:0:0:
296,186,115801,5,0,0:0:0:0:
339,241,115964,1,0,0:0:0:0:
320,224,116046,1,0,0:0:0:0:
296,186,116127,1,0,0:0:0:0:
320,224,116209,1,0,0:0:0:0:
339,241,116290,1,0,0:0:0:0:
320,224,116372,1,0,0:0:0:0:
288,192,116453,1,0,0:0:0:0:
320,224,116535,1,0,0:0:0:0:
342,239,116616,1,0,0:0:0:0:
296,186,116779,1,0,0:0:0:0:
339,241,116942,1,0,0:0:0:0:
296,186,117105,1,0,0:0:0:0:
320,224,117187,1,0,0:0:0:0:
339,241,117268,1,0,0:0:0:0:
296,186,117432,1,0,0:0:0:0:
344,232,117513,1,0,0:0:0:0:
339,241,117595,1,0,0:0:0:0:
376,272,117676,1,0,0:0:0:0:
296,186,117758,1,0,0:0:0:0:
339,241,117921,1,0,0:0:0:0:
394,302,118083,5,0,0:0:0:0:
376,264,118165,1,0,0:0:0:0:
394,302,118246,1,0,0:0:0:0:
394,302,118409,1,0,0:0:0:0:
416,312,118491,1,0,0:0:0:0:
394,302,118572,1,0,0:0:0:0:
394,302,118735,1,0,0:0:0:0:
394,302,118818,1,0,0:0:0:0:
394,302,118898,1,0,0:0:0:0:
400,296,118981,1,0,0:0:0:0:
394,302,119061,1,0,0:0:0:0:
394,302,119224,1,0,0:0:0:0:
394,302,119388,1,0,0:0:0:0:
384,296,119470,1,0,0:0:0:0:
394,302,119551,1,0,0:0:0:0:
394,302,119714,1,0,0:0:0:0:
376,296,119796,1,0,0:0:0:0:
394,302,119877,1,0,0:0:0:0:
394,302,120040,1,0,0:0:0:0:
400,288,120122,1,0,0:0:0:0:
394,302,120203,1,0,0:0:0:0:
394,302,120366,1,0,0:0:0:0:
384,280,120448,1,0,0:0:0:0:
394,302,120529,1,0,0:0:0:0:
288,216,120692,5,4,0:0:0:0:
224,216,120855,1,4,0:0:0:0:
224,152,121018,1,4,0:0:0:0:
288,152,121181,1,4,0:0:0:0:
224,224,121344,1,4,0:0:0:0:
288,224,121507,1,4,0:0:0:0:
224,224,121670,1,6,0:0:0:0:
256,192,121833,5,2,0:0:0:0:
392,120,123138,1,0,0:0:0:0:
128,232,123626,1,0,0:0:0:0:
394,302,123952,1,0,0:0:0:0:
144,56,124278,1,0,0:0:0:0:
120,136,124443,5,4,0:0:0:0:
288,136,125746,5,0,0:0:0:0:
272,264,125909,1,0,0:0:0:0:
256,312,126072,1,0,0:0:0:0:
192,248,126235,1,0,0:0:0:0:
320,240,126398,1,0,0:0:0:0:
200,120,126561,1,0,0:0:0:0:
336,160,126724,1,0,0:0:0:0:
392,224,126887,1,0,0:0:0:0:
176,64,127050,5,0,0:0:0:0:
120,72,127133,1,0,0:0:0:0:
96,120,127214,1,0,0:0:0:0:
392,72,127377,5,0,0:0:0:0:
424,120,127540,1,0,0:0:0:0:
392,72,127622,1,0,0:0:0:0:
336,72,127703,1,0,0:0:0:0:
120,288,127866,5,0,0:0:0:0:
168,312,128029,1,0,0:0:0:0:
120,288,128111,1,0,0:0:0:0:
96,240,128192,1,0,0:0:0:0:
120,288,128356,5,0,0:0:0:0:
368,280,128518,1,0,0:0:0:0:
394,302,128681,1,0,0:0:0:0:
394,302,128844,1,0,0:0:0:0:
394,302,129007,5,0,0:0:0:0:
394,302,129089,1,0,0:0:0:0:
394,302,129170,1,0,0:0:0:0:
394,302,129252,1,0,0:0:0:0:
394,302,129333,1,0,0:0:0:0:
394,302,129415,1,0,0:0:0:0:
394,302,129496,1,0,0:0:0:0:
394,302,129659,1,0,0:0:0:0:
394,302,129823,1,0,0:0:0:0:
394,302,129904,1,2,0:0:0:0:
394,302,129986,1,0,0:0:0:0:
394,302,130149,1,0,0:0:0:0:
400,336,130312,1,0,0:0:0:0:
400,336,130394,1,0,0:0:0:0:
400,336,130475,1,0,0:0:0:0:
400,336,130557,1,0,0:0:0:0:
400,336,130638,2,0,L|248:176,1,218.75
