osu file format v14

[General]
AudioFilename: audio.mp3
AudioLeadIn: 0
PreviewTime: 28868
Countdown: 0
SampleSet: None
StackLeniency: 0.3
Mode: 0
LetterboxInBreaks: 0
WidescreenStoryboard: 0

[Editor]
Bookmarks: 11006,11983,33332,51192,69053,104773,113704,133797,151657,166169,169518,205239,214169,223575,232029,240959,276680,294541
DistanceSpacing: 0.2
BeatDivisor: 4
GridSize: 16
TimelineZoom: 2.3

[Metadata]
Title:ABYSS
TitleUnicode:ABYSS
Artist:Asriel
ArtistUnicode:Asriel
Creator:FoxyGrandpa
Version:Scars
Source:
Tags:rock doujin indie melodic gothic metal 黒瀬圭亮 Kurose Keisuke KOKOMI Lolita j-rock C85
BeatmapID:1591935
BeatmapSetID:756533

[Difficulty]
HPDrainRate:5
CircleSize:4.3
OverallDifficulty:9
ApproachRate:9.8
SliderMultiplier:2.2
SliderTickRate:1

[Events]
//Background and Video events
0,0,"63134826_p0.jpg",0,0
//Break Periods
//Storyboard Layer 0 (Background)
//Storyboard Layer 1 (Fail)
//Storyboard Layer 2 (Pass)
//Storyboard Layer 3 (Foreground)
//Storyboard Sound Samples

[TimingPoints]
1018,279.06976744186,4,3,1,50,1,0
1018,-133.333333333333,4,3,1,50,0,0
1994,-80,4,3,3,70,0,0
2064,-100,4,3,10,5,0,0
2134,-133.333333333333,4,3,1,65,0,0
2552,-100,4,3,2,65,0,0
3529,-133.333333333333,4,3,1,70,0,0
3808,-133.333333333333,4,3,2,60,0,0
4087,-133.333333333333,4,3,1,70,0,0
4366,-133.333333333333,4,3,1,65,0,0
5064,-100,4,3,2,55,0,0
5483,-100,4,3,1,60,0,0
6180,-100,4,3,3,55,0,0
6320,-100,4,3,1,65,0,0
6599,-100,4,3,1,70,0,0
7017,-100,4,3,3,75,0,0
7715,-133.333333333333,4,3,1,60,0,0
7855,-133.333333333333,4,3,3,60,0,0
8273,-133.333333333333,4,3,1,65,0,0
8413,-133.333333333333,4,3,3,65,0,0
8552,-133.333333333333,4,3,1,65,0,0
8831,-133.333333333333,4,3,1,70,0,0
9250,-100,4,3,3,55,0,0
9390,-100,4,3,1,65,0,0
9948,-100,4,3,3,70,0,0
10087,-100,4,3,1,60,0,0
10227,-100,4,3,3,70,0,0
10366,-100,4,3,1,60,0,0
10506,-133.333333333333,4,3,2,60,0,0
10785,-80,4,3,2,70,0,0
10994,-100,4,3,10,5,0,0
11064,-76.9230769230769,4,3,1,70,0,0
15111,-76.9230769230769,4,3,3,70,0,0
15250,-76.9230769230769,4,3,1,70,0,0
19924,-76.9230769230769,4,3,10,5,0,0
19994,-76.9230769230769,4,3,1,70,0,0
27808,269.058295964126,4,3,2,60,1,0
27808,-76.9230769230769,4,3,2,60,0,0
28077,-100,4,3,2,60,0,0
28345,279.06976744186,4,3,1,75,1,0
28345,-100,4,3,1,75,0,0
28903,284.36018957346,4,3,4,70,1,0
28903,-100,4,3,4,70,0,0
30040,279.06976744186,4,3,4,70,1,0
32273,-100,4,3,2,60,0,0
32552,-100,4,3,2,70,0,0
32831,-100,4,3,1,75,0,0
33390,-125,4,3,1,50,0,0
33529,-125,4,3,5,50,0,0
33948,-125,4,3,1,50,0,0
34227,-125,4,3,5,50,0,0
34506,-125,4,3,1,50,0,0
34645,-125,4,3,5,50,0,0
34785,-125,4,3,1,50,0,0
34924,-125,4,3,5,50,0,0
35064,-125,4,3,1,50,0,0
35343,-125,4,3,5,50,0,0
35483,-125,4,3,1,50,0,0
36041,-125,4,3,5,50,0,0
36180,-125,4,3,1,50,0,0
36599,-125,4,3,5,50,0,0
36738,-125,4,3,1,50,0,0
36878,-125,4,3,5,50,0,0
37017,-125,4,3,1,50,0,0
37157,-125,4,3,5,50,0,0
37297,-125,4,3,1,50,0,0
37576,-125,4,3,5,50,0,0
37715,-125,4,3,1,50,0,0
38273,-125,4,3,5,50,0,0
38413,-125,4,3,1,50,0,0
38831,-125,4,3,5,50,0,0
38971,-125,4,3,1,50,0,0
39111,-125,4,3,5,50,0,0
39250,-125,4,3,1,50,0,0
39390,-125,4,3,5,50,0,0
39529,-125,4,3,1,50,0,0
39669,-125,4,3,5,50,0,0
39808,-125,4,3,5,50,0,0
40087,-125,4,3,1,50,0,0
40506,-125,4,3,5,50,0,0
40645,-125,4,3,1,50,0,0
41064,-125,4,3,5,50,0,0
41204,-125,4,3,1,50,0,0
41343,-125,4,3,5,50,0,0
41483,-125,4,3,1,50,0,0
41622,-125,4,3,5,50,0,0
41779,279.06976744186,4,3,2,55,1,0
41779,-125,4,3,2,55,0,0
42337,-125,4,3,1,60,0,0
42755,-125,4,3,5,60,0,0
42895,-125,4,3,1,60,0,0
43174,-125,4,3,5,60,0,0
43297,279.06976744186,4,3,5,50,1,0
43436,279.06976744186,4,3,1,50,1,0
43436,-125,4,3,1,50,0,0
43576,-125,4,3,5,50,0,0
43715,-125,4,3,1,50,0,0
43855,-125,4,3,5,50,0,0
43994,-125,4,3,1,50,0,0
44273,-125,4,3,5,50,0,0
44413,-125,4,3,1,50,0,0
44970,-125,4,3,5,50,0,0
45111,-125,4,3,1,50,0,0
45390,-125,4,3,5,50,0,0
45669,-125,4,3,1,50,0,0
45808,-125,4,3,5,50,0,0
45948,-125,4,3,1,50,0,0
46087,-125,4,3,5,50,0,0
46227,-125,4,3,1,50,0,0
46506,-125,4,3,5,50,0,0
46645,-125,4,3,1,50,0,0
47204,-125,4,3,5,50,0,0
47343,-125,4,3,1,50,0,0
47738,-125,4,3,5,50,0,0
47901,-125,4,3,1,50,0,0
48041,-125,4,3,5,50,0,0
48180,-125,4,3,1,50,0,0
48319,-125,4,3,5,50,0,0
48477,279.06976744186,4,3,1,50,1,0
48477,-125,4,3,1,50,0,0
48738,279.06976744186,4,3,5,50,1,0
48738,-125,4,3,5,50,0,0
49017,279.06976744186,4,3,1,50,1,0
49017,-125,4,3,1,50,0,0
49435,-125,4,3,1,50,0,0
49575,-125,4,3,1,55,0,0
50133,-125,4,3,1,55,0,0
50691,-125,4,3,1,60,0,0
51250,-100,4,3,1,65,0,0
64924,-200,4,3,1,50,0,0
65483,-100,4,3,1,65,0,0
66320,-100,4,3,2,60,0,0
66598,-100,4,3,2,55,0,0
66878,-100,4,3,1,65,0,0
67715,-294.117647058824,4,3,1,55,0,0
68831,-294.117647058824,4,3,1,45,0,0
69041,-294.117647058824,4,3,10,5,0,0
69110,-66.6666666666667,4,3,4,75,0,1
69390,-66.6666666666667,4,3,6,75,0,1
77483,-66.6666666666667,4,3,2,65,0,1
77761,-83.3333333333333,4,3,1,80,0,0
78040,-83.3333333333333,4,3,6,70,0,1
86691,-83.3333333333333,4,3,6,70,0,0
86970,-83.3333333333333,4,3,1,70,0,1
95063,-100,4,3,1,70,0,1
95342,-125,4,3,1,70,0,1
95621,-166.666666666667,4,3,1,60,0,0
95831,-125,4,3,1,5,0,0
95900,-66.6666666666667,4,3,1,75,0,1
100297,-66.6666666666667,4,3,10,5,0,1
100366,-66.6666666666667,4,3,1,75,0,1
102529,-66.6666666666667,4,3,10,5,0,1
102599,-66.6666666666667,4,3,1,75,0,1
103715,-66.6666666666667,4,3,2,70,0,1
104762,-66.6666666666667,4,3,10,5,0,1
104830,-83.3333333333333,4,3,7,70,0,0
106576,-83.3333333333333,4,3,10,5,0,0
106645,-83.3333333333333,4,3,7,70,0,0
106715,-83.3333333333333,4,3,10,5,0,0
106785,-83.3333333333333,4,3,7,70,0,0
106855,-83.3333333333333,4,3,10,5,0,0
106924,-83.3333333333333,4,3,7,70,0,0
106994,-83.3333333333333,4,3,10,5,0,0
107064,-83.3333333333333,4,3,7,70,0,0
108459,-83.3333333333333,4,3,7,65,0,0
108529,-83.3333333333333,4,3,10,5,0,0
108599,-83.3333333333333,4,3,7,65,0,0
108669,-83.3333333333333,4,3,10,5,0,0
108738,-66.6666666666667,4,3,7,75,0,0
108808,-66.6666666666667,4,3,10,5,0,0
108878,-66.6666666666667,4,3,7,75,0,0
108948,-66.6666666666667,4,3,10,5,0,0
109017,-55.5555555555556,4,3,7,80,0,0
109087,-55.5555555555556,4,3,10,5,0,0
109157,-55.5555555555556,4,3,7,80,0,0
109227,-55.5555555555556,4,3,10,5,0,0
109297,-83.3333333333333,4,3,7,70,0,0
111041,-83.3333333333333,4,3,10,5,0,0
111111,-83.3333333333333,4,3,7,70,0,0
111180,-83.3333333333333,4,3,10,5,0,0
111250,-83.3333333333333,4,3,7,70,0,0
111320,-83.3333333333333,4,3,10,5,0,0
111390,-83.3333333333333,4,3,7,70,0,0
111459,-83.3333333333333,4,3,10,5,0,0
111529,-83.3333333333333,4,3,7,70,0,0
112924,-83.3333333333333,4,3,2,60,0,0
113203,-83.3333333333333,4,3,2,75,0,0
113761,-76.9230769230769,4,3,1,65,0,0
117808,-76.9230769230769,4,3,3,65,0,0
117948,-133.333333333333,4,3,1,70,0,0
118087,-133.333333333333,4,3,10,5,0,0
118227,-76.9230769230769,4,3,1,65,0,0
122622,-76.9230769230769,4,3,10,5,0,0
122691,-76.9230769230769,4,3,1,65,0,0
126878,-76.9230769230769,4,3,2,70,0,0
127017,-76.9230769230769,4,3,10,5,0,0
127157,-76.9230769230769,4,3,7,65,0,0
127994,-76.9230769230769,4,3,7,75,0,0
128413,-76.9230769230769,4,3,1,50,0,0
128971,-76.9230769230769,4,3,3,60,0,0
129111,-76.9230769230769,4,3,1,75,0,0
129390,-100,4,3,4,70,0,0
132738,-100,4,3,2,50,0,0
133017,-100,4,3,2,60,0,0
133297,-100,4,3,1,75,0,0
133855,-125,4,3,1,50,0,0
133994,-125,4,3,5,50,0,0
134413,-125,4,3,1,50,0,0
134692,-125,4,3,5,50,0,0
134971,-125,4,3,1,50,0,0
135111,-125,4,3,5,50,0,0
135252,-125,4,3,1,50,0,0
135390,-125,4,3,5,50,0,0
135529,-125,4,3,1,50,0,0
135808,-125,4,3,5,50,0,0
135948,-125,4,3,1,50,0,0
136366,-125,4,3,5,50,0,0
136645,-125,4,3,1,50,0,0
136924,-125,4,3,5,50,0,0
137204,-125,4,3,1,50,0,0
137343,-125,4,3,5,50,0,0
137483,-125,4,3,1,50,0,0
137622,-125,4,3,5,50,0,0
137762,-125,4,3,1,50,0,0
138041,-125,4,3,5,50,0,0
138180,-125,4,3,1,50,0,0
138738,-125,4,3,5,50,0,0
138878,-125,4,3,1,50,0,0
139297,-125,4,3,5,50,0,0
139436,-125,4,3,1,50,0,0
139576,-125,4,3,5,50,0,0
139715,-125,4,3,1,50,0,0
139855,-125,4,3,5,50,0,0
139994,-125,4,3,1,50,0,0
140134,-125,4,3,5,50,0,0
140273,-125,4,3,5,50,0,0
140552,-125,4,3,1,50,0,0
140831,-125,4,3,5,50,0,0
141111,-125,4,3,1,50,0,0
141390,-125,4,3,5,50,0,0
141669,-125,4,3,1,50,0,0
141948,-125,4,3,5,50,0,0
142227,-125,4,3,2,50,0,0
142505,-125,4,3,2,45,0,0
142785,-125,4,3,1,60,0,0
142924,-125,4,3,5,60,0,0
143343,-125,4,3,1,60,0,0
143622,-125,4,3,5,60,0,0
143901,-125,4,3,1,60,0,0
144041,-125,4,3,5,60,0,0
144180,-125,4,3,1,60,0,0
144320,-125,4,3,5,60,0,0
144459,-125,4,3,1,60,0,0
144669,-125,4,3,10,5,0,0
144738,-125,4,3,3,60,0,0
144948,-125,4,3,10,5,0,0
145017,-125,4,3,1,60,0,0
145157,-125,4,3,5,60,0,0
145576,-125,4,3,1,60,0,0
145855,-125,4,3,5,60,0,0
146134,-125,4,3,1,60,0,0
146273,-125,4,3,5,60,0,0
146413,-125,4,3,1,60,0,0
146552,-125,4,3,5,60,0,0
146692,-125,4,3,1,60,0,0
146901,-125,4,3,10,5,0,0
146971,-125,4,3,3,60,0,0
147180,-125,4,3,10,5,0,0
147250,-125,4,3,1,60,0,0
147390,-125,4,3,5,60,0,0
147808,-125,4,3,1,60,0,0
148087,-125,4,3,5,60,0,0
148366,-125,4,3,1,60,0,0
148506,-125,4,3,5,60,0,0
148645,-125,4,3,1,60,0,0
148785,-125,4,3,5,60,0,0
148924,-125,4,3,1,60,0,0
149134,-125,4,3,10,5,0,0
149204,-125,4,3,3,60,0,0
149413,-125,4,3,10,5,0,0
149483,-125,4,3,1,60,0,0
149622,-125,4,3,5,60,0,0
150041,-125,4,3,1,60,0,0
151715,-100,4,3,1,65,0,0
165390,-200,4,3,1,50,0,0
165948,-100,4,3,1,65,0,0
166785,-100,4,3,2,60,0,0
167063,-100,4,3,2,55,0,0
167343,-100,4,3,1,65,0,0
168180,-294.117647058824,4,3,1,60,0,0
169296,-294.117647058824,4,3,1,45,0,0
169506,-294.117647058824,4,3,10,5,0,0
169575,-66.6666666666667,4,3,4,75,0,1
169855,-66.6666666666667,4,3,6,75,0,1
177948,-66.6666666666667,4,3,2,65,0,1
178226,-83.3333333333333,4,3,1,80,0,0
178505,-83.3333333333333,4,3,6,70,0,1
187156,-83.3333333333333,4,3,6,65,0,0
187435,-83.3333333333333,4,3,1,65,0,1
195529,-100,4,3,1,65,0,1
195808,-125,4,3,1,65,0,1
196086,-166.666666666667,4,3,1,55,0,0
196297,-125,4,3,10,5,0,0
196365,-66.6666666666667,4,3,1,70,0,1
200762,-66.6666666666667,4,3,10,5,0,1
200831,-66.6666666666667,4,3,1,70,0,1
202994,-66.6666666666667,4,3,10,5,0,1
203064,-66.6666666666667,4,3,1,70,0,1
204180,-66.6666666666667,4,3,2,70,0,1
204738,-66.6666666666667,4,3,2,60,0,1
205017,-66.6666666666667,4,3,2,70,0,1
205227,-66.6666666666667,4,3,10,5,0,1
205296,-100,4,3,7,70,0,0
209482,-100,4,3,7,55,0,0
209692,-100,4,3,10,5,0,0
209762,-100,4,3,7,80,0,0
209901,-100,4,3,1,65,0,0
210319,-100,4,3,1,70,0,0
210877,-100,4,3,1,75,0,0
211435,-100,4,3,1,80,0,0
211994,-100,4,3,2,70,0,0
212971,-100,4,3,1,65,0,0
213668,-294.117647058824,4,3,1,65,0,0
213877,-294.117647058824,4,3,10,5,0,0
213947,-66.6666666666667,4,3,1,70,0,0
214017,-66.6666666666667,4,3,10,5,0,0
214087,-83.3333333333333,4,3,1,70,0,0
216529,-83.3333333333333,4,3,10,5,0,0
216599,-83.3333333333333,4,3,1,70,0,0
220994,-83.3333333333333,4,3,10,5,0,0
221064,-83.3333333333333,4,3,1,70,0,0
222320,-66.6666666666667,4,3,1,65,0,0
223017,-83.3333333333333,4,3,1,70,0,0
224971,-83.3333333333333,4,3,3,75,0,0
225111,-83.3333333333333,4,3,1,70,0,0
227063,-83.3333333333333,4,3,1,65,0,0
227483,-100,4,3,1,70,0,0
228529,-100,4,3,10,5,0,0
228599,-66.6666666666667,4,3,1,70,0,0
228948,-66.6666666666667,4,3,10,5,0,0
229017,-66.6666666666667,4,3,1,70,0,0
229715,-57.1428571428571,4,3,1,70,0,0
230971,-57.1428571428571,4,3,2,55,0,0
231529,-66.6666666666667,4,3,1,80,0,0
232087,-200,4,3,1,65,0,0
232505,-200,4,3,3,65,0,0
232645,-200,4,3,1,65,0,0
232855,-200,4,3,10,5,0,0
232924,-200,4,3,3,65,0,0
233204,-200,4,3,1,65,0,0
233343,-200,4,3,3,65,0,0
233483,-200,4,3,1,65,0,0
233622,-200,4,3,3,65,0,0
233762,-200,4,3,1,65,0,0
233971,-200,4,3,10,5,0,0
234041,-200,4,3,3,65,0,0
234249,-200,4,3,1,65,0,0
234738,-200,4,3,3,65,0,0
234878,-200,4,3,1,65,0,0
235087,-200,4,3,10,5,0,0
235157,-200,4,3,3,65,0,0
235435,-200,4,3,1,65,0,0
235576,-200,4,3,3,65,0,0
235715,-200,4,3,1,65,0,0
235855,-200,4,3,3,65,0,0
235994,-50,4,3,1,65,0,0
236204,-50,4,3,10,5,0,0
236273,-50,4,3,3,65,0,0
236483,-50,4,3,10,5,0,0
236552,-200,4,3,1,65,0,0
236970,-200,4,3,3,65,0,0
237110,-200,4,3,1,65,0,0
237390,-200,4,3,3,65,0,0
237669,-200,4,3,1,65,0,0
237808,-200,4,3,3,65,0,0
237948,-200,4,3,1,65,0,0
238087,-200,4,3,3,65,0,0
238227,-200,4,3,1,55,0,0
238436,-200,4,3,10,5,0,0
238506,-100,4,3,3,65,0,0
238715,-100,4,3,10,5,0,0
238785,-80,4,3,1,70,0,0
240041,-80,4,3,7,55,0,0
240738,-294.117647058824,4,3,1,45,0,0
240948,-294.117647058824,4,3,10,5,0,0
241016,-55.5555555555556,4,3,4,80,0,1
241297,-55.5555555555556,4,3,6,80,0,1
249390,-55.5555555555556,4,3,2,80,0,1
249668,-62.5,4,3,1,85,0,0
249947,-71.4285714285714,4,3,6,75,0,1
258598,-71.4285714285714,4,3,6,75,0,0
258877,-71.4285714285714,4,3,1,70,0,1
266970,-83.3333333333333,4,3,1,70,0,1
267249,-100,4,3,1,70,0,1
267528,-125,4,3,1,65,0,0
267738,-107.52688172043,4,3,10,5,0,0
267807,-55.5555555555556,4,3,1,80,0,1
272204,-55.5555555555556,4,3,10,5,0,1
272273,-55.5555555555556,4,3,1,80,0,1
273947,-55.5555555555556,4,3,1,70,0,0
274227,-55.5555555555556,4,3,2,75,0,0
274436,-55.5555555555556,4,3,10,5,0,0
274505,-50,4,3,7,90,0,1
275622,-50,4,3,3,85,0,1
275762,-50,4,3,1,85,0,1
275901,-50,4,3,3,85,0,1
276041,-50,4,3,1,85,0,1
276180,-50,4,3,2,75,0,1
276669,-50,4,3,1,5,0,1
276737,-66.6666666666667,4,3,1,70,0,0
281134,-66.6666666666667,4,3,10,5,0,0
281204,-66.6666666666667,4,3,1,70,0,0
285598,-66.6666666666667,4,3,10,5,0,0
285668,-66.6666666666667,4,3,1,70,0,0
293483,-66.6666666666667,4,3,2,60,0,0
294041,-66.6666666666667,4,3,1,75,0,0
294599,-66.6666666666667,4,3,4,80,0,0
297948,-66.6666666666667,4,3,2,60,0,0
298226,-66.6666666666667,4,3,2,70,0,0
298506,-66.6666666666667,4,3,1,85,0,0
299064,-66.6666666666667,4,3,4,80,0,0
302413,-66.6666666666667,4,3,2,60,0,0
302691,-66.6666666666667,4,3,2,70,0,0
302971,-66.6666666666667,4,3,1,85,0,0

[Colours]
Combo1 : 190,125,255
Combo2 : 255,185,185
Combo3 : 255,231,132
Combo4 : 165,165,165
Combo5 : 255,81,81
Combo6 : 150,150,203

[HitObjects]
256,192,1018,5,2,2:1:0:0:
261,186,1297,1,2,2:1:0:0:
256,180,1576,1,2,2:1:0:0:
250,186,1855,1,2,2:1:0:0:
133,107,1994,6,0,P|110:133|101:166,1,68.75
245,371,2134,6,0,B|277:349|271:292|271:292|324:298|347:274|347:274|343:229|383:202,1,247.500009441376,12|4,0:0|0:0,0:0:0:0:
379,206,2831,1,0,0:0:0:0:
408,36,2971,1,8,0:0:0:0:
427,39,3250,5,0,0:0:0:0:
400,210,3390,1,0,0:0:0:0:
266,102,3529,2,0,P|255:28|266:6,1,82.5000031471254,12|0,0:0|0:0,0:0:0:0:
400,210,3808,5,8,0:1:0:0:
449,173,3878,1,2,0:0:0:0:
452,112,3948,1,4,0:0:0:0:
436,105,4017,1,8,0:0:0:0:
425,119,4087,2,0,P|434:70|422:29,1,82.5000031471254,12|0,0:1|0:0,0:0:0:0:
265,178,4366,2,0,P|256:227|268:268,1,82.5000031471254,4|0,0:0|0:0,0:0:0:0:
302,354,4645,5,8,0:0:0:0:
335,329,4715,1,8,0:0:0:0:
359,295,4785,1,8,0:0:0:0:
370,256,4855,1,8,0:0:0:0:
367,215,4924,1,8,0:0:0:0:
352,177,4994,1,8,0:0:0:0:
325,146,5064,5,2,0:0:0:0:
318,138,5134,1,2,0:0:0:0:
314,128,5204,1,2,0:0:0:0:
314,118,5273,1,4,0:0:0:0:
316,108,5343,1,4,0:0:0:0:
322,100,5413,1,12,0:0:0:0:
357,78,5483,5,4,0:1:0:0:
79,366,5901,1,12,0:2:0:0:
50,52,6180,5,0,0:0:0:0:
282,300,6320,1,12,0:2:0:0:
357,78,6599,5,12,0:0:0:0:
465,338,7017,1,0,0:0:0:0:
475,357,7436,1,0,0:0:0:0:
357,78,7715,5,12,0:0:0:0:
131,219,7855,1,0,0:0:0:0:
131,219,8134,1,0,0:0:0:0:
362,244,8273,5,12,0:0:0:0:
147,105,8413,1,0,0:0:0:0:
282,300,8552,1,12,0:0:0:0:
282,300,8831,6,0,B|291:321|311:345|311:345|252:350|212:313|212:313|173:338|122:328,1,247.500009441376,12|0,0:1|0:0,0:0:0:0:
25,351,9390,1,8,0:0:0:0:
25,351,9669,5,8,0:0:0:0:
362,244,9808,1,8,0:0:0:0:
12,244,9948,5,0,0:0:0:0:
282,300,10087,1,8,0:0:0:0:
78,159,10227,5,0,0:0:0:0:
202,356,10366,1,8,0:0:0:0:
193,104,10506,5,8,0:1:0:0:
160,78,10576,1,2,0:0:0:0:
120,69,10645,1,4,0:0:0:0:
120,69,10715,1,8,0:0:0:0:
118,67,10785,6,0,P|194:46|120:19,1,206.25,12|0,0:1|0:0,0:0:0:0:
317,245,11064,6,0,B|242:206|262:119|262:119|330:65|312:1,1,285.99998690796,0|12,0:0|0:0,0:0:0:0:
410,176,11483,1,0,0:0:0:0:
253,300,11622,2,0,P|202:251|184:183,1,142.99999345398,2|0,0:0|0:0,0:0:0:0:
498,279,11901,5,10,0:0:0:0:
202,356,12041,1,0,0:0:0:0:
303,131,12180,6,0,L|449:94,1,142.99999345398,2|0,0:0|0:0,0:0:0:0:
316,244,12459,1,10,0:0:0:0:
191,149,12599,2,0,P|201:80|268:19,1,142.99999345398,0|2,0:0|0:0,0:0:0:0:
316,244,12878,1,0,0:0:0:0:
125,239,13017,2,0,B|83:183|83:183|88:93,1,142.99999345398,14|0,0:0|0:0,0:0:0:0:
325,97,13297,6,0,B|368:197|316:244|316:244|239:227|194:314,1,285.99998690796,4|10,0:1|0:0,0:0:0:0:
226,169,13715,1,0,0:0:0:0:
396,300,13855,2,0,B|451:210|423:115|423:115|460:93|460:93|443:69|453:34,1,285.99998690796,2|10,0:0|0:0,0:0:0:0:
325,97,14273,1,0,0:0:0:0:
406,317,14413,5,2,0:0:0:0:
226,169,14552,1,0,0:0:0:0:
416,334,14692,1,10,0:0:0:0:
125,239,14831,1,0,0:0:0:0:
325,97,14971,1,2,0:0:0:0:
264,272,15111,1,0,0:0:0:0:
264,272,15180,1,0,0:0:0:0:
264,272,15250,5,12,0:0:0:0:
161,24,15390,1,0,0:0:0:0:
334,187,15529,6,0,P|416:86|316:5,1,285.99998690796,4|10,0:1|0:0,0:0:0:0:
344,278,15948,2,0,P|412:262|464:214,1,142.99999345398,0|2,0:0|0:0,0:0:0:0:
325,97,16227,1,0,0:0:0:0:
424,344,16366,2,0,P|461:284|463:213,1,142.99999345398,10|0,0:0|0:0,0:0:0:0:
344,278,16645,6,0,P|284:241|252:179,1,142.99999345398,2|0,0:0|0:0,0:0:0:0:
325,97,16924,1,10,0:0:0:0:
466,355,17064,2,0,L|463:213,1,142.99999345398,0|2,0:0|0:0,0:0:0:0:
325,97,17343,1,0,0:0:0:0:
174,305,17483,2,0,P|154:236|163:165,1,142.99999345398,12|0,0:0|0:0,0:0:0:0:
395,2,17762,6,0,P|386:72|307:92,1,142.99999345398,2|0,0:0|0:0,0:0:0:0:
99,58,18041,2,0,P|162:31|217:72,1,142.99999345398,10|0,0:0|0:0,0:0:0:0:
391,179,18320,1,2,0:0:0:0:
298,286,18459,2,0,P|243:245|251:178,1,142.99999345398,0|10,0:0|0:0,0:0:0:0:
466,355,18738,6,0,L|180:355,1,285.99998690796,4|0,0:2|0:0,0:0:0:0:
99,58,19157,5,10,0:0:0:0:
161,275,19297,1,0,0:0:0:0:
344,29,19436,5,2,0:0:0:0:
298,286,19576,1,0,0:0:0:0:
130,166,19715,6,0,B|187:151|221:190|221:190|288:183|288:96,1,214.49999018097,12|0,0:0|0:0,0:0:0:0:
466,355,19994,6,0,B|453:294|479:250|479:250|479:221|451:221|452:189|452:189|487:140|462:75,1,285.99998690796,4|10,0:2|0:0,0:0:0:0:
343,29,20413,1,0,0:0:0:0:
275,216,20552,2,0,P|344:205|393:155,1,142.99999345398,2|0,0:0|0:0,0:0:0:0:
316,28,20831,1,10,0:0:0:0:
374,324,20971,1,0,0:0:0:0:
214,70,21111,6,0,B|201:110|201:110|165:73|183:0,1,142.99999345398,2|0,0:0|0:0,0:0:0:0:
301,143,21390,1,8,0:0:0:0:
131,307,21529,2,0,P|110:168|101:23,1,285.99998690796
301,143,21948,2,0,B|308:223|298:285,1,142.99999345398,12|0,0:2|0:0,0:0:0:0:
440,349,22227,6,0,B|461:263|421:209|421:209|476:161|462:50,1,285.99998690796,4|10,0:1|0:0,0:0:0:0:
301,143,22645,1,0,0:0:0:0:
298,285,22785,2,0,B|239:284|188:209|188:209|89:233|103:332,1,285.99998690796,2|10,0:0|0:0,0:0:0:0:
207,360,23204,1,0,0:0:0:0:
4,134,23343,5,2,0:0:0:0:
101,311,23483,1,0,0:0:0:0:
214,70,23622,1,10,0:0:0:0:
105,291,23762,1,0,0:0:0:0:
357,208,23901,1,2,0:0:0:0:
102,67,24041,1,0,0:0:0:0:
377,28,24180,2,0,B|372:68|352:93|352:93|318:110|301:143,1,142.99999345398,12|0,0:0|0:0,0:0:0:0:
207,360,24459,6,0,B|162:391|128:360|128:360|170:288|317:341,1,285.99998690796,4|10,0:1|0:0,0:0:0:0:
483,359,24878,1,0,0:0:0:0:
483,359,25017,2,0,L|458:218,1,142.99999345398,2|0,0:0|0:0,0:0:0:0:
247,99,25297,2,0,L|223:240,1,142.99999345398,10|0,0:0|0:0,0:0:0:0:
75,66,25576,6,0,B|83:106|135:123|135:123|174:219|107:314,1,285.99998690796,4|10,0:0|0:0,0:0:0:0:
33,199,25994,1,0,0:0:0:0:
33,199,26134,2,0,P|101:189|188:203,1,142.99999345398,2|0,0:0|0:0,0:0:0:0:
383,314,26413,2,0,P|315:324|228:310,1,142.99999345398,10|0,0:0|0:0,0:0:0:0:
466,202,26692,6,0,B|488:206|509:225|509:225|510:159|468:110|468:110|497:101|505:81|505:81|485:38|523:-4,1,285.99998690796,4|10,0:2|0:0,0:0:0:0:
310,146,27111,1,0,0:0:0:0:
310,146,27250,2,0,B|341:78|341:78|394:35,1,142.99999345398,2|0,0:0|0:0,0:0:0:0:
466,202,27529,2,0,B|436:271|436:271|383:314,1,142.99999345398,10|0,0:0|0:0,0:0:0:0:
97,310,27808,5,8,0:1:0:0:
50,286,27875,1,2,0:0:0:0:
30,247,27942,1,4,0:0:0:0:
35,211,28009,1,8,0:0:0:0:
48,194,28077,6,0,P|60:166|52:125,3,55,8|2|4|8,0:1|0:0|0:0|0:0,0:0:0:0:
82,51,28345,5,8,0:0:0:0:
256,288,28484,1,8,0:0:0:0:
430,51,28624,5,8,0:0:0:0:
257,310,28763,1,8,0:0:0:0:
82,51,28902,5,12,0:0:0:0:
185,233,29045,1,0,0:0:0:0:
48,194,29187,1,2,0:1:0:0:
219,90,29329,1,0,0:0:0:0:
430,51,29471,5,10,0:0:0:0:
327,233,29613,1,0,0:0:0:0:
464,194,29756,1,2,0:1:0:0:
293,90,29898,1,0,0:0:0:0:
82,337,30040,5,10,0:0:0:0:
185,155,30179,1,0,0:0:0:0:
48,194,30319,1,2,0:1:0:0:
219,298,30458,1,0,0:0:0:0:
430,337,30598,5,10,0:0:0:0:
327,155,30737,1,0,0:0:0:0:
464,194,30877,1,2,0:1:0:0:
293,298,31016,1,0,0:0:0:0:
185,155,31156,5,10,0:0:0:0:
219,298,31295,1,0,0:0:0:0:
327,155,31435,1,2,0:1:0:0:
293,298,31574,1,0,0:0:0:0:
219,90,31714,5,10,0:0:0:0:
185,233,31853,1,0,0:0:0:0:
293,90,31993,1,2,0:1:0:0:
327,233,32133,1,0,0:0:0:0:
185,155,32271,5,8,0:1:0:0:
150,113,32341,1,2,0:0:0:0:
157,60,32411,1,4,0:0:0:0:
157,60,32481,1,8,0:0:0:0:
157,60,32551,6,0,P|137:110|89:133,1,110,12|0,0:1|0:0,0:0:0:0:
82,51,32831,5,8,0:0:0:0:
327,233,32971,1,8,0:0:0:0:
48,194,33109,5,8,0:0:0:0:
293,90,33250,1,8,0:0:0:0:
138,320,33388,5,4,0:1:0:0:
138,320,33528,2,0,B|178:301|228:343|228:343|252:307|231:258,1,176
179,197,33946,1,10,0:0:0:0:
179,197,34227,1,0,0:0:0:0:
231,344,34366,1,0,0:0:0:0:
311,205,34506,5,2,0:0:0:0:
311,205,34645,2,0,P|287:170|247:155,1,88,0|0,0:0|0:0,0:0:0:0:
385,245,34924,1,0,0:0:0:0:
385,245,35064,2,0,P|393:203|356:149,1,88,10|0,0:0|0:0,0:0:0:0:
409,324,35343,2,0,P|444:301|456:236,1,88,0|0,0:0|0:0,0:0:0:0:
231,344,35622,6,0,P|196:321|184:191,1,176,4|0,0:2|0:0,0:0:0:0:
259,252,36039,1,0,0:0:0:0:
96,244,36180,2,0,P|87:202|170:102,1,176,10|0,0:0|0:0,0:0:0:0:
179,197,36599,1,0,0:0:0:0:
163,104,36738,5,2,0:0:0:0:
163,104,36878,2,0,L|65:104,1,88,0|0,0:0|0:0,0:0:0:0:
179,197,37157,1,0,0:0:0:0:
179,197,37295,2,0,L|277:197,1,88,10|0,0:0|0:0,0:0:0:0:
163,290,37574,2,0,L|65:290,1,88
329,352,37853,6,0,B|353:309|344:255|344:255|272:198|289:111,1,264,4|0,0:1|0:0,0:0:0:0:
487,109,38413,2,0,B|504:196|432:253|432:253|423:307|447:351,1,264,10|0,0:2|0:0,0:0:0:0:
487,109,38971,5,2,0:2:0:0:
487,109,39109,2,0,P|481:48|498:6,1,88
289,110,39388,1,0,0:0:0:0:
289,110,39529,2,0,P|295:171|278:213,1,88,10|0,0:2|0:0,0:0:0:0:
220,152,39808,1,0,0:0:0:0:
220,152,40087,6,0,B|190:106|190:106|193:230,1,176,4|0,0:1|0:0,0:0:0:0:
165,302,40506,1,0,0:0:0:0:
165,302,40645,2,0,B|195:348|195:348|192:224,1,176,10|0,0:2|0:0,0:0:0:0:
220,152,41064,1,0,0:0:0:0:
220,152,41202,6,0,L|191:61,1,88,2|0,0:2|0:0,0:0:0:0:
307,280,41481,2,0,L|310:184,1,88
456,60,41779,5,8,0:1:0:0:
421,276,41918,1,8,0:0:0:0:
298,84,42058,5,4,0:0:0:0:
309,192,42197,1,8,0:0:0:0:
475,149,42337,6,0,B|484:245|421:276|421:276|347:252|280:296,1,264,4|0,0:0|0:0,0:0:0:0:
52,346,42895,2,0,L|231:342,1,176,10|0,0:0|0:0,0:0:0:0:
169,242,43297,1,0,0:0:0:0:
93,172,43436,5,2,0:0:0:0:
72,254,43576,2,0,P|95:180|91:163,1,88,0|0,0:0|0:0,0:0:0:0:
169,242,43855,1,0,0:0:0:0:
251,221,43994,2,0,P|175:238|162:250,1,88,10|0,0:0|0:0,0:0:0:0:
133,82,44273,2,0,P|185:138|202:143,1,88,0|0,0:0|0:0,0:0:0:0:
377,90,44552,6,0,B|423:86|423:86|363:152|404:297,1,264,4|0,0:1|0:0,0:0:0:0:
342,348,45111,2,0,P|319:264|313:176,1,176,10|0,0:0|0:0,0:0:0:0:
377,90,45529,1,0,0:0:0:0:
313,175,45669,5,2,0:0:0:0:
203,96,45808,2,0,L|308:98,1,88,0|0,0:0|0:0,0:0:0:0:
226,17,46087,1,0,0:0:0:0:
115,97,46227,2,0,L|220:95,1,88,10|0,0:0|0:0,0:0:0:0:
114,195,46506,2,0,L|26:193,1,88,0|0,0:0|0:0,0:0:0:0:
248,188,46785,6,0,B|209:265|247:359|247:359|222:317|164:319,1,264,4|0,0:1|0:0,0:0:0:0:
381,329,47342,2,0,B|419:252|381:159|381:159|406:201|454:199,1,249.333333333333,10|0,0:2|0:0,0:0:0:0:
443,109,47901,5,2,0:2:0:0:
331,95,48041,2,0,L|235:84,1,88
290,170,48320,5,0,0:0:0:0:
477,101,48476,1,10,0:2:0:0:
486,108,48738,1,0,0:0:0:0:
489,120,49017,6,0,P|482:209|495:295,1,176,4|0,0:0|0:0,0:0:0:0:
414,333,49436,1,0,0:0:0:0:
414,333,49576,2,0,P|389:296|373:254,1,88,10|0,0:2|0:0,0:0:0:0:
214,270,49855,2,0,P|222:226|240:186,1,88,8|0,0:0|0:0,0:0:0:0:
332,32,50134,5,4,0:2:0:0:
332,162,50273,1,0,0:0:0:0:
267,96,50413,5,10,0:0:0:0:
396,96,50552,1,0,0:0:0:0:
240,4,50692,5,10,0:0:0:0:
422,186,50831,1,8,0:0:0:0:
240,187,50971,5,8,0:0:0:0:
422,6,51111,1,8,0:0:0:0:
332,272,51250,6,0,L|332:151,1,110,6|0,0:0|0:0,0:0:0:0:
147,330,51529,2,0,L|147:211,1,110,10|0,0:0|0:0,0:0:0:0:
332,162,51808,5,2,0:0:0:0:
147,220,51948,1,0,0:0:0:0:
248,305,52087,5,10,0:0:0:0:
213,118,52227,1,0,0:0:0:0:
63,235,52366,6,0,P|40:163|46:119,1,110,2|0,0:0|0:0,0:0:0:0:
231,212,52645,1,10,0:0:0:0:
74,340,52784,2,0,P|55:288|62:234,1,110,0|2,0:0|0:0,0:0:0:0:
248,305,53063,1,0,0:0:0:0:
131,111,53203,2,0,L|146:219,1,110,10|0,0:0|0:0,0:0:0:0:
333,102,53482,6,0,B|346:98|346:98|322:79|322:79|291:100|257:86,1,110,4|0,0:0|0:0,0:0:0:0:
151,22,53761,1,10,0:0:0:0:
420,16,53901,2,0,P|447:80|432:133,1,110,0|2,0:0|0:0,0:0:0:0:
333,0,54180,1,0,0:0:0:0:
329,275,54319,2,0,L|334:150,1,110,10|0,0:0|0:0,0:0:0:0:
446,212,54599,5,2,0:0:0:0:
324,383,54738,1,0,0:0:0:0:
234,188,54878,1,10,0:0:0:0:
425,342,55017,1,0,0:0:0:0:
224,341,55157,5,2,0:0:0:0:
326,96,55297,1,0,0:0:0:0:
329,275,55436,1,10,0:0:0:0:
203,62,55576,1,0,0:0:0:0:
420,30,55715,6,0,B|435:85|435:85|425:151,1,110,4|0,0:0|0:0,0:0:0:0:
326,96,55994,1,10,0:0:0:0:
512,140,56133,2,0,L|468:241,1,110,0|2,0:0|0:0,0:0:0:0:
284,181,56413,1,0,0:0:0:0:
425,342,56552,2,0,L|468:240,1,110,10|0,0:0|0:0,0:0:0:0:
92,332,56831,6,0,B|77:277|77:277|87:211,1,110,2|0,0:0|0:0,0:0:0:0:
186,266,57110,1,10,0:0:0:0:
0,222,57249,2,0,L|43:120,1,110,0|2,0:0|0:0,0:0:0:0:
228,181,57529,1,0,0:0:0:0:
87,20,57668,2,0,L|43:121,1,110,10|0,0:0|0:0,0:0:0:0:
281,95,57948,6,0,P|318:148|321:196,1,110,4|0,0:0|0:0,0:0:0:0:
138,283,58227,1,10,0:0:0:0:
137,101,58366,1,0,0:0:0:0:
135,310,58506,1,2,0:0:0:0:
228,181,58645,1,0,0:0:0:0:
132,337,58785,1,10,0:0:0:0:
49,177,58924,1,0,0:0:0:0:
346,263,59064,5,2,0:0:0:0:
49,177,59204,1,0,0:0:0:0:
313,339,59343,5,10,0:0:0:0:
137,101,59483,1,0,0:0:0:0:
230,348,59622,5,2,0:0:0:0:
256,96,59762,1,0,0:0:0:0:
160,268,59901,5,10,0:0:0:0:
383,178,60041,1,0,0:0:0:0:
230,348,60180,6,0,P|179:309|157:246,1,110,4|0,0:0|0:0,0:0:0:0:
351,268,60459,1,10,0:0:0:0:
256,96,60599,2,0,P|251:151|222:197,1,110,0|2,0:0|0:0,0:0:0:0:
134,69,60878,1,0,0:0:0:0:
25,200,61017,2,0,P|84:175|149:187,1,110,10|0,0:0|0:0,0:0:0:0:
282,348,61297,6,0,P|333:309|355:246,1,110,2|0,0:0|0:0,0:0:0:0:
160,268,61576,1,10,0:0:0:0:
256,96,61714,2,0,P|261:151|290:197,1,110,0|2,0:0|0:0,0:0:0:0:
378,69,61993,1,0,0:0:0:0:
487,200,62134,2,0,P|427:175|362:187,1,110,10|0,0:0|0:0,0:0:0:0:
160,268,62413,6,0,P|172:214|204:170,1,110,4|0,0:0|0:0,0:0:0:0:
134,69,62692,1,10,0:0:0:0:
383,179,62831,2,0,P|339:211|289:196,1,110,0|2,0:0|0:0,0:0:0:0:
378,69,63111,1,0,0:0:0:0:
206,23,63250,2,0,B|246:60|246:60|268:110,1,110,10|0,0:0|0:0,0:0:0:0:
157,374,63529,6,0,P|148:321|159:267,1,110,2|0,0:0|0:0,0:0:0:0:
391,236,63808,2,0,P|351:269|287:266,1,110,10|0,0:0|0:0,0:0:0:0:
163,91,64087,2,0,P|211:108|219:163,1,110,2|0,0:0|0:0,0:0:0:0:
99,160,64366,6,0,B|74:142|74:142|95:111|81:40,1,110,10|0,0:0|0:0,0:0:0:0:
413,160,64645,2,0,B|438:142|438:142|417:111|431:40,1,110,6|0,0:0|0:0,0:0:0:0:
84,236,64924,6,0,B|68:238|68:238|62:214|35:199,1,55,10|0,0:0|0:0,0:0:0:0:
428,236,65204,2,0,B|444:238|444:238|450:214|477:199,1,55,2|0,0:0|0:0,0:0:0:0:
145,296,65483,6,0,B|130:317|99:324|99:324|76:309|25:314,1,110,10|0,0:0|0:0,0:0:0:0:
367,296,65762,2,0,B|382:317|413:324|413:324|436:309|487:314,1,110,4|0,0:1|0:0,0:0:0:0:
256,350,66041,5,8,0:0:0:0:
175,154,66180,1,0,0:0:0:0:
367,296,66320,1,8,0:1:0:0:
145,296,66459,1,2,0:0:0:0:
337,154,66598,1,4,0:0:0:0:
256,350,66738,1,8,0:0:0:0:
175,154,66878,6,0,B|141:106|91:107|91:107|70:32|-3:28,1,220,12|0,0:2|0:0,0:0:0:0:
337,154,67297,2,0,B|371:106|420:107|420:107|442:32|515:28,1,220,4|0,0:1|0:0,0:0:0:0:
151,236,67715,6,0,B|185:270|255:236|255:236|324:270|359:236,1,224.400001369629,12|0,0:0|0:0,0:0:0:0:
360,234,68831,2,0,L|361:296,1,56.1000003424072,0|0,2:0|0:0,2:0:0:0:
151,236,69110,6,0,B|214:234|244:309|244:309|164:356|52:288,1,330.000012588501,4|10,0:1|0:0,0:0:0:0:
354,127,69529,1,0,0:0:0:0:
130,128,69669,1,10,0:0:0:0:
360,290,69808,1,0,0:0:0:0:
251,9,69947,6,0,L|258:210,1,165.000006294251,10|0,0:0|0:0,0:0:0:0:
52,288,70227,2,0,L|53:106,1,165.000006294251,10|0,0:0|0:0,0:0:0:0:
478,111,70506,5,10,0:0:0:0:
251,9,70645,1,0,0:0:0:0:
360,290,70785,5,10,0:0:0:0:
393,40,70924,1,0,0:0:0:0:
151,236,71064,5,12,0:0:0:0:
512,204,71204,1,0,0:0:0:0:
159,36,71343,6,0,B|188:139|260:148|260:148|224:227|276:313,1,330.000012588501,4|10,0:1|0:0,0:0:0:0:
393,40,71762,1,0,0:0:0:0:
151,236,71901,1,10,0:0:0:0:
433,230,72041,1,0,0:0:0:0:
159,36,72180,5,10,0:0:0:0:
360,290,72320,1,0,0:0:0:0:
251,9,72459,6,0,B|262:59|277:88|277:88|265:117|269:169,1,165.000006294251,10|0,0:0|0:0,0:0:0:0:
102,384,72738,2,0,B|91:334|76:305|76:305|88:276|84:224,1,165.000006294251,10|0,0:0|0:0,0:0:0:0:
159,36,73017,1,10,0:0:0:0:
208,300,73157,1,0,0:0:0:0:
30,39,73297,5,12,0:0:0:0:
53,326,73436,1,0,0:0:0:0:
317,236,73576,6,0,B|255:231|208:299|208:299|189:295|200:270|180:266|180:266|129:350|31:320,1,330.000012588501,4|10,0:1|0:0,0:0:0:0:
233,165,73994,1,0,0:0:0:0:
210,384,74134,1,10,0:0:0:0:
122,86,74273,1,0,0:0:0:0:
383,332,74413,6,0,P|414:256|402:175,1,165.000006294251,10|0,0:0|0:0,0:0:0:0:
251,9,74692,2,0,P|221:84|257:204,1,165.000006294251,10|0,0:0|0:0,0:0:0:0:
393,40,74971,5,10,0:0:0:0:
122,86,75111,1,0,0:0:0:0:
402,175,75250,5,10,0:0:0:0:
84,224,75390,1,0,0:0:0:0:
384,332,75529,5,12,0:0:0:0:
53,326,75669,1,0,0:0:0:0:
494,350,75808,6,0,B|502:309|480:283|480:283|478:257|495:236|495:236|495:203|475:180|475:180|495:150|492:121|492:121|470:92|481:40,1,330.000012588501,4|10,0:2|0:0,0:0:0:0:
384,332,76227,1,0,0:0:0:0:
280,12,76366,5,10,0:0:0:0:
495,232,76506,1,0,0:0:0:0:
247,199,76645,5,10,0:0:0:0:
481,39,76785,1,0,0:0:0:0:
265,282,76924,5,10,0:0:0:0:
34,23,77064,1,0,0:0:0:0:
53,301,77204,1,10,0:0:0:0:
251,9,77343,1,0,0:0:0:0:
211,374,77483,5,8,0:1:0:0:
211,374,77552,1,2,0:0:0:0:
211,374,77622,1,4,0:0:0:0:
211,374,77692,1,8,0:0:0:0:
211,374,77762,6,0,P|179:373|153:354,1,65.9999979858399,8|0,0:0|0:0,0:0:0:0:
174,144,77901,2,0,P|206:145|233:165,1,65.9999979858399,8|0,0:0|0:0,0:0:0:0:
356,297,78041,6,0,B|402:284|418:237|418:237|377:147|422:70,1,263.99999194336,4|10,0:1|0:0,0:0:0:0:
493,165,78459,1,0,0:0:0:0:
233,165,78599,2,0,L|98:164,1,131.99999597168,2|0,0:0|0:0,0:0:0:0:
356,297,78878,2,0,L|491:296,1,131.99999597168,10|0,0:0|0:0,0:0:0:0:
276,70,79156,6,0,B|179:65|179:65|103:80|103:80|0:78,1,263.99999194336,2|10,0:0|0:0,0:0:0:0:
233,165,79576,1,0,0:0:0:0:
85,307,79715,6,0,P|60:253|66:154,1,131.99999597168,2|0,0:0|0:0,0:0:0:0:
330,33,79994,2,0,P|329:98|303:158,1,131.99999597168,12|0,0:2|0:0,0:0:0:0:
170,83,80273,6,0,B|280:79|303:159|303:159|332:109|376:99,1,263.99999194336,4|10,0:1|0:0,0:0:0:0:
395,229,80692,1,0,0:0:0:0:
395,229,80831,2,0,L|373:88,1,131.99999597168,2|0,0:0|0:0,0:0:0:0:
492,366,81110,2,0,L|514:225,1,131.99999597168,10|0,0:0|0:0,0:0:0:0:
164,282,81390,5,4,0:2:0:0:
358,346,81529,1,0,0:0:0:0:
313,141,81669,1,8,0:0:0:0:
240,370,81808,5,4,0:0:0:0:
198,170,81948,1,0,0:0:0:0:
395,229,82087,1,0,0:0:0:0:
149,296,82227,5,12,0:1:0:0:
327,126,82366,1,0,0:0:0:0:
385,365,82506,6,0,P|449:309|464:249,1,131.99999597168,4|0,0:0|0:0,0:0:0:0:
459,126,82785,1,10,0:0:0:0:
327,126,82924,2,0,L|461:126,1,131.99999597168,0|2,0:0|0:0,0:0:0:0:
281,261,83204,1,0,0:0:0:0:
198,170,83343,2,0,B|159:168|159:168|108:183|108:183|66:183,1,131.99999597168,10|0,0:0|0:0,0:0:0:0:
412,210,83622,6,0,B|395:205|400:189|400:189|341:184|304:151,1,131.99999597168,2|0,0:0|0:0,0:0:0:0:
178,326,83901,2,0,B|191:314|202:326|202:326|236:277|282:261,1,131.99999597168,10|0,0:0|0:0,0:0:0:0:
194,47,84180,2,0,B|198:64|182:68|182:68|207:122|198:170,1,131.99999597168,2|0,0:0|0:0,0:0:0:0:
72,306,84459,2,0,B|68:289|84:285|84:285|59:231|68:183,1,131.99999597168,12|0,0:0|0:0,0:0:0:0:
437,327,84738,6,0,B|370:276|411:209|411:209|487:173|438:77,1,263.99999194336,4|10,0:1|0:0,0:0:0:0:
183,128,85157,1,0,0:0:0:0:
183,128,85297,2,0,P|238:118|318:171,1,131.99999597168,2|0,0:0|0:0,0:0:0:0:
161,318,85576,5,10,0:0:0:0:
75,44,85715,1,0,0:0:0:0:
319,268,85855,5,2,0:0:0:0:
35,185,85994,1,0,0:0:0:0:
319,287,86134,1,10,0:0:0:0:
96,126,86273,1,0,0:0:0:0:
227,353,86413,1,2,0:0:0:0:
157,66,86552,1,0,0:0:0:0:
85,312,86692,5,10,0:0:0:0:
299,107,86831,1,0,0:0:0:0:
23,236,86971,6,0,B|64:175|14:113|14:113|33:90|38:69|38:69|-2:35|32:-9,1,263.99999194336,4|8,0:2|0:0,0:0:0:0:
138,193,87390,1,0,0:0:0:0:
138,193,87529,2,0,P|236:205|276:242,1,131.99999597168,2|0,0:2|0:0,0:0:0:0:
417,380,87808,2,0,P|384:323|334:280,1,131.99999597168,10|0,0:2|0:0,0:0:0:0:
192,127,88087,5,2,0:2:0:0:
192,259,88227,1,0,0:0:0:0:
306,193,88366,1,10,0:2:0:0:
138,193,88506,5,0,0:0:0:0:
275,273,88645,1,2,0:2:0:0:
275,115,88785,1,0,0:0:0:0:
172,292,88924,5,12,0:2:0:0:
344,193,89064,1,0,0:0:0:0:
177,88,89204,6,0,B|216:27|293:32|293:32|308:60|340:67|340:67|365:38|414:47,1,263.99999194336,4|10,0:0|0:2,0:0:0:0:
442,129,89622,1,0,0:0:0:0:
428,368,89762,2,0,B|443:339|431:305|431:305|443:278|461:288|463:263|463:263|403:184|448:120,1,263.99999194336,2|10,0:2|0:2,0:0:0:0:
512,335,90180,1,0,0:0:0:0:
243,332,90320,5,2,0:2:0:0:
243,160,90459,1,0,0:0:0:0:
344,299,90599,1,10,0:2:0:0:
182,246,90738,1,0,0:0:0:0:
344,193,90878,5,2,0:2:0:0:
139,342,91017,1,0,0:0:0:0:
195,96,91157,1,12,0:2:0:0:
243,332,91297,1,0,0:0:0:0:
13,223,91436,6,0,B|46:163|4:124|4:124|21:114|31:132|41:121|41:121|7:63|31:6,1,263.99999194336,4|10,0:0|0:2,0:0:0:0:
173,32,91855,1,0,0:0:0:0:
173,32,91994,2,0,B|168:70|195:96|195:96|183:128|188:162,1,131.99999597168,2|0,0:2|0:0,0:0:0:0:
243,332,92273,2,0,B|238:294|265:268|265:268|253:236|258:202,1,131.99999597168,10|0,0:2|0:0,0:0:0:0:
390,128,92552,5,2,0:2:0:0:
395,247,92692,1,0,0:0:0:0:
446,71,92831,1,10,0:2:0:0:
338,304,92971,1,0,0:0:0:0:
333,71,93111,1,2,0:2:0:0:
451,304,93250,1,0,0:0:0:0:
390,15,93390,5,12,0:2:0:0:
395,360,93529,1,0,0:0:0:0:
204,64,93669,5,2,0:2:0:0:
395,247,93808,1,0,0:0:0:0:
154,149,93948,1,10,0:2:0:0:
423,131,94087,2,0,P|474:172|498:233,1,131.99999597168,0|2,0:0|0:2,0:0:0:0:
255,269,94366,1,0,0:0:0:0:
333,71,94506,2,0,P|392:50|464:69,1,131.99999597168,10|0,0:2|0:0,0:0:0:0:
154,149,94784,6,0,P|93:170|30:155,1,131.99999597168,2|0,0:2|0:0,0:0:0:0:
205,379,95063,2,0,B|234:371|248:348|248:348|281:347|320:321,1,110,10|0,0:2|0:0,0:0:0:0:
154,149,95342,2,0,B|149:168|158:184|158:184|147:204|149:236,1,88,2|0,0:2|0:0,0:0:0:0:
395,247,95621,6,0,B|375:245|361:264|361:264|366:236|355:206,1,98.9999969787599,12|0,0:2|0:0,0:0:0:0:
389,69,95901,6,0,B|432:43|458:65|486:39|486:39|451:38|430:16|430:16|335:53|253:15,1,330.000012588501,4|10,0:0|0:0,0:0:0:0:
57,22,96320,1,0,0:0:0:0:
57,22,96459,2,0,L|91:184,1,165.000006294251,2|0,0:0|0:0,0:0:0:0:
329,155,96738,2,0,L|294:317,1,165.000006294251,10|0,0:0|0:0,0:0:0:0:
201,93,97017,5,2,0:0:0:0:
127,319,97157,1,0,0:0:0:0:
57,22,97297,1,10,0:0:0:0:
329,155,97436,5,0,0:0:0:0:
90,183,97576,1,2,0:0:0:0:
334,11,97715,1,0,0:0:0:0:
227,351,97855,5,12,0:0:0:0:
201,93,97994,1,0,0:0:0:0:
499,242,98134,6,0,B|464:278|472:325|472:325|400:246|428:189|428:189|468:149|449:88,1,330.000012588501,4|10,0:2|0:0,0:0:0:0:
212,250,98552,1,0,0:0:0:0:
367,306,98692,6,0,P|325:235|328:154,1,165.000006294251,2|0,0:0|0:0,0:0:0:0:
52,334,98971,2,0,P|97:244|87:172,1,165.000006294251,10|0,0:0|0:0,0:0:0:0:
365,2,99250,6,0,P|324:72|327:154,1,165.000006294251,2|0,0:0|0:0,0:0:0:0:
52,30,99529,2,0,P|97:120|87:192,1,165.000006294251,10|0,0:0|0:0,0:0:0:0:
174,14,99808,1,2,0:0:0:0:
260,287,99948,1,0,0:0:0:0:
249,19,100087,6,0,B|241:61|199:90|199:90|191:130|221:132|213:166|213:166|175:195|173:253,1,247.500009441376,12|0,0:1|0:0,0:0:0:0:
433,340,100366,6,0,B|401:365|359:335|359:335|333:366|245:372|245:372|198:313|137:310,1,330.000012588501,2|10,0:0|0:0,0:0:0:0:
328,153,100785,1,0,0:0:0:0:
328,153,100924,2,0,P|394:232|464:240,1,165.000006294251,2|0,0:0|0:0,0:0:0:0:
249,19,101204,2,0,P|147:36|105:93,1,165.000006294251,10|0,0:0|0:0,0:0:0:0:
52,334,101483,5,2,0:0:0:0:
206,108,101622,1,0,0:0:0:0:
138,310,101762,1,10,0:0:0:0:
110,79,101901,1,0,0:0:0:0:
222,286,102041,1,2,0:0:0:0:
14,54,102180,1,0,0:0:0:0:
307,262,102320,6,0,B|351:181|351:181|342:3,1,247.500009441376,12|0,0:0|0:0,0:0:0:0:
415,24,102599,6,0,B|433:383,1,330.000012588501,2|10,0:0|0:0,0:0:0:0:
4,292,103017,2,0,B|63:273|94:296|94:296|140:289|129:253|184:250|184:250|237:297|307:261,1,330.000012588501,0|0,0:0|0:0,0:0:0:0:
110,79,103436,1,10,0:0:0:0:
247,371,103576,1,0,0:0:0:0:
436,124,103715,5,8,0:1:0:0:
385,90,103784,1,2,0:0:0:0:
324,91,103854,1,2,0:0:0:0:
274,126,103924,1,2,0:0:0:0:
253,182,103993,5,4,0:0:0:0:
236,229,104063,1,4,0:0:0:0:
196,257,104133,1,4,0:0:0:0:
147,257,104203,1,4,0:0:0:0:
107,231,104273,5,8,0:0:0:0:
69,214,104342,1,8,0:0:0:0:
30,223,104412,1,8,0:0:0:0:
4,255,104482,1,8,0:0:0:0:
3,295,104552,6,0,B|25:323|30:359|30:359|70:289|45:186,1,247.500009441376,12|0,0:1|0:0,0:0:0:0:
37,100,104831,5,12,0:2:0:0:
174,276,104971,1,0,0:0:0:0:
172,290,105250,5,0,0:0:0:0:
38,85,105390,1,12,0:0:0:0:
42,68,105669,5,12,0:0:0:0:
168,307,105808,1,12,0:0:0:0:
163,324,106087,5,0,0:0:0:0:
47,51,106227,1,8,0:0:0:0:
55,32,106506,6,0,P|94:57|106:85,1,65.9999979858399
154,342,106645,2,0,P|175:316|180:284,1,65.9999979858399
0,162,106784,2,0,P|30:152|63:158,1,65.9999979858399,8|0,0:0|0:0,0:0:0:0:
288,311,106924,2,0,P|284:278|266:251,1,65.9999979858399
127,228,107063,5,8,0:0:0:0:
339,143,107204,1,0,0:0:0:0:
348,129,107482,5,0,0:0:0:0:
118,239,107622,1,12,0:0:0:0:
109,252,107901,5,12,0:0:0:0:
357,115,108041,1,12,0:0:0:0:
366,101,108319,5,0,0:0:0:0:
176,204,108459,6,0,P|192:232|195:264,1,65.9999979858399,2|0,0:2|0:0,0:0:0:0:
381,260,108598,2,0,P|352:276|333:302,1,65.9999979858399,2|0,0:2|0:0,0:0:0:0:
165,126,108738,6,0,P|126:140|100:171,1,82.5000031471254,2|0,0:2|0:0,0:0:0:0:
427,198,108877,2,0,P|453:228|462:269,1,82.5000031471254,2|0,0:2|0:0,0:0:0:0:
109,252,109017,6,0,P|61:243|31:204,1,98.9999969787599,10|0,0:2|0:0,0:0:0:0:
412,335,109156,2,0,P|458:349|502:329,1,98.9999969787599,2|0,0:2|0:0,0:0:0:0:
113,330,109297,5,8,0:0:0:0:
381,260,109436,1,0,0:0:0:0:
398,271,109715,5,0,0:0:0:0:
95,318,109855,1,12,0:0:0:0:
76,303,110133,5,12,0:0:0:0:
417,286,110273,1,12,0:0:0:0:
433,303,110552,5,0,0:0:0:0:
60,286,110692,1,8,0:0:0:0:
40,265,110971,6,0,L|104:277,1,65.9999979858399
465,225,111111,2,0,L|401:213,1,65.9999979858399
55,170,111250,2,0,L|119:182,1,65.9999979858399,8|0,0:0|0:0,0:0:0:0:
450,320,111390,2,0,L|386:308,1,65.9999979858399
62,78,111529,5,8,0:0:0:0:
168,366,111669,1,0,0:0:0:0:
163,384,111948,5,0,0:0:0:0:
214,50,112087,1,12,0:0:0:0:
211,29,112366,5,12,0:0:0:0:
319,336,112505,1,12,0:0:0:0:
322,357,112785,5,0,0:0:0:0:
512,262,112924,1,8,0:1:0:0:
502,275,112994,1,0,0:0:0:0:
496,290,113063,1,0,0:0:0:0:
493,307,113133,1,0,0:0:0:0:
494,323,113203,5,8,0:1:0:0:
453,298,113273,1,2,0:0:0:0:
404,291,113343,1,4,0:0:0:0:
357,305,113413,1,8,0:0:0:0:
319,336,113483,1,8,0:1:0:0:
277,361,113552,1,2,0:0:0:0:
228,368,113622,1,4,0:0:0:0:
181,354,113692,1,8,0:0:0:0:
143,324,113761,6,0,P|158:243|3:153,1,285.99998690796,4|10,0:1|0:0,0:0:0:0:
52,258,114180,1,0,0:0:0:0:
142,104,114319,2,0,P|77:77|4:81,1,142.99999345398,2|0,0:0|0:0,0:0:0:0:
249,254,114599,2,0,B|273:234|275:190|275:190|314:183|330:140,1,142.99999345398,10|0,0:0|0:0,0:0:0:0:
404,384,114877,6,0,L|405:238,1,142.99999345398,2|0,0:0|0:0,0:0:0:0:
403,65,115157,1,10,0:0:0:0:
404,368,115297,6,0,P|419:295|402:223,1,142.99999345398,0|2,0:0|0:0,0:0:0:0:
404,45,115576,1,0,0:0:0:0:
404,352,115715,6,0,B|382:278|382:278|407:205,1,142.99999345398,10|0,0:0|0:0,0:0:0:0:
405,25,115994,5,2,0:0:0:0:
256,288,116134,1,0,0:0:0:0:
107,25,116273,5,10,0:0:0:0:
256,313,116413,1,0,0:0:0:0:
256,25,116552,5,2,0:0:0:0:
256,338,116692,1,0,0:0:0:0:
417,125,116831,5,10,0:0:0:0:
104,125,116971,1,0,0:0:0:0:
405,25,117110,5,2,0:0:0:0:
411,299,117250,1,0,0:0:0:0:
393,42,117390,1,10,0:0:0:0:
423,282,117529,1,0,0:0:0:0:
189,58,117668,5,2,0:0:0:0:
495,98,117808,1,0,0:0:0:0:
149,282,117948,6,0,B|165:273|165:273|185:278|185:278|190:257|221:249,1,82.5000031471254,12|0,0:1|0:0,0:0:0:0:
495,98,118227,6,0,P|508:59|485:7,2,95.3333289693199,6|0|0,0:0|0:0|0:0,0:0:0:0:
342,247,118506,2,0,B|369:277|369:277|425:283,2,95.3333289693199,10|0|0,0:0|0:0|0:0,0:0:0:0:
289,39,118784,2,0,B|271:50|249:47|249:47|245:71|216:92,2,95.3333289693199,2|0|0,0:0|0:0|0:0,0:0:0:0:
373,131,119064,5,10,0:0:0:0:
364,143,119157,1,0,0:0:0:0:
351,152,119250,1,0,0:0:0:0:
257,176,119343,5,2,0:0:0:0:
199,198,119436,1,0,0:0:0:0:
173,254,119529,1,0,0:0:0:0:
215,339,119622,5,10,0:0:0:0:
248,264,119715,1,0,0:0:0:0:
199,198,119808,1,0,0:0:0:0:
121,201,119901,6,0,P|102:170|96:135,1,71.4999967269899,2|0,0:0|0:0,0:0:0:0:
195,24,120041,2,0,P|213:54|219:89,1,71.4999967269899
170,318,120180,5,10,0:0:0:0:
156,313,120250,1,0,0:0:0:0:
156,299,120320,1,0,0:0:0:0:
170,294,120390,1,0,0:0:0:0:
177,306,120459,6,0,P|207:227|250:348,1,285.99998690796,2|10,0:0|0:0,0:0:0:0:
248,144,120878,2,0,P|316:162|366:212,1,142.99999345398,0|2,0:0|0:0,0:0:0:0:
391,367,121157,2,0,P|372:298|390:230,1,142.99999345398,0|10,0:0|0:0,0:0:0:0:
512,131,121436,2,0,P|490:160|461:181,1,71.4999967269899
417,41,121576,5,2,0:0:0:0:
416,58,121645,1,0,0:0:0:0:
415,76,121715,1,0,0:0:0:0:
414,94,121785,1,0,0:0:0:0:
413,112,121855,1,10,0:0:0:0:
468,324,121994,2,0,L|461:178,1,142.99999345398,0|2,0:0|0:0,0:0:0:0:
248,144,122273,2,0,L|246:294,1,142.99999345398,0|10,0:0|0:0,0:0:0:0:
495,324,122552,2,0,L|491:252,1,71.4999967269899
417,41,122692,5,4,0:1:0:0:
155,284,122831,1,0,0:0:0:0:
413,363,122971,2,0,B|351:317|377:239|377:239|345:232|328:198|328:198|356:166|347:120,1,285.99998690796,10|2,0:0|0:0,0:0:0:0:
60,198,123390,1,0,0:0:0:0:
225,68,123529,1,10,0:0:0:0:
251,376,123669,1,0,0:0:0:0:
28,324,123808,6,0,B|9:304|20:266|20:266|56:244|61:192,1,142.99999345398,2|0,0:0|0:0,0:0:0:0:
225,68,124087,1,10,0:0:0:0:
155,284,124227,2,0,P|190:348|258:377,1,142.99999345398,0|2,0:0|0:0,0:0:0:0:
443,215,124506,2,0,P|410:153|347:123,1,142.99999345398,0|10,0:0|0:0,0:0:0:0:
290,237,124785,1,0,0:0:0:0:
460,17,124924,5,2,0:0:0:0:
155,284,125063,1,0,0:0:0:0:
155,284,125133,1,0,0:0:0:0:
155,284,125203,1,10,0:0:0:0:
393,301,125342,5,0,0:0:0:0:
154,79,125481,1,2,0:0:0:0:
154,79,125551,1,0,0:0:0:0:
154,79,125621,1,0,0:0:0:0:
235,329,125761,5,10,0:0:0:0:
406,133,125900,1,0,0:0:0:0:
406,133,125970,1,0,0:0:0:0:
406,133,126040,1,2,0:0:0:0:
154,79,126180,5,0,0:0:0:0:
290,237,126319,1,10,0:0:0:0:
290,237,126389,1,0,0:0:0:0:
290,237,126459,1,0,0:0:0:0:
256,76,126598,5,2,0:0:0:0:
100,345,126738,1,0,0:0:0:0:
100,345,126808,1,0,0:0:0:0:
100,345,126878,6,0,P|162:357|242:321,1,142.99999345398,12|0,0:1|0:0,0:0:0:0:
484,54,127156,5,4,0:1:0:0:
55,127,127297,1,4,0:1:0:0:
69,133,127576,5,4,0:1:0:0:
491,194,127715,1,4,0:1:0:0:
512,193,127994,5,12,0:1:0:0:
55,349,128134,1,12,0:1:0:0:
155,249,128413,5,0,0:0:0:0:
256,76,128552,1,0,0:0:0:0:
356,249,128692,1,0,0:0:0:0:
155,134,128831,5,0,0:0:0:0:
356,134,128971,1,0,0:0:0:0:
55,192,129111,5,8,0:0:0:0:
457,191,129250,1,0,0:0:0:0:
254,309,129390,5,12,0:0:0:0:
155,249,129529,1,0,0:0:0:0:
356,249,129669,1,2,0:1:0:0:
56,309,129808,1,0,0:0:0:0:
256,76,129948,5,10,0:0:0:0:
155,134,130087,1,0,0:0:0:0:
356,134,130227,1,2,0:1:0:0:
56,75,130366,1,0,0:0:0:0:
457,306,130506,5,10,0:0:0:0:
155,249,130645,1,0,0:0:0:0:
356,249,130785,1,2,0:1:0:0:
254,309,130924,1,0,0:0:0:0:
456,76,131064,5,10,0:0:0:0:
155,134,131204,1,0,0:0:0:0:
356,134,131343,1,2,0:1:0:0:
256,76,131483,1,0,0:0:0:0:
356,249,131622,5,10,0:0:0:0:
256,76,131762,1,0,0:0:0:0:
254,309,131901,1,2,0:1:0:0:
356,134,132041,1,0,0:0:0:0:
155,248,132180,5,10,0:0:0:0:
256,76,132320,1,0,0:0:0:0:
254,309,132459,1,2,0:1:0:0:
155,134,132599,1,0,0:0:0:0:
254,309,132738,5,8,0:1:0:0:
215,287,132808,1,2,0:0:0:0:
161,281,132878,1,4,0:0:0:0:
166,291,132948,1,8,0:0:0:0:
173,300,133017,6,0,P|125:367|63:364,1,110,12|0,0:1|0:0,0:0:0:0:
56,309,133297,5,8,0:0:0:0:
356,134,133436,1,8,0:0:0:0:
55,192,133576,5,8,0:0:0:0:
356,249,133715,1,8,0:0:0:0:
54,75,133855,5,4,0:1:0:0:
54,75,133994,2,0,B|97:105|138:87|138:87|176:117|166:166,1,176,0|0,0:0|0:0,0:0:0:0:
159,177,134413,1,10,0:0:0:0:
151,189,134692,1,0,0:0:0:0:
274,113,134831,1,0,0:0:0:0:
147,35,134971,5,2,0:0:0:0:
147,35,135110,2,0,L|188:126,1,88,0|0,0:0|0:0,0:0:0:0:
274,113,135390,1,0,0:0:0:0:
274,113,135529,2,0,L|237:193,1,88,10|0,0:0|0:0,0:0:0:0:
151,189,135808,2,0,L|187:269,1,88,0|0,0:0|0:0,0:0:0:0:
325,276,136087,6,0,B|303:308|378:337|411:219|351:190,1,176,4|0,0:2|0:0,0:0:0:0:
274,113,136506,1,0,0:0:0:0:
438,125,136645,2,0,P|354:92|242:139,1,176,10|0,0:0|0:0,0:0:0:0:
237,192,137064,1,0,0:0:0:0:
186,120,137204,5,2,0:0:0:0:
186,120,137343,2,0,P|179:65|192:33,1,88,0|0,0:0|0:0,0:0:0:0:
155,273,137622,1,0,0:0:0:0:
155,273,137762,2,0,P|162:218|149:186,1,88,10|0,0:0|0:0,0:0:0:0:
238,384,138041,2,0,P|231:329|244:297,1,88,0|0,0:0|0:0,0:0:0:0:
337,209,138320,6,0,B|362:268|332:337|332:337|368:270|436:267,1,264,4|0,0:1|0:0,0:0:0:0:
436,267,138878,2,0,B|413:321|332:337|332:337|301:266|337:209,1,264,10|0,0:2|0:0,0:0:0:0:
398,108,139436,5,2,0:2:0:0:
398,108,139576,2,0,L|297:112,1,88,0|0,0:0|0:0,0:0:0:0:
222,231,139855,1,0,0:0:0:0:
222,231,139994,2,0,L|121:227,1,88,10|0,0:2|0:0,0:0:0:0:
76,108,140273,1,0,0:0:0:0:
76,108,140552,6,0,P|70:193|12:279,1,176,4|0,0:1|0:0,0:0:0:0:
135,228,140971,1,0,0:0:0:0:
23,268,141111,2,0,P|105:296|164:360,1,176,10|0,0:2|0:0,0:0:0:0:
164,360,141529,1,0,0:0:0:0:
164,360,141669,6,0,P|189:301|186:259,1,88,2|0,0:2|0:0,0:0:0:0:
322,226,141948,2,0,P|297:166|300:124,1,88,0|0,0:0|0:0,0:0:0:0:
184,100,142227,5,8,0:1:0:0:
455,171,142366,1,2,0:0:0:0:
187,191,142506,5,4,0:0:0:0:
322,226,142645,1,8,0:0:0:0:
189,278,142785,5,4,0:0:0:0:
181,9,142924,1,0,0:0:0:0:
181,9,143204,1,0,0:0:0:0:
184,100,143343,2,0,P|141:90|108:61,1,88,10|0,0:0|0:0,0:0:0:0:
319,139,143622,5,0,0:0:0:0:
50,147,143762,1,0,0:0:0:0:
192,375,143901,5,2,0:0:0:0:
192,375,144041,2,0,P|250:356|301:363,1,88,0|0,0:0|0:0,0:0:0:0:
409,319,144320,1,0,0:0:0:0:
409,319,144459,6,0,P|357:285|272:296,1,132,10|0,0:0|0:0,0:0:0:0:
376,200,144738,2,0,P|321:227|287:307,1,132,0|0,0:0|0:0,0:0:0:0:
254,168,145017,5,4,0:0:0:0:
507,337,145157,1,0,0:0:0:0:
507,337,145436,1,0,0:0:0:0:
409,319,145576,2,0,P|419:276|445:242,1,88,10|0,0:0|0:0,0:0:0:0:
397,91,145855,5,0,0:0:0:0:
327,352,145994,1,0,0:0:0:0:
271,81,146134,5,2,0:0:0:0:
271,81,146273,2,0,L|254:167,1,88
139,119,146552,1,0,0:0:0:0:
139,119,146692,6,0,P|122:177|147:266,1,132,10|0,0:0|0:0,0:0:0:0:
8,250,146971,2,0,P|66:232|155:258,1,132,0|0,0:0|0:0,0:0:0:0:
73,338,147250,5,4,0:2:0:0:
61,86,147390,1,0,0:0:0:0:
61,86,147669,1,0,0:0:0:0:
139,119,147808,2,0,P|155:79|143:37,1,88,10|0,0:2|0:0,0:0:0:0:
18,13,148087,5,0,0:0:0:0:
203,163,148227,1,0,0:0:0:0:
284,1,148366,5,2,0:2:0:0:
284,1,148506,2,0,L|307:98,1,88,0|0,0:0|0:0,0:0:0:0:
414,114,148785,1,0,0:0:0:0:
414,114,148924,6,0,B|405:183|371:250,1,132,10|0,0:2|0:0,0:0:0:0:
501,277,149204,2,0,B|445:248|376:239,1,132
184,43,149483,5,4,0:1:0:0:
226,335,149622,1,0,0:0:0:0:
226,335,149901,1,0,0:0:0:0:
157,382,150041,2,0,P|140:332|149:289,1,88,10|0,0:2|0:0,0:0:0:0:
301,282,150320,5,8,0:0:0:0:
64,341,150459,1,8,0:0:0:0:
260,161,150598,5,4,0:0:0:0:
86,110,150737,1,0,0:0:0:0:
268,186,150878,5,10,0:0:0:0:
184,43,151017,1,0,0:0:0:0:
30,199,151157,5,10,0:0:0:0:
318,99,151297,1,8,0:0:0:0:
226,335,151436,5,8,0:0:0:0:
325,74,151576,1,8,0:0:0:0:
442,271,151715,6,0,P|444:198|468:152,1,110,6|0,0:0|0:0,0:0:0:0:
377,370,151994,2,0,P|326:316|311:267,1,110,10|0,0:0|0:0,0:0:0:0:
332,190,152273,5,2,0:0:0:0:
496,377,152413,1,0,0:0:0:0:
510,227,152552,5,10,0:0:0:0:
377,370,152692,1,0,0:0:0:0:
226,335,152831,6,0,P|177:270|174:222,1,110,2|0,0:0|0:0,0:0:0:0:
314,283,153111,1,10,0:0:0:0:
45,321,153249,2,0,P|45:266|71:218,1,110,0|2,0:0|0:0,0:0:0:0:
226,335,153529,1,0,0:0:0:0:
240,90,153668,2,0,P|271:133|261:185,1,110,10|0,0:0|0:0,0:0:0:0:
71,218,153948,6,0,P|42:171|43:117,1,110,4|0,0:0|0:0,0:0:0:0:
241,91,154227,1,10,0:0:0:0:
133,147,154366,2,0,L|129:38,1,110,0|2,0:0|0:0,0:0:0:0:
241,91,154645,1,0,0:0:0:0:
42,117,154785,2,0,L|37:7,1,110,10|0,0:0|0:0,0:0:0:0:
163,258,155064,5,2,0:0:0:0:
328,43,155204,1,0,0:0:0:0:
133,147,155343,1,10,0:0:0:0:
327,142,155483,1,0,0:0:0:0:
191,7,155622,5,2,0:0:0:0:
326,241,155762,1,0,0:0:0:0:
414,94,155901,1,10,0:0:0:0:
240,190,156041,1,0,0:0:0:0:
400,319,156180,6,0,P|423:282|424:211,1,110,4|0,0:0|0:0,0:0:0:0:
414,94,156459,1,10,0:0:0:0:
448,381,156599,2,0,P|494:314|502:269,1,110,0|2,0:0|0:0,0:0:0:0:
414,94,156878,1,0,0:0:0:0:
351,379,157017,2,0,P|304:351|286:297,1,110,10|0,0:0|0:0,0:0:0:0:
112,319,157296,6,0,P|89:282|88:211,1,110,2|0,0:0|0:0,0:0:0:0:
98,94,157575,1,10,0:0:0:0:
64,381,157715,2,0,P|18:314|10:269,1,110,0|2,0:0|0:0,0:0:0:0:
98,94,157994,1,0,0:0:0:0:
161,379,158133,2,0,P|207:351|225:297,1,110,10|0,0:0|0:0,0:0:0:0:
291,46,158413,6,0,P|292:99|288:157,1,110,4|0,0:0|0:0,0:0:0:0:
98,94,158692,1,10,0:0:0:0:
288,156,158831,1,0,0:0:0:0:
80,101,158971,1,2,0:0:0:0:
291,46,159111,1,0,0:0:0:0:
62,108,159250,1,10,0:0:0:0:
285,266,159390,1,0,0:0:0:0:
291,46,159529,5,2,0:0:0:0:
68,260,159669,1,0,0:0:0:0:
288,156,159808,5,10,0:0:0:0:
46,243,159948,1,0,0:0:0:0:
285,266,160087,5,2,0:0:0:0:
44,221,160227,1,0,0:0:0:0:
282,376,160366,5,10,0:0:0:0:
57,198,160506,1,0,0:0:0:0:
350,203,160645,6,0,P|376:251|377:306,1,110,4|0,0:0|0:0,0:0:0:0:
161,180,160924,1,10,0:0:0:0:
354,121,161064,2,0,P|406:136|445:174,1,110,0|2,0:0|0:0,0:0:0:0:
285,266,161343,1,0,0:0:0:0:
298,60,161483,2,0,P|345:34|400:33,1,110,10|0,0:0|0:0,0:0:0:0:
161,180,161762,6,0,P|135:132|135:78,1,110,2|0,0:0|0:0,0:0:0:0:
350,203,162041,1,10,0:0:0:0:
157,263,162180,2,0,P|105:247|66:209,1,110,0|2,0:0|0:0,0:0:0:0:
226,118,162459,1,0,0:0:0:0:
213,324,162599,2,0,P|165:350|110:350,1,110,10|0,0:0|0:0,0:0:0:0:
226,118,162878,6,0,B|279:105|279:105|332:119,1,110,4|0,0:0|0:0,0:0:0:0:
285,266,163157,1,10,0:0:0:0:
214,34,163297,1,0,0:0:0:0:
414,61,163436,2,0,P|430:113|424:167,1,110,2|0,0:0|0:0,0:0:0:0:
275,372,163715,2,0,B|268:317|268:317|285:265,1,110,10|0,0:0|0:0,0:0:0:0:
332,119,163994,6,0,B|284:148|284:148|246:208,1,110,2|0,0:0|0:0,0:0:0:0:
444,367,164273,2,0,B|442:310|442:310|409:248,1,110,10|0,0:0|0:0,0:0:0:0:
172,344,164552,2,0,B|221:371|221:371|276:373,1,110,2|0,0:0|0:0,0:0:0:0:
111,162,164831,6,0,B|112:137|112:137|69:117|65:54,1,110,10|0,0:0|0:0,0:0:0:0:
401,162,165111,2,0,B|399:137|399:137|442:117|446:54,1,110,6|0,0:0|0:0,0:0:0:0:
131,256,165390,6,0,B|120:234|120:234|101:251|72:238,1,55,10|0,0:0|0:0,0:0:0:0:
381,256,165669,2,0,B|392:234|392:234|411:251|440:238,1,55,2|0,0:0|0:0,0:0:0:0:
54,371,165948,6,0,B|53:354|37:335|37:335|42:319|40:302|40:302|29:287|29:263,1,110,10|0,0:0|0:0,0:0:0:0:
458,371,166226,2,0,B|459:354|475:335|475:335|470:319|472:302|472:302|483:287|483:263,1,110,2|0,0:0|0:0,0:0:0:0:
256,350,166506,5,12,0:0:0:0:
384,150,166645,1,0,0:0:0:0:
145,296,166785,1,8,0:1:0:0:
367,296,166924,1,2,0:0:0:0:
128,150,167063,1,4,0:0:0:0:
256,350,167203,1,8,0:0:0:0:
384,150,167342,6,0,B|387:170|376:182|376:182|431:146|435:106|435:106|419:60|433:21,1,220,12|0,0:1|0:0,0:0:0:0:
128,150,167761,2,0,B|124:170|135:182|135:182|80:146|76:106|76:106|92:60|78:21,1,220,12|0,0:2|0:0,0:0:0:0:
357,261,168180,6,0,B|320:225|253:256|253:256|181:222|147:258,1,224.400001369629,12|0,0:0|0:0,0:0:0:0:
147,258,169297,2,0,L|148:320,1,56.1000003424072,0|0,2:0|0:0,2:0:0:0:
357,261,169575,6,0,B|346:297|361:328|361:328|366:277|408:227|408:227|419:173|375:131|375:131|364:105|376:81,1,330.000012588501,4|10,0:1|0:0,0:0:0:0:
208,83,169994,1,0,0:0:0:0:
357,261,170134,1,10,0:0:0:0:
469,55,170272,1,0,0:0:0:0:
149,150,170413,6,0,P|142:224|148:316,1,165.000006294251,10|0,0:0|0:0,0:0:0:0:
472,298,170692,2,0,P|479:224|472:131,1,165.000006294251,10|0,0:0|0:0,0:0:0:0:
239,231,170970,5,10,0:0:0:0:
472,298,171111,1,0,0:0:0:0:
208,83,171250,5,10,0:0:0:0:
270,379,171390,1,0,0:0:0:0:
469,55,171529,5,12,0:0:0:0:
89,179,171669,1,0,0:0:0:0:
391,383,171808,6,0,L|356:54,1,330.000012588501,4|10,0:1|0:0,0:0:0:0:
147,314,172227,1,0,0:0:0:0:
472,298,172366,1,10,0:0:0:0:
208,83,172506,1,0,0:0:0:0:
391,383,172645,5,10,0:0:0:0:
356,54,172785,1,0,0:0:0:0:
147,314,172924,6,0,B|129:273|87:255|87:255|72:216|93:164,1,165.000006294251,10|0,0:0|0:0,0:0:0:0:
356,54,173203,2,0,B|340:95|357:138|357:138|340:176|288:198,1,165.000006294251,10|0,0:0|0:0,0:0:0:0:
208,83,173482,1,10,0:0:0:0:
469,55,173622,1,0,0:0:0:0:
118,94,173761,5,12,0:0:0:0:
474,219,173901,1,0,0:0:0:0:
153,15,174041,6,0,B|132:101|213:159|213:159|162:247|236:320,1,330.000012588501,4|10,0:1|0:0,0:0:0:0:
301,191,174459,1,0,0:0:0:0:
91,254,174599,1,10,0:0:0:0:
352,293,174738,1,0,0:0:0:0:
153,15,174878,6,0,L|159:188,1,165.000006294251,10|0,0:0|0:0,0:0:0:0:
474,219,175157,2,0,L|468:46,1,165.000006294251,10|0,0:0|0:0,0:0:0:0:
352,293,175435,5,10,0:0:0:0:
250,89,175576,1,0,0:0:0:0:
225,309,175714,5,10,0:0:0:0:
359,15,175855,1,0,0:0:0:0:
300,384,175994,5,12,0:0:0:0:
153,15,176133,1,0,0:0:0:0:
124,320,176273,6,0,B|167:380|24:414|-10:269|92:204|92:204|79:237|91:254,1,330.000012588501,4|10,0:2|0:0,0:0:0:0:
300,384,176691,1,0,0:0:0:0:
250,89,176831,1,10,0:0:0:0:
124,320,176970,1,0,0:0:0:0:
417,236,177110,5,10,0:0:0:0:
84,133,177249,1,0,0:0:0:0:
300,384,177389,5,10,0:0:0:0:
413,81,177529,1,0,0:0:0:0:
124,320,177668,1,10,0:0:0:0:
154,12,177808,1,0,0:0:0:0:
417,236,177947,5,8,0:1:0:0:
415,247,178016,1,2,0:0:0:0:
411,257,178086,1,4,0:0:0:0:
405,267,178156,1,8,0:0:0:0:
397,275,178226,6,0,P|366:267|340:247,1,65.9999979858399,8|0,0:0|0:0,0:0:0:0:
356,54,178366,2,0,P|387:61|413:81,1,65.9999979858399,8|0,0:0|0:0,0:0:0:0:
248,218,178505,6,0,B|214:220|194:275|194:275|232:167|159:174|211:94,1,263.99999194336,4|10,0:1|0:0,0:0:0:0:
339,246,178924,1,0,0:0:0:0:
339,246,179063,2,0,P|338:304|300:382,1,131.99999597168,2|0,0:0|0:0,0:0:0:0:
122,184,179343,2,0,P|123:126|161:48,1,131.99999597168,10|0,0:0|0:0,0:0:0:0:
194,275,179622,6,0,P|78:336|13:233,1,263.99999194336,2|10,0:0|0:0,0:0:0:0:
308,370,180041,1,0,0:0:0:0:
122,184,180180,6,0,P|123:126|161:48,1,131.99999597168,2|0,0:0|0:0,0:0:0:0:
370,122,180459,2,0,P|369:180|331:258,1,131.99999597168,12|0,0:2|0:0,0:0:0:0:
242,86,180738,6,0,B|299:94|371:29|371:29|449:67|455:131,1,263.99999194336,4|10,0:1|0:0,0:0:0:0:
254,234,181157,1,0,0:0:0:0:
254,234,181296,6,0,B|218:256|218:256|214:360,1,131.99999597168,2|0,0:0|0:0,0:0:0:0:
82,72,181575,2,0,B|118:94|118:94|122:198,1,131.99999597168,10|0,0:0|0:0,0:0:0:0:
215,346,181855,5,4,0:2:0:0:
370,122,181994,1,0,0:0:0:0:
122,184,182134,1,8,0:0:0:0:
339,246,182273,5,4,0:0:0:0:
89,329,182413,1,0,0:0:0:0:
242,86,182552,1,0,0:0:0:0:
215,346,182691,5,12,0:1:0:0:
97,31,182831,1,0,0:0:0:0:
370,122,182971,6,0,P|387:70|353:3,1,131.99999597168,4|0,0:0|0:0,0:0:0:0:
289,166,183250,1,10,0:0:0:0:
433,169,183390,2,0,P|458:108|459:43,1,131.99999597168,0|2,0:0|0:0,0:0:0:0:
242,86,183669,1,0,0:0:0:0:
428,262,183808,2,0,B|482:226|482:226|513:166,1,131.99999597168,10|0,0:0|0:0,0:0:0:0:
170,256,184087,6,0,B|160:355|160:355|176:326,1,131.99999597168,2|0,0:0|0:0,0:0:0:0:
242,86,184366,2,0,B|162:28|162:28|179:57,1,131.99999597168,10|0,0:0|0:0,0:0:0:0:
355,233,184645,2,0,B|445:193|445:193|412:193,1,131.99999597168,2|0,0:0|0:0,0:0:0:0:
79,82,184924,2,0,B|102:107|103:145|103:145|136:147|160:174,1,131.99999597168,12|0,0:0|0:0,0:0:0:0:
373,87,185204,6,0,B|407:60|408:22|408:22|435:54|437:80|437:80|390:133|411:192,1,263.99999194336,4|10,0:1|0:0,0:0:0:0:
326,23,185622,1,0,0:0:0:0:
508,171,185762,2,0,P|495:244|449:288,1,131.99999597168,2|0,0:0|0:0,0:0:0:0:
293,173,186041,5,10,0:0:0:0:
508,171,186180,1,0,0:0:0:0:
256,272,186320,5,2,0:0:0:0:
256,80,186459,1,0,0:0:0:0:
256,304,186599,1,10,0:0:0:0:
326,23,186738,1,0,0:0:0:0:
256,336,186878,1,2,0:0:0:0:
186,23,187017,1,0,0:0:0:0:
411,192,187157,5,10,0:0:0:0:
98,262,187297,1,0,0:0:0:0:
186,23,187436,6,0,B|247:0|277:45|277:45|227:127|129:76,1,263.99999194336,4|8,0:2|0:0,0:0:0:0:
1,7,187855,1,0,0:0:0:0:
1,7,187994,2,0,P|19:83|13:142,1,131.99999597168,2|0,0:2|0:0,0:0:0:0:
151,208,188273,2,0,P|133:145|137:80,1,131.99999597168,10|0,0:2|0:0,0:0:0:0:
313,245,188552,5,2,0:2:0:0:
207,92,188692,1,0,0:0:0:0:
397,131,188831,1,10,0:2:0:0:
222,216,188970,5,0,0:2:0:0:
322,58,189110,1,2,0:2:0:0:
403,274,189249,1,0,0:2:0:0:
207,92,189389,5,12,0:2:0:0:
471,203,189529,1,0,0:2:0:0:
233,366,189668,6,0,B|125:376|53:318|53:318|98:323|130:298,1,263.99999194336,4|10,0:0|0:2,0:0:0:0:
284,293,190087,1,0,0:0:0:0:
140,88,190227,2,0,P|57:188|53:317,1,263.99999194336,2|10,0:2|0:2,0:0:0:0:
289,134,190645,1,0,0:0:0:0:
233,366,190785,5,2,0:2:0:0:
151,209,190924,1,0,0:0:0:0:
374,296,191064,1,10,0:2:0:0:
289,134,191204,1,0,0:0:0:0:
132,309,191342,5,2,0:2:0:0:
334,372,191481,1,0,0:2:0:0:
185,129,191621,1,12,0:2:0:0:
393,194,191761,1,0,0:2:0:0:
265,12,191901,6,0,B|333:-28|451:7|451:7|441:40|456:79,1,263.99999194336,4|10,0:0|0:2,0:0:0:0:
455,283,192320,1,0,0:0:0:0:
455,283,192459,2,0,P|447:205|464:151,1,131.99999597168,2|0,0:2|0:0,0:0:0:0:
208,254,192738,2,0,P|218:318|204:382,1,131.99999597168,10|0,0:2|0:0,0:0:0:0:
385,151,193017,5,2,0:2:0:0:
235,151,193157,1,0,0:0:0:0:
310,76,193297,1,10,0:2:0:0:
310,226,193436,1,0,0:0:0:0:
456,79,193576,1,2,0:2:0:0:
455,283,193715,1,0,0:0:0:0:
205,5,193855,5,12,0:2:0:0:
208,254,193994,1,0,0:0:0:0:
390,3,194134,5,2,0:2:0:0:
380,254,194273,1,0,0:0:0:0:
235,151,194413,1,10,0:2:0:0:
457,152,194552,2,0,L|455:283,1,131.99999597168,0|2,0:0|0:2,0:0:0:0:
208,254,194831,1,0,0:0:0:0:
368,124,194971,2,0,B|384:184|384:184|380:254,1,131.99999597168,10|0,0:2|0:0,0:0:0:0:
140,177,195250,6,0,B|136:107|136:107|152:47,1,131.99999597168,2|0,0:2|0:0,0:0:0:0:
267,326,195529,2,0,P|214:339|160:330,1,110,10|0,0:2|0:0,0:0:0:0:
385,165,195808,2,0,B|380:253,1,88,2|0,0:2|0:0,0:0:0:0:
58,212,196087,6,0,B|50:187|65:165|65:165|48:150|54:115,1,98.9999969787599,12|0,0:2|0:0,0:0:0:0:
228,52,196366,6,0,B|195:20|152:46|152:46|201:-15|264:11|264:11|330:47|374:6,1,330.000012588501,4|10,0:0|0:0,0:0:0:0:
451,213,196785,1,0,0:0:0:0:
451,213,196924,2,0,B|455:224|455:224|484:193|500:136|466:81,1,165.000006294251,2|0,0:0|0:0,0:0:0:0:
315,338,197204,2,0,B|310:349|310:349|282:318|266:261|300:206,1,165.000006294251,10|0,0:0|0:0,0:0:0:0:
374,5,197482,5,2,0:0:0:0:
133,263,197622,1,0,0:0:0:0:
228,52,197761,1,10,0:0:0:0:
172,364,197901,5,0,0:0:0:0:
54,119,198040,1,2,0:0:0:0:
300,206,198180,1,0,0:0:0:0:
21,265,198319,5,12,0:0:0:0:
327,38,198459,1,0,0:0:0:0:
172,364,198598,6,0,B|168:308|207:256|207:256|84:220|54:116,1,330.000012588501,4|10,0:2|0:0,0:0:0:0:
329,355,199017,1,0,0:0:0:0:
448,236,199156,6,0,P|379:194|300:206,1,165.000006294251,2|0,0:0|0:0,0:0:0:0:
54,119,199436,2,0,P|123:160|203:150,1,165.000006294251,10|0,0:0|0:0,0:0:0:0:
329,355,199715,6,0,P|287:285|299:206,1,165.000006294251,2|0,0:0|0:0,0:0:0:0:
173,0,199994,2,0,P|214:68|204:149,1,165.000006294251,10|0,0:0|0:0,0:0:0:0:
451,38,200273,1,2,0:0:0:0:
133,92,200413,1,0,0:0:0:0:
368,275,200552,6,0,B|358:309|385:334|385:334|445:260|376:162,1,247.500009441376,12|0,0:1|0:0,0:0:0:0:
361,71,200831,6,0,B|302:80|259:147|292:208|292:208|234:202|208:262|226:319,1,330.000012588501,4|10,0:2|0:0,0:0:0:0:
379,166,201250,1,0,0:0:0:0:
379,166,201390,2,0,P|442:117|449:37,1,165.000006294251,2|0,0:0|0:0,0:0:0:0:
224,314,201669,2,0,P|272:377|352:383,1,165.000006294251,10|0,0:0|0:0,0:0:0:0:
133,92,201947,5,2,0:0:0:0:
379,166,202087,1,0,0:0:0:0:
224,314,202226,1,10,0:0:0:0:
361,71,202366,1,0,0:0:0:0:
352,383,202506,1,2,0:0:0:0:
288,135,202645,1,0,0:0:0:0:
512,384,202784,6,0,P|485:292|501:133,1,247.500009441376,12|0,0:0|0:0,0:0:0:0:
449,37,203064,6,0,B|361:70|361:70|230:54|230:54|131:93,1,330.000012588501,2|10,0:0|0:0,0:0:0:0:
71,336,203483,2,0,B|61:233|0:184|0:184|-22:106|34:36,1,330.000012588501,0|0,0:0|0:0,0:0:0:0:
185,254,203901,1,10,0:0:0:0:
319,125,204041,1,0,0:0:0:0:
217,364,204180,5,8,0:1:0:0:
254,329,204249,1,2,0:0:0:0:
273,283,204320,1,4,0:0:0:0:
271,232,204390,1,8,0:0:0:0:
248,188,204459,5,8,0:0:0:0:
232,155,204529,1,4,0:0:0:0:
230,119,204599,1,8,0:0:0:0:
244,86,204669,1,8,0:0:0:0:
288,55,204738,5,0,0:0:0:0:
348,318,204878,1,0,0:0:0:0:
87,230,205017,6,0,B|163:182|11:102|28:318|130:313,1,247.500009441376,12|0,0:1|0:0,0:0:0:0:
185,254,205297,5,12,0:0:0:0:
319,125,205436,1,8,0:0:0:0:
161,211,205854,5,8,0:0:0:0:
374,156,205993,1,12,0:0:0:0:
162,163,206412,5,12,0:0:0:0:
429,187,206552,1,8,0:0:0:0:
186,120,206970,5,8,0:0:0:0:
484,218,207110,1,12,0:0:0:0:
269,85,207529,5,12,0:0:0:0:
230,298,207668,1,8,0:0:0:0:
318,110,208086,5,8,0:0:0:0:
157,305,208225,1,12,0:0:0:0:
351,154,208644,5,12,0:0:0:0:
84,313,208784,1,8,0:0:0:0:
358,211,209202,5,8,0:0:0:0:
12,321,209342,1,8,0:0:0:0:
407,279,209482,6,0,B|420:289|422:315|422:315|423:268|457:243|425:195,1,165,2|0,0:2|0:0,0:0:0:0:
128,147,209761,5,4,0:2:0:0:
326,104,209901,1,0,0:0:0:0:
115,140,210040,1,0,0:1:0:0:
337,111,210180,1,0,0:0:0:0:
104,109,210319,5,4,0:1:0:0:
348,142,210459,1,0,0:0:0:0:
93,218,210598,1,0,0:1:0:0:
360,254,210738,1,0,0:0:0:0:
194,47,210877,5,4,0:2:0:0:
154,341,211017,1,2,0:0:0:0:
339,44,211156,1,0,0:0:0:0:
382,366,211296,1,0,0:0:0:0:
104,109,211435,5,4,0:1:0:0:
459,62,211575,1,0,0:0:0:0:
71,313,211715,1,0,0:1:0:0:
462,260,211855,1,0,0:0:0:0:
269,95,211994,53,8,0:1:0:0:
211,78,212064,1,2,0:0:0:0:
208,18,212133,1,2,0:0:0:0:
267,0,212204,1,4,0:0:0:0:
298,45,212273,1,4,0:0:0:0:
261,70,212342,1,8,0:0:0:0:
235,60,212413,1,8,0:0:0:0:
235,37,212483,1,8,0:0:0:0:
250,31,212552,5,8,0:1:0:0:
258,384,212692,1,12,0:1:0:0:
258,384,212971,6,0,B|231:299|290:260|290:260|340:291|320:329,1,220,4|0,0:0|0:0,0:0:0:0:
47,164,213390,2,0,B|76:170|95:187|95:187|113:172|160:171,1,110,12|0,0:2|0:0,0:0:0:0:
420,209,213668,6,0,P|397:203|413:186,1,56.1000003424072,8|0,0:0|0:0,0:0:0:0:
392,58,213947,6,0,P|425:65|401:90,1,82.5000031471254,8|0,0:0|0:0,0:0:0:0:
254,32,214087,6,0,B|191:103|278:160|278:160|314:132|308:93|308:93|297:116|278:132,1,263.99999194336,4|0,0:1|0:0,0:0:0:0:
258,352,214506,5,10,0:0:0:0:
148,63,214645,1,0,0:0:0:0:
414,187,214785,5,2,0:0:0:0:
134,299,214924,1,0,0:0:0:0:
254,32,215064,5,10,0:0:0:0:
364,313,215204,1,0,0:0:0:0:
96,193,215343,5,2,0:0:0:0:
378,83,215483,1,0,0:0:0:0:
91,180,215622,1,10,0:0:0:0:
382,95,215762,1,0,0:0:0:0:
148,63,215901,5,2,0:0:0:0:
364,313,216041,1,0,0:0:0:0:
360,1,216180,1,10,0:0:0:0:
195,272,216320,6,0,B|240:295|240:344|240:344|187:308|118:333,1,197.99999395752,4|0,0:2|0:0,0:0:0:0:
108,328,216599,5,0,0:0:0:0:
88,104,216738,1,12,0:1:0:0:
282,216,216878,1,0,0:0:0:0:
1,161,217017,5,2,0:0:0:0:
195,48,217157,1,0,0:0:0:0:
195,272,217297,1,10,0:0:0:0:
102,2,217436,5,0,0:0:0:0:
297,113,217576,1,2,0:0:0:0:
103,225,217715,1,0,0:0:0:0:
292,0,217855,5,10,0:0:0:0:
195,272,217994,1,0,0:0:0:0:
102,2,218134,5,2,0:0:0:0:
108,328,218273,1,0,0:0:0:0:
195,48,218413,1,8,0:3:0:0:
329,362,218552,6,0,B|397:369|420:288|420:288|501:268|486:188,1,263.99999194336,4|0,0:0|0:0,0:0:0:0:
296,113,218971,5,12,0:2:0:0:
195,272,219111,1,0,0:0:0:0:
195,48,219250,5,2,0:0:0:0:
330,362,219390,2,0,B|332:312|357:287|357:287|332:264|323:221,1,131.99999597168,0|8,0:0|0:0,0:0:0:0:
195,48,219669,6,0,B|169:122|104:122|104:122|105:207|23:224,1,263.99999194336,0|0,0:0|0:0,0:0:0:0:
195,272,220087,5,10,0:0:0:0:
297,113,220227,1,0,0:0:0:0:
330,362,220366,5,2,0:0:0:0:
195,48,220506,1,0,0:0:0:0:
195,272,220645,1,8,0:0:0:0:
461,226,220785,6,0,B|464:174|498:141|498:141|498:91|448:44,1,197.99999395752,4|0,0:1|0:0,0:0:0:0:
366,70,221064,5,0,0:0:0:0:
195,272,221204,1,12,0:0:0:0:
462,226,221343,1,0,0:0:0:0:
195,48,221483,5,2,0:0:0:0:
330,362,221622,1,0,0:0:0:0:
366,70,221762,1,10,0:0:0:0:
89,208,221901,1,0,0:0:0:0:
376,285,222041,5,2,0:0:0:0:
24,26,222180,1,0,0:0:0:0:
46,362,222320,6,0,B|90:288|30:194|-20:226|-20:226|13:286|89:208|89:208|127:295|222:269|222:269|305:330|376:285,1,660.000025177003,12|8,0:0|0:0,0:0:0:0:
265,109,223017,6,0,B|280:153|247:179|247:179|229:136|229:136|283:84|255:8,1,263.99999194336,4|0,0:0|0:0,0:0:0:0:
475,152,223435,5,10,0:0:0:0:
167,60,223575,1,0,0:0:0:0:
437,70,223715,5,2,0:0:0:0:
129,142,223855,1,0,0:0:0:0:
383,142,223994,5,10,0:0:0:0:
75,70,224134,1,0,0:0:0:0:
345,60,224272,5,2,0:0:0:0:
37,152,224412,1,0,0:0:0:0:
314,355,224552,5,10,0:0:0:0:
255,8,224692,1,0,0:0:0:0:
55,279,224831,1,2,0:0:0:0:
366,256,224971,1,0,0:0:0:0:
366,256,225041,1,0,0:0:0:0:
366,256,225111,1,8,0:0:0:0:
166,140,225250,6,0,B|182:186|173:221|173:221|250:137|190:43,1,263.99999194336,4|0,0:0|0:0,0:0:0:0:
177,42,225598,1,0,0:0:0:0:
150,50,225668,5,12,0:2:0:0:
107,99,225737,1,0,0:0:0:0:
97,163,225807,1,0,0:0:0:0:
124,222,225877,1,0,0:0:0:0:
178,258,225947,1,2,0:0:0:0:
237,258,226016,1,0,0:0:0:0:
282,230,226086,1,0,0:0:0:0:
301,187,226156,1,0,0:0:0:0:
291,150,226226,5,10,0:0:0:0:
243,194,226295,1,0,0:0:0:0:
237,258,226365,1,0,0:0:0:0:
281,304,226435,1,0,0:0:0:0:
343,300,226505,5,2,0:0:0:0:
295,265,226574,1,0,0:0:0:0:
237,258,226644,1,0,0:0:0:0:
182,280,226714,1,0,0:0:0:0:
145,327,226784,1,10,0:0:0:0:
112,351,226853,1,0,0:0:0:0:
78,349,226923,1,0,0:0:0:0:
58,330,226993,1,0,0:0:0:0:
54,310,227063,6,0,B|21:288|31:256|31:256|60:235|49:190,1,131.99999597168,2|0,0:0|0:0,0:0:0:0:
56,32,227342,1,8,0:0:0:0:
148,235,227483,6,0,B|208:228|242:184|223:115|223:115|203:118|160:90,1,220,4|0,0:0|0:0,0:0:0:0:
200,302,227901,1,12,0:2:0:0:
172,97,228041,1,0,0:0:0:0:
105,372,228180,5,2,0:0:0:0:
264,42,228320,1,0,0:0:0:0:
386,384,228459,2,0,B|393:359|393:359|390:319,1,55,10|0,0:0|0:0,0:0:0:0:
449,107,228599,6,0,B|364:71|296:156|296:156|395:248|471:174|471:174|451:187|421:175,1,412.500015735627,0|0,0:0|0:0,0:0:0:0:
263,41,229017,2,0,B|233:67|220:110|220:110|228:144|221:194,1,165.000006294251,10|0,0:0|0:0,0:0:0:0:
390,330,229296,1,2,0:0:0:0:
352,36,229436,1,0,0:0:0:0:
222,357,229576,1,8,0:0:0:0:
112,77,229715,6,0,B|76:-1|17:37|17:37|50:62|136:23|136:23|182:81|295:28,1,385.000003671646,4|0,0:0|0:0,0:0:0:0:
300,223,230134,2,0,B|318:204|353:196|353:196|286:210|222:193,1,192.500001835823,10|0,0:0|0:0,0:0:0:0:
391,331,230413,5,2,0:0:0:0:
263,41,230552,1,0,0:0:0:0:
222,357,230692,1,10,0:0:0:0:
423,98,230831,1,0,0:0:0:0:
169,41,230971,5,8,0:1:0:0:
121,35,231041,1,2,0:0:0:0:
78,59,231111,2,0,B|76:90|61:104|61:104|54:127|68:151,1,96.2500009179115,4|8,0:0|0:0,0:0:0:0:
132,376,231249,5,8,0:1:0:0:
180,382,231319,1,2,0:0:0:0:
222,357,231389,2,0,B|224:326|239:312|239:312|246:289|232:264,1,96.2500009179115,4|8,0:0|0:0,0:0:0:0:
257,135,231529,5,8,0:0:0:0:
512,384,231669,1,8,0:0:0:0:
90,270,231808,5,8,0:0:0:0:
425,0,231948,1,8,0:0:0:0:
222,357,232087,6,0,P|224:323|169:338,1,110,4|0,0:0|0:0,0:0:0:0:
169,335,232506,1,0,0:0:0:0:
90,270,232645,6,0,L|1:262,1,82.5,10|0,0:0|0:0,0:0:0:0:
218,214,232924,1,0,0:0:0:0:
169,335,233063,1,0,0:0:0:0:
76,171,233204,5,2,0:0:0:0:
76,171,233343,2,0,P|77:132|71:105,1,55,0|0,0:0|0:0,0:0:0:0:
269,27,233622,1,0,0:0:0:0:
269,27,233762,6,0,P|268:66|281:114,1,82.5,10|0,0:0|0:0,0:0:0:0:
150,167,234041,2,0,P|151:128|138:80,1,82.5
290,357,234320,6,0,P|288:323|343:338,1,110,4|0,0:0|0:0,0:0:0:0:
343,335,234738,1,0,0:0:0:0:
422,270,234878,6,0,L|511:262,1,82.5,10|0,0:0|0:0,0:0:0:0:
294,214,235156,1,0,0:0:0:0:
343,335,235295,1,0,0:0:0:0:
436,171,235436,5,2,0:0:0:0:
436,171,235576,2,0,P|435:132|441:105,1,55,0|0,0:0|0:0,0:0:0:0:
253,45,235855,1,0,0:0:0:0:
253,45,235994,6,0,B|298:109|184:105|239:219|239:219|189:146|112:157,1,330,10|0,0:0|0:0,0:0:0:0:
138,221,236273,6,0,P|188:144|76:205,1,330,0|0,0:0|0:0,0:0:0:0:
95,348,236552,6,0,B|79:340|79:340|44:334|44:334|83:318|83:318|126:328|126:328|163:328,1,165,4|0,0:1|0:0,0:0:0:0:
282,249,237111,2,0,P|254:223|236:217,1,55,10|0,0:0|0:0,0:0:0:0:
138,221,237389,1,0,0:0:0:0:
309,334,237529,1,0,0:0:0:0:
417,170,237669,5,2,0:0:0:0:
417,170,237808,2,0,P|392:181|373:201,1,55,0|0,0:0|0:0,0:0:0:0:
240,109,238087,1,0,0:0:0:0:
240,109,238227,2,0,P|264:120|294:172,1,82.5,10|0,0:0|0:0,0:0:0:0:
167,149,238506,6,0,P|157:123|236:21,1,165,0|0,0:0|0:0,0:0:0:0:
236,247,238785,6,0,L|240:109,1,137.5,4|0,0:2|0:0,0:0:0:0:
372,199,239064,1,0,0:0:0:0:
309,334,239204,5,0,0:0:0:0:
77,68,239343,2,0,P|70:135|98:197,1,137.5,12|0,0:0|0:0,0:0:0:0:
203,334,239622,5,0,0:0:0:0:
392,68,239762,2,0,P|398:136|371:199,1,137.5,12|0,0:2|0:0,0:0:0:0:
239,109,240041,5,2,2:0:0:0:
498,61,240180,1,2,2:0:0:0:
411,256,240320,1,2,2:0:0:0:
333,0,240459,5,2,2:0:0:0:
512,229,240599,1,2,2:0:0:0:
248,273,240738,6,0,P|241:252|261:262,1,56.1000003424072,0|0,2:0|0:0,2:0:0:0:
433,316,241017,6,0,B|423:301|436:279|436:279|444:311|472:305|492:336|492:336|452:327|413:356|413:356|361:363|317:320|317:320|277:357|236:347,1,395.999987915039,4|10,0:1|0:0,0:0:0:0:
2,200,241436,1,0,0:0:0:0:
244,132,241576,1,10,0:0:0:0:
165,384,241715,1,0,0:0:0:0:
442,232,241855,6,0,P|460:135|424:44,1,197.99999395752,10|0,0:0|0:0,0:0:0:0:
82,47,242134,2,0,P|64:143|100:235,1,197.99999395752,10|0,0:0|0:0,0:0:0:0:
343,148,242413,5,10,0:0:0:0:
82,47,242552,1,0,0:0:0:0:
232,332,242692,5,10,0:0:0:0:
265,14,242831,1,0,0:0:0:0:
35,315,242971,5,12,0:0:0:0:
442,232,243111,1,0,0:0:0:0:
12,191,243250,6,0,B|176:105|271:241|222:325|91:325|100:227,1,395.999987915039,4|10,0:1|0:0,0:0:0:0:
179,43,243669,1,0,0:0:0:0:
232,332,243808,1,10,0:0:0:0:
12,191,243948,1,0,0:0:0:0:
343,148,244087,5,10,0:0:0:0:
9,384,244226,1,0,0:0:0:0:
144,95,244366,6,0,B|122:29|194:-16|194:-16|169:13|179:43,1,197.99999395752,10|0,0:0|0:0,0:0:0:0:
266,279,244645,2,0,B|288:345|216:391|216:391|241:361|232:332,1,197.99999395752,10|0,0:0|0:0,0:0:0:0:
269,84,244924,1,10,0:0:0:0:
348,311,245064,1,0,0:0:0:0:
144,95,245204,5,12,0:0:0:0:
492,129,245343,1,0,0:0:0:0:
176,269,245483,6,0,B|129:262|97:300|97:300|112:175|263:250|304:195|266:110|172:122|200:203,1,395.999987915039,4|10,0:1|0:0,0:0:0:0:
152,372,245901,1,0,0:0:0:0:
144,95,246041,1,10,0:0:0:0:
348,311,246180,1,0,0:0:0:0:
60,200,246319,6,0,P|46:127|61:3,1,197.99999395752,10|0,0:0|0:0,0:0:0:0:
400,8,246599,2,0,P|415:98|399:205,1,197.99999395752,10|0,0:0|0:0,0:0:0:0:
244,83,246878,5,10,0:0:0:0:
231,331,247017,1,0,0:0:0:0:
60,5,247157,5,10,0:0:0:0:
315,267,247297,1,0,0:0:0:0:
400,8,247436,5,12,0:0:0:0:
150,384,247575,1,0,0:0:0:0:
303,5,247715,6,0,B|335:78|397:84|397:84|329:195|426:338,1,395.999987915039,4|10,0:2|0:0,0:0:0:0:
463,176,248134,1,0,0:0:0:0:
150,384,248273,5,10,0:0:0:0:
423,333,248413,1,0,0:0:0:0:
100,156,248552,5,10,0:0:0:0:
287,359,248691,1,0,0:0:0:0:
269,84,248831,5,10,0:0:0:0:
150,384,248971,1,0,0:0:0:0:
463,176,249111,5,10,0:0:0:0:
102,6,249250,1,0,0:0:0:0:
149,300,249390,5,8,0:1:0:0:
150,310,249459,1,2,0:0:0:0:
158,313,249529,1,4,0:0:0:0:
165,305,249599,1,8,0:0:0:0:
162,298,249669,6,0,B|146:343|146:343|151:396,1,88,8|0,0:0|0:0,0:0:0:0:
381,293,249808,2,0,B|384:252|384:252|368:208,1,88,8|0,0:0|0:0,0:0:0:0:
75,233,249948,6,0,B|152:173|87:107|87:107|38:103|-22:57|0:1,1,307.999990600586,4|10,0:1|0:0,0:0:0:0:
224,247,250366,1,0,0:0:0:0:
228,95,250506,2,0,P|153:102|101:156,1,153.999995300293,2|0,0:0|0:0,0:0:0:0:
368,208,250785,2,0,P|416:150|414:75,1,153.999995300293,10|0,0:0|0:0,0:0:0:0:
74,232,251063,6,0,P|177:338|320:304,1,307.999990600586,2|10,0:0|0:0,0:0:0:0:
228,95,251483,1,0,0:0:0:0:
492,230,251622,6,0,B|506:193|500:158|500:158|509:125|495:70,1,153.999995300293,2|0,0:0|0:0,0:0:0:0:
228,95,251901,2,0,B|214:132|220:167|220:167|211:200|225:255,1,153.999995300293,12|0,0:2|0:0,0:0:0:0:
403,286,252180,6,0,B|422:300|424:329|424:329|462:215|366:220|402:128|402:128|421:145|414:173,1,307.999990600586,4|10,0:1|0:0,0:0:0:0:
228,95,252599,1,0,0:0:0:0:
228,95,252738,2,0,B|239:52|239:52|284:83|250:169,1,153.999995300293,2|0,0:0|0:0,0:0:0:0:
184,373,253017,2,0,B|121:332|140:281|140:281|174:310,1,153.999995300293,10|0,0:0|0:0,2:0:0:0:
342,300,253297,5,4,0:2:0:0:
67,330,253436,1,0,0:0:0:0:
338,172,253576,1,8,0:0:0:0:
80,212,253715,5,4,0:0:0:0:
449,250,253854,1,0,0:0:0:0:
228,95,253994,1,0,0:0:0:0:
237,377,254134,5,12,0:1:0:0:
350,39,254273,1,0,0:0:0:0:
4,92,254413,6,0,B|32:81|60:109|60:109|96:74|75:40|75:40|71:64,1,153.999995300293,4|0,0:0|0:0,0:0:0:0:
7,264,254692,1,10,0:0:0:0:
134,163,254831,2,0,P|174:84|167:3,1,153.999995300293,0|2,0:0|0:0,0:0:0:0:
5,177,255111,1,0,0:0:0:0:
179,249,255250,2,0,P|242:192|269:121,1,153.999995300293,10|0,0:0|0:0,0:0:0:0:
337,325,255529,6,0,B|355:337|357:360|357:360|379:314|352:239,1,153.999995300293,2|0,0:0|0:0,0:0:0:0:
125,196,255808,2,0,B|105:205|84:195|84:195|113:237|191:251,1,153.999995300293,10|0,0:0|0:0,0:0:0:0:
342,74,256087,2,0,B|343:52|362:39|362:39|311:43|260:104,1,153.999995300293,2|0,0:0|0:0,0:0:0:0:
443,291,256366,2,0,B|434:316|450:329|450:329|490:291|462:224,1,153.999995300293,12|0,0:0|0:0,0:0:0:0:
267,94,256645,6,0,B|284:44|253:18|253:18|173:94|229:226,1,307.999990600586,4|10,0:1|0:0,0:0:0:0:
315,192,257064,1,0,0:0:0:0:
130,155,257204,2,0,P|154:249|179:305,1,153.999995300293,2|0,0:0|0:0,0:0:0:0:
267,94,257483,5,10,0:0:0:0:
25,119,257622,1,0,0:0:0:0:
229,227,257762,5,2,0:0:0:0:
133,22,257901,1,0,0:0:0:0:
208,255,258041,1,10,0:0:0:0:
342,74,258180,1,0,0:0:0:0:
173,259,258320,1,2,0:0:0:0:
453,258,258459,1,0,0:0:0:0:
234,8,258599,5,10,0:0:0:0:
306,327,258738,1,0,0:0:0:0:
471,150,258878,6,0,B|517:147|517:147|477:85|392:135|392:135|329:177|238:108,1,307.999990600586,4|8,0:2|0:0,0:0:0:0:
97,62,259297,1,0,0:0:0:0:
97,62,259436,2,0,P|111:170|92:219,1,153.999995300293,2|0,0:2|0:0,0:0:0:0:
263,364,259715,2,0,P|245:289|263:215,1,153.999995300293,10|0,0:2|0:0,0:0:0:0:
453,258,259994,5,2,0:2:0:0:
263,215,260134,1,0,0:0:0:0:
471,150,260273,1,10,0:2:0:0:
341,318,260413,5,0,0:0:0:0:
341,112,260552,1,2,0:2:0:0:
449,384,260692,1,0,0:0:0:0:
213,335,260831,5,12,0:2:0:0:
471,150,260971,1,0,0:0:0:0:
231,151,261111,6,0,B|191:110|146:118|146:118|176:96|212:92|212:92|284:151|341:111,1,307.999990600586,4|10,0:0|0:2,0:0:0:0:
146,283,261529,1,0,0:0:0:0:
103,24,261669,2,0,P|56:118|173:293,1,307.999990600586,2|10,0:2|0:2,0:0:0:0:
146,119,262087,1,0,0:0:0:0:
96,353,262227,5,2,0:2:0:0:
366,283,262366,1,0,0:0:0:0:
146,283,262506,1,10,0:2:0:0:
416,353,262645,1,0,0:0:0:0:
146,119,262785,5,2,0:2:0:0:
182,362,262924,1,0,0:0:0:0:
340,111,263064,1,12,0:2:0:0:
330,362,263204,1,0,0:0:0:0:
271,50,263343,6,0,P|411:51|345:203,1,307.999990600586,4|10,0:0|0:2,0:0:0:0:
260,289,263762,1,0,0:2:0:0:
146,119,263901,2,0,P|166:43|221:-5,1,153.999995300293,2|0,0:2|0:0,0:0:0:0:
146,283,264180,2,0,P|70:263|22:208,1,153.999995300293,10|0,0:2|0:0,0:0:0:0:
263,215,264459,5,2,0:2:0:0:
256,362,264599,1,0,0:0:0:0:
146,201,264738,1,10,0:2:0:0:
354,318,264878,1,0,0:0:0:0:
146,283,265017,1,2,0:2:0:0:
452,274,265157,1,0,0:0:0:0:
146,365,265296,5,12,0:2:0:0:
271,50,265436,1,0,0:0:0:0:
441,380,265576,5,2,0:2:0:0:
263,215,265715,1,0,0:0:0:0:
462,146,265855,1,10,0:2:0:0:
239,297,265994,2,0,P|187:230|212:152,1,153.999995300293,0|2,0:0|0:2,0:0:0:0:
340,111,266273,1,0,0:0:0:0:
314,346,266413,2,0,P|235:378|161:342,1,153.999995300293,10|0,0:2|0:0,0:0:0:0:
131,59,266692,6,0,P|209:26|283:62,1,153.999995300293,2|0,0:2|0:0,0:0:0:0:
94,312,266971,2,0,B|72:250|72:250|77:173,1,131.99999597168,10|0,0:2|0:0,0:0:0:0:
340,111,267250,2,0,B|342:136|357:159|357:159|350:180|353:220,1,110,2|0,0:2|0:0,0:0:0:0:
80,53,267529,6,0,B|62:62|44:57|44:57|74:91|131:59,1,132,12|0,0:2|0:0,0:0:0:0:
270,49,267808,6,0,B|365:102|318:275|203:241|203:241|190:181|253:157,1,395.999987915039,4|10,0:0|0:0,0:0:0:0:
445,54,268227,1,0,0:0:0:0:
445,54,268366,2,0,P|466:162|450:258,1,197.99999395752,2|0,0:0|0:0,0:0:0:0:
257,353,268645,2,0,P|236:256|249:159,1,197.99999395752,10|0,0:0|0:0,0:0:0:0:
363,13,268924,5,2,0:0:0:0:
257,353,269064,1,0,0:0:0:0:
453,248,269204,1,10,0:0:0:0:
130,206,269343,5,0,0:0:0:0:
401,366,269483,1,2,0:0:0:0:
270,49,269622,1,0,0:0:0:0:
141,336,269762,5,12,0:0:0:0:
445,54,269900,1,0,0:0:0:0:
26,88,270041,6,0,B|70:74|67:26|67:26|148:135|30:145|91:259|91:259|104:216|136:204,1,395.999987915039,4|10,0:2|0:0,0:0:0:0:
191,39,270459,1,0,0:0:0:0:
190,38,270599,6,0,P|196:133|129:206,1,197.99999395752,2|0,0:0|0:0,0:0:0:0:
341,45,270878,2,0,P|301:132|335:222,1,197.99999395752,10|0,0:0|0:0,0:0:0:0:
0,327,271157,6,0,P|89:294|130:204,1,197.99999395752,2|0,0:0|0:0,0:0:0:0:
412,383,271436,2,0,P|341:319|335:223,1,197.99999395752,10|0,0:0|0:0,0:0:0:0:
114,97,271715,1,2,0:0:0:0:
381,119,271855,1,0,0:0:0:0:
224,349,271994,6,0,B|219:243|219:243|246:141|246:141|233:57,1,296.99999093628,12|0,0:1|0:0,0:0:0:0:
153,23,272273,6,0,B|188:-41|300:-35|328:52|328:52|367:3|448:18|456:100,1,395.999987915039,4|10,0:0|0:0,0:0:0:0:
129,203,272692,1,0,0:0:0:0:
453,248,272831,1,2,0:0:0:0:
224,349,272971,1,0,0:0:0:0:
381,119,273111,2,0,P|326:43|233:56,1,197.99999395752,10|0,0:0|0:0,0:0:0:0:
415,384,273390,6,0,P|506:316|520:229,1,197.99999395752,2|0,0:0|0:0,0:0:0:0:
232,56,273669,1,10,0:0:0:0:
224,349,273808,1,0,0:0:0:0:
453,248,273948,1,2,0:0:0:0:
129,203,274087,1,0,0:0:0:0:
473,61,274227,6,0,P|442:133|445:32,1,296.99999093628,12|0,0:1|0:0,0:0:0:0:
512,0,274506,5,12,0:0:0:0:
51,309,274645,1,0,0:0:0:0:
0,0,274924,5,0,0:0:0:0:
463,309,275064,1,12,0:0:0:0:
256,0,275343,5,8,0:0:0:0:
257,338,275483,1,8,0:0:0:0:
408,107,275622,5,0,0:0:0:0:
106,303,275762,1,8,0:0:0:0:
406,303,275901,5,0,0:0:0:0:
104,107,276040,1,8,0:0:0:0:
223,261,276180,5,8,0:1:0:0:
266,294,276249,1,2,0:0:0:0:
321,293,276319,1,4,0:0:0:0:
348,257,276390,1,8,0:0:0:0:
346,224,276459,6,0,P|446:299|397:184,1,330,12|0,0:1|0:0,0:0:0:0:
410,1,276738,6,0,B|312:-31|295:51|248:44|248:44|177:-27|98:41,1,330.000012588501,4|12,0:0|0:1,0:0:0:0:
223,261,277157,1,0,0:0:0:0:
233,114,277296,2,0,P|117:145|101:180,1,165.000006294251,2|0,0:0|0:0,0:0:0:0:
355,196,277576,5,10,0:0:0:0:
110,31,277715,1,0,0:0:0:0:
91,326,277855,6,0,P|176:354|252:324,1,165.000006294251,2|0,0:0|0:0,0:0:0:0:
228,188,278134,1,10,0:0:0:0:
40,122,278273,2,0,B|14:194|14:194|19:292,1,165.000006294251,0|2,0:0|0:0,0:0:0:0:
228,188,278552,1,0,0:0:0:0:
231,0,278692,2,0,B|197:17|137:13|137:13|110:20|90:73,1,165.000006294251,14|0,0:0|0:0,0:0:0:0:
355,196,278971,6,0,B|382:224|386:280|386:280|384:125|459:55,1,330.000012588501,4|10,0:1|0:0,0:0:0:0:
300,281,279390,1,0,0:0:0:0:
231,0,279529,2,0,B|243:27|312:53|312:53|313:75|327:97|327:97|424:109|474:196,1,330.000012588501,2|10,0:0|0:0,0:0:0:0:
228,188,279948,1,0,0:0:0:0:
300,281,280087,5,2,0:0:0:0:
156,109,280227,1,0,0:0:0:0:
292,368,280366,1,10,0:0:0:0:
311,54,280506,1,0,0:0:0:0:
221,318,280645,1,2,0:0:0:0:
410,207,280785,1,0,0:0:0:0:
142,187,280924,6,0,P|79:92|177:31,1,247.500009441376,12|0,0:0|0:0,0:0:0:0:
120,259,281204,6,0,P|11:165|51:-2,1,330.000012588501,4|10,0:1|0:0,0:0:0:0:
131,349,281622,2,0,P|51:328|-10:275,1,165.000006294251,0|2,0:0|0:0,0:0:0:0:
156,94,281901,1,0,0:0:0:0:
156,94,282041,2,0,P|234:114|287:176,1,165.000006294251,10|0,0:0|0:0,0:0:0:0:
80,226,282319,6,0,P|95:146|157:93,1,165.000006294251,2|0,0:0|0:0,0:0:0:0:
221,318,282599,1,10,0:0:0:0:
372,173,282738,2,0,P|347:95|284:45,1,165.000006294251,0|2,0:0|0:0,0:0:0:0:
221,318,283017,1,0,0:0:0:0:
15,103,283157,2,0,P|68:41|147:21,1,165.000006294251,12|0,0:1|0:0,0:0:0:0:
359,43,283436,6,0,B|361:19|384:-1|384:-1|319:2|280:49,1,165.000006294251,2|0,0:0|0:0,0:0:0:0:
431,263,283715,2,0,B|450:276|456:306|456:306|486:248|464:191,1,165.000006294251,10|0,0:0|0:0,0:0:0:0:
340,311,283994,1,2,0:0:0:0:
206,214,284134,2,0,B|184:224|155:214|155:214|190:268|250:279,1,165.000006294251,0|10,0:0|0:0,0:0:0:0:
359,43,284413,6,0,B|399:30|424:38|424:38|384:-23|292:27|292:27|240:56|172:24,1,330.000012588501,4|0,0:2|0:0,0:0:0:0:
244,277,284831,5,10,0:0:0:0:
72,50,284970,1,0,0:0:0:0:
88,341,285110,5,2,0:0:0:0:
245,102,285249,1,0,0:0:0:0:
91,179,285390,6,0,B|86:231|86:231|17:138|74:45,1,247.500009441376,12|0,0:0|0:0,0:0:0:0:
276,56,285668,6,0,B|238:43|223:6|223:6|189:66|244:102|244:102|192:187|236:248,1,330.000012588501,4|10,0:2|0:0,0:0:0:0:
146,88,286087,1,0,0:0:0:0:
126,328,286226,2,0,P|208:348|280:308,1,165.000006294251,2|0,0:0|0:0,0:0:0:0:
383,83,286506,1,10,0:0:0:0:
229,237,286645,1,0,0:0:0:0:
390,295,286785,6,0,B|426:318|462:290|462:290|472:242|434:205,1,165.000006294251,2|0,0:0|0:0,0:0:0:0:
276,56,287064,1,8,0:0:0:0:
126,328,287204,2,0,B|191:377|323:358|323:358|377:394|445:380,1,330.000012588501
276,56,287622,2,0,P|259:135|281:213,1,165.000006294251,12|0,0:2|0:0,0:0:0:0:
65,123,287901,6,0,B|111:151|145:134|145:134|174:147|174:147|208:136|208:136|291:193|295:107|382:150,1,330.000012588501,4|10,0:1|0:0,0:0:0:0:
189,264,288320,1,0,0:0:0:0:
276,56,288459,2,0,B|324:71|353:32|353:32|414:122|314:142|334:272,1,330.000012588501,2|10,0:0|0:0,0:0:0:0:
182,66,288878,1,0,0:0:0:0:
259,321,289017,5,2,0:0:0:0:
276,56,289157,1,0,0:0:0:0:
259,346,289296,1,10,0:0:0:0:
182,66,289435,1,0,0:0:0:0:
407,302,289575,1,2,0:0:0:0:
122,293,289715,1,0,0:0:0:0:
370,46,289855,2,0,B|394:110|394:110|392:150|392:150|414:216,1,165.000006294251,12|0,0:0|0:0,0:0:0:0:
116,187,290134,6,0,B|107:143|63:126|63:126|211:177|312:138,1,330.000012588501,4|10,0:0|0:0,0:0:0:0:
182,66,290552,1,0,0:0:0:0:
182,66,290692,2,0,L|186:264,1,165.000006294251,2|0,0:0|0:0,0:0:0:0:
409,203,290971,2,0,L|405:5,1,165.000006294251,10|0,0:0|0:0,0:0:0:0:
81,20,291250,6,0,B|104:57|86:97|86:97|50:130|59:172|59:172|101:240|43:342,1,330.000012588501,4|10,0:1|0:0,0:0:0:0:
9,66,291669,1,0,0:0:0:0:
9,66,291808,2,0,P|108:69|156:110,1,165.000006294251,2|0,0:0|0:0,0:0:0:0:
332,274,292087,2,0,P|251:277|185:230,1,165.000006294251,10|0,0:0|0:0,0:0:0:0:
399,86,292366,6,0,B|356:41|412:-40|506:-13|510:111|449:164|385:183,1,330.000012588501,4|10,0:2|0:0,0:0:0:0:
251,21,292785,1,0,0:0:0:0:
251,21,292924,2,0,B|225:99|225:99|233:190,1,165.000006294251,2|0,0:0|0:0,0:0:0:0:
367,343,293204,2,0,B|393:265|393:265|385:174,1,165.000006294251,10|0,0:0|0:0,0:0:0:0:
222,283,293482,5,8,0:1:0:0:
163,253,293552,1,2,0:0:0:0:
139,205,293622,1,4,0:0:0:0:
145,160,293692,1,8,0:0:0:0:
161,139,293761,6,0,P|177:91|159:44,3,82.5000031471254,8|2|4|8,0:1|0:0|0:0|0:0,0:0:0:0:
94,84,294041,5,8,0:0:0:0:
453,249,294180,1,8,0:0:0:0:
59,249,294320,5,8,0:0:0:0:
418,84,294459,1,8,0:0:0:0:
94,84,294599,5,12,0:0:0:0:
185,362,294738,1,0,0:0:0:0:
220,197,294878,1,2,0:1:0:0:
59,249,295017,1,0,0:0:0:0:
418,84,295157,5,10,0:0:0:0:
327,362,295296,1,0,0:0:0:0:
292,197,295436,1,2,0:1:0:0:
453,249,295575,1,0,0:0:0:0:
94,310,295715,5,10,0:0:0:0:
185,32,295854,1,0,0:0:0:0:
220,197,295994,1,2,0:1:0:0:
59,145,296133,1,0,0:0:0:0:
418,310,296273,5,10,0:0:0:0:
327,32,296412,1,0,0:0:0:0:
292,197,296552,1,2,0:1:0:0:
453,145,296691,1,0,0:0:0:0:
94,84,296831,5,10,0:0:0:0:
58,248,296970,1,0,0:1:0:0:
220,197,297110,1,2,0:1:0:0:
327,362,297249,1,0,0:0:0:0:
418,84,297389,5,10,0:0:0:0:
453,249,297528,1,0,0:1:0:0:
292,197,297668,1,2,0:1:0:0:
185,362,297807,1,0,0:0:0:0:
105,117,297948,5,8,0:1:0:0:
65,158,298017,1,2,0:0:0:0:
83,213,298087,1,4,0:0:0:0:
111,216,298157,1,4,0:0:0:0:
136,241,298227,6,0,B|172:249|199:276|199:276|248:250|217:191,1,165.000006294251,12|0,0:1|0:0,0:0:0:0:
65,158,298506,5,8,0:0:0:0:
447,365,298645,1,8,0:0:0:0:
65,365,298785,5,8,0:0:0:0:
447,158,298924,1,8,0:0:0:0:
65,19,299063,5,12,0:0:0:0:
201,158,299203,1,0,0:1:0:0:
311,19,299342,1,2,0:1:0:0:
447,158,299482,1,0,0:0:0:0:
447,19,299621,5,10,0:0:0:0:
311,158,299762,1,0,0:0:0:0:
203,18,299900,1,2,0:1:0:0:
65,158,300041,1,0,0:0:0:0:
201,226,300179,5,10,0:0:0:0:
65,365,300318,1,0,0:0:0:0:
311,226,300458,1,2,0:1:0:0:
447,365,300597,1,0,0:0:0:0:
65,226,300738,5,10,0:0:0:0:
203,366,300877,1,0,0:0:0:0:
447,226,301017,1,2,0:1:0:0:
311,365,301156,1,0,0:0:0:0:
201,226,301296,5,10,0:0:0:0:
447,19,301435,1,0,0:0:0:0:
311,226,301575,1,2,0:1:0:0:
65,19,301714,1,0,0:0:0:0:
65,365,301854,5,10,0:0:0:0:
311,158,301993,1,0,0:0:0:0:
447,365,302133,1,2,0:1:0:0:
201,158,302272,1,0,0:0:0:0:
497,243,302413,5,8,0:1:0:0:
433,255,302482,1,2,0:0:0:0:
391,217,302552,1,4,0:0:0:0:
398,232,302622,1,8,0:0:0:0:
390,243,302692,6,0,B|353:250|324:286|324:286|287:263|300:234|300:234|301:250|314:253,1,165.000006294251,12|0,0:1|0:0,0:0:0:0:
447,158,302970,5,8,0:0:0:0:
65,19,303110,1,8,0:0:0:0:
447,19,303249,5,8,0:0:0:0:
65,158,303389,1,8,0:0:0:0:
