osu file format v14

[General]
AudioFilename: Baka_to_Test_to_Shoukanjuu.mp3
AudioLeadIn: 0
PreviewTime: 47799
Countdown: 0
SampleSet: Soft
StackLeniency: 0.7
Mode: 0
LetterboxInBreaks: 0
WidescreenStoryboard: 1

[Editor]
DistanceSpacing: 1.8
BeatDivisor: 4
GridSize: 4
TimelineZoom: 1

[Metadata]
Title:Perfect-area complete
TitleUnicode:Perfect-area complete
Artist:Aso Natsuko
ArtistUnicode:Aso Natsuko
Creator:Just4fun1
Version:Insane
Source:Baka to Test to Shoukanjuu
Tags:opening baka to test to shoukanjuu バカとテストと召喚獣
BeatmapID:1174055
BeatmapSetID:554578

[Difficulty]
HPDrainRate:6
CircleSize:5
OverallDifficulty:8
ApproachRate:9
SliderMultiplier:0.999999999999999
SliderTickRate:2

[Events]
//Background and Video events
0,0,"530765.png",0,0
//Break Periods
//Storyboard Layer 0 (Background)
//Storyboard Layer 1 (Fail)
//Storyboard Layer 2 (Pass)
//Storyboard Layer 3 (Foreground)
//Storyboard Sound Samples

[TimingPoints]
521,327.868852459016,4,2,0,77,1,0
60848,-100,4,2,0,77,0,1
76258,-100,4,2,0,77,0,0

[HitObjects]
256,244,521,5,0,0:0:0:0:
184,152,848,1,0,0:0:0:0:
256,88,1012,1,0,0:0:0:0:
320,152,1176,1,0,0:0:0:0:
324,300,1504,1,0,0:0:0:0:
256,192,1832,5,0,0:0:0:0:
320,248,2160,1,0,0:0:0:0:
260,288,2324,1,0,0:0:0:0:
192,236,2488,1,0,0:0:0:0:
44,188,2816,1,0,0:0:0:0:
136,108,3143,2,0,P|184:72|212:100,1,99.9999999999999
244,136,3635,1,0,0:0:0:0:
272,176,3799,1,0,0:0:0:0:
140,108,4127,1,0,0:0:0:0:
280,112,4455,1,0,0:0:0:0:
248,240,4783,6,0,L|164:304,1,99.9999999999999
76,224,5439,5,0,0:0:0:0:
128,132,5766,2,0,P|180:112|224:144,1,99.9999999999999
260,196,6258,1,0,0:0:0:0:
256,272,6422,2,0,P|164:304|128:272,1,150
128,196,7078,1,0,0:0:0:0:
200,140,7242,1,0,0:0:0:0:
280,180,7406,1,0,0:0:0:0:
216,300,7734,2,0,L|164:296,1,50
80,268,8061,1,0,0:0:0:0:
72,176,8225,1,0,0:0:0:0:
132,108,8389,1,0,0:0:0:0:
212,84,8553,1,0,0:0:0:0:
212,164,8717,1,0,0:0:0:0:
76,148,9045,5,0,0:0:0:0:
72,216,9209,2,0,P|96:280|136:284,1,99.9999999999999
208,304,9701,2,0,P|264:300|288:248,1,99.9999999999999
320,204,10193,1,0,0:0:0:0:
264,156,10357,2,0,L|160:184,1,99.9999999999999
96,188,10848,1,0,0:0:0:0:
240,256,11012,5,0,0:0:0:0:
208,76,11176,1,0,0:0:0:0:
372,144,11340,1,0,0:0:0:0:
136,168,11668,1,0,0:0:0:0:
264,264,11832,1,0,0:0:0:0:
252,88,11996,1,0,0:0:0:0:
84,64,12324,6,0,L|152:64,1,50
224,64,12652,2,0,L|284:64,1,50
232,160,12980,1,0,0:0:0:0:
232,252,13143,1,0,0:0:0:0:
152,188,13307,1,0,0:0:0:0:
400,232,13635,5,0,0:0:0:0:
344,56,13799,1,0,0:0:0:0:
248,152,13963,1,0,0:0:0:0:
88,164,14291,5,0,0:0:0:0:
156,300,14455,1,0,0:0:0:0:
280,160,14619,1,0,0:0:0:0:
96,144,14947,6,0,L|156:120,1,50
208,108,15275,2,0,L|268:108,1,50
336,104,15602,1,0,0:0:0:0:
324,204,15766,1,0,0:0:0:0:
224,144,15930,1,0,0:0:0:0:
88,124,16094,6,0,P|64:144|88:212,1,99.9999999999999
152,180,16586,1,0,0:0:0:0:
160,268,16750,6,0,L|220:232,1,50
268,192,17078,1,0,0:0:0:0:
280,104,17242,1,0,0:0:0:0:
384,132,17406,2,0,P|416:156|392:212,1,99.9999999999999
300,264,17898,1,0,0:0:0:0:
384,312,18061,2,0,L|384:248,1,50
372,184,18389,1,0,0:0:0:0:
320,108,18553,1,0,0:0:0:0:
228,104,18717,6,0,P|184:144|196:176,1,99.9999999999999
260,248,19209,1,0,0:0:0:0:
176,272,19373,6,0,L|108:272,1,50
88,200,19701,1,0,0:0:0:0:
144,104,19865,1,0,0:0:0:0:
252,100,20029,2,0,P|292:140|280:188,1,99.9999999999999
232,256,20520,1,0,0:0:0:0:
136,248,20684,5,0,0:0:0:0:
100,136,20848,2,0,L|164:132,1,50
236,120,21176,1,0,0:0:0:0:
300,68,21340,1,0,0:0:0:0:
320,168,21504,6,0,L|304:236,1,50
208,296,21832,2,0,L|228:240,1,50
220,164,22160,1,0,0:0:0:0:
312,112,22324,1,0,0:0:0:0:
304,240,22488,1,0,0:0:0:0:
192,252,22652,1,0,0:0:0:0:
80,180,22816,2,0,L|140:176,1,50
144,76,23143,2,0,L|200:72,1,50
272,80,23471,5,0,0:0:0:0:
344,144,23635,1,0,0:0:0:0:
296,224,23799,1,0,0:0:0:0:
248,148,23963,1,0,0:0:0:0:
192,52,24127,1,0,0:0:0:0:
40,160,24455,6,0,L|140:148,1,99.9999999999999
220,140,24947,2,0,L|252:192,1,50
260,268,25275,6,0,L|372:264,1,99.9999999999999
432,216,25766,1,0,0:0:0:0:
396,152,25930,1,0,0:0:0:0:
352,72,26094,1,0,0:0:0:0:
220,164,26422,5,4,0:0:0:0:
100,176,26750,5,0,0:0:0:0:
100,104,26914,2,0,L|152:88,1,50
272,68,27242,1,0,0:0:0:0:
252,172,27406,1,0,0:0:0:0:
332,132,27570,1,0,0:0:0:0:
152,104,27734,2,0,L|212:104,1,50
316,108,28061,2,0,L|432:108,1,99.9999999999999
324,188,28553,5,0,0:0:0:0:
220,164,28717,1,0,0:0:0:0:
172,52,28881,1,0,0:0:0:0:
220,164,29045,1,0,0:0:0:0:
292,76,29209,1,0,0:0:0:0:
408,136,29373,6,0,L|308:196,1,99.9999999999999
260,236,29865,1,0,0:0:0:0:
180,144,30029,1,0,0:0:0:0:
144,68,30193,2,0,L|216:60,1,50
288,64,30520,1,0,0:0:0:0:
220,164,30684,1,0,0:0:0:0:
304,132,30848,1,0,0:0:0:0:
220,164,31012,1,0,0:0:0:0:
248,92,31176,1,0,0:0:0:0:
104,108,31340,2,0,L|256:80,1,150
320,144,31996,5,0,0:0:0:0:
316,244,32160,6,0,L|260:212,1,50
164,196,32488,1,0,0:0:0:0:
76,108,32652,2,0,L|128:100,1,50
228,108,32980,1,0,0:0:0:0:
312,148,33143,1,0,0:0:0:0:
200,76,33307,2,0,L|304:64,1,99.9999999999999
372,96,33799,5,0,0:0:0:0:
288,172,33963,1,0,0:0:0:0:
344,156,34127,1,0,0:0:0:0:
212,180,34291,1,0,0:0:0:0:
232,56,34455,2,0,L|288:60,1,50
344,204,34783,5,0,0:0:0:0:
224,164,34947,1,0,0:0:0:0:
344,116,35111,1,0,0:0:0:0:
272,188,35275,2,0,L|156:188,1,99.9999999999999
200,288,35766,5,0,0:0:0:0:
220,164,35930,1,0,0:0:0:0:
100,172,36094,1,0,0:0:0:0:
160,100,36258,6,0,L|268:92,1,99.9999999999999
344,104,36914,5,0,0:0:0:0:
360,188,37078,1,0,0:0:0:0:
256,228,37242,1,0,0:0:0:0:
88,216,37406,6,0,L|156:192,1,50
192,172,37734,2,0,L|244:148,1,50
304,128,38061,2,0,L|368:104,1,50
372,192,38389,1,0,0:0:0:0:
256,196,38553,2,0,L|204:168,1,50
192,80,38881,5,0,0:0:0:0:
276,80,39045,1,0,0:0:0:0:
224,148,39209,1,0,0:0:0:0:
128,152,39373,1,0,0:0:0:0:
144,48,39537,2,0,L|212:44,1,50
64,104,40029,6,0,L|160:172,1,99.9999999999999
220,164,40520,1,0,0:0:0:0:
228,92,40684,1,0,0:0:0:0:
112,108,40848,1,0,0:0:0:0:
112,108,41012,1,0,0:0:0:0:
192,60,41176,6,0,L|304:52,1,99.9999999999999
404,96,41668,1,0,0:0:0:0:
304,144,41832,2,0,L|200:152,1,99.9999999999999
136,208,42324,1,0,0:0:0:0:
140,76,42652,6,0,L|208:80,1,50
264,100,42980,1,0,0:0:0:0:
224,156,43143,1,0,0:0:0:0:
344,136,43307,1,0,0:0:0:0:
344,212,43471,1,0,0:0:0:0:
224,236,43635,1,0,0:0:0:0:
152,152,43799,6,0,L|196:104,1,50
308,88,44127,2,0,L|268:144,1,50
232,192,44455,1,0,0:0:0:0:
180,120,44619,1,0,0:0:0:0:
280,104,44783,2,0,L|340:116,1,50
144,52,45275,6,0,L|204:56,1,50
284,84,45602,1,0,0:0:0:0:
232,124,45766,2,0,L|176:164,1,50
100,164,46094,1,0,0:0:0:0:
160,80,46258,1,0,0:0:0:0:
256,108,46586,5,0,0:0:0:0:
336,176,46750,1,0,0:0:0:0:
180,172,46914,1,0,0:0:0:0:
260,228,47078,1,0,0:0:0:0:
120,276,47406,5,0,0:0:0:0:
56,104,47734,2,0,L|176:96,1,99.9999999999999
244,76,48225,1,0,0:0:0:0:
264,152,48389,2,0,L|384:132,1,99.9999999999999
292,228,48881,1,0,0:0:0:0:
376,148,49045,1,0,0:0:0:0:
260,92,49209,1,0,0:0:0:0:
220,164,49373,1,0,0:0:0:0:
220,164,49701,1,0,0:0:0:0:
224,192,50029,5,6,0:0:0:0:
92,132,50357,2,0,L|204:116,1,99.9999999999999
288,104,50848,1,0,0:0:0:0:
288,212,51012,1,0,0:0:0:0:
288,104,51176,1,0,0:0:0:0:
288,212,51340,1,0,0:0:0:0:
168,244,51504,2,0,L|60:200,1,99.9999999999999
128,140,51996,1,0,0:0:0:0:
216,116,52160,1,0,0:0:0:0:
316,108,52324,1,0,0:0:0:0:
232,180,52652,5,6,0:0:0:0:
144,292,52980,2,0,L|256:276,1,99.9999999999999
320,260,53471,1,0,0:0:0:0:
268,196,53635,1,0,0:0:0:0:
128,184,53963,1,0,0:0:0:0:
152,100,54127,2,0,P|208:68|244:100,1,99.9999999999999
252,156,54619,1,0,0:0:0:0:
120,208,54947,1,0,0:0:0:0:
76,164,55111,1,0,0:0:0:0:
80,96,55275,2,0,L|188:76,1,99.9999999999999
288,20,55930,5,0,0:0:0:0:
320,80,56094,1,0,0:0:0:0:
220,156,56258,2,0,L|312:232,1,99.9999999999999
176,248,56750,1,0,0:0:0:0:
140,140,56914,2,0,L|252:140,1,99.9999999999999
320,80,57406,1,0,0:0:0:0:
424,100,57570,1,0,0:0:0:0:
368,172,57734,1,0,0:0:0:0:
224,164,57898,5,0,0:0:0:0:
220,164,58225,1,0,0:0:0:0:
220,164,58553,1,0,0:0:0:0:
220,164,58881,1,0,0:0:0:0:
224,192,59209,1,0,0:0:0:0:
144,160,59373,1,0,0:0:0:0:
108,92,59537,6,0,L|172:88,1,50
280,80,59865,2,0,L|340:84,1,50
156,88,60193,1,0,0:0:0:0:
220,164,60357,1,0,0:0:0:0:
160,88,60520,1,0,0:0:0:0:
252,84,60684,2,0,L|320:84,1,50
220,184,61176,5,0,0:0:0:0:
236,248,61340,1,0,0:0:0:0:
204,112,61504,1,0,0:0:0:0:
264,84,61668,1,0,0:0:0:0:
316,40,61832,5,0,0:0:0:0:
296,128,61996,2,0,L|212:184,1,99.9999999999999
196,68,62488,5,0,0:0:0:0:
204,220,62652,1,0,0:0:0:0:
196,144,62816,1,0,0:0:0:0:
76,84,62980,2,0,L|184:80,1,99.9999999999999
208,132,63471,1,0,0:0:0:0:
256,204,63635,1,0,0:0:0:0:
316,140,63799,1,0,0:0:0:0:
352,204,63963,6,0,L|292:244,1,50
232,248,64291,1,0,0:0:0:0:
168,184,64455,1,0,0:0:0:0:
64,112,64619,2,0,L|164:60,1,99.9999999999999
240,44,65111,2,0,L|308:48,1,50
316,132,65439,1,0,0:0:0:0:
276,196,65602,1,0,0:0:0:0:
200,136,65766,1,0,0:0:0:0:
228,60,65930,2,0,L|336:56,1,99.9999999999999
232,180,66422,5,0,0:0:0:0:
228,104,66586,1,0,0:0:0:0:
312,80,66750,1,0,0:0:0:0:
220,36,66914,1,0,0:0:0:0:
224,164,67078,1,0,0:0:0:0:
152,56,67242,2,0,L|256:56,1,99.9999999999999
220,164,67734,5,0,0:0:0:0:
128,100,67898,1,0,0:0:0:0:
220,164,68061,1,0,0:0:0:0:
184,72,68225,1,0,0:0:0:0:
224,192,68389,1,0,0:0:0:0:
88,88,68553,2,0,L|200:72,1,99.9999999999999
252,116,69045,1,0,0:0:0:0:
88,96,69209,6,0,L|148:76,1,50
228,40,69537,2,0,L|300:36,1,50
72,148,69865,6,0,L|240:140,1,150
320,104,70520,5,0,0:0:0:0:
224,192,70684,1,0,0:0:0:0:
168,72,70848,2,0,L|232:72,1,50
220,172,71176,1,0,0:0:0:0:
316,88,71340,2,0,L|372:84,1,50
380,84,71668,2,0,L|452:76,1,50
220,164,71996,1,0,0:0:0:0:
264,68,72160,1,0,0:0:0:0:
200,80,72324,2,0,L|320:76,1,99.9999999999999
216,256,72980,5,0,0:0:0:0:
236,168,73143,1,0,0:0:0:0:
324,168,73307,1,0,0:0:0:0:
280,92,73471,1,0,0:0:0:0:
188,76,73635,2,0,L|296:64,1,99.9999999999999
140,212,74291,5,0,0:0:0:0:
164,68,74455,1,0,0:0:0:0:
312,68,74619,2,0,L|376:68,1,50
220,164,74947,1,0,0:0:0:0:
260,52,75111,1,0,0:0:0:0:
224,192,75439,1,0,0:0:0:0:
232,180,75766,1,0,0:0:0:0:
360,88,76094,1,0,0:0:0:0:
304,108,76258,2,0,L|368:100,1,50
424,160,76586,1,0,0:0:0:0:
220,164,76914,5,0,0:0:0:0:
220,164,77242,1,0,0:0:0:0:
224,192,77570,1,0,0:0:0:0:
264,64,77734,1,0,0:0:0:0:
144,84,77898,2,0,L|196:68,1,50
272,132,78225,5,0,0:0:0:0:
356,56,78389,1,0,0:0:0:0:
356,112,78553,1,0,0:0:0:0:
96,88,78717,6,0,L|208:76,1,99.9999999999999
196,148,79209,1,0,0:0:0:0:
300,260,79537,1,0,0:0:0:0:
316,180,79701,1,0,0:0:0:0:
336,112,79865,2,0,L|400:108,1,50
232,180,80193,1,0,0:0:0:0:
268,68,80357,1,0,0:0:0:0:
64,80,80520,6,0,L|108:120,1,50
144,156,80848,2,0,L|196:200,1,50
232,232,81176,2,0,L|284:268,1,50
360,272,81504,2,0,L|360:220,1,50
232,180,81832,5,0,0:0:0:0:
232,180,82160,1,0,0:0:0:0:
232,180,82488,1,0,0:0:0:0:
232,180,82816,1,0,0:0:0:0:
332,144,83143,5,0,0:0:0:0:
240,136,83307,1,0,0:0:0:0:
168,224,83471,1,0,0:0:0:0:
168,84,83635,1,0,0:0:0:0:
232,88,83963,6,0,L|348:84,1,99.9999999999999
300,168,84455,1,0,0:0:0:0:
168,84,84619,6,0,L|284:64,1,99.9999999999999
256,192,85111,12,0,87078,0:0:0:0:
