osu file format v14

[General]
AudioFilename: Perfect-area complete!.mp3
AudioLeadIn: 0
PreviewTime: 60408
Countdown: 0
SampleSet: Soft
StackLeniency: 0.7
Mode: 0
LetterboxInBreaks: 0
WidescreenStoryboard: 1

[Editor]
DistanceSpacing: 1.1
BeatDivisor: 2
GridSize: 16
TimelineZoom: 1

[Metadata]
Title:Perfect-area complete! (TV Size)
TitleUnicode:Perfect-area complete! (TV Size)
Artist:Aso Natsuko
ArtistUnicode:麻生夏子
Creator:Umi
Version:Easy
Source:バカとテストと召喚獣
Tags:anime japanese Baka to Test to Shoukanjuu opening
BeatmapID:1763070
BeatmapSetID:842592

[Difficulty]
HPDrainRate:2
CircleSize:2.5
OverallDifficulty:2
ApproachRate:3
SliderMultiplier:0.899999999999999
SliderTickRate:1

[Events]
//Background and Video events
Video,0,"Baka to test to shoukanjuu OP.avi"
0,0,"illustration-anime-anime-girls-anime-boys-artwork-line-art-539521-wallhere.com.jpg",0,0
//Break Periods
//Storyboard Layer 0 (Background)
//Storyboard Layer 1 (Fail)
//Storyboard Layer 2 (Pass)
//Storyboard Layer 3 (Foreground)
//Storyboard Sound Samples

[TimingPoints]
327,327.868852459016,4,2,3,50,1,0
10818,-100,4,2,1,60,0,0
12130,-100,4,2,1,50,0,0
12294,-100,4,2,1,60,0,0
15900,-100,4,2,1,70,0,0
17212,-100,4,2,1,60,0,0
17376,-100,4,2,1,70,0,0
18523,-100,4,2,1,60,0,0
18687,-100,4,2,1,70,0,0
19835,-100,4,2,2,70,0,0
21310,-100,4,2,1,70,0,0
21802,-100,4,2,2,60,0,0
22294,-100,4,2,1,70,0,0
22622,-100,4,2,1,60,0,0
23113,-100,4,2,2,60,0,0
23605,-100,4,2,1,70,0,0
25081,-100,4,2,2,70,0,0
26556,-100,4,2,1,60,0,0
26884,-100,4,2,4,60,0,0
27048,-100,4,2,1,60,0,0
29507,-100,4,2,4,60,0,0
29671,-100,4,2,1,60,0,0
32130,-100,4,2,4,60,0,0
32294,-100,4,2,1,60,0,0
34753,-100,4,2,4,60,0,0
34917,-100,4,2,1,60,0,0
36064,-100,4,2,4,60,0,0
36228,-100,4,2,1,60,0,0
39999,-100,4,2,4,60,0,0
40163,-100,4,2,1,60,0,0
41310,-100,4,2,4,60,0,0
41474,-100,4,2,1,60,0,0
43933,-100,4,2,4,60,0,0
44097,-100,4,2,1,60,0,0
47867,-100,4,2,4,60,0,0
48031,-100,4,2,1,60,0,0
49835,-100,4,2,2,80,0,0
50163,-100,4,2,1,60,0,0
50490,-100,4,2,4,60,0,0
50654,-100,4,2,1,60,0,0
51146,-100,4,2,4,60,0,0
51310,-100,4,2,1,60,0,0
52458,-100,4,2,2,80,0,0
52786,-100,4,2,1,60,0,0
53113,-100,4,2,4,60,0,0
53277,-100,4,2,1,60,0,0
55736,-100,4,2,4,60,0,0
55900,-100,4,2,1,60,0,0
60490,-100,4,2,1,80,0,1
61802,-100,4,2,1,60,0,1
61966,-100,4,2,1,80,0,1
63113,-100,4,2,1,60,0,1
63277,-100,4,2,1,80,0,1
65736,-100,4,2,1,60,0,1
65900,-100,4,2,1,80,0,1
67048,-100,4,2,1,60,0,1
67212,-100,4,2,1,80,0,1
68359,-100,4,2,1,60,0,1
68523,-100,4,2,1,80,0,1
69671,-100,4,2,2,60,0,1
70490,-100,4,2,1,80,0,1
72294,-100,4,2,1,60,0,1
72458,-100,4,2,1,80,0,1
72786,-100,4,2,4,80,0,1
72949,-100,4,2,1,80,0,1
73605,-100,4,2,1,60,0,1
73769,-100,4,2,1,80,0,1
74917,-100,4,2,2,60,0,1
76392,-100,4,2,1,80,0,1
76720,-100,4,2,4,80,0,1
77048,-100,4,2,1,60,0,1
77212,-100,4,2,4,80,0,1
77704,-100,4,2,1,80,0,1
79343,-100,4,2,4,80,0,1
79671,-100,4,2,1,60,0,1
79835,-100,4,2,4,80,0,1
80326,-100,4,2,1,80,0,1
81966,-100,4,2,4,80,0,1
82294,-100,4,2,1,60,0,1
82458,-100,4,2,1,80,0,1
84589,-100,4,2,4,80,0,1
84917,-100,4,2,1,80,0,1
85572,-100,4,2,1,60,0,0
86884,-100,4,2,1,5,0,0

[Colours]
Combo1 : 165,74,255
Combo2 : 111,216,238
Combo3 : 237,210,63
Combo4 : 120,216,80
Combo5 : 255,156,0
Combo6 : 243,152,196
Combo7 : 189,172,191
SliderBorder : 255,255,255

[HitObjects]
120,131,327,6,0,B|170:151|255:134|255:134|331:119|385:142,1,270,2|0,0:0|0:0,0:0:0:0:
385,242,1638,2,0,B|331:265|255:250|255:250|170:233|120:253,1,270,2|0,0:0|0:0,0:0:0:0:
33,302,2949,6,0,L|-1:153,2,135,2|2|2,0:0|0:0|0:0,0:0:0:0:
126,336,4261,1,2,0:0:0:0:
302,248,4917,2,0,P|347:240|391:248,1,89.9999999999999,2|2,0:0|0:0,0:0:0:0:
457,321,5572,6,0,P|488:259|441:162,1,180,2|2,0:0|0:0,0:0:0:0:
256,101,6884,2,0,P|217:139|96:139,1,180,2|2,0:0|0:0,0:0:0:0:
30,212,7867,1,0,0:0:0:0:
49,309,8195,6,0,L|135:334,1,89.9999999999999,0|0,0:0|0:0,0:0:0:0:
233,317,8851,2,0,P|220:266|237:219,2,89.9999999999999,0|0|4,0:0|0:0|0:1,0:0:0:0:
399,141,10818,6,0,L|291:141,1,89.9999999999999,2|2,0:0|0:0,0:0:0:0:
256,56,11474,2,0,L|148:56,1,89.9999999999999,2|2,0:0|0:0,0:0:0:0:
79,105,12130,2,0,P|57:161|99:274,2,180,4|2|2,0:0|0:0|0:0,0:0:0:0:
152,38,13769,5,2,0:0:0:0:
220,109,14097,2,0,P|287:110|325:94,1,89.9999999999999,2|2,0:0|0:0,0:0:0:0:
379,34,14753,2,0,P|407:84|401:135,1,89.9999999999999,2|2,0:0|0:0,0:0:0:0:
370,207,15408,6,0,L|514:194,2,135,2|4|8,0:0|0:0|0:0,0:0:0:0:
295,272,16720,2,0,L|151:259,2,135,2|4|8,0:0|0:0|0:0,0:0:0:0:
370,336,18031,6,0,L|514:323,2,135,2|4|8,0:0|0:0|0:0,0:0:0:0:
270,343,19343,2,0,P|220:326|173:252,1,135,2|2,0:0|0:0,0:0:0:0:
169,161,20163,2,0,L|255:137,2,89.9999999999999,2|2|2,0:0|0:0|0:0,0:0:0:0:
248,33,21310,6,0,P|312:49|353:100,2,135,4|2|2,0:0|0:0|0:0,0:0:0:0:
168,91,22622,2,0,P|103:74|62:23,2,135,4|2|2,0:0|0:0|0:0,0:0:0:0:
265,70,23933,2,0,P|379:123|264:176,1,315
265,69,26556,6,0,L|461:69,1,180,0|2,0:0|0:0,0:0:0:0:
487,262,27867,2,0,P|450:284|405:285,1,89.9999999999999,2|8,0:0|0:0,0:0:0:0:
311,248,28523,1,2,0:0:0:0:
243,61,29179,6,0,P|156:44|49:62,1,180,2|2,0:0|0:0,0:0:0:0:
33,251,30490,2,0,L|137:251,1,89.9999999999999,2|8,0:0|0:0,0:0:0:0:
191,322,31146,2,0,L|295:322,1,89.9999999999999,2|8,0:0|0:0,0:0:0:0:
380,323,31802,6,0,P|415:286|417:144,1,180,2|2,0:0|0:0,0:0:0:0:
304,6,33113,2,0,P|280:41|277:100,1,89.9999999999999,2|8,0:0|0:0,0:0:0:0:
330,169,33769,1,2,0:0:0:0:
226,337,34425,6,0,P|139:359|52:338,1,180,2|2,0:0|0:0,0:0:0:0:
4,251,35408,1,8,0:0:0:0:
49,162,35736,2,0,P|135:141|222:163,1,180,2|2,0:0|0:0,0:0:0:0:
314,198,36720,1,8,0:0:0:0:
385,122,37048,6,0,L|402:13,1,89.9999999999999,2|8,0:0|0:0,0:0:0:0:
314,13,37704,2,0,L|300:101,1,89.9999999999999,2|8,0:0|0:0,0:0:0:0:
314,198,38359,1,2,0:0:0:0:
163,68,39015,1,2,0:0:0:0:
104,257,39671,6,0,B|147:247|194:256|238:266|283:252,1,180,2|2,0:0|0:0,0:0:0:0:
431,121,40982,2,0,B|388:131|341:122|297:112|252:126,1,180,2|2,0:0|0:0,0:0:0:0:
104,257,42294,6,0,L|84:169,1,89.9999999999999,2|8,0:0|0:0,0:0:0:0:
127,80,42949,1,2,0:0:0:0:
291,190,43605,2,0,P|341:181|399:76,1,180,2|2,0:0|0:0,0:0:0:0:
206,122,44917,6,0,P|183:159|182:208,1,89.9999999999999,2|8,0:0|0:0,0:0:0:0:
236,286,45572,1,2,0:0:0:0:
402,178,46228,2,0,L|492:203,2,89.9999999999999,2|8|2,0:0|0:0|0:0,0:0:0:0:
203,173,47540,6,0,P|169:257|212:344,1,180,2|2,0:0|0:0,0:0:0:0:
386,248,48851,2,0,L|275:252,2,89.9999999999999,2|8|2,0:0|0:0|0:0,0:0:0:0:
453,174,49835,1,2,0:0:0:0:
394,94,50163,6,0,P|313:62|233:99,2,180,0|2|2,0:0|0:0|0:0,0:0:0:0:
362,188,51802,2,0,P|302:200|267:185,2,89.9999999999999,8|2|2,0:0|0:0|0:0,0:0:0:0:
454,151,52786,6,0,L|439:337,1,180
241,315,54097,2,0,P|192:291|143:296,1,89.9999999999999,2|8,0:0|0:0,0:0:0:0:
115,202,54753,2,0,P|180:191|209:160,1,89.9999999999999,2|8,0:0|0:0,0:0:0:0:
156,86,55408,6,0,B|215:67|261:98|261:98|331:74,1,180,2|2,0:0|0:0,0:0:0:0:
455,227,56720,2,0,P|412:237|358:223,2,89.9999999999999,2|8|2,0:0|0:0|0:0,0:0:0:0:
410,137,57704,1,8,0:0:0:0:
256,192,58031,12,0,59179,0:0:0:0:
153,114,60490,6,0,L|215:234,1,135,4|8,0:0|0:0,0:0:0:0:
276,311,61310,2,0,P|328:283|376:289,1,89.9999999999999,2|8,0:0|0:0,0:0:0:0:
448,243,61966,2,0,P|454:176|447:143,1,89.9999999999999,2|8,0:0|0:0,0:0:0:0:
388,76,62622,6,0,L|241:109,2,135,2|4|8,0:0|0:0|0:0,0:0:0:0:
399,174,63933,2,0,L|294:198,1,89.9999999999999,2|8,0:0|0:0,0:0:0:0:
215,211,64589,2,0,P|169:180|152:130,1,89.9999999999999,0|8,0:0|0:0,0:0:0:0:
183,54,65245,6,0,L|49:76,2,135,2|4|8,0:0|0:0|0:0,0:0:0:0:
281,50,66556,1,2,0:0:0:0:
394,146,67048,2,0,P|374:215|310:253,1,135,4|8,0:0|0:0,0:0:0:0:
235,293,67867,2,0,L|140:289,1,89.9999999999999,2|8,0:0|0:0,0:0:0:0:
108,196,68523,6,0,L|197:192,1,89.9999999999999,2|8,0:0|0:0,0:0:0:0:
286,147,69179,2,0,P|295:85|280:7,2,135,2|2|8,0:0|0:0|0:0,0:0:0:0:
237,233,70490,1,2,0:0:0:0:
329,360,70982,6,0,P|381:341|467:347,1,135,4|8,0:0|0:0,0:0:0:0:
470,245,71802,2,0,P|446:208|443:150,1,89.9999999999999,2|8,0:0|0:0,0:0:0:0:
446,64,72458,2,0,P|385:52|263:63,1,180,2|2,0:0|0:0,0:0:0:0:
184,114,73441,1,8,0:0:0:0:
253,184,73769,6,0,P|262:223|251:292,1,89.9999999999999,2|8,0:0|0:0,0:0:0:0:
171,321,74425,2,0,P|115:312|26:330,2,135,2|2|8,0:0|0:0|0:0,0:0:0:0:
267,345,75736,2,0,P|322:321|357:269,1,89.9999999999999,2|8,0:0|0:0,0:0:0:0:
327,201,76392,6,0,P|379:140|431:200,2,180,6|6|2,0:0|0:0|0:0,0:0:0:0:
148,287,78359,2,0,L|116:182,1,89.9999999999999,2|8,0:0|0:0,0:0:0:0:
155,107,79015,6,0,B|216:93|260:107|304:115|350:92,2,180,6|6|2,0:0|0:0|0:0,0:0:0:0:
56,118,80654,2,0,P|67:59|109:22,2,89.9999999999999,8|2|8,0:0|0:0|0:0,0:0:0:0:
104,204,81638,6,0,L|299:185,1,180,6|6,0:0|0:0,0:0:0:0:
464,265,82949,2,0,L|359:259,1,89.9999999999999,2|8,0:0|0:0,0:0:0:0:
305,331,83605,2,0,L|200:325,1,89.9999999999999,2|8,0:0|0:0,0:0:0:0:
128,277,84261,6,0,P|142:217|191:107,1,180,2|2,0:0|0:0,0:0:0:0:
272,53,85245,1,0,0:0:0:0:
368,70,85572,2,0,P|418:205|282:157,1,360,4|0,0:0|0:0,0:0:0:0:
