osu file format v14

[General]
AudioFilename: Lovely Girls Anthem.mp3
AudioLeadIn: 1500
PreviewTime: 52892
Countdown: 0
SampleSet: Normal
StackLeniency: 0.7
Mode: 1
LetterboxInBreaks: 0
WidescreenStoryboard: 0

[Editor]
Bookmarks: 8594,16210,16441,23825,31210,38594,45979,60748,68133,75517
DistanceSpacing: 0.8
BeatDivisor: 4
GridSize: 32
TimelineZoom: 1.1

[Metadata]
Title:Lovely Girls Anthem (TV Size)
TitleUnicode:Lovely Girls Anthem (TV Size)
Artist:Aso Natsuko
ArtistUnicode:Aso Natsuko
Creator:JudgeTheDude
Version:Oni
Source:Tantei Opera Milky Holmes Dai ni Maku
Tags:
BeatmapID:652829
BeatmapSetID:289639

[Difficulty]
HPDrainRate:5
CircleSize:5
OverallDifficulty:5
ApproachRate:5
SliderMultiplier:1.4
SliderTickRate:1

[Events]
//Background and Video events
0,0,"BG.jpg",0,0
//Break Periods
//Storyboard Layer 0 (Background)
//Storyboard Layer 1 (Fail)
//Storyboard Layer 2 (Pass)
//Storyboard Layer 3 (Foreground)
//Storyboard Sound Samples

[TimingPoints]
1671.8038755138,461.538461538462,4,1,1,100,1,0
53364,-100,4,1,1,100,0,1
82902,-100,4,1,1,100,0,0
88441,-100,4,1,1,5,0,0

[Colours]
Combo1 : 0,128,255
Combo2 : 255,0,0

[HitObjects]
256,192,1672,5,0,0:0:0:0:
256,192,1902,1,0,0:0:0:0:
256,192,2133,1,8,0:0:0:0:
256,192,2364,1,8,0:0:0:0:
256,192,2594,1,0,0:0:0:0:
256,192,2710,1,0,0:0:0:0:
256,192,2825,1,8,0:0:0:0:
256,192,3056,1,8,0:0:0:0:
256,192,3171,1,8,0:0:0:0:
256,192,3287,1,0,0:0:0:0:
256,192,3517,1,0,0:0:0:0:
256,192,3748,1,0,0:0:0:0:
256,192,3979,1,8,0:0:0:0:
256,192,4094,1,8,0:0:0:0:
256,192,4210,1,0,0:0:0:0:
256,192,4441,1,0,0:0:0:0:
256,192,4902,1,12,0:0:0:0:
256,192,5133,1,0,0:0:0:0:
256,192,5364,1,0,0:0:0:0:
256,192,5479,1,0,0:0:0:0:
256,192,5594,1,0,0:0:0:0:
256,192,5825,1,8,0:0:0:0:
256,192,5941,1,0,0:0:0:0:
256,192,6056,1,0,0:0:0:0:
256,192,6286,1,0,0:0:0:0:
256,192,6517,1,0,0:0:0:0:
256,192,6748,1,12,0:0:0:0:
256,192,6979,1,12,0:0:0:0:
256,192,7441,1,12,0:0:0:0:
256,192,7671,1,0,0:0:0:0:
256,192,7902,1,12,0:0:0:0:
256,192,8133,1,0,0:0:0:0:
256,192,8363,1,0,0:0:0:0:
256,192,8594,1,8,0:0:0:0:
256,192,8710,1,8,0:0:0:0:
256,192,8825,1,0,0:0:0:0:
256,192,8941,1,0,0:0:0:0:
256,192,9056,1,8,0:0:0:0:
256,192,9517,1,8,0:0:0:0:
256,192,9748,1,0,0:0:0:0:
256,192,9979,1,0,0:0:0:0:
256,192,10094,1,0,0:0:0:0:
256,192,10210,1,8,0:0:0:0:
256,192,10441,1,0,0:0:0:0:
256,192,10671,1,8,0:0:0:0:
256,192,10787,1,8,0:0:0:0:
256,192,10902,1,0,0:0:0:0:
256,192,11133,1,0,0:0:0:0:
256,192,11364,1,0,0:0:0:0:
256,192,11479,1,0,0:0:0:0:
256,192,11594,1,8,0:0:0:0:
256,192,11825,1,8,0:0:0:0:
256,192,12287,1,0,0:0:0:0:
256,192,12517,1,0,0:0:0:0:
256,192,12748,1,0,0:0:0:0:
256,192,12979,1,0,0:0:0:0:
256,192,13210,1,8,0:0:0:0:
256,192,13325,1,8,0:0:0:0:
256,192,13441,1,0,0:0:0:0:
256,192,13671,1,0,0:0:0:0:
256,192,13902,1,8,0:0:0:0:
256,192,14133,1,8,0:0:0:0:
256,192,14248,1,0,0:0:0:0:
256,192,14364,1,0,0:0:0:0:
256,192,14594,1,8,0:0:0:0:
256,192,14825,1,8,0:0:0:0:
256,192,15056,1,0,0:0:0:0:
256,192,15287,1,8,0:0:0:0:
256,192,15403,1,0,0:0:0:0:
256,192,15518,1,8,0:0:0:0:
256,192,15748,1,8,0:0:0:0:
256,192,15979,1,8,0:0:0:0:
256,192,16210,1,0,0:0:0:0:
256,192,16441,1,8,0:0:0:0:
256,192,16672,1,0,0:0:0:0:
256,192,16902,1,0,0:0:0:0:
256,192,17018,1,0,0:0:0:0:
256,192,17133,1,8,0:0:0:0:
256,192,17364,1,8,0:0:0:0:
256,192,17595,1,0,0:0:0:0:
256,192,17825,1,0,0:0:0:0:
256,192,17941,1,0,0:0:0:0:
256,192,18056,1,8,0:0:0:0:
256,192,18287,1,0,0:0:0:0:
256,192,18518,1,8,0:0:0:0:
256,192,18748,1,8,0:0:0:0:
256,192,18864,1,0,0:0:0:0:
256,192,18979,1,0,0:0:0:0:
256,192,19210,1,8,0:0:0:0:
256,192,19902,1,8,0:0:0:0:
256,192,20133,1,0,0:0:0:0:
256,192,20364,1,8,0:0:0:0:
256,192,20594,1,8,0:0:0:0:
256,192,20710,1,8,0:0:0:0:
256,192,20825,1,0,0:0:0:0:
256,192,21056,1,0,0:0:0:0:
256,192,21171,1,8,0:0:0:0:
256,192,21402,1,0,0:0:0:0:
256,192,21517,1,8,0:0:0:0:
256,192,21748,1,0,0:0:0:0:
256,192,21864,1,8,0:0:0:0:
256,192,21979,1,0,0:0:0:0:
256,192,22210,1,0,0:0:0:0:
256,192,22441,1,8,0:0:0:0:
256,192,22556,1,0,0:0:0:0:
256,192,22787,1,8,0:0:0:0:
256,192,22902,1,0,0:0:0:0:
256,192,23133,1,0,0:0:0:0:
256,192,23363,1,0,0:0:0:0:
256,192,23594,1,8,0:0:0:0:
256,192,23825,1,8,0:0:0:0:
256,192,23941,1,0,0:0:0:0:
256,192,24056,1,0,0:0:0:0:
256,192,24287,1,0,0:0:0:0:
256,192,24402,1,0,0:0:0:0:
256,192,24633,1,0,0:0:0:0:
256,192,24748,1,8,0:0:0:0:
256,192,24979,1,0,0:0:0:0:
256,192,25210,1,8,0:0:0:0:
256,192,25441,1,0,0:0:0:0:
256,192,25671,1,8,0:0:0:0:
256,192,25787,1,0,0:0:0:0:
256,192,26017,1,8,0:0:0:0:
256,192,26133,1,8,0:0:0:0:
256,192,26364,1,0,0:0:0:0:
256,192,26594,1,8,0:0:0:0:
256,192,26825,1,8,0:0:0:0:
256,192,26941,1,8,0:0:0:0:
256,192,27056,1,8,0:0:0:0:
256,192,27287,1,0,0:0:0:0:
256,192,27517,1,8,0:0:0:0:
256,192,27748,1,0,0:0:0:0:
256,192,27864,1,0,0:0:0:0:
256,192,27979,1,8,0:0:0:0:
256,192,28210,1,8,0:0:0:0:
256,192,28441,1,0,0:0:0:0:
256,192,28671,1,0,0:0:0:0:
256,192,28787,1,0,0:0:0:0:
256,192,28902,1,0,0:0:0:0:
256,192,29133,1,8,0:0:0:0:
256,192,29364,1,8,0:0:0:0:
256,192,29594,1,0,0:0:0:0:
256,192,29710,1,8,0:0:0:0:
256,192,29941,1,8,0:0:0:0:
256,192,30056,1,0,0:0:0:0:
256,192,30287,1,0,0:0:0:0:
256,192,30517,1,8,0:0:0:0:
256,192,30633,1,8,0:0:0:0:
256,192,30748,1,8,0:0:0:0:
256,192,30979,1,0,0:0:0:0:
256,192,31210,1,8,0:0:0:0:
256,192,31441,1,0,0:0:0:0:
256,192,31671,1,0,0:0:0:0:
256,192,31786,1,0,0:0:0:0:
256,192,31901,1,8,0:0:0:0:
256,192,32132,1,8,0:0:0:0:
256,192,32363,1,0,0:0:0:0:
256,192,32594,1,0,0:0:0:0:
256,192,32709,1,0,0:0:0:0:
256,192,32825,1,8,0:0:0:0:
256,192,33055,1,0,0:0:0:0:
256,192,33286,1,0,0:0:0:0:
256,192,33517,1,0,0:0:0:0:
256,192,33632,1,8,0:0:0:0:
256,192,33747,1,8,0:0:0:0:
256,192,33978,1,8,0:0:0:0:
256,192,34209,1,0,0:0:0:0:
256,192,34440,1,0,0:0:0:0:
256,192,34555,1,8,0:0:0:0:
256,192,34670,1,8,0:0:0:0:
256,192,34901,1,0,0:0:0:0:
256,192,35132,1,8,0:0:0:0:
256,192,35364,1,8,0:0:0:0:
256,192,35478,1,0,0:0:0:0:
256,192,35594,1,8,0:0:0:0:
256,192,35824,1,0,0:0:0:0:
256,192,36055,1,8,0:0:0:0:
256,192,36287,1,8,0:0:0:0:
256,192,36401,1,0,0:0:0:0:
256,192,36516,1,8,0:0:0:0:
256,192,36747,1,0,0:0:0:0:
256,192,36863,1,8,0:0:0:0:
256,192,36978,1,8,0:0:0:0:
256,192,37209,1,0,0:0:0:0:
256,192,37324,1,0,0:0:0:0:
256,192,37439,1,8,0:0:0:0:
256,192,37671,1,0,0:0:0:0:
256,192,38133,1,4,0:0:0:0:
256,192,38594,1,4,0:0:0:0:
256,192,38825,1,12,0:0:0:0:
256,192,39056,1,0,0:0:0:0:
256,192,39287,1,8,0:0:0:0:
256,192,39517,1,0,0:0:0:0:
256,192,39748,1,0,0:0:0:0:
256,192,39864,1,8,0:0:0:0:
256,192,39979,1,0,0:0:0:0:
256,192,40210,1,8,0:0:0:0:
256,192,40325,1,8,0:0:0:0:
256,192,40671,1,8,0:0:0:0:
256,192,40787,1,0,0:0:0:0:
256,192,40902,1,0,0:0:0:0:
256,192,41133,5,0,0:0:0:0:
256,192,41364,1,8,0:0:0:0:
256,192,41594,1,0,0:0:0:0:
256,192,41825,1,8,0:0:0:0:
256,192,42056,1,0,0:0:0:0:
256,192,42287,1,0,0:0:0:0:
256,192,42402,1,8,0:0:0:0:
256,192,42517,1,0,0:0:0:0:
256,192,42748,1,0,0:0:0:0:
256,192,43210,1,8,0:0:0:0:
256,192,43441,1,0,0:0:0:0:
256,192,43902,1,0,0:0:0:0:
256,192,44133,1,8,0:0:0:0:
256,192,44364,1,0,0:0:0:0:
256,192,44594,1,8,0:0:0:0:
256,192,44710,1,0,0:0:0:0:
256,192,44825,1,0,0:0:0:0:
256,192,45056,1,8,0:0:0:0:
256,192,45287,1,0,0:0:0:0:
256,192,45517,1,8,0:0:0:0:
256,192,45748,1,0,0:0:0:0:
256,192,45864,1,0,0:0:0:0:
256,192,45979,1,8,0:0:0:0:
256,192,46210,1,8,0:0:0:0:
256,192,46441,1,8,0:0:0:0:
256,192,46671,1,0,0:0:0:0:
256,192,46902,1,0,0:0:0:0:
256,192,47017,1,0,0:0:0:0:
256,192,47133,1,8,0:0:0:0:
256,192,47364,1,0,0:0:0:0:
256,192,47594,1,8,0:0:0:0:
256,192,47825,1,0,0:0:0:0:
256,192,47941,1,0,0:0:0:0:
256,192,48056,1,0,0:0:0:0:
256,192,48287,1,0,0:0:0:0:
256,192,48517,1,8,0:0:0:0:
256,192,48748,1,8,0:0:0:0:
256,192,48864,1,8,0:0:0:0:
256,192,48979,1,0,0:0:0:0:
256,192,49210,1,8,0:0:0:0:
256,192,49441,1,8,0:0:0:0:
256,192,49671,1,0,0:0:0:0:
256,192,49787,1,0,0:0:0:0:
256,192,49902,1,8,0:0:0:0:
256,192,50133,1,8,0:0:0:0:
256,192,50364,1,0,0:0:0:0:
256,192,50594,1,0,0:0:0:0:
256,192,50710,1,0,0:0:0:0:
256,192,50825,1,8,0:0:0:0:
256,192,51056,1,8,0:0:0:0:
256,192,51171,1,0,0:0:0:0:
256,192,51287,1,0,0:0:0:0:
256,192,51748,1,0,0:0:0:0:
256,192,51979,1,0,0:0:0:0:
256,192,52210,1,0,0:0:0:0:
256,192,52325,1,0,0:0:0:0:
256,192,52441,1,8,0:0:0:0:
256,192,52671,1,0,0:0:0:0:
256,192,52787,1,0,0:0:0:0:
256,192,52902,1,8,0:0:0:0:
256,192,53017,1,0,0:0:0:0:
256,192,53133,1,8,0:0:0:0:
256,192,53248,1,0,0:0:0:0:
256,192,53364,1,0,0:0:0:0:
256,192,53594,1,0,0:0:0:0:
256,192,53825,1,0,0:0:0:0:
256,192,53941,1,0,0:0:0:0:
256,192,54056,1,8,0:0:0:0:
256,192,54287,1,8,0:0:0:0:
256,192,54402,1,8,0:0:0:0:
256,192,54518,1,0,0:0:0:0:
256,192,54748,1,0,0:0:0:0:
256,192,54979,1,8,0:0:0:0:
256,192,55210,1,8,0:0:0:0:
256,192,55441,1,8,0:0:0:0:
256,192,55671,1,8,0:0:0:0:
256,192,55787,1,8,0:0:0:0:
256,192,55902,1,0,0:0:0:0:
256,192,56133,1,0,0:0:0:0:
256,192,56248,1,8,0:0:0:0:
256,192,56364,1,0,0:0:0:0:
256,192,56594,1,8,0:0:0:0:
256,192,56825,1,0,0:0:0:0:
256,192,57056,1,8,0:0:0:0:
256,192,57171,1,0,0:0:0:0:
256,192,57287,1,0,0:0:0:0:
256,192,57517,1,0,0:0:0:0:
256,192,57633,1,0,0:0:0:0:
256,192,57748,1,8,0:0:0:0:
256,192,57979,1,8,0:0:0:0:
256,192,58210,1,8,0:0:0:0:
256,192,58441,1,0,0:0:0:0:
256,192,58556,1,0,0:0:0:0:
256,192,58671,1,8,0:0:0:0:
256,192,58902,12,0,59825,0:0:0:0:
256,192,60056,5,12,0:0:0:0:
256,192,60287,1,12,0:0:0:0:
256,192,60517,1,8,0:0:0:0:
256,192,60633,1,8,0:0:0:0:
256,192,60748,1,0,0:0:0:0:
256,192,60979,1,0,0:0:0:0:
256,192,61210,1,0,0:0:0:0:
256,192,61441,1,0,0:0:0:0:
256,192,61556,1,0,0:0:0:0:
256,192,61671,1,8,0:0:0:0:
256,192,61902,1,8,0:0:0:0:
256,192,62133,1,8,0:0:0:0:
256,192,62364,1,8,0:0:0:0:
256,192,62479,1,0,0:0:0:0:
256,192,62594,1,8,0:0:0:0:
256,192,62825,1,8,0:0:0:0:
256,192,63056,1,0,0:0:0:0:
256,192,63287,1,0,0:0:0:0:
256,192,63402,1,0,0:0:0:0:
256,192,63517,1,8,0:0:0:0:
256,192,63748,1,0,0:0:0:0:
256,192,63979,1,8,0:0:0:0:
256,192,64210,1,8,0:0:0:0:
256,192,64325,1,8,0:0:0:0:
256,192,64441,1,0,0:0:0:0:
256,192,64671,1,0,0:0:0:0:
256,192,64902,1,8,0:0:0:0:
256,192,65133,1,0,0:0:0:0:
256,192,65248,1,8,0:0:0:0:
256,192,65364,1,8,0:0:0:0:
256,192,65594,1,0,0:0:0:0:
256,192,65825,1,8,0:0:0:0:
256,192,66056,1,8,0:0:0:0:
256,192,66171,1,0,0:0:0:0:
256,192,66287,12,0,67210,0:0:0:0:
256,192,67671,5,12,0:0:0:0:
192,160,67902,1,4,0:0:0:0:
256,192,68133,1,4,0:0:0:0:
256,192,68363,1,0,0:0:0:0:
256,192,68594,1,0,0:0:0:0:
256,192,68710,1,0,0:0:0:0:
256,192,68825,1,8,0:0:0:0:
256,192,69056,1,8,0:0:0:0:
256,192,69171,1,8,0:0:0:0:
256,192,69287,1,0,0:0:0:0:
256,192,69517,1,0,0:0:0:0:
256,192,69633,1,0,0:0:0:0:
256,192,69748,1,8,0:0:0:0:
256,192,69979,1,8,0:0:0:0:
256,192,70210,1,8,0:0:0:0:
256,192,70440,1,8,0:0:0:0:
256,192,70556,1,8,0:0:0:0:
256,192,70671,1,0,0:0:0:0:
256,192,70902,1,0,0:0:0:0:
256,192,71017,1,8,0:0:0:0:
256,192,71133,1,0,0:0:0:0:
256,192,71363,1,8,0:0:0:0:
256,192,71479,1,8,0:0:0:0:
256,192,71594,1,0,0:0:0:0:
256,192,71825,1,8,0:0:0:0:
256,192,72056,1,0,0:0:0:0:
256,192,72286,1,0,0:0:0:0:
256,192,72402,1,0,0:0:0:0:
256,192,72517,1,8,0:0:0:0:
256,192,72748,1,8,0:0:0:0:
256,192,72863,1,0,0:0:0:0:
256,192,72979,1,8,0:0:0:0:
256,192,73210,1,0,0:0:0:0:
256,192,73325,1,0,0:0:0:0:
256,192,73440,1,8,0:0:0:0:
256,192,73671,12,0,74594,0:0:0:0:
256,192,75056,5,12,0:0:0:0:
192,160,75287,1,4,0:0:0:0:
256,192,75517,1,4,0:0:0:0:
256,192,75748,1,8,0:0:0:0:
256,192,75979,1,8,0:0:0:0:
256,192,76094,1,0,0:0:0:0:
256,192,76210,1,0,0:0:0:0:
256,192,76441,1,0,0:0:0:0:
256,192,76672,1,0,0:0:0:0:
256,192,76787,1,0,0:0:0:0:
256,192,76903,1,8,0:0:0:0:
256,192,77134,1,8,0:0:0:0:
256,192,77364,1,8,0:0:0:0:
256,192,77479,1,8,0:0:0:0:
256,192,77595,1,0,0:0:0:0:
256,192,77826,1,0,0:0:0:0:
256,192,78057,1,0,0:0:0:0:
256,192,78171,1,0,0:0:0:0:
256,192,78287,1,8,0:0:0:0:
256,192,78518,1,8,0:0:0:0:
256,192,78749,1,8,0:0:0:0:
256,192,78864,1,0,0:0:0:0:
256,192,78980,1,0,0:0:0:0:
256,192,79210,1,0,0:0:0:0:
256,192,79441,1,8,0:0:0:0:
256,192,79556,1,0,0:0:0:0:
256,192,79672,1,8,0:0:0:0:
256,192,79903,1,0,0:0:0:0:
256,192,80133,1,0,0:0:0:0:
256,192,80248,1,0,0:0:0:0:
256,192,80364,1,8,0:0:0:0:
256,192,80595,1,8,0:0:0:0:
256,192,80825,12,0,82441,0:0:0:0:
256,192,82902,5,0,0:0:0:0:
256,192,83133,1,0,0:0:0:0:
256,192,83364,1,8,0:0:0:0:
256,192,83594,1,8,0:0:0:0:
256,192,83710,1,8,0:0:0:0:
256,192,83825,1,8,0:0:0:0:
256,192,84056,1,0,0:0:0:0:
256,192,84287,1,0,0:0:0:0:
256,192,84517,1,8,0:0:0:0:
256,192,84979,1,8,0:0:0:0:
256,192,85441,1,8,0:0:0:0:
256,192,85556,1,0,0:0:0:0:
256,192,85671,1,8,0:0:0:0:
256,192,85902,1,0,0:0:0:0:
256,192,86017,1,0,0:0:0:0:
256,192,86133,1,0,0:0:0:0:
256,192,86248,1,0,0:0:0:0:
256,192,86364,12,0,88441,0:0:0:0:
