osu file format v14

[General]
AudioFilename: audio.mp3
AudioLeadIn: 0
PreviewTime: 53595
Countdown: 0
SampleSet: Soft
StackLeniency: 0.7
Mode: 2
LetterboxInBreaks: 0
WidescreenStoryboard: 1

[Editor]
DistanceSpacing: 1.3
BeatDivisor: 4
GridSize: 8
TimelineZoom: 2.4

[Metadata]
Title:Closure
TitleUnicode:Closure
Artist:Asking Alexandria
ArtistUnicode:Asking Alexandria
Creator:Sanyi
Version:Rain
Source:
Tags:Reckless & Relentless Metalcore Electronicore Post Hardcore Scream Sumerian Records Danny Worsnop Ben Bruce James Cassells Cameron Liddell Sam Bettley idust idu5t dust du5t bearizm english
BeatmapID:2228493
BeatmapSetID:1064368

[Difficulty]
HPDrainRate:5
CircleSize:3.8
OverallDifficulty:9
ApproachRate:9
SliderMultiplier:1.8
SliderTickRate:1

[Events]
//Background and Video events
0,0,"closure bg.jpg",0,0
//Break Periods
//Storyboard Layer 0 (Background)
//Storyboard Layer 1 (Fail)
//Storyboard Layer 2 (Pass)
//Storyboard Layer 3 (Foreground)
//Storyboard Layer 4 (Overlay)
//Storyboard Sound Samples

[TimingPoints]
0,428.571428571429,4,2,1,60,1,0
1607,-100,4,2,1,5,0,0
1714,-100,4,2,1,60,0,0
5035,-100,4,2,1,5,0,0
5142,-100,4,2,1,60,0,0
5571,-100,4,2,1,5,0,0
5678,-100,4,2,1,60,0,0
10285,-100,4,2,1,60,0,0
12000,-100,4,2,1,70,0,0
12428,-100,4,2,1,75,0,0
12857,-100,4,2,1,80,0,0
13285,-100,4,2,1,85,0,0
13500,-100,4,2,1,60,0,0
13714,-100,4,2,1,90,0,0
13821,-100,4,2,1,5,0,0
13928,-100,4,2,1,90,0,0
16285,-100,4,2,1,90,0,0
17142,-100,4,2,1,90,0,0
17250,-100,4,2,1,5,0,0
17357,-100,4,2,1,90,0,0
20357,-100,4,2,1,90,0,0
20517,-100,4,2,1,5,0,0
20571,-100,4,2,1,90,0,0
20678,-100,4,2,1,5,0,0
20785,-100,4,2,1,90,0,0
24107,-100,4,2,1,5,0,0
24214,-100,4,2,1,90,0,0
25928,-100,4,2,0,70,0,0
26357,-100,4,2,1,90,0,0
27428,-100,4,2,1,90,0,0
28178,-100,4,2,1,5,0,0
28285,-100,4,2,1,90,0,0
29035,-100,4,2,1,5,0,0
29142,-100,4,2,1,90,0,0
29892,-100,4,2,1,5,0,0
30000,-100,4,2,1,90,0,0
30750,-100,4,2,1,5,0,0
30857,-100,4,2,1,90,0,0
31607,-100,4,2,1,5,0,0
31714,-100,4,2,1,90,0,0
32464,-100,4,2,1,5,0,0
32571,-100,4,2,1,90,0,0
33321,-100,4,2,1,5,0,0
33428,-100,4,2,1,90,0,0
34071,-100,4,2,1,90,0,0
34232,-100,4,2,1,5,0,0
34285,-100,4,2,1,90,0,0
35035,-100,4,2,1,5,0,0
35142,-100,4,2,1,90,0,0
35892,-100,4,2,1,5,0,0
36000,-100,4,2,1,90,0,0
36750,-100,4,2,1,5,0,0
36857,-100,4,2,1,90,0,0
37607,-100,4,2,1,5,0,0
37714,-100,4,2,1,90,0,0
38464,-100,4,2,1,5,0,0
38571,-100,4,2,1,90,0,0
39000,-100,4,2,1,5,0,0
39107,-100,4,2,1,90,0,0
39321,-100,4,2,1,5,0,0
39428,472.44094488189,4,2,1,90,1,0
39546,-100,4,2,1,40,0,0
41081,-100,4,2,1,10,0,0
41317,615.384615384615,4,2,1,50,1,0
41470,428.571428571429,4,2,1,50,1,0
41684,400,4,2,1,50,1,0
41890,476.190476190476,4,2,1,50,1,0
42128,361.44578313253,4,2,1,50,1,0
42308,352.941176470588,4,2,1,50,1,0
42484,461.538461538462,4,2,1,50,1,0
42714,428.571428571429,4,2,1,50,1,0
42821,461.538461538462,4,2,1,50,1,0
43051,333.333333333333,4,2,1,50,1,0
43217,300,4,2,1,50,1,0
43517,319.148936170213,4,2,1,50,1,0
43995,300,4,2,1,60,1,0
43995,-117.647058823529,4,2,1,60,0,0
52995,-117.647058823529,4,2,1,70,0,0
53295,-117.647058823529,4,2,1,70,0,0
53595,-117.647058823529,4,2,1,90,0,1
63120,-117.647058823529,4,2,1,90,0,0
63195,-117.647058823529,4,2,1,100,0,1
72795,-117.647058823529,4,2,1,70,0,0
75195,-117.647058823529,4,2,1,90,0,0
84795,-117.647058823529,4,2,1,90,0,1
94395,428.571428571429,4,2,1,90,1,0
94502,-100,4,2,1,90,0,0
97823,-100,4,2,1,90,0,0
102966,-100,4,2,1,90,0,0
103180,-100,4,2,1,5,0,0
103287,-100,4,2,1,90,0,0
103502,-100,4,2,1,5,0,0
103609,-100,4,2,1,90,0,0
104037,-100,4,2,1,5,0,0
104145,-100,4,2,1,90,0,0
104359,-100,4,2,1,5,0,0
104466,-100,4,2,1,90,0,0
104680,-100,4,2,1,90,0,0
107252,-100,4,2,1,90,0,0
107466,-100,4,2,1,5,0,0
107573,-100,4,2,1,90,0,0
107787,-100,4,2,1,5,0,0
107895,-100,4,2,1,90,0,0
108109,-100,4,2,1,90,0,0
109823,-100,4,2,1,90,0,0
110037,-100,4,2,1,5,0,0
110145,-100,4,2,1,90,0,0
110359,-100,4,2,1,5,0,0
110466,-100,4,2,1,90,0,0
116680,-100,4,2,1,90,0,0
116895,-100,4,2,1,5,0,0
117002,-100,4,2,1,90,0,0
117216,-100,4,2,1,5,0,0
117323,-100,4,2,1,90,0,0
118395,-100,4,2,1,90,0,0
120966,-100,4,2,1,90,0,0
121180,-100,4,2,1,5,0,0
121287,-100,4,2,1,90,0,0
121502,-100,4,2,1,5,0,0
121609,-100,4,2,1,90,0,0
121823,-100,4,2,1,90,0,0
125252,-100,4,2,1,90,0,1
125466,-100,4,2,1,5,0,1
125573,-100,4,2,1,90,0,1
125787,-100,4,2,1,5,0,1
125895,-100,4,2,1,90,0,1
126323,-100,4,2,1,5,0,1
126430,-100,4,2,1,90,0,1
126645,-100,4,2,1,5,0,1
126752,-100,4,2,1,90,0,1
126859,-100,4,2,1,5,0,1
126966,718.562874251497,4,2,1,100,1,0
127055,-100,4,2,1,20,0,0
129480,-100,4,2,1,5,0,0
129840,666.666666666667,4,2,1,20,1,0
132173,-100,4,2,1,5,0,0
132506,645.161290322581,4,2,1,20,1,0
134764,-100,4,2,1,5,0,0
135086,662.983425414365,4,2,1,20,1,0
137406,-100,4,2,1,5,0,0
137737,681.818181818182,4,2,1,20,1,0
140123,-100,4,2,1,5,0,0
140464,670.391061452514,4,2,1,20,1,0
142810,-100,4,2,1,5,0,0
143145,662.983425414365,4,2,1,20,1,0
145465,-100,4,2,1,5,0,0
145796,625,4,2,1,20,1,0
147983,-100,4,2,1,5,0,0
148296,333.333333333333,4,2,1,30,1,0
148296,-111.111111111111,4,2,1,30,0,0
158962,-111.111111111111,4,2,2,30,0,0
159296,-111.111111111111,4,2,2,33,0,0
159629,-111.111111111111,4,2,2,35,0,0
159962,-111.111111111111,4,2,2,38,0,0
160296,-111.111111111111,4,2,2,40,0,0
160629,-111.111111111111,4,2,2,43,0,0
160962,-111.111111111111,4,2,2,45,0,0
161296,-111.111111111111,4,2,2,48,0,0
161629,-111.111111111111,4,2,2,50,0,0
161962,-111.111111111111,4,2,2,53,0,0
162296,-111.111111111111,4,2,2,55,0,0
162629,-111.111111111111,4,2,2,58,0,0
162962,-111.111111111111,4,2,2,60,0,0
163295,-111.111111111111,4,2,2,63,0,0
163629,-111.111111111111,4,2,2,65,0,0
163962,-111.111111111111,4,2,2,68,0,0
164295,-111.111111111111,4,2,2,70,0,0
164629,-111.111111111111,4,2,2,73,0,0
164962,-111.111111111111,4,2,2,75,0,0
165295,-111.111111111111,4,2,2,78,0,0
165629,-111.111111111111,4,2,2,80,0,0
165962,-111.111111111111,4,2,2,83,0,0
166295,-111.111111111111,4,2,2,85,0,0
166629,-111.111111111111,4,2,2,88,0,0
166962,-111.111111111111,4,2,2,90,0,0
167295,-111.111111111111,4,2,2,93,0,0
167629,-111.111111111111,4,2,2,95,0,0
167962,-111.111111111111,4,2,2,98,0,0
168295,-111.111111111111,4,2,2,100,0,0
168379,-111.111111111111,4,2,1,80,0,0
169295,-111.111111111111,4,2,1,90,0,0
169629,-111.111111111111,4,2,1,100,0,1
180212,-111.111111111111,4,2,1,100,0,0
180295,-111.111111111111,4,2,1,100,0,1
190962,-111.111111111111,4,2,1,100,0,0
191129,-111.111111111111,4,2,1,90,0,0
213629,-111.111111111111,4,2,1,70,0,0
214629,-111.111111111111,4,2,1,70,0,0
214879,-111.111111111111,4,2,1,5,0,0
214962,-111.111111111111,4,2,1,90,0,0
225629,-111.111111111111,4,2,1,90,0,1
236129,-111.111111111111,4,2,1,90,0,0

[Colours]
Combo1 : 192,192,192
Combo2 : 234,21,21
Combo3 : 128,128,128
Combo4 : 255,128,128

[HitObjects]
400,352,0,6,0,P|420:264|384:172,1,180,4|0,3:1|3:0,0:0:0:0:
280,352,642,2,0,P|260:264|296:172,1,180,0|0,1:0|3:0,0:0:0:0:
400,168,1285,2,0,L|400:72,1,90,0|0,1:0|0:0,0:0:0:0:
204,172,1714,6,0,L|300:172,1,90,0|0,1:0|1:0,0:0:0:0:
440,352,2250,1,0,3:0:0:0:
468,316,2357,1,0,3:0:0:0:
440,352,2464,1,0,3:0:0:0:
392,352,2571,2,0,L|204:352,1,180,0|0,1:0|0:0,0:0:0:0:
304,244,3214,2,0,L|368:244,1,45,0|0,3:0|3:0,0:0:0:0:
200,164,3428,6,0,L|16:164,1,180,4|0,3:1|3:0,0:0:0:0:
132,72,4071,2,0,L|316:72,1,180,0|0,1:0|3:0,0:0:0:0:
200,264,4714,2,0,L|100:264,1,90,0|0,1:0|0:0,0:0:0:0:
304,264,5142,6,0,L|304:160,1,90,0|0,0:0|3:0,0:0:0:0:
168,100,5678,1,0,3:0:0:0:
76,100,5892,1,0,3:0:0:0:
212,304,6000,1,0,3:0:0:0:
257,304,6107,1,0,3:0:0:0:
302,304,6214,1,0,3:0:0:0:
347,304,6321,1,0,3:0:0:0:
212,208,6428,1,2,1:3:0:0:
185,172,6535,1,0,0:0:0:0:
212,208,6642,1,0,0:0:0:0:
185,172,6749,1,0,0:0:0:0:
336,144,6857,6,0,B|428:144|428:144|324:144,1,180,4|0,3:1|3:0,0:0:0:0:
228,144,7500,2,0,B|136:144|136:144|240:144,1,180,0|0,1:0|3:0,0:0:0:0:
336,332,8142,2,0,L|336:232,1,90,0|0,1:0|0:0,0:0:0:0:
140,224,8571,6,0,L|36:224,1,90,0|0,1:0|1:0,0:0:0:0:
188,112,9107,1,0,3:0:0:0:
233,112,9214,1,0,3:0:0:0:
278,112,9321,1,0,3:0:0:0:
232,48,9428,2,0,L|116:48,1,90,0|0,3:0|0:0,0:0:0:0:
256,352,9857,1,0,3:0:0:0:
280,314,9964,1,0,0:0:0:0:
281,270,10071,1,0,0:0:0:0:
259,231,10178,1,0,0:0:0:0:
112,208,10285,6,0,P|108:156|204:72,1,180,4|0,3:1|3:0,0:0:0:0:
304,208,10928,2,0,P|308:156|212:72,1,180,0|0,1:0|3:0,0:0:0:0:
112,352,11571,2,0,L|112:248,1,90,0|0,1:0|3:0,0:0:0:0:
320,260,12000,6,0,B|412:260|412:260|368:260,1,135,4|0,1:2|3:0,0:0:0:0:
220,136,12428,2,0,B|128:136|128:136|172:136,1,135,0|0,1:0|3:0,0:0:0:0:
320,52,12857,2,0,L|224:52,1,90,4|0,1:0|1:0,0:0:0:0:
440,344,13285,1,0,1:0:0:0:
449,299,13392,1,0,1:0:0:0:
440,344,13500,1,0,3:0:0:0:
449,299,13607,1,0,3:0:0:0:
236,196,13714,5,4,3:2:0:0:
344,196,13928,2,0,L|392:196,1,45,0|0,3:0|3:0,0:0:0:0:
500,100,14250,2,0,L|444:100,1,45,0|0,3:0|3:0,0:0:0:0:
176,360,14571,1,0,1:0:0:0:
177,316,14678,1,0,3:0:0:0:
222,316,14785,1,0,3:0:0:0:
267,316,14892,1,0,3:0:0:0:
376,216,15107,2,0,L|316:216,1,45,0|0,3:0|3:0,0:0:0:0:
132,128,15428,5,0,3:0:0:0:
240,56,15642,2,0,L|296:56,1,45,0|0,3:0|3:0,0:0:0:0:
176,280,15964,2,0,L|128:280,1,45,0|0,3:0|3:0,0:0:0:0:
408,244,16285,1,0,1:0:0:0:
453,244,16392,1,0,3:0:0:0:
498,244,16499,1,0,3:0:0:0:
388,128,16714,1,0,1:0:0:0:
433,128,16821,1,0,3:0:0:0:
478,128,16928,1,0,3:0:0:0:
280,312,17142,5,0,3:0:0:0:
172,208,17357,2,0,L|232:208,1,45,0|0,3:0|3:0,0:0:0:0:
324,208,17678,2,0,L|384:208,1,45,0|0,3:0|3:0,0:0:0:0:
88,364,18000,1,0,1:0:0:0:
89,320,18107,1,0,3:0:0:0:
134,320,18214,1,0,3:0:0:0:
179,320,18321,1,0,3:0:0:0:
68,176,18535,2,0,L|12:176,1,45,0|0,3:0|3:0,0:0:0:0:
224,104,18857,5,0,3:0:0:0:
332,216,19071,2,0,L|260:216,1,45,0|0,3:0|3:0,0:0:0:0:
176,316,19392,2,0,L|116:316,1,45,0|0,3:0|3:0,0:0:0:0:
448,316,19714,1,0,1:0:0:0:
403,316,19821,1,0,1:0:0:0:
358,316,19928,1,0,3:0:0:0:
313,316,20035,1,0,3:0:0:0:
412,236,20142,1,0,3:0:0:0:
412,191,20249,1,0,3:0:0:0:
204,92,20357,1,2,1:3:0:0:
159,92,20464,1,0,0:0:0:0:
384,312,20571,5,4,3:2:0:0:
276,312,20785,2,0,L|276:260,1,45,0|0,3:0|3:0,0:0:0:0:
384,240,21107,2,0,L|384:192,1,45,0|0,3:0|3:0,0:0:0:0:
108,132,21428,1,0,1:0:0:0:
63,132,21535,1,0,3:0:0:0:
18,132,21642,1,0,3:0:0:0:
16,89,21749,1,0,3:0:0:0:
124,328,21964,2,0,L|176:328,1,45,0|0,3:0|3:0,0:0:0:0:
368,332,22285,5,0,3:0:0:0:
260,272,22500,2,0,L|260:208,1,45,0|0,3:0|3:0,0:0:0:0:
152,272,22821,2,0,L|152:224,1,45,0|0,3:0|3:0,0:0:0:0:
428,160,23142,1,0,1:0:0:0:
473,160,23249,1,0,3:0:0:0:
428,160,23357,1,0,3:0:0:0:
320,104,23571,1,0,1:0:0:0:
275,104,23678,1,0,3:0:0:0:
230,104,23785,1,0,3:0:0:0:
28,352,24000,5,0,3:0:0:0:
136,352,24214,2,0,L|136:300,1,45,0|0,3:0|3:0,0:0:0:0:
28,260,24535,2,0,L|28:200,1,45,0|0,3:0|3:0,0:0:0:0:
308,184,24857,1,0,1:0:0:0:
353,184,24964,1,0,3:0:0:0:
308,184,25071,1,0,3:0:0:0:
263,184,25178,1,0,3:0:0:0:
372,332,25392,2,0,L|432:332,1,45,0|0,3:0|3:0,0:0:0:0:
216,332,25714,5,0,3:0:0:0:
328,268,25928,2,0,L|352:228,3,45,2|2|2|2,0:3|0:3|0:3|0:3,0:0:0:0:
296,140,26357,1,0,3:0:0:0:
20,144,26571,1,0,1:0:0:0:
65,144,26678,1,0,1:0:0:0:
110,144,26785,1,0,3:0:0:0:
312,312,27000,1,0,1:0:0:0:
267,312,27107,1,0,1:0:0:0:
222,312,27214,1,0,3:0:0:0:
496,240,27428,5,4,3:2:0:0:
388,240,27642,2,0,L|340:240,1,45,0|0,3:0|3:0,0:0:0:0:
452,152,27964,2,0,L|408:152,1,45,0|0,3:0|3:0,0:0:0:0:
128,68,28285,1,0,1:0:0:0:
83,68,28392,1,0,3:0:0:0:
128,68,28500,1,0,3:0:0:0:
173,68,28607,1,0,3:0:0:0:
64,244,28821,2,0,L|12:244,1,45,0|0,3:0|3:0,0:0:0:0:
220,248,29142,5,0,3:0:0:0:
328,148,29357,2,0,L|272:148,1,45,0|0,3:0|3:0,0:0:0:0:
176,152,29678,2,0,L|108:152,1,45,0|0,3:0|3:0,0:0:0:0:
408,336,30000,1,0,1:0:0:0:
408,291,30107,1,0,3:0:0:0:
408,246,30214,1,0,3:0:0:0:
300,336,30428,1,0,1:0:0:0:
300,291,30535,1,0,3:0:0:0:
300,246,30642,1,0,3:0:0:0:
100,112,30857,5,0,3:0:0:0:
208,60,31071,2,0,L|272:60,1,45,0|0,3:0|3:0,0:0:0:0:
364,60,31392,2,0,L|416:60,1,45,0|0,3:0|3:0,0:0:0:0:
132,344,31714,1,0,1:0:0:0:
133,300,31821,1,0,3:0:0:0:
178,300,31928,1,0,3:0:0:0:
223,300,32035,1,0,3:0:0:0:
332,204,32250,2,0,L|276:204,1,45,0|0,3:0|3:0,0:0:0:0:
488,120,32571,5,0,3:0:0:0:
380,312,32785,2,0,L|380:256,1,45,0|0,3:0|3:0,0:0:0:0:
488,312,33107,2,0,L|488:248,1,45,0|0,3:0|3:0,0:0:0:0:
196,196,33428,1,0,1:0:0:0:
151,196,33535,1,0,1:0:0:0:
196,196,33642,1,0,3:0:0:0:
241,196,33749,1,0,3:0:0:0:
340,112,33856,1,0,3:0:0:0:
340,67,33963,1,0,0:0:0:0:
132,296,34071,1,2,1:3:0:0:
87,296,34178,1,0,0:0:0:0:
292,296,34285,5,4,3:2:0:0:
184,128,34500,2,0,L|136:128,1,45,0|0,3:0|3:0,0:0:0:0:
248,48,34821,2,0,L|184:48,1,45,0|0,3:0|3:0,0:0:0:0:
480,344,35142,1,0,1:0:0:0:
480,299,35249,1,0,3:0:0:0:
480,254,35356,1,0,3:0:0:0:
480,209,35463,1,0,0:0:0:0:
372,116,35678,2,0,L|436:116,1,45,0|0,3:0|3:0,0:0:0:0:
216,296,36000,5,0,3:0:0:0:
324,216,36214,2,0,L|384:216,1,45,0|0,3:0|3:0,0:0:0:0:
260,104,36535,2,0,L|324:104,1,45,0|0,3:0|3:0,0:0:0:0:
28,256,36857,1,0,1:0:0:0:
73,256,36964,1,0,3:0:0:0:
118,256,37071,1,0,3:0:0:0:
232,256,37285,1,0,1:0:0:0:
277,256,37392,1,0,3:0:0:0:
232,256,37500,1,0,3:0:0:0:
32,152,37714,5,0,3:0:0:0:
140,148,37928,2,0,L|200:148,1,45,0|0,3:0|3:0,0:0:0:0:
296,144,38250,2,0,L|344:144,1,45,0|0,3:0|3:0,0:0:0:0:
64,352,38571,1,0,1:0:0:0:
65,308,38678,1,0,3:0:0:0:
110,308,38785,1,0,3:0:0:0:
155,308,38892,1,0,3:0:0:0:
44,220,39107,2,0,L|96:220,1,45,0|0,3:0|3:0,0:0:0:0:
392,384,39428,6,0,P|268:356|20:-48,1,630,4|0,3:2|0:0,0:0:0:0:
20,200,41317,2,0,L|104:200,1,45,0|0,0:0|0:0,0:0:0:0:
16,120,41684,2,0,L|128:120,1,90,0|0,0:0|0:0,0:0:0:0:
12,248,42128,2,0,L|12:148,1,90,0|0,0:0|0:0,0:0:0:0:
168,104,42484,6,0,L|280:104,1,90,0|0,0:0|0:0,0:0:0:0:
208,176,42821,2,0,L|116:176,1,90,0|0,0:0|0:0,0:0:0:0:
240,336,43217,2,0,L|340:336,1,90,0|0,0:0|0:0,0:0:0:0:
144,336,43517,1,0,0:0:0:0:
144,246,43676,1,0,0:0:0:0:
144,156,43836,1,0,0:0:0:0:
440,264,43995,6,0,L|440:184,1,76.5000014591217,4|0,3:2|0:0,0:0:0:0:
344,64,44295,2,0,L|260:64,1,76.5000014591217,2|0,3:2|0:0,0:0:0:0:
364,344,44595,2,0,L|452:344,2,76.5000014591217,2|0|0,3:2|0:0|3:0,0:0:0:0:
200,344,45045,6,0,L|200:256,1,76.5000014591217,2|0,0:0|3:0,0:0:0:0:
296,248,45345,2,0,L|296:168,1,76.5000014591217,2|0,0:0|3:0,0:0:0:0:
200,254,45645,2,0,L|200:172,1,76.5000014591217,2|0,0:0|3:0,0:0:0:0:
280,80,45945,1,0,0:0:0:0:
392,256,46095,2,0,L|392:168,1,76.5000014591217,2|0,3:2|0:0,0:0:0:0:
312,88,46395,6,0,L|228:88,1,76.5000014591217,0|0,3:0|0:0,0:0:0:0:
400,328,46695,2,0,L|316:328,1,76.5000014591217,2|0,3:2|0:0,0:0:0:0:
248,328,46995,2,0,L|156:328,1,76.5000014591217,2|0,3:2|0:0,0:0:0:0:
232,232,47295,1,0,3:0:0:0:
396,168,47445,6,0,L|396:76,1,76.5000014591217,2|0,0:0|3:0,0:0:0:0:
296,168,47745,2,0,L|296:76,1,76.5000014591217,2|0,0:0|3:0,0:0:0:0:
396,84,48045,1,2,0:0:0:0:
176,332,48195,1,4,3:0:0:0:
131,332,48270,1,4,3:0:0:0:
324,328,48345,1,4,3:0:0:0:
358,299,48420,1,4,3:0:0:0:
378,259,48495,1,4,3:0:0:0:
378,215,48570,1,4,3:0:0:0:
359,174,48645,1,4,3:0:0:0:
324,146,48720,1,4,3:0:0:0:
128,68,48795,6,0,L|212:68,1,76.5000014591217,4|0,3:0|3:0,0:0:0:0:
368,344,49095,2,0,L|280:344,3,76.5000014591217,4|0|4|0,3:0|3:0|3:0|3:0,0:0:0:0:
212,344,49695,1,4,3:0:0:0:
376,240,49845,6,0,L|464:240,5,76.5000014591217,0|4|0|4|0|4,3:0|3:0|3:0|3:0|3:0|3:0,0:0:0:0:
372,156,50745,1,0,3:0:0:0:
208,280,50895,2,0,L|208:196,1,76.5000014591217,4|0,3:0|3:0,0:0:0:0:
128,280,51195,2,0,L|128:192,1,76.5000014591217,4|0,3:0|3:0,0:0:0:0:
292,196,51495,6,0,L|376:196,3,76.5000014591217,4|0|4|0,3:0|3:0|3:0|3:0,0:0:0:0:
448,108,52095,1,4,3:0:0:0:
332,108,52245,1,0,3:0:0:0:
116,348,52395,6,0,P|60:188|132:140,1,267.750005106926,6|0,3:0|0:0,0:0:0:0:
276,164,52995,1,0,1:0:0:0:
321,164,53070,1,0,1:0:0:0:
366,164,53145,1,0,1:0:0:0:
321,164,53220,1,0,1:0:0:0:
176,280,53295,2,0,L|80:280,1,76.5000014591217,0|0,1:0|1:0,0:0:0:0:
388,312,53595,5,4,3:2:0:0:
236,168,53895,2,0,L|136:168,1,76.5000014591217,2|0,1:2|0:0,0:0:0:0:
324,248,54195,2,0,L|416:248,1,76.5000014591217,2|0,3:2|0:0,0:0:0:0:
312,88,54495,1,0,1:0:0:0:
64,352,54645,6,0,P|36:272|140:180,1,229.500004377365,2|0,0:0|1:0,0:0:0:0:
216,176,55245,1,2,0:0:0:0:
380,88,55395,2,0,L|284:88,1,76.5000014591217,0|0,3:0|3:0,0:0:0:0:
216,88,55695,1,2,1:2:0:0:
428,352,55845,6,0,P|472:280|420:240,1,153.000002918243,0|0,1:0|3:0,0:0:0:0:
268,156,56295,2,0,L|176:156,1,76.5000014591217,2|0,1:2|0:0,0:0:0:0:
356,64,56595,2,0,L|436:64,1,76.5000014591217,2|0,3:2|0:0,0:0:0:0:
344,260,56895,1,0,1:0:0:0:
120,276,57045,6,0,P|76:208|124:176,1,153.000002918243,2|2,0:0|0:0,0:0:0:0:
208,340,57495,2,0,L|296:340,1,76.5000014591217,0|2,1:0|0:0,0:0:0:0:
124,240,57795,1,0,1:0:0:0:
86,240,57870,1,0,1:0:0:0:
124,240,57945,1,2,1:2:0:0:
336,232,58095,1,2,1:2:0:0:
336,232,58170,1,0,1:0:0:0:
336,232,58245,1,2,1:2:0:0:
100,112,58395,6,0,L|184:112,1,76.5000014591217,4|0,3:1|0:0,0:0:0:0:
264,108,58695,1,2,1:2:0:0:
100,292,58845,2,0,L|188:292,1,76.5000014591217,0|2,0:0|3:2,0:0:0:0:
256,176,59145,2,0,L|340:176,1,76.5000014591217,0|0,0:0|1:0,0:0:0:0:
120,176,59445,6,0,L|44:176,1,76.5000014591217,2|0,0:0|3:0,0:0:0:0:
132,92,59745,1,2,0:0:0:0:
356,316,59895,2,0,L|452:316,1,76.5000014591217,0|2,1:0|0:0,0:0:0:0:
220,248,60195,2,0,L|128:248,2,76.5000014591217,0|0|2,3:0|3:0|1:2,0:0:0:0:
472,140,60645,6,0,L|316:140,1,153.000002918243,0|0,0:0|0:0,0:0:0:0:
92,296,61095,2,0,L|200:296,1,76.5000014591217,2|0,1:2|0:0,0:0:0:0:
320,200,61395,2,0,L|216:200,1,76.5000014591217,2|0,3:2|0:0,0:0:0:0:
408,344,61695,2,0,L|488:344,1,76.5000014591217,2|0,1:2|0:0,0:0:0:0:
244,264,61995,6,0,P|208:180|260:160,1,153.000002918243,2|2,3:2|1:2,0:0:0:0:
332,64,62445,1,0,0:0:0:0:
100,332,62595,1,2,1:3:0:0:
70,309,62670,1,0,0:0:0:0:
69,272,62745,1,0,1:0:0:0:
97,249,62820,1,0,1:0:0:0:
280,240,62895,2,0,L|376:240,1,76.5000014591217,0|0,1:0|1:0,0:0:0:0:
68,136,63195,6,0,L|160:136,1,76.5000014591217,4|0,3:1|3:0,0:0:0:0:
420,324,63495,2,0,L|336:324,1,76.5000014591217,2|0,1:2|3:0,0:0:0:0:
176,160,63795,2,0,L|268:160,1,76.5000014591217,2|0,1:2|3:0,0:0:0:0:
340,160,64095,1,0,1:0:0:0:
108,320,64245,6,0,L|16:320,1,76.5000014591217,2|0,3:2|1:0,0:0:0:0:
120,248,64545,1,2,3:2:0:0:
336,248,64695,2,0,L|424:248,1,76.5000014591217,0|2,1:0|3:2,0:0:0:0:
248,120,64995,2,0,L|160:120,1,76.5000014591217,0|0,1:0|3:0,0:0:0:0:
84,120,65295,1,0,1:2:0:0:
316,352,65445,6,0,P|360:284|308:240,1,153.000002918243,2|0,3:2|3:0,0:0:0:0:
64,168,65895,2,0,L|172:168,1,76.5000014591217,2|0,1:2|3:0,0:0:0:0:
304,168,66195,2,0,L|400:168,1,76.5000014591217,2|0,1:2|3:0,0:0:0:0:
216,60,66495,2,0,L|124:60,1,76.5000014591217,0|2,1:0|3:2,0:0:0:0:
380,316,66795,6,0,L|380:232,1,76.5000014591217,0|0,1:0|0:0,0:0:0:0:
292,216,67095,1,0,1:0:0:0:
128,128,67245,2,0,L|36:128,1,76.5000014591217,2|0,3:2|1:0,0:0:0:0:
284,52,67545,1,2,3:2:0:0:
196,52,67695,1,2,1:2:0:0:
108,52,67845,1,2,3:2:0:0:
320,288,67995,6,0,L|404:288,1,76.5000014591217,4|0,3:2|3:0,0:0:0:0:
176,284,68295,2,0,L|176:200,1,76.5000014591217,2|0,1:2|3:0,0:0:0:0:
340,216,68595,2,0,L|340:120,1,76.5000014591217,2|0,1:2|3:0,0:0:0:0:
252,120,68895,1,0,1:0:0:0:
32,336,69045,6,0,L|200:336,1,153.000002918243,2|2,3:2|3:2,0:0:0:0:
348,216,69495,2,0,L|268:216,1,76.5000014591217,0|2,1:0|3:2,0:0:0:0:
108,80,69795,2,0,L|208:80,1,76.5000014591217,0|0,1:0|3:0,0:0:0:0:
96,168,70095,1,2,1:2:0:0:
320,312,70245,6,0,L|488:312,1,153.000002918243,0|0,3:0|3:0,0:0:0:0:
308,228,70695,2,0,L|308:140,1,76.5000014591217,2|0,3:2|3:0,0:0:0:0:
144,224,70995,2,0,L|144:144,1,76.5000014591217,2|0,3:2|3:0,0:0:0:0:
308,60,71295,2,0,L|392:60,1,76.5000014591217,2|2,3:2|3:2,0:0:0:0:
168,328,71595,6,0,L|260:328,1,76.5000014591217,2|2,3:2|3:2,0:0:0:0:
324,252,71895,2,0,L|404:252,1,76.5000014591217,2|2,3:2|3:2,0:0:0:0:
136,248,72195,1,0,1:0:0:0:
100,235,72270,1,0,1:0:0:0:
71,210,72345,1,2,1:2:0:0:
55,176,72420,1,0,1:0:0:0:
52,138,72495,1,8,3:0:0:0:
65,102,72570,1,8,3:0:0:0:
90,74,72645,1,8,3:0:0:0:
125,57,72720,1,8,3:0:0:0:
300,328,72795,5,2,1:2:0:0:
376,328,72945,1,2,0:0:0:0:
453,328,73095,1,2,0:0:0:0:
376,328,73245,1,2,0:0:0:0:
32,124,73695,1,2,1:2:0:0:
109,124,73845,1,2,3:2:0:0:
185,124,73995,5,2,3:2:0:0:
109,124,74145,1,2,3:2:0:0:
368,264,74445,1,0,3:0:0:0:
407,264,74520,1,0,3:0:0:0:
268,184,74595,2,0,L|172:184,1,76.5000014591217,2|4,1:3|3:0,0:0:0:0:
356,352,74895,2,0,B|432:352|432:352|392:352,1,114.750002188683,8|0,3:0|0:0,0:0:0:0:
180,348,75195,6,0,L|180:264,1,76.5000014591217,6|2,3:2|3:2,0:0:0:0:
260,172,75495,2,0,L|352:172,1,76.5000014591217,2|2,3:2|3:2,0:0:0:0:
172,172,75795,2,0,P|136:128|136:96,2,76.5000014591217,0|0|2,1:0|0:0|3:2,0:0:0:0:
388,280,76245,6,0,L|468:280,2,76.5000014591217,2|2|2,3:2|3:2|3:2,0:0:0:0:
308,188,76695,2,0,L|212:188,1,76.5000014591217,0|0,0:0|0:0,0:0:0:0:
396,92,76995,2,0,L|484:92,1,76.5000014591217,2|2,1:2|3:2,0:0:0:0:
392,276,77295,2,0,L|304:276,1,76.5000014591217,0|0,0:0|0:0,0:0:0:0:
100,280,77595,6,0,L|24:280,3,76.5000014591217,2|2|2|2,3:2|3:2|3:2|3:2,0:0:0:0:
256,344,78195,2,0,L|340:344,1,76.5000014591217,0|0,1:0|0:0,0:0:0:0:
116,276,78495,5,2,3:2:0:0:
71,216,78645,1,2,3:2:0:0:
71,141,78795,1,2,3:2:0:0:
117,82,78945,1,2,3:2:0:0:
332,280,79095,2,0,L|436:280,1,76.5000014591217,0|0,0:0|0:0,0:0:0:0:
488,192,79395,2,0,L|404:192,1,76.5000014591217,2|2,1:2|3:2,0:0:0:0:
184,272,79695,5,2,3:2:0:0:
120,212,79845,1,2,1:2:0:0:
120,137,79995,1,2,3:2:0:0:
185,78,80145,1,2,3:2:0:0:
400,68,80295,2,0,L|484:68,1,76.5000014591217,2|2,3:2|3:2,0:0:0:0:
320,328,80595,2,0,L|236:328,1,76.5000014591217,0|0,1:0|0:0,0:0:0:0:
324,244,80895,2,0,L|244:244,1,76.5000014591217,2|2,3:2|3:2,0:0:0:0:
32,144,81195,5,2,3:2:0:0:
108,144,81345,1,2,3:2:0:0:
185,144,81495,1,0,0:0:0:0:
448,100,81795,1,2,1:2:0:0:
372,100,81945,1,2,3:2:0:0:
448,100,82095,1,0,0:0:0:0:
80,312,82395,5,2,3:2:0:0:
16,312,82545,1,2,3:2:0:0:
80,312,82695,1,2,3:2:0:0:
144,312,82845,1,2,3:2:0:0:
312,240,82995,2,0,L|404:240,1,76.5000014591217,0|0,1:0|0:0,0:0:0:0:
176,88,83295,5,2,3:2:0:0:
256,168,83445,1,2,3:2:0:0:
295,168,83520,1,0,3:0:0:0:
256,168,83595,1,2,1:2:0:0:
176,88,83745,1,2,3:2:0:0:
260,88,83895,2,0,L|356:88,1,76.5000014591217,0|0,3:0|3:0,0:0:0:0:
172,336,84195,2,0,L|88:336,1,76.5000014591217,2|6,1:3|3:2,0:0:0:0:
16,260,84495,2,0,L|100:260,1,76.5000014591217,0|0,3:0|3:0,0:0:0:0:
328,260,84795,6,0,L|328:172,1,76.5000014591217,4|0,1:0|3:0,0:0:0:0:
248,96,85095,1,2,3:2:0:0:
171,96,85245,1,0,3:0:0:0:
336,360,85395,1,2,1:2:0:0:
412,360,85545,1,0,3:0:0:0:
489,360,85695,1,2,3:2:0:0:
412,360,85845,1,2,3:2:0:0:
184,272,85995,5,0,1:0:0:0:
120,212,86145,1,0,3:0:0:0:
120,137,86295,1,2,3:2:0:0:
185,78,86445,1,0,3:0:0:0:
348,344,86595,1,2,1:2:0:0:
271,344,86745,1,0,3:0:0:0:
195,344,86895,1,2,3:2:0:0:
118,344,87045,1,2,3:2:0:0:
344,260,87195,5,0,1:0:0:0:
408,200,87345,1,0,3:0:0:0:
408,125,87495,1,2,3:2:0:0:
343,66,87645,1,0,3:0:0:0:
180,152,87795,1,2,1:2:0:0:
103,152,87945,1,0,3:0:0:0:
180,152,88095,1,2,3:2:0:0:
256,152,88245,1,0,3:0:0:0:
40,328,88395,6,0,L|40:248,1,76.5000014591217,0|0,1:0|3:0,0:0:0:0:
204,248,88695,2,0,L|364:248,1,153.000002918243,2|0,3:2|1:0,0:0:0:0:
280,176,89145,1,0,3:0:0:0:
116,100,89295,2,0,L|40:100,1,76.5000014591217,2|0,3:2|3:0,0:0:0:0:
276,348,89595,6,0,L|276:256,1,76.5000014591217,4|0,1:2|3:0,0:0:0:0:
356,104,89895,1,2,3:2:0:0:
432,104,90045,1,0,3:0:0:0:
268,224,90195,1,2,1:2:0:0:
191,224,90345,1,0,3:0:0:0:
115,224,90495,1,2,3:2:0:0:
38,224,90645,1,0,3:0:0:0:
256,304,90795,5,2,1:2:0:0:
320,244,90945,1,0,3:0:0:0:
320,169,91095,1,2,3:2:0:0:
255,110,91245,1,0,3:0:0:0:
92,312,91395,1,2,1:2:0:0:
15,312,91545,1,0,3:0:0:0:
248,40,91695,5,2,3:2:0:0:
324,40,91845,1,0,3:0:0:0:
401,40,91995,1,0,1:0:0:0:
324,40,92145,1,0,3:0:0:0:
160,300,92295,1,2,3:2:0:0:
96,240,92445,1,0,3:0:0:0:
96,165,92595,1,0,1:0:0:0:
161,106,92745,1,0,3:0:0:0:
376,312,92895,5,2,3:2:0:0:
385,237,93045,1,0,3:0:0:0:
346,173,93195,1,0,1:0:0:0:
275,147,93345,1,0,3:0:0:0:
112,312,93495,1,2,3:2:0:0:
102,237,93645,1,0,3:0:0:0:
141,173,93795,1,2,1:3:0:0:
212,147,93945,1,0,3:0:0:0:
44,136,94095,1,2,3:2:0:0:
44,59,94245,1,0,3:0:0:0:
344,296,94395,6,0,P|396:216|336:176,1,180,4|0,3:2|0:0,0:0:0:0:
136,300,95037,1,0,1:0:0:0:
136,255,95144,1,0,1:0:0:0:
136,210,95251,1,0,1:0:0:0:
136,171,95359,1,0,1:0:0:0:
316,168,95680,1,0,1:0:0:0:
316,123,95787,1,0,1:0:0:0:
72,168,96109,5,0,1:0:0:0:
72,123,96216,1,0,1:0:0:0:
296,300,96752,1,0,1:0:0:0:
341,300,96859,1,0,1:0:0:0:
172,216,96966,2,0,L|144:176,3,45,0|0|0|0,1:0|1:0|3:0|3:0,0:0:0:0:
316,80,97395,1,2,1:3:0:0:
406,80,97609,1,0,3:0:0:0:
451,80,97716,1,0,3:0:0:0:
224,280,97823,5,4,3:1:0:0:
132,184,98037,2,0,L|224:184,1,90,0|0,0:0|0:0,0:0:0:0:
332,184,98466,2,0,L|392:184,1,45,0|0,3:0|3:0,0:0:0:0:
200,80,98680,2,0,L|100:80,1,90,0|0,1:0|0:0,0:0:0:0:
320,308,99109,1,0,3:0:0:0:
368,308,99216,2,0,L|464:308,1,90,0|0,3:0|0:0,0:0:0:0:
280,136,99537,6,0,L|232:136,1,45,0|0,3:0|3:0,0:0:0:0:
400,56,99966,2,0,L|304:56,1,90,0|0,0:0|3:0,0:0:0:0:
264,56,100287,1,0,3:0:0:0:
84,268,100395,2,0,L|128:268,1,45,0|0,1:0|3:0,0:0:0:0:
372,168,100823,1,0,3:0:0:0:
324,168,100930,2,0,L|216:168,1,90,0|0,3:0|0:0,0:0:0:0:
412,324,101252,6,0,L|464:324,1,45,0|0,3:0|3:0,0:0:0:0:
348,216,101573,2,0,L|284:216,1,45,0|0,0:0|0:0,0:0:0:0:
192,80,101895,2,0,L|244:80,1,45,0|0,3:0|3:0,0:0:0:0:
416,80,102109,2,0,L|356:80,1,45,0|0,1:0|3:0,0:0:0:0:
120,216,102537,2,0,L|56:216,1,45,0|0,3:0|3:0,0:0:0:0:
480,348,102966,6,0,P|492:256|468:224,1,135,4|0,3:2|3:0,0:0:0:0:
220,176,103609,1,0,3:0:0:0:
197,176,103680,1,0,3:0:0:0:
176,176,103752,1,0,3:0:0:0:
344,60,103823,1,0,1:0:0:0:
224,60,104144,1,0,3:0:0:0:
74,60,104465,1,0,3:0:0:0:
364,320,104680,6,0,L|412:320,1,45,4|0,3:1|3:0,0:0:0:0:
272,196,105109,2,0,L|160:196,1,90,0|0,0:0|3:0,0:0:0:0:
228,132,105430,1,0,3:0:0:0:
404,88,105537,2,0,L|504:88,1,90,0|0,1:0|0:0,0:0:0:0:
284,316,105966,1,0,3:0:0:0:
236,316,106073,2,0,L|140:316,1,90,0|0,3:0|0:0,0:0:0:0:
324,140,106394,6,0,L|372:140,1,45,0|0,3:0|3:0,0:0:0:0:
204,60,106823,2,0,L|300:60,1,90,0|0,0:0|3:0,0:0:0:0:
340,60,107144,1,0,3:0:0:0:
160,260,107252,1,0,1:0:0:0:
295,260,107573,1,0,3:0:0:0:
430,260,107894,1,0,3:0:0:0:
132,328,108109,6,0,L|80:328,1,45,0|0,3:0|3:0,0:0:0:0:
224,192,108537,2,0,L|336:192,1,90,0|0,0:0|3:0,0:0:0:0:
360,192,108859,1,0,3:0:0:0:
184,84,108966,2,0,L|124:84,1,45,0|0,1:0|3:0,0:0:0:0:
384,284,109395,1,0,3:0:0:0:
432,220,109502,2,0,L|332:220,1,90,0|0,3:0|0:0,0:0:0:0:
148,108,109823,6,0,L|292:108,2,135,4|0|0,3:2|3:0|3:0,0:0:0:0:
172,48,110537,1,0,3:0:0:0:
196,48,110609,1,0,3:0:0:0:
372,204,110680,1,0,1:0:0:0:
252,204,111001,1,0,3:0:0:0:
102,204,111322,1,0,3:0:0:0:
400,364,111537,5,4,3:1:0:0:
432,332,111644,1,0,3:0:0:0:
447,291,111751,1,0,3:0:0:0:
444,246,111858,1,0,0:0:0:0:
421,208,111965,1,0,3:0:0:0:
384,183,112072,1,0,0:0:0:0:
248,132,112180,1,0,3:0:0:0:
203,132,112287,1,0,3:0:0:0:
380,72,112395,1,0,1:0:0:0:
425,72,112502,1,0,3:0:0:0:
470,72,112609,1,0,3:0:0:0:
425,72,112716,1,0,3:0:0:0:
288,296,112823,1,0,3:0:0:0:
243,296,112930,1,0,3:0:0:0:
288,296,113037,1,0,3:0:0:0:
333,296,113144,1,0,3:0:0:0:
120,296,113252,5,0,3:0:0:0:
88,264,113359,1,0,3:0:0:0:
73,223,113466,1,0,3:0:0:0:
76,178,113573,1,0,3:0:0:0:
99,140,113680,1,0,3:0:0:0:
136,115,113787,1,0,3:0:0:0:
272,64,113895,1,0,3:0:0:0:
317,64,114002,1,0,3:0:0:0:
140,336,114109,1,0,1:0:0:0:
95,336,114216,1,0,3:0:0:0:
140,336,114323,1,0,3:0:0:0:
276,220,114430,1,0,3:0:0:0:
321,220,114537,1,0,3:0:0:0:
276,220,114644,1,0,3:0:0:0:
140,136,114752,1,0,3:0:0:0:
95,136,114859,1,0,3:0:0:0:
308,116,114966,6,0,L|360:116,1,45,4|0,3:1|3:0,0:0:0:0:
188,296,115395,1,0,0:0:0:0:
80,224,115609,2,0,L|140:224,1,45,0|0,3:0|3:0,0:0:0:0:
304,148,115823,2,0,L|372:148,1,45,0|0,1:0|3:0,0:0:0:0:
104,64,116252,1,0,3:0:0:0:
52,128,116359,2,0,L|148:128,1,90,0|0,3:0|0:0,0:0:0:0:
380,288,116680,6,0,L|220:288,1,135,4|0,3:2|3:0,0:0:0:0:
488,172,117323,1,0,3:0:0:0:
488,172,117395,1,0,3:0:0:0:
488,172,117466,1,0,3:0:0:0:
312,80,117537,1,0,1:0:0:0:
177,80,117858,1,0,3:0:0:0:
312,80,118180,1,0,3:0:0:0:
20,284,118395,6,0,L|72:284,1,45,4|0,3:1|3:0,0:0:0:0:
228,180,118823,1,0,0:0:0:0:
120,104,119037,2,0,L|56:104,1,45,0|0,3:0|3:0,0:0:0:0:
256,272,119252,2,0,L|304:272,1,45,0|0,1:0|3:0,0:0:0:0:
464,136,119680,2,0,L|400:136,1,45,0|0,3:0|3:0,0:0:0:0:
176,144,120109,5,0,3:0:0:0:
120,316,120216,1,0,1:0:0:0:
88,280,120323,1,0,1:0:0:0:
76,236,120430,1,0,1:0:0:0:
91,192,120537,1,10,3:0:0:0:
126,157,120644,1,8,3:0:0:0:
264,60,120752,1,4,3:0:0:0:
309,60,120859,1,4,3:0:0:0:
104,60,120966,2,0,L|260:60,2,135,0|4|4,3:0|3:2|3:1,0:0:0:0:
396,264,121823,6,0,L|328:264,1,45,4|0,3:1|3:0,0:0:0:0:
188,136,122252,1,0,0:0:0:0:
80,68,122466,2,0,L|124:68,1,45,0|0,3:0|3:0,0:0:0:0:
304,72,122680,2,0,L|248:72,1,45,0|0,1:0|3:0,0:0:0:0:
96,272,123109,2,0,L|40:272,1,45,0|0,3:0|3:0,0:0:0:0:
456,320,123537,5,2,3:2:0:0:
501,320,123644,1,0,3:0:0:0:
456,320,123751,1,0,3:0:0:0:
320,204,123858,1,2,3:2:0:0:
275,204,123965,1,0,3:0:0:0:
320,204,124072,1,0,0:0:0:0:
456,120,124180,1,2,3:2:0:0:
501,120,124287,1,0,3:0:0:0:
288,120,124395,1,2,3:2:0:0:
243,120,124502,1,0,3:0:0:0:
198,120,124609,1,0,3:0:0:0:
60,312,124716,1,2,3:2:0:0:
105,312,124823,1,0,3:0:0:0:
150,312,124930,1,0,3:0:0:0:
288,308,125037,1,2,3:2:0:0:
333,308,125144,1,0,3:0:0:0:
120,172,125252,6,0,L|264:172,2,135,6|4|0,3:2|3:1|3:0,0:0:0:0:
144,104,125966,1,0,3:0:0:0:
166,104,126037,1,0,3:0:0:0:
340,68,126109,2,0,L|200:68,2,135,4|8|4,1:0|3:0|3:0,0:0:0:0:
32,292,126966,5,6,3:2:0:0:
256,192,127325,12,0,129480,0:0:0:0:
256,192,129840,12,0,132173,0:0:0:0:
256,192,132506,12,0,134764,0:0:0:0:
256,192,135086,12,0,137406,0:0:0:0:
256,192,137737,12,0,140123,0:0:0:0:
256,192,140464,12,0,142810,0:0:0:0:
256,192,143145,12,0,145465,0:0:0:0:
256,192,145796,12,0,147983,0:0:0:0:
356,192,148296,5,2,0:0:0:0:
275,192,148462,1,0,0:0:0:0:
194,192,148629,1,2,0:0:0:0:
113,192,148795,1,2,0:0:0:0:
404,116,149462,1,2,0:0:0:0:
444,116,149545,1,2,0:0:0:0:
485,116,149628,5,2,0:0:0:0:
444,116,149712,1,2,0:0:0:0:
403,116,149795,1,2,0:0:0:0:
320,116,149962,1,2,0:0:0:0:
239,116,150128,1,2,0:0:0:0:
158,116,150295,1,2,0:0:0:0:
239,116,150462,1,0,0:0:0:0:
420,232,150629,1,2,0:0:0:0:
339,232,150795,1,0,0:0:0:0:
258,232,150962,5,0,0:0:0:0:
76,128,151129,1,0,0:0:0:0:
157,128,151295,1,2,0:0:0:0:
76,128,151462,1,2,0:0:0:0:
236,260,151796,5,2,0:0:0:0:
276,260,151879,1,2,0:0:0:0:
317,260,151962,1,2,0:0:0:0:
276,260,152046,1,2,0:0:0:0:
235,260,152129,1,2,0:0:0:0:
195,260,152212,1,2,0:0:0:0:
154,260,152295,5,2,0:0:0:0:
195,260,152379,1,2,0:0:0:0:
236,260,152462,1,0,0:0:0:0:
412,152,152629,1,0,0:0:0:0:
493,152,152795,1,2,0:0:0:0:
412,152,152962,1,2,0:0:0:0:
331,152,153128,1,0,0:0:0:0:
148,60,153296,1,2,0:0:0:0:
229,60,153462,1,2,0:0:0:0:
310,60,153629,5,0,0:0:0:0:
391,60,153795,1,0,0:0:0:0:
216,160,153962,1,2,0:0:0:0:
135,160,154128,1,2,0:0:0:0:
428,268,154796,1,2,0:0:0:0:
468,268,154879,1,2,0:0:0:0:
428,268,154962,5,2,0:0:0:0:
344,268,155129,1,2,0:0:0:0:
303,268,155212,1,2,0:0:0:0:
263,268,155295,1,0,0:0:0:0:
180,160,155462,1,2,0:0:0:0:
261,160,155628,1,2,0:0:0:0:
342,160,155795,1,2,0:0:0:0:
164,56,155962,1,2,0:0:0:0:
83,56,156128,1,2,0:0:0:0:
164,56,156296,5,2,0:0:0:0:
340,300,156462,1,0,0:0:0:0:
421,300,156628,1,2,0:0:0:0:
502,300,156795,1,2,0:0:0:0:
112,152,157796,5,2,0:0:0:0:
193,152,157962,1,2,0:0:0:0:
274,152,158129,1,0,0:0:0:0:
193,152,158296,1,2,0:0:0:0:
152,152,158379,1,2,0:0:0:0:
276,68,158462,1,2,0:0:0:0:
316,68,158545,1,2,0:0:0:0:
357,68,158628,1,2,0:3:0:0:
397,68,158712,1,2,0:0:0:0:
438,68,158795,1,2,0:0:0:0:
478,68,158878,1,0,0:0:0:0:
352,308,158962,6,0,L|260:308,1,80.9999975280763,10|0,0:0|0:0,0:0:0:0:
352,224,159296,2,0,L|448:224,1,80.9999975280763,10|2,0:0|0:0,0:0:0:0:
352,148,159629,2,0,L|352:56,1,80.9999975280763,8|0,0:0|0:0,0:0:0:0:
432,148,159962,2,0,L|432:64,1,80.9999975280763,8|0,0:0|0:0,0:0:0:0:
252,252,160296,5,10,0:0:0:0:
211,252,160379,1,2,0:0:0:0:
171,252,160462,1,2,0:0:0:0:
130,252,160546,1,2,0:0:0:0:
90,252,160629,1,10,0:0:0:0:
172,136,160796,1,2,0:0:0:0:
212,136,160879,1,2,0:0:0:0:
253,136,160962,1,10,0:0:0:0:
172,48,161129,1,2,0:0:0:0:
131,48,161212,1,2,0:0:0:0:
91,48,161295,1,10,0:0:0:0:
172,220,161462,1,2,0:0:0:0:
352,220,161629,6,0,L|448:220,1,80.9999975280763,10|0,0:0|0:0,0:0:0:0:
352,128,161962,2,0,L|256:128,1,80.9999975280763,10|2,0:0|0:0,0:0:0:0:
92,152,162296,2,0,L|92:72,1,80.9999975280763,8|0,0:0|0:0,0:0:0:0:
172,152,162629,2,0,L|172:68,1,80.9999975280763,8|2,0:0|0:0,0:0:0:0:
212,72,162879,1,2,0:0:0:0:
252,72,162962,5,10,0:0:0:0:
293,72,163045,1,2,0:0:0:0:
333,72,163129,1,2,0:0:0:0:
374,72,163212,1,0,0:0:0:0:
252,232,163295,2,0,L|136:232,1,80.9999975280763,8|2,0:0|0:0,0:0:0:0:
352,324,163629,2,0,L|460:324,1,80.9999975280763,10|0,0:0|0:0,0:0:0:0:
252,128,163962,2,0,L|164:128,1,80.9999975280763,10|2,0:0|0:0,0:0:0:0:
352,204,164295,6,0,L|352:120,1,80.9999975280763,10|0,0:0|0:0,0:0:0:0:
172,280,164629,1,10,0:0:0:0:
256,280,164795,1,2,0:0:0:0:
296,280,164878,1,2,0:0:0:0:
337,280,164961,1,10,0:0:0:0:
377,280,165045,1,2,0:0:0:0:
252,152,165129,1,2,0:0:0:0:
211,152,165212,1,2,0:0:0:0:
171,152,165295,1,10,0:0:0:0:
130,152,165379,1,2,0:0:0:0:
256,280,165462,1,2,0:0:0:0:
296,280,165545,1,2,0:0:0:0:
337,280,165628,5,10,0:0:0:0:
377,280,165712,1,2,0:0:0:0:
252,68,165795,2,0,L|160:68,1,80.9999975280763,0|10,0:0|0:0,0:0:0:0:
352,156,166129,2,0,L|260:156,2,80.9999975280763,0|10|2,0:0|0:0|0:0,0:0:0:0:
172,256,166629,2,0,L|276:256,1,80.9999975280763,10|2,0:0|0:0,0:0:0:0:
432,164,166962,6,0,L|344:164,1,80.9999975280763,10|0,0:0|0:0,0:0:0:0:
172,164,167295,2,0,L|64:164,1,80.9999975280763,10|2,0:0|0:0,0:0:0:0:
272,336,167629,2,0,L|272:248,1,80.9999975280763,8|0,0:0|0:0,0:0:0:0:
92,340,167962,2,0,L|92:244,1,80.9999975280763,8|0,0:0|0:0,0:0:0:0:
368,160,168295,5,12,3:0:0:0:
92,340,168462,1,2,0:0:0:0:
60,268,168628,1,2,0:0:0:0:
120,211,168795,1,2,0:0:0:0:
300,208,168962,1,2,0:0:0:0:
381,208,169128,1,2,0:0:0:0:
462,208,169295,1,2,0:3:0:0:
381,208,169462,1,2,0:0:0:0:
76,288,169629,6,0,L|76:188,1,80.9999975280763,4|0,3:2|3:0,0:0:0:0:
160,204,169962,1,0,1:0:0:0:
420,284,170129,2,0,P|468:220|408:176,1,161.999995056153,0|0,3:0|0:0,0:0:0:0:
336,176,170629,1,0,1:0:0:0:
76,176,170795,6,0,P|28:104|92:68,1,161.999995056153,2|2,0:0|0:0,0:0:0:0:
156,68,171295,1,2,1:2:0:0:
416,316,171462,2,0,L|500:316,2,80.9999975280763,0|2|0,3:0|3:2|3:0,0:0:0:0:
236,148,171962,2,0,L|140:148,1,80.9999975280763,2|2,1:2|3:2,0:0:0:0:
416,68,172295,5,0,3:0:0:0:
335,68,172461,1,2,3:2:0:0:
254,68,172628,1,0,1:0:0:0:
436,288,172795,2,0,P|484:216|420:180,1,161.999995056153,2|2,3:2|0:0,0:0:0:0:
356,176,173295,1,0,1:0:0:0:
176,268,173462,6,0,L|12:268,1,161.999995056153,2|2,0:0|0:0,0:0:0:0:
96,196,173962,1,0,1:0:0:0:
360,192,174129,2,0,L|444:192,1,80.9999975280763,2|0,3:2|3:0,0:0:0:0:
260,92,174462,1,2,3:2:0:0:
179,92,174628,1,2,1:3:0:0:
98,92,174795,1,0,3:0:0:0:
372,320,174962,6,0,L|472:320,2,80.9999975280763,2|0|2,3:2|0:0|1:2,0:0:0:0:
112,288,175462,2,0,P|64:216|128:180,1,161.999995056153,2|0,3:2|0:0,0:0:0:0:
192,176,175962,1,2,1:2:0:0:
452,76,176129,6,0,L|276:76,1,161.999995056153,2|2,0:0|0:0,0:0:0:0:
208,76,176629,1,0,1:0:0:0:
388,264,176795,2,0,L|480:264,2,80.9999975280763,2|2|2,3:2|3:2|3:2,0:0:0:0:
208,264,177295,2,0,L|120:264,1,80.9999975280763,0|2,1:0|3:2,0:0:0:0:
392,160,177629,6,0,L|472:160,2,80.9999975280763,0|2|0,3:0|3:2|1:0,0:0:0:0:
132,64,178129,2,0,L|300:64,1,161.999995056153,2|2,3:2|0:0,0:0:0:0:
212,120,178629,1,0,1:0:0:0:
392,340,178795,6,0,P|440:268|376:232,1,161.999995056153,2|2,0:0|0:0,0:0:0:0:
312,232,179295,1,0,1:0:0:0:
52,144,179462,2,0,L|240:144,1,161.999995056153,2|2,3:2|3:2,0:0:0:0:
172,72,179879,1,0,0:0:0:0:
128,224,179962,1,2,1:3:0:0:
84,224,180045,1,0,0:0:0:0:
40,56,180129,2,0,L|84:56,1,40.4999987640381,2|0,3:2|3:0,0:0:0:0:
300,348,180295,6,0,L|300:256,1,80.9999975280763,4|0,1:2|3:0,0:0:0:0:
120,136,180629,2,0,L|36:136,1,80.9999975280763,0|0,1:0|3:0,0:0:0:0:
220,232,180962,2,0,L|320:232,1,80.9999975280763,0|0,1:0|3:0,0:0:0:0:
120,328,181295,2,0,L|16:328,1,80.9999975280763,0|0,1:0|3:0,0:0:0:0:
220,156,181629,6,0,L|132:156,1,80.9999975280763,0|0,1:0|3:0,0:0:0:0:
320,244,181962,2,0,L|416:244,1,80.9999975280763,0|0,1:0|3:0,0:0:0:0:
220,72,182295,2,0,L|324:72,1,80.9999975280763,0|0,1:0|3:0,0:0:0:0:
120,264,182629,2,0,L|40:264,1,80.9999975280763,0|0,1:0|3:0,0:0:0:0:
80,196,182879,1,0,3:0:0:0:
280,268,182962,6,0,L|280:180,1,80.9999975280763,4|0,1:0|3:0,0:0:0:0:
100,120,183295,2,0,L|100:36,1,80.9999975280763,0|0,1:0|3:0,0:0:0:0:
280,268,183629,2,0,L|280:180,1,80.9999975280763,0|0,1:0|3:0,0:0:0:0:
460,272,183962,2,0,L|368:272,1,80.9999975280763,0|0,1:0|3:0,0:0:0:0:
200,272,184295,6,0,L|200:168,1,80.9999975280763,0|0,1:0|3:0,0:0:0:0:
380,168,184629,2,0,L|380:72,1,80.9999975280763,0|0,1:0|3:0,0:0:0:0:
200,88,184962,2,0,L|108:88,1,80.9999975280763,0|0,1:0|3:0,0:0:0:0:
300,340,185295,2,0,L|300:256,1,80.9999975280763,0|0,1:0|3:0,0:0:0:0:
256,260,185545,1,0,3:0:0:0:
48,156,185629,6,0,L|136:156,1,80.9999975280763,4|0,1:0|3:0,0:0:0:0:
308,156,185962,2,0,L|224:156,1,80.9999975280763,0|0,1:0|3:0,0:0:0:0:
408,68,186295,2,0,L|320:68,1,80.9999975280763,0|0,1:0|3:0,0:0:0:0:
144,316,186629,2,0,L|52:316,1,80.9999975280763,0|0,1:0|3:0,0:0:0:0:
104,248,186879,1,0,3:0:0:0:
272,276,186962,6,0,L|360:276,1,80.9999975280763,4|0,1:0|3:0,0:0:0:0:
172,140,187295,2,0,L|80:140,1,80.9999975280763,0|0,1:0|3:0,0:0:0:0:
272,208,187629,2,0,L|272:116,1,80.9999975280763,0|0,1:0|3:0,0:0:0:0:
92,316,187962,2,0,L|92:224,1,80.9999975280763,0|0,1:0|3:0,0:0:0:0:
136,236,188212,1,0,3:0:0:0:
344,320,188295,6,0,L|448:320,1,80.9999975280763,4|0,1:0|3:0,0:0:0:0:
244,240,188629,2,0,L|244:152,1,80.9999975280763,0|0,1:0|3:0,0:0:0:0:
424,88,188962,2,0,L|504:88,1,80.9999975280763,4|0,1:2|3:0,0:0:0:0:
324,240,189295,2,0,L|324:152,1,80.9999975280763,0|0,1:0|3:0,0:0:0:0:
280,160,189545,1,0,3:0:0:0:
112,64,189629,6,0,L|28:64,1,80.9999975280763,4|0,1:0|3:0,0:0:0:0:
212,332,189962,2,0,L|212:240,1,80.9999975280763,4|0,1:0|3:0,0:0:0:0:
484,84,190295,1,4,1:0:0:0:
328,84,190462,1,0,1:0:0:0:
172,84,190629,1,2,1:3:0:0:
16,84,190795,1,0,1:0:0:0:
332,280,190962,6,0,L|420:280,1,80.9999975280763,6|2,3:2|3:2,0:0:0:0:
252,156,191462,1,2,3:2:0:0:
64,244,191629,2,0,L|148:244,1,80.9999975280763,0|2,1:0|3:2,0:0:0:0:
308,240,192129,6,0,L|144:240,1,161.999995056153,2|2,3:2|3:2,0:0:0:0:
308,104,192795,1,2,3:2:0:0:
120,68,192962,2,0,L|208:68,1,80.9999975280763,0|2,1:0|3:2,0:0:0:0:
364,208,193462,1,2,3:2:0:0:
104,308,193629,6,0,L|24:308,1,80.9999975280763,2|2,3:2|3:2,0:0:0:0:
184,152,194129,1,2,3:2:0:0:
372,72,194295,2,0,L|464:72,1,80.9999975280763,0|2,1:0|3:2,0:0:0:0:
292,72,194795,6,0,L|128:72,1,161.999995056153,2|2,3:2|3:2,0:0:0:0:
292,176,195462,1,2,3:2:0:0:
104,280,195629,2,0,L|16:280,1,80.9999975280763,0|2,1:0|3:2,0:0:0:0:
184,100,196129,1,2,3:2:0:0:
444,64,196295,6,0,L|356:64,1,80.9999975280763,2|2,3:2|3:2,0:0:0:0:
200,260,196795,1,2,3:2:0:0:
388,192,196962,2,0,L|476:192,1,80.9999975280763,0|2,1:0|3:2,0:0:0:0:
304,92,197462,6,0,L|140:92,1,161.999995056153,2|2,3:2|3:2,0:0:0:0:
304,200,198128,1,2,3:2:0:0:
116,292,198295,2,0,L|204:292,1,80.9999975280763,0|2,1:0|3:2,0:0:0:0:
360,288,198795,1,2,3:2:0:0:
100,148,198962,6,0,L|16:148,1,80.9999975280763,2|2,3:2|3:2,0:0:0:0:
184,56,199462,1,2,3:2:0:0:
372,160,199629,2,0,L|464:160,1,80.9999975280763,0|2,1:0|3:2,0:0:0:0:
292,244,200129,1,2,3:2:0:0:
32,312,200295,6,0,L|116:312,3,80.9999975280763,2|2|2|2,3:2|3:2|3:2|3:2,0:0:0:0:
396,320,200962,1,10,3:2:0:0:
435,311,201045,1,0,0:0:0:0:
466,285,201128,1,2,3:2:0:0:
482,249,201212,1,0,0:0:0:0:
481,209,201295,1,2,3:2:0:0:
462,173,201378,1,0,0:0:0:0:
430,150,201462,1,2,3:2:0:0:
390,143,201545,1,0,0:0:0:0:
176,244,201629,6,0,L|176:148,1,80.9999975280763,4|2,3:2|3:2,0:0:0:0:
336,104,202129,1,2,3:2:0:0:
148,176,202295,2,0,L|148:84,1,80.9999975280763,0|2,1:0|3:2,0:0:0:0:
312,276,202795,6,0,L|132:276,1,161.999995056153,2|2,3:2|3:2,0:0:0:0:
312,136,203462,1,2,3:2:0:0:
124,136,203629,2,0,L|124:36,1,80.9999975280763,2|2,1:2|3:2,0:0:0:0:
312,48,203962,2,0,L|400:48,1,80.9999975280763,2|2,0:0|3:2,0:0:0:0:
132,312,204295,6,0,L|132:224,1,80.9999975280763,2|2,3:2|3:2,0:0:0:0:
292,180,204795,1,2,3:2:0:0:
480,344,204962,2,0,L|480:256,1,80.9999975280763,0|2,1:0|3:2,0:0:0:0:
316,76,205462,6,0,L|488:76,1,161.999995056153,2|2,3:2|3:2,0:0:0:0:
316,168,206129,1,2,3:2:0:0:
128,168,206295,2,0,L|128:80,1,80.9999975280763,0|2,1:0|3:2,0:0:0:0:
316,284,206629,2,0,L|204:284,1,80.9999975280763,2|2,0:0|3:2,0:0:0:0:
496,348,206962,6,0,L|496:256,1,80.9999975280763,2|2,3:2|3:2,0:0:0:0:
336,124,207462,1,2,3:2:0:0:
148,256,207629,2,0,L|148:164,1,80.9999975280763,0|2,1:0|3:2,0:0:0:0:
312,48,208129,6,0,L|136:48,1,161.999995056153,2|2,3:2|3:2,0:0:0:0:
312,144,208795,1,2,3:2:0:0:
124,320,208962,2,0,L|124:228,1,80.9999975280763,0|2,1:0|3:2,0:0:0:0:
208,192,209295,1,0,0:0:0:0:
396,328,209462,6,0,L|484:328,2,80.9999975280763,2|2|2,3:2|3:2|3:2,0:0:0:0:
312,204,209962,2,0,L|232:204,1,80.9999975280763,0|2,3:0|3:2,0:0:0:0:
44,112,210295,2,0,L|216:112,1,161.999995056153,0|0,1:0|3:0,0:0:0:0:
392,104,210795,1,2,3:2:0:0:
128,108,210962,6,0,L|36:108,3,80.9999975280763,2|2|2|2,3:2|3:2|3:2|3:2,0:0:0:0:
308,236,211629,2,0,L|392:236,1,80.9999975280763,10|2,3:2|3:2,0:0:0:0:
192,128,211962,2,0,L|108:128,1,80.9999975280763,2|2,3:2|3:2,0:0:0:0:
396,316,212295,5,4,3:2:0:0:
256,192,212462,12,0,213462,0:0:0:0:
200,116,213629,5,0,1:0:0:0:
159,116,213712,1,0,1:0:0:0:
119,116,213795,1,0,1:0:0:0:
308,212,213962,2,0,L|404:212,1,80.9999975280763,0|0,3:0|3:0,0:0:0:0:
200,352,214295,1,0,3:0:0:0:
164,328,214378,1,0,3:0:0:0:
163,288,214461,1,0,3:0:0:0:
197,259,214545,1,0,3:0:0:0:
392,356,214629,2,0,P|420:288|384:260,1,121.499996292114,2|0,1:3|0:0,0:0:0:0:
152,104,214962,6,0,L|248:104,1,80.9999975280763,4|2,3:2|3:2,0:0:0:0:
316,160,215295,2,0,L|232:160,1,80.9999975280763,0|2,0:0|3:2,0:0:0:0:
416,280,215629,2,0,P|456:236|456:208,2,80.9999975280763,0|0|0,1:0|0:0|0:0,0:0:0:0:
156,104,216129,6,0,L|328:104,1,161.999995056153,2|0,3:2|3:0,0:0:0:0:
356,68,216545,1,0,3:0:0:0:
315,68,216628,1,0,3:0:0:0:
275,68,216711,1,0,0:0:0:0:
234,68,216795,1,0,3:0:0:0:
416,272,216962,2,0,L|496:272,2,80.9999975280763,0|2|2,1:0|3:2|3:2,0:0:0:0:
336,272,217462,1,2,3:2:0:0:
76,152,217629,6,0,L|176:152,1,80.9999975280763,0|2,3:0|3:2,0:0:0:0:
240,152,217962,1,0,0:0:0:0:
500,56,218129,2,0,L|416:56,1,80.9999975280763,2|0,3:2|1:0,0:0:0:0:
240,288,218462,2,0,L|240:200,1,80.9999975280763,2|0,3:2|0:0,0:0:0:0:
420,288,218795,2,0,L|420:196,1,80.9999975280763,2|0,3:2|0:0,0:0:0:0:
80,68,219629,5,0,1:0:0:0:
121,68,219712,1,0,3:0:0:0:
161,68,219795,1,0,3:0:0:0:
244,156,219962,1,0,3:0:0:0:
163,156,220128,1,0,3:0:0:0:
82,156,220295,1,0,3:0:0:0:
164,256,220462,5,2,3:2:0:0:
424,248,220629,2,0,L|508:248,2,80.9999975280763,0|2|0,0:0|3:2|1:0,0:0:0:0:
244,128,221129,2,0,L|152:128,1,80.9999975280763,2|0,3:2|0:0,0:0:0:0:
432,356,221462,6,0,P|480:284|428:252,1,161.999995056153,2|0,3:2|3:0,0:0:0:0:
392,252,221879,1,0,3:0:0:0:
352,252,221962,1,0,3:0:0:0:
311,252,222045,1,0,3:0:0:0:
271,252,222129,1,0,3:0:0:0:
92,128,222295,1,0,1:0:0:0:
176,52,222462,1,2,3:2:0:0:
95,52,222628,1,2,3:2:0:0:
14,52,222795,1,2,3:2:0:0:
95,52,222962,5,0,3:0:0:0:
344,224,223129,2,0,L|424:224,1,80.9999975280763,2|0,3:2|0:0,0:0:0:0:
160,104,223462,2,0,L|76:104,1,80.9999975280763,2|0,3:2|1:0,0:0:0:0:
260,332,223795,2,0,L|260:232,1,80.9999975280763,2|0,3:2|0:0,0:0:0:0:
76,336,224129,2,0,L|76:248,1,80.9999975280763,2|0,3:2|0:0,0:0:0:0:
420,288,224962,5,0,1:0:0:0:
380,288,225045,1,0,3:0:0:0:
339,288,225128,1,0,3:0:0:0:
419,160,225295,2,0,L|339:160,1,80.9999975280763,0|0,3:0|3:0,0:0:0:0:
72,316,225629,5,4,3:2:0:0:
27,249,225795,1,0,3:0:0:0:
34,170,225962,1,0,3:0:0:0:
87,112,226128,1,0,3:0:0:0:
348,108,226295,1,0,1:0:0:0:
204,264,226629,1,0,0:0:0:0:
488,192,226962,6,0,L|316:192,1,161.999995056153,0|0,0:0|0:0,0:0:0:0:
472,296,227629,1,0,1:0:0:0:
212,192,227795,1,0,3:0:0:0:
171,192,227878,1,0,3:0:0:0:
344,344,227962,1,0,3:0:0:0:
376,316,228045,1,0,3:0:0:0:
374,276,228128,1,0,3:0:0:0:
340,250,228212,1,0,3:0:0:0:
168,72,228295,5,0,3:0:0:0:
87,72,228461,1,0,3:0:0:0:
6,72,228628,1,0,3:0:0:0:
87,72,228795,1,0,3:0:0:0:
340,184,228962,2,0,L|504:184,1,161.999995056153,0|0,1:0|0:0,0:0:0:0:
208,280,229629,6,0,L|32:280,1,161.999995056153,0|0,0:0|0:0,0:0:0:0:
464,128,230295,1,0,1:0:0:0:
423,128,230378,1,0,3:0:0:0:
383,128,230461,1,0,3:0:0:0:
200,132,230629,1,0,3:0:0:0:
159,132,230712,1,0,3:0:0:0:
119,132,230795,1,0,3:0:0:0:
380,260,230962,5,0,3:0:0:0:
299,260,231128,1,0,3:0:0:0:
380,260,231295,1,0,3:0:0:0:
461,260,231462,1,0,3:0:0:0:
200,108,231629,1,0,1:0:0:0:
344,108,231962,1,0,0:0:0:0:
60,228,232295,6,0,L|244:228,1,161.999995056153,0|0,0:0|0:0,0:0:0:0:
368,224,232962,1,0,1:0:0:0:
108,88,233129,1,0,3:0:0:0:
67,88,233212,1,0,3:0:0:0:
236,296,233295,1,0,3:0:0:0:
272,272,233378,1,0,3:0:0:0:
272,232,233461,1,0,3:0:0:0:
236,202,233545,1,0,3:0:0:0:
56,128,233629,5,0,3:0:0:0:
137,128,233795,1,0,3:0:0:0:
218,128,233962,1,0,3:0:0:0:
137,128,234128,1,0,3:0:0:0:
340,256,234295,2,0,L|504:256,1,161.999995056153,0|0,1:0|0:0,0:0:0:0:
208,60,234962,6,0,L|32:60,1,161.999995056153,0|0,0:0|0:0,0:0:0:0:
452,108,235629,1,0,1:0:0:0:
493,108,235712,1,0,3:0:0:0:
452,108,235795,1,0,3:0:0:0:
208,208,235962,1,0,1:0:0:0:
249,208,236045,1,0,3:0:0:0:
289,208,236128,1,0,3:0:0:0:
