osu file format v14

[General]
AudioFilename: audio.mp3
AudioLeadIn: 0
PreviewTime: 53595
Countdown: 0
SampleSet: Soft
StackLeniency: 0.7
Mode: 0
LetterboxInBreaks: 0
WidescreenStoryboard: 1

[Editor]
DistanceSpacing: 1.1
BeatDivisor: 4
GridSize: 4
TimelineZoom: 1.800004

[Metadata]
Title:Closure
TitleUnicode:Closure
Artist:Asking Alexandria
ArtistUnicode:Asking Alexandria
Creator:Bearizm
Version:Stingy's Hard
Source:
Tags:Reckless & Relentless Metalcore Electronicore Post Hardcore Scream Sumerian Records Danny Worsnop Ben Bruce James Cassells Cameron Liddell Sam Bettley LMT Drummer Stingy beaw English Rock
BeatmapID:2812704
BeatmapSetID:887832

[Difficulty]
HPDrainRate:5
CircleSize:3.5
OverallDifficulty:6
ApproachRate:7.5
SliderMultiplier:1.40000000596046
SliderTickRate:1

[Events]
//Background and Video events
0,0,"Closure.jpg",0,0
//Break Periods
2,39678,42555
2,73045,74055
2,94645,96383
2,132756,146856
//Storyboard Layer 0 (Background)
//Storyboard Layer 1 (Fail)
//Storyboard Layer 2 (Pass)
//Storyboard Layer 3 (Foreground)
//Storyboard Layer 4 (Overlay)
//Storyboard Sound Samples

[TimingPoints]
50,428.571428571429,4,2,1,60,1,0
1657,-100,4,2,1,5,0,0
1764,-100,4,2,1,60,0,0
5085,-100,4,2,1,5,0,0
5192,-100,4,2,1,60,0,0
5621,-100,4,2,1,5,0,0
5728,-100,4,2,1,60,0,0
10228,-100,4,2,1,5,0,0
10335,-100,4,2,1,60,0,0
12050,-100,4,2,1,70,0,0
12478,-100,4,2,1,75,0,0
12907,-100,4,2,1,80,0,0
13335,-100,4,2,1,85,0,0
13550,-100,4,2,1,60,0,0
13764,-90.9090909090909,4,2,1,90,0,0
13871,-90.9090909090909,4,2,1,5,0,0
13978,-90.9090909090909,4,2,1,90,0,0
17300,-90.9090909090909,4,2,1,5,0,0
17407,-90.9090909090909,4,2,1,90,0,0
20567,-90.9090909090909,4,2,1,5,0,0
20621,-90.9090909090909,4,2,1,90,0,0
20728,-90.9090909090909,4,2,1,5,0,0
20835,-90.9090909090909,4,2,1,90,0,0
24157,-90.9090909090909,4,2,1,5,0,0
24264,-90.9090909090909,4,2,1,90,0,0
25978,-90.9090909090909,4,2,0,70,0,0
26407,-90.9090909090909,4,2,1,90,0,0
28228,-90.9090909090909,4,2,1,5,0,0
28335,-90.9090909090909,4,2,1,90,0,0
29085,-90.9090909090909,4,2,1,5,0,0
29192,-90.9090909090909,4,2,1,90,0,0
29942,-90.9090909090909,4,2,1,5,0,0
30050,-90.9090909090909,4,2,1,90,0,0
30800,-90.9090909090909,4,2,1,5,0,0
30907,-90.9090909090909,4,2,1,90,0,0
31657,-90.9090909090909,4,2,1,5,0,0
31764,-90.9090909090909,4,2,1,90,0,0
32514,-90.9090909090909,4,2,1,5,0,0
32621,-90.9090909090909,4,2,1,90,0,0
33371,-90.9090909090909,4,2,1,5,0,0
33478,-90.9090909090909,4,2,1,90,0,0
34282,-90.9090909090909,4,2,1,5,0,0
34335,-90.9090909090909,4,2,1,90,0,0
35085,-90.9090909090909,4,2,1,5,0,0
35192,-90.9090909090909,4,2,1,90,0,0
35942,-90.9090909090909,4,2,1,5,0,0
36050,-90.9090909090909,4,2,1,90,0,0
36800,-90.9090909090909,4,2,1,5,0,0
36907,-90.9090909090909,4,2,1,90,0,0
37657,-90.9090909090909,4,2,1,5,0,0
37764,-90.9090909090909,4,2,1,90,0,0
38514,-90.9090909090909,4,2,1,5,0,0
38621,-90.9090909090909,4,2,1,90,0,0
39050,-90.9090909090909,4,2,1,5,0,0
39157,-90.9090909090909,4,2,1,90,0,0
39371,-90.9090909090909,4,2,1,5,0,0
39478,472.44094488189,4,2,1,90,1,0
39596,-100,4,2,1,40,0,0
41131,-100,4,2,1,10,0,0
41367,615.384615384615,4,2,1,50,1,0
41520,428.571428571429,4,2,1,50,1,0
41734,400,4,2,1,50,1,0
41940,476.190476190476,4,2,1,50,1,0
42178,361.44578313253,4,2,1,50,1,0
42358,352.941176470588,4,2,1,50,1,0
42534,461.538461538462,4,2,1,50,1,0
42764,428.571428571429,4,2,1,50,1,0
42871,461.538461538462,4,2,1,50,1,0
43101,333.333333333333,4,2,1,50,1,0
43267,300,4,2,1,50,1,0
43567,319.148936170213,4,2,1,50,1,0
44045,300,4,2,1,60,1,0
44045,-100,4,2,1,60,0,0
52445,-100,4,2,1,60,0,0
53045,-100,4,2,1,70,0,0
53645,-90.9090909090909,4,2,1,90,0,1
63170,-100,4,2,1,90,0,0
63245,-90.9090909090909,4,2,1,100,0,1
72845,-100,4,2,1,70,0,0
75245,-111.111111111111,4,2,1,90,0,0
84845,-100,4,2,1,90,0,1
94445,428.571428571429,4,2,1,90,1,0
103230,-100,4,2,1,5,0,0
103337,-100,4,2,1,90,0,0
103552,-100,4,2,1,5,0,0
103659,-100,4,2,1,90,0,0
104087,-100,4,2,1,5,0,0
104195,-100,4,2,1,90,0,0
104409,-100,4,2,1,5,0,0
104516,-100,4,2,1,90,0,0
107516,-100,4,2,1,5,0,0
107623,-100,4,2,1,90,0,0
107837,-100,4,2,1,5,0,0
107945,-100,4,2,1,90,0,0
110087,-100,4,2,1,5,0,0
110195,-100,4,2,1,90,0,0
110409,-100,4,2,1,5,0,0
110516,-100,4,2,1,90,0,0
116945,-100,4,2,1,5,0,0
117052,-100,4,2,1,90,0,0
117266,-100,4,2,1,5,0,0
117373,-100,4,2,1,90,0,0
121230,-100,4,2,1,5,0,0
121337,-100,4,2,1,90,0,0
121552,-100,4,2,1,5,0,0
121659,-100,4,2,1,90,0,0
125302,-86.9565217391304,4,2,1,90,0,1
125516,-86.9565217391304,4,2,1,5,0,1
125623,-86.9565217391304,4,2,1,90,0,1
125837,-86.9565217391304,4,2,1,5,0,1
125945,-86.9565217391304,4,2,1,90,0,1
126373,-86.9565217391304,4,2,1,5,0,1
126480,-86.9565217391304,4,2,1,90,0,1
126695,-86.9565217391304,4,2,1,5,0,1
126802,-86.9565217391304,4,2,1,90,0,1
126909,-86.9565217391304,4,2,1,5,0,1
127016,718.562874251497,4,2,1,100,1,0
127105,-100,4,2,1,20,0,0
129530,-100,4,2,1,5,0,0
129890,666.666666666667,4,2,1,20,1,0
132223,-100,4,2,1,5,0,0
132556,645.161290322581,4,2,1,20,1,0
134814,-100,4,2,1,5,0,0
135136,662.983425414365,4,2,1,20,1,0
137456,-100,4,2,1,5,0,0
137787,681.818181818182,4,2,1,20,1,0
140173,-100,4,2,1,5,0,0
140514,670.391061452514,4,2,1,20,1,0
142860,-100,4,2,1,5,0,0
143195,662.983425414365,4,2,1,20,1,0
145515,-100,4,2,1,5,0,0
145846,625,4,2,1,20,1,0
148033,-100,4,2,1,5,0,0
148346,333.333333333333,4,2,1,30,1,0
148346,-133.333333333333,4,2,1,30,0,0
158012,-133.333333333333,4,2,1,30,0,0
159012,-125,4,2,2,30,0,0
159346,-125,4,2,2,33,0,0
159679,-125,4,2,2,35,0,0
160012,-125,4,2,2,38,0,0
160346,-125,4,2,2,40,0,0
160679,-125,4,2,2,43,0,0
161012,-125,4,2,2,45,0,0
161346,-125,4,2,2,48,0,0
161679,-117.647058823529,4,2,2,50,0,0
162012,-117.647058823529,4,2,2,53,0,0
162346,-117.647058823529,4,2,2,55,0,0
162679,-117.647058823529,4,2,2,58,0,0
163012,-117.647058823529,4,2,2,60,0,0
163345,-117.647058823529,4,2,2,63,0,0
163679,-117.647058823529,4,2,2,65,0,0
164012,-117.647058823529,4,2,2,68,0,0
164345,-111.111111111111,4,2,2,70,0,0
164679,-111.111111111111,4,2,2,73,0,0
165012,-111.111111111111,4,2,2,75,0,0
165345,-111.111111111111,4,2,2,78,0,0
165679,-111.111111111111,4,2,2,80,0,0
166012,-111.111111111111,4,2,2,83,0,0
166345,-111.111111111111,4,2,2,85,0,0
166679,-111.111111111111,4,2,2,88,0,0
167012,-105.263157894737,4,2,2,90,0,0
167345,-105.263157894737,4,2,2,93,0,0
167679,-105.263157894737,4,2,2,95,0,0
168012,-105.263157894737,4,2,2,98,0,0
168345,-105.263157894737,4,2,2,100,0,0
168429,-105.263157894737,4,2,1,80,0,0
169345,-105.263157894737,4,2,1,90,0,0
169679,-100,4,2,1,100,0,1
180262,-100,4,2,1,100,0,0
180345,-90.9090909090909,4,2,1,100,0,1
182095,-90.9090909090909,4,2,1,5,0,1
182179,-90.9090909090909,4,2,1,100,0,1
182262,-90.9090909090909,4,2,1,5,0,1
182345,-90.9090909090909,4,2,1,100,0,1
182429,-90.9090909090909,4,2,1,5,0,1
182512,-90.9090909090909,4,2,1,100,0,1
182595,-90.9090909090909,4,2,1,5,0,1
182679,-90.9090909090909,4,2,1,100,0,1
182762,-90.9090909090909,4,2,1,5,0,1
182845,-90.9090909090909,4,2,1,100,0,1
184762,-90.9090909090909,4,2,1,5,0,1
184845,-90.9090909090909,4,2,1,100,0,1
184929,-90.9090909090909,4,2,1,5,0,1
185012,-90.9090909090909,4,2,1,100,0,1
185095,-90.9090909090909,4,2,1,5,0,1
185179,-90.9090909090909,4,2,1,100,0,1
185262,-90.9090909090909,4,2,1,5,0,1
185345,-90.9090909090909,4,2,1,100,0,1
185429,-90.9090909090909,4,2,1,5,0,1
185512,-90.9090909090909,4,2,1,100,0,1
187095,-90.9090909090909,4,2,1,5,0,1
187179,-90.9090909090909,4,2,1,100,0,1
187262,-90.9090909090909,4,2,1,5,0,1
187345,-90.9090909090909,4,2,1,100,0,1
187429,-90.9090909090909,4,2,1,5,0,1
187512,-90.9090909090909,4,2,1,100,0,1
187595,-90.9090909090909,4,2,1,5,0,1
187679,-90.9090909090909,4,2,1,100,0,1
187762,-90.9090909090909,4,2,1,5,0,1
187845,-90.9090909090909,4,2,1,100,0,1
191012,-100,4,2,1,100,0,0
191179,-100,4,2,1,90,0,0
212429,-100,4,2,1,90,0,0
213512,-100,4,2,1,90,0,0
213679,-100,4,2,1,70,0,0
214929,-100,4,2,1,5,0,0
215012,-100,4,2,1,90,0,0
225679,-100,4,2,1,90,0,1
236179,-100,4,2,1,90,0,0

[Colours]
Combo1 : 255,0,0
Combo2 : 192,192,192
Combo3 : 128,128,128
Combo4 : 255,164,164
Combo5 : 255,125,125
Combo6 : 187,187,255
Combo7 : 94,150,255

[HitObjects]
76,258,50,6,0,B|135:220|135:220|209:249,1,140.000000596046,4|0,3:1|3:0,0:0:0:0:
268,280,692,2,0,B|333:305|333:305|392:267,1,140.000000596046,0|0,1:0|3:0,0:0:0:0:
455,223,1335,2,0,L|450:152,1,70.000000298023,0|0,1:0|0:0,0:0:0:0:
394,98,1764,1,0,1:0:0:0:
394,98,1978,2,0,B|325:112|325:112|297:176,1,140.000000596046,0|0,1:0|3:0,0:0:0:0:
259,251,2621,1,8,0:0:0:0:
160,104,3478,6,0,B|135:169|135:169|173:228,1,140.000000596046,4|0,3:1|3:0,0:0:0:0:
137,296,4121,2,0,B|202:321|202:321|261:283,1,140.000000596046,0|0,1:0|3:0,0:0:0:0:
329,319,4764,2,0,B|354:254|354:254|316:195,1,140.000000596046,0|0,1:0|0:0,0:0:0:0:
372,142,5407,2,0,B|414:207|414:207|465:205,2,105.000000447034,0|0|0,3:0|3:0|3:0,0:0:0:0:
265,263,6478,1,2,1:3:0:0:
115,225,6907,86,0,B|90:290|90:290|128:349,1,140.000000596046,4|0,3:1|3:0,0:0:0:0:
204,341,7550,2,0,B|229:276|229:276|191:217,1,140.000000596046,0|0,1:0|3:0,0:0:0:0:
144,155,8192,2,0,L|134:78,1,70.000000298023,0|0,1:0|0:0,0:0:0:0:
189,31,8621,1,0,1:0:0:0:
189,31,8835,2,0,B|254:56|254:56|313:18,1,140.000000596046,0|0,1:0|3:0,0:0:0:0:
373,65,9478,2,0,B|335:124|335:124|360:189,1,140.000000596046,0|0,3:0|3:0,0:0:0:0:
495,262,10335,6,0,B|430:237|430:237|371:275,1,140.000000596046,4|0,3:1|3:0,0:0:0:0:
310,322,10978,2,0,B|251:360|251:360|186:335,1,140.000000596046,0|0,1:0|3:0,0:0:0:0:
115,303,11621,2,0,L|104:226,1,70.000000298023,0|0,1:0|3:0,0:0:0:0:
37,187,12050,86,0,B|96:149|96:149|161:174,1,140.000000596046,4|0,1:2|1:0,0:0:0:0:
261,56,12907,2,0,L|250:133,1,70.000000298023,4|0,1:0|1:0,0:0:0:0:
335,76,13335,2,0,L|324:153,1,70.000000298023,0|0,1:0|3:0,0:0:0:0:
284,219,13764,22,0,P|335:230|392:201,2,115.500004016518,4|0|0,3:2|3:0|3:0,0:0:0:0:
212,265,14621,2,0,P|161:254|104:283,2,115.500004016518,0|0|0,1:0|3:0|3:0,0:0:0:0:
289,229,15478,2,0,P|340:240|397:211,2,115.500004016518,0|0|0,3:0|3:0|3:0,0:0:0:0:
243,157,16335,2,0,L|232:80,1,77.0000026776789,0|0,1:0|3:0,0:0:0:0:
147,87,16764,2,0,L|158:164,1,77.0000026776789,0|0,1:0|3:0,0:0:0:0:
102,227,17192,6,0,B|125:208|125:208|216:200,2,115.500004016518,0|0|0,3:0|3:0|3:0,0:0:0:0:
128,308,18050,2,0,B|213:300|213:300|236:281,2,115.500004016518,0|0|0,1:0|3:0|3:0,0:0:0:0:
95,223,18907,2,0,B|118:204|118:204|209:196,2,115.500004016518,0|0|0,3:0|3:0|3:0,0:0:0:0:
17,257,19764,2,0,P|11:208|21:181,1,77.0000026776789,0|0,1:0|3:0,0:0:0:0:
83,127,20192,2,0,P|89:78|79:51,1,77.0000026776789,0|2,3:0|1:3,0:0:0:0:
156,16,20621,86,0,P|184:48|261:68,2,115.500004016518,4|0|0,3:2|3:0|3:0,0:0:0:0:
79,52,21478,2,0,P|81:94|41:163,2,115.500004016518,0|0|0,1:0|3:0|3:0,0:0:0:0:
163,12,22335,2,0,P|191:44|268:64,2,115.500004016518,0|0|0,3:0|3:0|3:0,0:0:0:0:
79,52,23192,2,0,L|90:133,1,77.0000026776789,0|0,1:0|3:0,0:0:0:0:
156,180,23621,2,0,L|145:261,1,77.0000026776789,0|0,1:0|3:0,0:0:0:0:
192,326,24050,6,0,B|138:347|138:347|84:314,2,115.500004016518,0|0|0,3:0|3:0|3:0,0:0:0:0:
270,293,24907,2,0,B|324:272|324:272|378:305,2,115.500004016518,0|0|0,1:0|3:0|3:0,0:0:0:0:
201,242,25764,2,0,P|174:181|299:127,1,231.000008033037,0|0,3:0|3:0,0:0:0:0:
355,180,26621,86,0,L|401:176,2,38.5000013388394,0|0|0,1:0|1:0|3:0,0:0:0:0:
372,96,27050,2,0,L|418:92,2,38.5000013388394,0|0|0,1:0|1:0|3:0,0:0:0:0:
304,26,27478,6,0,P|266:61|202:62,2,115.500004016518,4|0|0,3:2|3:0|3:0,0:0:0:0:
388,17,28335,2,0,P|413:48|459:59,1,77.0000026776789,0|0,1:0|3:0,0:0:0:0:
472,93,28657,2,0,P|441:118|430:164,1,77.0000026776789,0|0,3:0|3:0,0:0:0:0:
436,194,28978,1,0,3:0:0:0:
372,249,29192,86,0,P|407:287|408:351,2,115.500004016518,0|0|0,3:0|3:0|3:0,0:0:0:0:
327,321,30050,2,0,L|242:313,1,77.0000026776789,0|0,1:0|3:0,0:0:0:0:
182,262,30478,2,0,L|97:270,1,77.0000026776789,0|0,1:0|3:0,0:0:0:0:
62,342,30907,6,0,P|27:304|26:240,2,115.500004016518,0|0|0,3:0|3:0|3:0,0:0:0:0:
141,371,31764,2,0,L|226:363,1,77.0000026776789,0|0,1:0|3:0,0:0:0:0:
249,339,32085,2,0,L|334:347,1,77.0000026776789,0|0,3:0|3:0,0:0:0:0:
368,350,32407,1,0,3:0:0:0:
411,277,32621,86,0,L|326:269,1,77.0000026776789,0|0,3:0|3:0,0:0:0:0:
303,245,32942,2,0,L|218:253,1,77.0000026776789,0|0,3:0|3:0,0:0:0:0:
184,256,33264,1,0,3:0:0:0:
106,290,33478,2,0,P|99:250|110:211,1,77.0000026776789,0|0,1:0|3:0,0:0:0:0:
74,137,33907,2,0,P|114:130|153:141,1,77.0000026776789,0|2,3:0|1:3,0:0:0:0:
227,105,34335,6,0,B|252:128|252:128|333:121,2,115.500004016518,4|0|0,3:2|3:0|3:0,0:0:0:0:
167,44,35192,2,0,L|81:35,1,77.0000026776789,0|0,1:0|3:0,0:0:0:0:
48,30,35514,2,0,L|57:116,1,77.0000026776789,0|0,3:0|3:0,0:0:0:0:
63,148,35835,1,0,3:0:0:0:
20,221,36050,86,0,B|45:198|45:198|126:205,2,115.500004016518,0|0|0,3:0|3:0|3:0,0:0:0:0:
44,302,36907,2,0,L|130:293,1,77.0000026776789,0|0,1:0|3:0,0:0:0:0:
197,329,37335,2,0,L|206:243,1,77.0000026776789,0|0,1:0|3:0,0:0:0:0:
282,216,37764,6,0,L|294:332,2,115.500004016518,0|0|0,3:0|3:0|3:0,0:0:0:0:
343,157,38621,2,0,P|306:134|261:131,1,77.0000026776789,0|0,1:0|3:0,0:0:0:0:
235,148,38942,2,0,P|192:138|158:108,1,77.0000026776789,0|0,3:0|3:0,0:0:0:0:
145,80,39264,1,0,3:0:0:0:
83,142,39478,85,4,3:2:0:0:
332,153,44045,5,4,3:2:0:0:
332,153,44345,2,0,L|342:231,1,70.000000298023,2|0,3:2|0:0,0:0:0:0:
398,274,44645,2,0,P|360:296|276:263,1,140.000000596046,2|0,3:2|3:0,0:0:0:0:
231,201,45095,2,0,P|193:179|109:212,2,140.000000596046,2|2|2,0:0|0:0|0:0,0:0:0:0:
276,263,45845,2,0,L|266:341,2,70.000000298023,0|0|2,3:0|0:0|3:2,0:0:0:0:
398,169,46445,85,0,3:0:0:0:
398,169,46745,2,0,L|388:91,1,70.000000298023,2|0,3:2|0:0,0:0:0:0:
380,22,47045,2,0,P|368:64|285:100,1,140.000000596046,2|0,3:2|3:0,0:0:0:0:
212,76,47495,2,0,P|183:92|161:122,1,70.000000298023,2|0,0:0|3:0,0:0:0:0:
92,85,47795,2,0,P|82:116|88:153,1,70.000000298023,2|0,0:0|3:0,0:0:0:0:
13,176,48095,2,0,P|29:205|59:226,1,70.000000298023,2|4,0:0|3:0,0:0:0:0:
139,240,48395,1,4,3:0:0:0:
139,240,48545,2,0,L|210:231,1,70.000000298023,4|4,3:0|3:0,0:0:0:0:
263,177,48845,5,4,3:0:0:0:
263,177,48995,1,0,3:0:0:0:
320,228,49145,2,0,P|313:262|323:306,1,70.000000298023,4|0,3:0|3:0,0:0:0:0:
371,352,49445,2,0,L|442:361,2,70.000000298023,4|0|4,3:0|3:0|3:0,0:0:0:0:
303,314,49895,2,0,P|269:307|225:317,1,70.000000298023,0|4,3:0|3:0,0:0:0:0:
166,349,50195,2,0,P|132:356|88:346,1,70.000000298023,0|4,3:0|3:0,0:0:0:0:
46,292,50495,2,0,B|16:229|16:229|61:167,1,140.000000596046,0|0,3:0|3:0,0:0:0:0:
107,114,50945,2,0,L|178:123,1,70.000000298023,4|0,3:0|3:0,0:0:0:0:
230,184,51245,85,4,3:0:0:0:
230,184,51395,1,0,3:0:0:0:
303,159,51545,2,0,P|307:191|296:230,1,70.000000298023,4|0,3:0|3:0,0:0:0:0:
325,301,51845,2,0,P|293:305|254:294,2,70.000000298023,4|0|4,3:0|3:0|3:0,0:0:0:0:
391,262,52295,1,0,3:0:0:0:
421,191,52445,6,0,B|414:161|414:161|418:128|418:128|423:123|423:123|419:115|419:115|424:82|424:82|380:66|380:66|380:55|380:55|338:41,1,210.000000894069,6|0,3:0|3:0,0:0:0:0:
269,66,53045,86,0,L|227:68,3,35.0000001490115,0|0|0|0,1:0|1:0|1:0|1:0,0:0:0:0:
200,86,53345,2,0,L|106:81,1,70.000000298023,0|0,1:0|1:0,0:0:0:0:
62,30,53645,1,4,3:2:0:0:
20,194,53945,6,0,L|130:188,1,77.0000026776789,2|0,1:2|0:0,0:0:0:0:
137,264,54245,2,0,P|166:240|182:198,1,77.0000026776789,2|0,3:2|0:0,0:0:0:0:
259,171,54545,1,0,1:0:0:0:
259,171,54695,2,0,P|269:225|349:284,1,154.000005355358,2|2,0:0|0:0,0:0:0:0:
428,289,55145,1,0,1:0:0:0:
488,229,55295,1,2,0:0:0:0:
488,229,55445,2,0,L|483:139,1,77.0000026776789,0|0,3:0|3:0,0:0:0:0:
481,71,55745,1,2,1:2:0:0:
481,71,55895,86,0,L|305:77,1,154.000005355358,0|0,1:0|3:0,0:0:0:0:
286,4,56345,2,0,P|257:28|241:70,1,77.0000026776789,2|0,1:2|0:0,0:0:0:0:
160,38,56645,2,0,P|156:75|174:116,1,77.0000026776789,2|0,3:2|0:0,0:0:0:0:
95,151,56945,1,0,1:0:0:0:
95,151,57095,2,0,P|136:187|235:170,1,154.000005355358,2|2,0:0|0:0,0:0:0:0:
298,126,57545,2,0,L|380:131,1,77.0000026776789,0|2,1:0|0:0,0:0:0:0:
442,183,57845,6,0,L|483:180,2,38.5000013388394,0|0|2,1:0|1:0|1:2,0:0:0:0:
380,242,58145,2,0,L|349:214,2,38.5000013388394,2|0|2,1:2|1:0|1:2,0:0:0:0:
442,299,58445,86,0,P|400:291|357:302,1,77.0000026776789,4|0,3:1|0:0,0:0:0:0:
295,342,58745,1,2,1:2:0:0:
295,342,58895,2,0,P|246:345|180:265,1,154.000005355358
186,191,59345,1,0,1:0:0:0:
186,191,59495,2,0,L|265:196,1,77.0000026776789,2|0,0:0|3:0,0:0:0:0:
284,116,59795,1,2,0:0:0:0:
284,116,59945,2,0,L|205:111,1,77.0000026776789,0|2,1:0|0:0,0:0:0:0:
161,45,60245,1,0,3:0:0:0:
161,45,60395,2,0,L|82:50,1,77.0000026776789,0|2,3:0|1:2,0:0:0:0:
26,111,60695,6,0,B|60:132|60:132|48:249,1,154.000005355358
5,319,61145,2,0,P|40:296|78:285,1,77.0000026776789,2|0,1:2|0:0,0:0:0:0:
126,219,61445,2,0,P|167:220|205:233,1,77.0000026776789,2|0,3:2|0:0,0:0:0:0:
282,206,61745,2,0,P|315:231|338:262,1,77.0000026776789,2|0,1:2|0:0,0:0:0:0:
417,284,62045,2,0,P|430:323|430:363,2,77.0000026776789,2|0|2,3:2|0:0|1:2,0:0:0:0:
474,220,62495,1,0,0:0:0:0:
417,156,62645,2,0,P|417:138|421:117,3,38.5000013388394,2|0|0|0,1:3|0:0|1:0|1:0,0:0:0:0:
439,79,62945,2,0,L|346:85,1,77.0000026776789,0|0,1:0|1:0,0:0:0:0:
293,135,63245,85,4,3:1:0:0:
176,11,63545,6,0,P|181:55|173:91,1,77.0000026776789,2|0,1:2|3:0,0:0:0:0:
127,157,63845,2,0,P|122:201|130:237,1,77.0000026776789,2|0,1:2|3:0,0:0:0:0:
177,308,64145,1,0,1:0:0:0:
177,308,64295,2,0,B|250:301|250:301|261:309|261:309|335:303,1,154.000005355358,2|2,3:2|3:2,0:0:0:0:
387,363,64745,2,0,P|382:319|390:283,1,77.0000026776789,0|2,1:0|3:2,0:0:0:0:
436,217,65045,2,0,P|441:173|433:137,1,77.0000026776789,0|0,1:0|3:0,0:0:0:0:
386,66,65345,1,2,1:2:0:0:
386,66,65495,2,0,B|313:73|313:73|302:65|302:65|228:71,1,154.000005355358,0|0,3:0|3:0,0:0:0:0:
158,33,65945,86,0,P|153:77|161:113,1,77.0000026776789,2|0,1:2|3:0,0:0:0:0:
79,137,66245,2,0,P|106:171|137:191,1,77.0000026776789,2|0,1:2|3:0,0:0:0:0:
96,266,66545,2,0,P|139:271|175:263,1,77.0000026776789,0|2,1:0|3:2,0:0:0:0:
199,345,66845,2,0,P|233:317|253:286,1,77.0000026776789,0|2,1:0|3:2,0:0:0:0:
327,328,67145,1,0,1:0:0:0:
327,328,67295,2,0,P|332:284|324:248,1,77.0000026776789,2|0,3:2|1:0,0:0:0:0:
287,176,67595,2,0,B|307:102|307:102|396:113,1,154.000005355358,2|2,3:2|3:2,0:0:0:0:
424,37,68045,6,0,L|344:26,1,77.0000026776789,4|0,3:2|3:0,0:0:0:0:
309,22,68270,1,0,3:0:0:0:
309,22,68345,2,0,L|229:11,1,77.0000026776789,2|0,1:2|3:0,0:0:0:0:
169,67,68645,2,0,L|180:147,1,77.0000026776789,2|0,1:2|3:0,0:0:0:0:
124,208,68945,1,0,1:0:0:0:
124,208,69095,2,0,B|142:232|142:232|267:215,1,154.000005355358,2|2,3:2|3:2,0:0:0:0:
320,151,69545,2,0,L|400:162,1,77.0000026776789,0|2,1:0|3:2,0:0:0:0:
468,117,69845,2,0,B|444:135|444:135|461:260,1,154.000005355358,0|2,1:0|1:2,0:0:0:0:
499,333,70295,86,0,P|454:305|345:313,1,154.000005355358,0|0,3:0|3:0,0:0:0:0:
276,276,70745,2,0,P|237:305|202:310,1,77.0000026776789,10|0,3:2|3:0,0:0:0:0:
139,357,71045,2,0,P|110:323|17:254,1,154.000005355358,10|8,3:2|3:2,0:0:0:0:
65,92,71645,1,8,3:2:0:0:
194,200,71945,1,8,3:2:0:0:
323,92,72245,2,0,L|375:99,3,38.5000013388394,0|0|2|0,1:0|1:0|1:2|1:0,0:0:0:0:
398,118,72545,2,0,L|450:111,3,38.5000013388394,8|8|8|8,3:0|3:0|3:0|3:0,0:0:0:0:
487,106,72845,5,2,1:2:0:0:
166,144,75545,86,0,L|171:214,1,62.9999983456133,2|2,3:2|3:2,0:0:0:0:
128,269,75845,2,0,P|164:233|252:229,1,125.999996691227,0|2,1:0|3:2,0:0:0:0:
304,256,76295,2,0,P|340:292|473:270,1,188.99999503684,2|0,3:2|0:0,0:0:0:0:
466,276,77045,2,0,B|455:148,1,125.999996691227,2|0,1:2|0:0,0:0:0:0:
316,91,77645,6,0,B|309:162,1,62.9999983456133,2|2,3:2|3:2,0:0:0:0:
237,132,77945,2,0,B|230:203,1,62.9999983456133,2|2,3:2|3:2,0:0:0:0:
158,173,78245,2,0,B|151:244,1,62.9999983456133,0|0,1:0|0:0,0:0:0:0:
73,276,78545,2,0,B|85:132,1,125.999996691227,2|2,3:2|3:2,0:0:0:0:
183,36,79145,2,0,B|254:42,1,62.9999983456133
300,93,79445,2,0,B|371:86,1,62.9999983456133,2|2,1:2|3:2,0:0:0:0:
416,33,79745,2,0,B|365:132|464:128|408:239,1,188.99999503684,2|2,3:2|3:2,0:0:0:0:
375,276,80345,86,0,B|304:269,1,62.9999983456133,2|2,3:2|3:2,0:0:0:0:
267,331,80645,2,0,B|253:189,1,125.999996691227,0|2,1:0|3:2,0:0:0:0:
121,133,81245,2,0,B|192:126,1,62.9999983456133,2|2,3:2|3:2,0:0:0:0:
237,72,81545,2,0,B|308:79,1,62.9999983456133
353,132,81845,2,0,B|339:274,1,125.999996691227,2|0,1:2|0:0,0:0:0:0:
191,284,82445,6,0,B|177:142,2,125.999996691227,2|2|0,3:2|3:2|1:0,0:0:0:0:
327,351,83345,2,0,P|377:330|400:328,1,62.9999983456133,2|2,3:2|3:2,0:0:0:0:
423,326,83570,1,0,3:0:0:0:
423,326,83645,2,0,P|414:263|439:176,1,125.999996691227,2|0,1:2|3:0,0:0:0:0:
505,73,84245,2,0,P|455:94|432:96,1,62.9999983456133,2|6,1:3|3:2,0:0:0:0:
371,96,84545,2,0,P|340:88|312:73,1,62.9999983456133,0|0,3:0|3:0,0:0:0:0:
247,20,84845,86,0,B|278:85|278:85|244:163,1,140.000000596046,4|2,1:0|3:2,0:0:0:0:
123,257,85445,2,0,L|193:253,1,70.000000298023,2|0,1:2|3:0,0:0:0:0:
259,305,85745,1,2,3:2:0:0:
259,305,85895,2,0,P|292:261|393:231,1,140.000000596046,2|0,3:2|3:0,0:0:0:0:
452,237,86345,1,2,3:2:0:0:
497,75,86645,2,0,L|427:71,1,70.000000298023,2|0,1:2|3:0,0:0:0:0:
360,18,86945,1,2,3:2:0:0:
360,18,87095,6,0,B|322:36|322:36|333:137,1,140.000000596046,2|0,3:2|3:0,0:0:0:0:
339,217,87545,2,0,L|269:221,1,70.000000298023,2|0,3:2|3:0,0:0:0:0:
220,290,87845,2,0,P|197:268|185:218,1,70.000000298023,2|0,1:2|3:0,0:0:0:0:
213,153,88145,2,0,B|195:115|195:115|94:126,1,140.000000596046,2|0,3:2|1:0,0:0:0:0:
59,289,88745,2,0,B|210:297,1,140.000000596046,2|0,3:2|1:0,0:0:0:0:
286,306,89195,1,0,3:0:0:0:
286,306,89345,1,2,3:2:0:0:
213,153,89645,85,4,1:2:0:0:
353,60,89945,2,0,P|356:95|343:133,1,70.000000298023,2|0,3:2|3:0,0:0:0:0:
420,165,90245,2,0,P|397:191|361:209,1,70.000000298023,2|0,1:2|3:0,0:0:0:0:
393,286,90545,2,0,P|358:289|320:275,1,70.000000298023,2|0,3:2|3:0,0:0:0:0:
268,215,90845,2,0,B|196:220|196:220|187:214|187:214|129:218,1,140.000000596046,2|2,1:2|3:2,0:0:0:0:
45,363,91445,2,0,L|131:369,1,70.000000298023,2|0,1:2|3:0,0:0:0:0:
193,336,91745,6,0,B|157:277|157:277|206:205,1,140.000000596046,2|0,3:2|1:0,0:0:0:0:
152,55,92345,2,0,B|211:19|211:19|283:68,1,140.000000596046,2|0,3:2|1:0,0:0:0:0:
433,14,92945,2,0,B|469:73|469:73|420:145,1,140.000000596046,2|0,3:2|1:0,0:0:0:0:
474,295,93545,2,0,B|415:331|415:331|343:282,1,140.000000596046,2|2,3:2|1:3,0:0:0:0:
216,197,94145,1,2,3:2:0:0:
318,74,94445,85,4,3:2:0:0:
39,104,97873,6,0,P|72:115|140:42,1,140.000000596046,4|0,3:1|0:0,0:0:0:0:
214,10,98516,2,0,L|219:53,1,35.0000001490115,0|0,3:0|3:0,0:0:0:0:
245,76,98730,2,0,B|206:136|206:136|250:203,1,140.000000596046,0|0,1:0|3:0,0:0:0:0:
329,338,99587,2,0,L|341:195,1,140.000000596046,0|0,3:0|0:0,0:0:0:0:
401,139,100230,2,0,L|398:99,1,35.0000001490115,0|0,3:0|3:0,0:0:0:0:
371,71,100445,2,0,P|326:90|249:39,1,140.000000596046,0|0,1:0|3:0,0:0:0:0:
86,75,101302,86,0,B|124:92|124:92|104:197,1,140.000000596046,0|0,3:0|0:0,0:0:0:0:
89,271,101945,2,0,L|126:267,1,35.0000001490115,0|0,3:0|3:0,0:0:0:0:
161,286,102159,2,0,P|194:259|291:280,1,140.000000596046,0|0,1:0|3:0,0:0:0:0:
395,147,103016,6,0,B|344:120|338:183|276:149,2,105.000000447034,4|0|0,3:2|3:0|3:0,0:0:0:0:
410,229,103873,2,0,B|461:202|467:265|529:231,2,105.000000447034,0|0|0,1:0|3:0|3:0,0:0:0:0:
351,289,104730,86,0,P|296:315|208:270,1,140.000000596046,4|0,3:1|0:0,0:0:0:0:
178,219,105373,2,0,L|182:182,1,35.0000001490115,0|0,3:0|3:0,0:0:0:0:
209,152,105587,2,0,B|175:90|175:90|247:32,1,140.000000596046,0|0,1:0|3:0,0:0:0:0:
394,16,106445,2,0,P|432:42|421:140,1,140.000000596046,0|0,3:0|0:0,0:0:0:0:
365,180,107087,2,0,L|369:219,1,35.0000001490115,0|0,3:0|3:0,0:0:0:0:
351,253,107302,2,0,B|411:251|387:306|469:291,2,105.000000447034,0|0|0,1:0|3:0|3:0,0:0:0:0:
280,298,108159,6,0,L|117:292,1,140.000000596046,0|0,3:0|0:0,0:0:0:0:
74,240,108802,2,0,L|77:203,1,35.0000001490115,0|0,3:0|3:0,0:0:0:0:
107,176,109016,2,0,P|95:142|167:87,1,140.000000596046,0|0,1:0|3:0,0:0:0:0:
304,180,109873,86,0,B|364:164|354:208|413:212,2,105.000000447034,4|0|0,3:2|3:0|3:0,0:0:0:0:
237,231,110730,2,0,B|191:233|201:277|141:261,2,105.000000447034,0|0|0,1:0|3:0|3:0,0:0:0:0:
304,180,111587,6,0,L|273:34,1,140.000000596046,4|0,3:1|3:0,0:0:0:0:
196,72,112230,2,0,L|153:62,1,35.0000001490115,0|0,3:0|3:0,0:0:0:0:
120,53,112445,2,0,L|103:130,1,70.000000298023,0|0,1:0|3:0,0:0:0:0:
139,197,112873,2,0,L|216:180,1,70.000000298023,0|0,3:0|3:0,0:0:0:0:
274,132,113302,2,0,P|291:176|249:259,1,140.000000596046,0|0,3:0|3:0,0:0:0:0:
179,295,113945,2,0,L|136:285,1,35.0000001490115,0|0,3:0|3:0,0:0:0:0:
103,277,114159,2,0,B|96:259|68:243|68:243|45:230|78:174,2,105.000000447034,0|0|0,1:0|3:0|3:0,0:0:0:0:
143,203,115016,86,0,P|184:180|277:198,1,140.000000596046,4|0,3:1|0:0,0:0:0:0:
354,174,115659,2,0,L|358:217,1,35.0000001490115,0|0,3:0|3:0,0:0:0:0:
363,250,115873,2,0,P|432:262|490:226,1,140.000000596046,0|0,1:0|3:0,0:0:0:0:
403,82,116730,6,0,B|376:133|439:139|405:201,2,105.000000447034,4|0|0,3:2|3:0|3:0,0:0:0:0:
347,18,117587,2,0,B|374:69|311:75|345:137,2,105.000000447034,0|0|0,1:0|3:0|3:0,0:0:0:0:
265,39,118445,86,0,B|196:27|196:27|160:86,1,140.000000596046,4|0,3:1|0:0,0:0:0:0:
111,155,119087,2,0,L|123:196,1,35.0000001490115,0|0,3:0|3:0,0:0:0:0:
135,228,119302,2,0,P|210:214|269:244,1,140.000000596046,0|0,1:0|3:0,0:0:0:0:
384,359,120159,6,0,L|463:368,2,70.000000298023,0|0|10,3:0|1:0|3:0,0:0:0:0:
309,320,120802,2,0,L|274:323,1,35.0000001490115,4|4,3:0|3:0,0:0:0:0:
239,346,121016,2,0,B|223:334|202:329|202:329|182:350|164:333|164:333|132:336,2,105.000000447034,0|4|4,3:0|3:2|3:1,0:0:0:0:
289,278,121873,86,0,P|298:222|232:171,1,140.000000596046,4|0,3:1|0:0,0:0:0:0:
174,225,122516,2,0,L|139:221,1,35.0000001490115,0|0,3:0|3:0,0:0:0:0:
97,216,122730,2,0,B|67:154|67:154|120:91,1,140.000000596046,0|0,1:0|3:0,0:0:0:0:
266,167,123587,6,0,B|326:183|316:139|375:135,2,105.000000447034,2|2|2,3:2|3:2|3:2,0:0:0:0:
210,231,124445,2,0,B|150:215|160:259|101:263,2,105.000000447034,10|2|2,3:2|3:2|3:2,0:0:0:0:
273,290,125302,86,0,B|298:331|298:331|336:344|336:344|386:321,2,120.750002817213,6|4|0,3:2|3:1|3:0,0:0:0:0:
328,222,126159,2,0,B|358:210|358:210|376:174|376:174|364:127,2,120.750002817213,4|8|4,1:0|3:0|3:0,0:0:0:0:
244,188,127016,5,6,3:2:0:0:
256,192,127195,12,2,132556,0:0:0:0:
43,247,148346,54,0,L|39:187,3,52.5000022262334,2|0|2|2,0:0|0:0|0:0|0:0,0:0:0:0:
39,194,149512,2,0,B|152:156|134:264|257:212,1,210.000008904934,2|2,0:0|0:0,0:0:0:0:
300,169,150346,2,0,L|304:109,2,52.5000022262334,2|0|2,0:0|0:0|0:0,0:0:0:0:
401,288,151012,6,0,L|405:348,3,52.5000022262334,2|0|2|2,0:0|0:0|0:0|0:0,0:0:0:0:
510,223,151846,2,0,P|411:168|309:196,1,210.000008904934,2|2,0:0|0:0,0:0:0:0:
259,238,152679,2,0,P|235:262|207:276,1,52.5000022262334
175,337,153012,2,0,P|151:313|137:285,2,52.5000022262334,2|0|2,0:0|0:0|0:0,0:0:0:0:
60,227,153679,86,0,L|55:295,3,52.5000022262334,2|0|2|2,0:0|0:0|0:0|0:0,0:0:0:0:
56,279,154846,2,0,B|154:270|154:270|173:281|173:281|270:274,1,210.000008904934,2|2,0:0|0:0,0:0:0:0:
312,213,155679,2,0,L|307:145,2,52.5000022262334,2|2|2,0:0|0:0|0:0,0:0:0:0:
374,68,156346,6,0,P|398:92|412:120,3,52.5000022262334,2|0|2|2,0:0|0:0|0:0|0:0,0:0:0:0:
407,107,157846,2,0,L|402:175,2,52.5000022262334,2|2|2,0:0|0:0|0:0,0:0:0:0:
351,50,158346,2,0,L|235:58,1,105.000004452467,2|2,0:0|0:3,0:0:0:0:
138,171,159012,86,0,L|22:162,2,112.000000476837,10|10|8,0:0|0:0|0:0,0:0:0:0:
237,292,160012,1,8,0:0:0:0:
237,292,160346,2,0,P|276:259|347:244,1,112.000000476837,10|10,0:0|0:0,0:0:0:0:
412,268,160846,1,2,0:0:0:0:
412,268,161012,2,0,P|379:229|364:158,1,112.000000476837,10|10,0:0|0:0,0:0:0:0:
279,26,161679,6,0,L|406:16,2,119.000002776384,10|10|8,0:0|0:0|0:0,0:0:0:0:
184,149,162679,1,8,0:0:0:0:
184,149,162845,2,0,L|111:143,2,59.500001388192,2|10|2,0:0|0:0|0:0,0:0:0:0:
260,159,163345,1,8,0:0:0:0:
405,104,163679,2,0,P|419:164|404:231,1,119.000002776384,10|10,0:0|0:0,0:0:0:0:
287,309,164345,86,0,L|160:319,2,125.999996691227,10|10|10,0:0|0:0|0:0,0:0:0:0:
408,219,165345,1,10,0:0:0:0:
341,82,165679,2,0,P|291:126|263:190,2,125.999996691227,10|10|10,0:0|0:0|0:0,0:0:0:0:
408,219,166679,1,10,0:0:0:0:
270,299,167012,6,0,L|136:287,1,132.999997014761,10|10,0:0|0:0,0:0:0:0:
48,154,167679,2,0,L|182:142,1,132.999997014761,8|8,0:0|0:0,0:0:0:0:
311,50,168345,37,12,3:0:0:0:
311,50,169679,6,0,L|323:134,1,70.000000298023,4|0,3:2|3:0,0:0:0:0:
380,178,170012,1,0,1:0:0:0:
380,178,170179,2,0,P|340:161|236:187,1,140.000000596046,0|0,3:0|0:0,0:0:0:0:
177,142,170679,1,0,1:0:0:0:
177,142,170846,2,0,P|160:182|186:286,1,140.000000596046,2|2,0:0|0:0,0:0:0:0:
254,317,171345,1,2,1:2:0:0:
254,317,171512,2,0,L|338:305,2,70.000000298023,0|2|0,3:0|3:2|3:0,0:0:0:0:
177,274,172012,1,2,1:2:0:0:
165,357,172179,86,0,P|126:339|102:313,1,70.000000298023,2|0,3:2|3:0,0:0:0:0:
23,310,172512,2,0,P|40:271|66:247,1,70.000000298023,2|0,3:2|1:0,0:0:0:0:
73,169,172845,2,0,P|111:186|135:212,1,70.000000298023,2|0,3:2|0:0,0:0:0:0:
215,210,173179,2,0,P|240:186|272:173,1,70.000000298023,2|2,0:0|1:2,0:0:0:0:
320,103,173512,6,0,P|353:151|333:233,1,140.000000596046,2|2,0:0|0:0,0:0:0:0:
404,287,174012,1,2,1:2:0:0:
404,287,174179,2,0,L|477:276,2,70.000000298023,2|2|2,3:2|3:2|3:2,0:0:0:0:
337,227,174679,1,2,1:3:0:0:
275,283,174845,1,0,3:0:0:0:
213,339,175012,85,2,3:2:0:0:
79,237,175345,1,2,1:2:0:0:
79,237,175512,2,0,P|53:171|71:95,1,140.000000596046,2|0,3:2|0:0,0:0:0:0:
120,41,176012,1,2,1:2:0:0:
120,41,176179,2,0,P|186:15|262:33,1,140.000000596046,2|2,0:0|0:0,0:0:0:0:
323,81,176679,1,0,1:0:0:0:
323,81,176845,2,0,P|357:87|406:76,2,70.000000298023,2|2|2,3:2|3:2|3:2,0:0:0:0:
252,27,177345,1,0,1:0:0:0:
209,99,177512,6,0,P|203:133|214:182,1,70.000000298023,2|0,3:2|3:0,0:0:0:0:
254,238,177845,2,0,P|260:272|249:321,1,70.000000298023,2|0,3:2|1:0,0:0:0:0:
188,359,178179,2,0,B|130:351|130:351|107:363|107:363|39:355,2,140.000000596046,2|2|0,3:2|0:0|0:0,0:0:0:0:
254,306,179012,1,2,0:0:0:0:
254,306,179179,2,0,L|331:295,1,70.000000298023,2|0,0:0|1:0,0:0:0:0:
395,338,179512,2,0,P|406:293|349:216,1,140.000000596046,2|2,3:2|3:2,0:0:0:0:
383,139,180012,2,0,P|349:135|306:150,1,70.000000298023,2|2,1:3|3:2,0:0:0:0:
271,216,180345,85,4,1:2:0:0:
156,90,180679,2,0,L|150:176,1,77.0000026776789,0|0,1:0|3:0,0:0:0:0:
89,226,181012,2,0,L|95:312,1,77.0000026776789,0|0,1:0|3:0,0:0:0:0:
164,359,181345,1,0,1:0:0:0:
164,359,181512,2,0,B|230:355|230:355|247:347|247:347|321:343,1,154.000005355358,0|2,3:0|3:2,0:0:0:0:
361,340,181929,1,2,0:0:0:0:
361,340,182012,2,0,L|367:254,1,77.0000026776789,2|0,1:2|3:2,0:0:0:0:
422,200,182345,1,2,1:2:0:0:
422,200,182512,2,0,L|416:114,1,77.0000026776789,0|2,3:2|1:2,0:0:0:0:
367,54,182845,6,0,P|418:39|500:98,2,154.000005355358,0|0|0,3:0|3:0|3:0,0:0:0:0:
298,105,183679,2,0,L|212:99,1,77.0000026776789,0|0,1:0|3:0,0:0:0:0:
155,54,184012,1,0,1:0:0:0:
155,54,184179,2,0,P|141:94|146:132,1,77.0000026776789,2|2,3:2|1:2,0:0:0:0:
211,179,184512,2,0,P|225:219|220:257,1,77.0000026776789,2|2,3:2|1:2,0:0:0:0:
166,317,184845,2,0,P|245:334|307:271,1,154.000005355358,0|0,3:0|3:0,0:0:0:0:
311,208,185345,1,2,1:2:0:0:
388,264,185512,1,0,3:0:0:0:
388,264,185595,1,0,3:0:0:0:
388,264,185679,85,4,1:0:0:0:
473,118,186012,2,0,L|467:42,1,77.0000026776789,0|0,1:0|3:0,0:0:0:0:
388,23,186345,1,0,1:0:0:0:
388,23,186512,2,0,L|382:99,1,77.0000026776789,0|0,3:0|1:0,0:0:0:0:
317,152,186845,1,2,3:2:0:0:
317,152,186929,1,2,3:2:0:0:
317,152,187012,2,0,P|261:125|168:164,1,154.000005355358,6|2,1:2|1:2,0:0:0:0:
123,218,187512,1,2,3:2:0:0:
43,187,187679,2,0,P|37:221|47:264,1,77.0000026776789,2|0,1:2|3:0,0:0:0:0:
11,339,188012,2,0,P|45:345|88:335,1,77.0000026776789,0|0,1:0|3:0,0:0:0:0:
124,315,188262,1,0,3:0:0:0:
124,315,188345,5,4,1:0:0:0:
200,351,188512,2,0,P|206:317|196:274,1,77.0000026776789,0|0,3:0|1:0,0:0:0:0:
152,209,188845,1,0,3:0:0:0:
152,209,189012,2,0,P|146:175|156:132,1,77.0000026776789,4|0,1:2|3:0,0:0:0:0:
223,83,189345,2,0,B|292:88|292:88|304:101|304:101|375:107,1,154.000005355358,0|4,1:0|1:0,0:0:0:0:
462,126,189845,1,0,3:0:0:0:
462,126,189929,1,0,3:0:0:0:
462,126,190012,2,0,L|457:214,1,77.0000026776789,4|0,1:0|3:0,0:0:0:0:
375,222,190345,2,0,L|370:134,1,77.0000026776789,4|0,1:0|1:0,0:0:0:0:
306,88,190679,1,2,1:3:0:0:
306,88,190845,1,0,1:0:0:0:
241,139,191012,85,6,3:2:0:0:
241,139,191179,2,0,P|256:177|223:275,1,140.000000596046,2|2,3:2|3:2,0:0:0:0:
149,261,191679,1,0,1:0:0:0:
149,261,191845,2,0,P|134:223|167:125,1,140.000000596046,2|2,3:2|3:2,0:0:0:0:
209,63,192345,1,0,0:0:0:0:
209,63,192512,2,0,B|241:92|241:92|351:87,2,140.000000596046,2|2|2,3:2|3:2|3:2,0:0:0:0:
101,192,193512,1,2,3:2:0:0:
185,221,193679,5,2,3:2:0:0:
185,221,193845,2,0,P|224:249|279:328,1,140.000000596046,2|2,3:2|3:2,0:0:0:0:
364,323,194345,1,0,1:0:0:0:
364,323,194512,2,0,P|401:264|456:220,1,140.000000596046,2|2,3:2|3:2,0:0:0:0:
456,136,195012,2,0,B|352:152|380:27|253:67,1,210.000000894069,2|2,0:0|3:2,0:0:0:0:
295,143,195679,2,0,P|251:93|118:44,1,210.000000894069,0|2,1:0|3:2,0:0:0:0:
37,65,196345,86,0,B|44:154|44:154|35:180|35:180|44:274,1,210.000000894069,2|2,3:2|3:2,0:0:0:0:
26,358,197012,1,0,1:0:0:0:
26,358,197179,2,0,P|69:311|143:299,2,140.000000596046,2|2|2,3:2|3:2|3:2,0:0:0:0:
218,331,198179,1,2,3:2:0:0:
201,244,198345,1,0,1:0:0:0:
201,244,198512,2,0,P|264:246|325:202,1,140.000000596046,2|2,3:2|3:2,0:0:0:0:
352,124,199012,5,2,3:2:0:0:
352,124,199179,2,0,B|336:59|336:59|267:25,1,140.000000596046,2|2,3:2|3:2,0:0:0:0:
190,25,199679,1,0,1:0:0:0:
190,25,199845,2,0,B|124:57|124:57|108:122,1,140.000000596046,2|2,3:2|3:2,0:0:0:0:
26,139,200345,86,0,P|43:173|67:194,1,70.000000298023,2|2,3:2|3:2,0:0:0:0:
19,264,200679,2,0,P|55:276|86:273,1,70.000000298023,2|2,3:2|3:2,0:0:0:0:
103,355,201012,2,0,P|137:338|158:314,1,70.000000298023,10|2,3:2|3:2,0:0:0:0:
228,362,201346,2,0,P|240:326|237:295,1,70.000000298023,2|2,3:2|3:2,0:0:0:0:
177,234,201679,5,4,3:2:0:0:
177,234,201845,2,0,P|150:172|187:96,1,140.000000596046,2|2,3:2|3:2,0:0:0:0:
128,43,202345,1,0,1:0:0:0:
128,43,202511,2,0,P|190:16|266:53,1,140.000000596046,2|2,3:2|3:2,0:0:0:0:
316,106,203012,1,2,0:0:0:0:
316,106,203178,2,0,P|378:133|454:96,2,140.000000596046,2|2|2,3:2|3:2|3:2,0:0:0:0:
254,40,204012,2,0,L|182:50,1,70.000000298023,2|2,0:0|3:2,0:0:0:0:
101,60,204345,85,2,3:2:0:0:
101,60,204512,2,0,B|60:94|60:94|80:193,1,140.000000596046,2|2,3:2|3:2,0:0:0:0:
11,229,205012,1,0,1:0:0:0:
11,229,205179,2,0,B|45:270|45:270|144:250,1,140.000000596046,2|2,3:2|3:2,0:0:0:0:
197,303,205679,2,0,B|304:261|305:368|408:334,1,210.000000894069,2|2,0:0|3:2,0:0:0:0:
472,307,206345,2,0,P|487:239|389:135,1,210.000000894069,0|2,1:0|3:2,0:0:0:0:
333,184,207012,5,2,3:2:0:0:
333,184,207179,2,0,P|273:206|198:189,1,140.000000596046,2|2,3:2|3:2,0:0:0:0:
138,141,207679,1,0,1:0:0:0:
138,141,207846,2,0,P|116:81|133:6,2,140.000000596046,2|2|2,3:2|3:2|3:2,0:0:0:0:
289,69,208845,1,2,3:2:0:0:
359,123,209012,1,0,1:0:0:0:
359,123,209179,2,0,L|436:115,1,70.000000298023,2|0,3:2|0:0,0:0:0:0:
497,164,209512,1,2,3:2:0:0:
450,235,209679,85,2,3:2:0:0:
450,235,209845,2,0,L|373:227,1,70.000000298023,2|0,3:2|3:0,0:0:0:0:
326,292,210179,2,0,P|302:263|293:228,1,70.000000298023,2|0,3:2|1:0,0:0:0:0:
209,242,210512,2,0,P|212:204|230:173,1,70.000000298023,2|0,3:2|3:0,0:0:0:0:
302,136,210845,1,2,3:2:0:0:
302,136,211012,6,0,L|379:128,1,70.000000298023,2|2,3:2|3:2,0:0:0:0:
455,136,211345,2,0,P|451:98|433:67,1,70.000000298023,2|2,3:2|3:2,0:0:0:0:
356,42,211679,2,0,L|279:50,1,70.000000298023,10|2,3:2|3:2,0:0:0:0:
202,41,212012,2,0,P|204:75|221:106,1,70.000000298023,2|2,3:2|3:2,0:0:0:0:
292,149,212345,85,4,3:2:0:0:
256,192,212429,12,2,214679,1:3:0:0:
37,39,215012,69,4,3:2:0:0:
37,39,215179,2,0,B|97:35|97:35|115:47|115:47|188:42,1,140.000000596046,2|2,3:2|3:2,0:0:0:0:
257,38,215679,1,0,1:0:0:0:
257,38,215845,2,0,B|294:29|294:29|269:143,1,140.000000596046,2|2,3:2|3:2,0:0:0:0:
233,292,216512,2,0,L|159:286,2,70.000000298023,0|0|0,3:0|3:0|3:0,0:0:0:0:
291,352,217012,1,0,1:0:0:0:
349,292,217179,2,0,L|423:286,2,70.000000298023,2|2|2,3:2|3:2|3:2,0:0:0:0:
291,232,217679,5,0,3:0:0:0:
291,232,217845,2,0,L|291:78,1,140.000000596046,2|2,3:2|3:2,0:0:0:0:
221,44,218345,1,0,1:0:0:0:
221,44,218512,2,0,P|180:84|92:102,1,140.000000596046,2|2,3:2|3:2,0:0:0:0:
101,103,219679,2,0,L|93:59,2,35.0000001490115,0|0|0,1:0|3:0|3:0,0:0:0:0:
160,162,220012,2,0,L|144:250,1,70.000000298023,0|0,3:0|3:0,0:0:0:0:
80,282,220345,85,0,3:0:0:0:
80,282,220512,2,0,P|129:263|220:298,1,140.000000596046,2|2,3:2|3:2,0:0:0:0:
263,352,221012,1,0,1:0:0:0:
263,352,221179,2,0,B|333:356|333:356|384:301,1,140.000000596046,2|2,3:2|3:2,0:0:0:0:
354,138,221845,2,0,L|338:50,2,70.000000298023,0|0|0,3:0|3:0|3:0,0:0:0:0:
421,187,222345,1,0,1:0:0:0:
488,138,222512,2,0,L|504:50,2,70.000000298023,2|2|2,3:2|3:2|3:2,0:0:0:0:
425,210,223012,5,0,3:0:0:0:
425,210,223179,2,0,B|355:197|362:286|277:257,1,140.000000596046,2|2,3:2|3:2,0:0:0:0:
235,313,223679,1,0,1:0:0:0:
235,313,223845,2,0,P|254:259|210:182,1,140.000000596046,2|2,3:2|3:2,0:0:0:0:
219,188,225012,2,0,L|265:183,2,35.0000001490115,0|0|0,1:0|3:0|3:0,0:0:0:0:
146,230,225345,2,0,L|54:220,1,70.000000298023,0|0,3:0|3:0,0:0:0:0:
36,147,225679,86,0,B|39:124|33:98|33:98|76:102|76:102|102:81|138:67,1,140.000000596046,4|0,3:2|3:0,0:0:0:0:
198,61,226179,2,0,B|231:94|231:94|272:104|324:83|324:83|340:77|389:96,1,210.000000894069,0|0,3:0|0:0,0:0:0:0:
463,247,227012,2,0,B|424:225|424:225|371:250|307:263,1,140.000000596046
250,264,227512,2,0,P|226:208|137:176,1,140.000000596046,0|0,0:0|3:0,0:0:0:0:
73,170,228012,1,0,3:0:0:0:
100,335,228345,6,0,B|122:329|138:319|138:319|180:344|180:344|202:334|224:347|224:347|310:328|329:371|377:343,2,280.000001192092,0|0|0,3:0|1:0|0:0,0:0:0:0:
100,335,230345,2,0,L|91:296,2,35.0000001490115,0|0|0,1:0|3:0|3:0,0:0:0:0:
23,272,230679,2,0,L|32:233,2,35.0000001490115,0|0|0,3:0|3:0|3:0,0:0:0:0:
98,191,231012,86,0,B|129:163|129:163|168:195|168:195|228:211,1,140.000000596046,0|0,3:0|3:0,0:0:0:0:
270,270,231512,2,0,B|301:230|311:230|311:230|308:220|308:220|321:203|387:194|406:205|406:205|443:172,1,210.000000894069,0|0,3:0|0:0,0:0:0:0:
365,25,232345,2,0,B|333:47|283:45|283:45|271:37|271:37|211:51,1,140.000000596046
151,21,232845,2,0,B|190:50|190:50|161:111|161:111|161:119|161:119|158:119|158:119|147:143,1,140.000000596046,0|0,0:0|3:0,0:0:0:0:
106,200,233345,1,0,3:0:0:0:
212,330,233679,6,0,B|238:308|248:276|253:272|253:272|259:276|259:276|276:260|309:251|309:251|313:247|313:247|317:250|317:250|349:248|396:261|396:261|412:282|412:282|447:291,2,280.000001192092,0|0|0,3:0|1:0|0:0,0:0:0:0:
212,330,235679,2,0,L|174:323,2,35.0000001490115,0|0|0,1:0|3:0|3:0,0:0:0:0:
118,273,236012,2,0,L|80:280,2,35.0000001490115,0|0|0,1:0|3:0|3:0,0:0:0:0:
