osu file format v14

[General]
AudioFilename: audio.mp3
AudioLeadIn: 0
PreviewTime: 53595
Countdown: 0
SampleSet: Soft
StackLeniency: 0.7
Mode: 0
LetterboxInBreaks: 0
WidescreenStoryboard: 1

[Editor]
DistanceSpacing: 1
BeatDivisor: 4
GridSize: 4
TimelineZoom: 1.800004

[Metadata]
Title:Closure
TitleUnicode:Closure
Artist:Asking Alexandria
ArtistUnicode:Asking Alexandria
Creator:Bearizm
Version:Normal
Source:
Tags:Reckless & Relentless Metalcore Electronicore Post Hardcore Scream Sumerian Records Danny Worsnop Ben Bruce James Cassells Cameron Liddell Sam Bettley LMT Drummer Stingy beaw English Rock
BeatmapID:1864769
BeatmapSetID:887832

[Difficulty]
HPDrainRate:3
CircleSize:3
OverallDifficulty:4
ApproachRate:5
SliderMultiplier:1.20000000596046
SliderTickRate:1

[Events]
//Background and Video events
0,0,"Closure.jpg",0,0
//Break Periods
2,39678,42845
2,94645,96537
2,127325,147046
//Storyboard Layer 0 (Background)
//Storyboard Layer 1 (Fail)
//Storyboard Layer 2 (Pass)
//Storyboard Layer 3 (Foreground)
//Storyboard Layer 4 (Overlay)
//Storyboard Sound Samples

[TimingPoints]
50,428.571428571429,4,2,1,60,1,0
12050,-100,4,2,1,70,0,0
12478,-100,4,2,1,75,0,0
12907,-100,4,2,1,80,0,0
13335,-100,4,2,1,85,0,0
13550,-100,4,2,1,60,0,0
13764,-100,4,2,1,90,0,0
39478,472.44094488189,4,2,1,90,1,0
41367,615.384615384615,4,2,1,50,1,0
41520,428.571428571429,4,2,1,50,1,0
41734,400,4,2,1,50,1,0
41940,476.190476190476,4,2,1,50,1,0
42178,361.44578313253,4,2,1,50,1,0
42358,352.941176470588,4,2,1,50,1,0
42534,461.538461538462,4,2,1,50,1,0
42764,428.571428571429,4,2,1,50,1,0
42871,461.538461538462,4,2,1,50,1,0
43101,333.333333333333,4,2,1,50,1,0
43267,300,4,2,1,50,1,0
43567,319.148936170213,4,2,1,50,1,0
44045,300,4,2,1,60,1,0
52445,-100,4,2,1,60,0,0
53045,-100,4,2,1,70,0,0
53645,-100,4,2,1,90,0,1
63170,-100,4,2,1,90,0,0
63245,-100,4,2,1,100,0,1
72845,-100,4,2,1,70,0,0
84845,-100,4,2,1,90,0,1
94445,428.571428571429,4,2,1,90,1,0
125302,-100,4,2,1,90,0,1
127016,718.562874251497,4,2,1,100,1,0
127105,-100,4,2,1,20,0,0
129530,-100,4,2,1,5,0,0
129890,666.666666666667,4,2,1,20,1,0
132223,-100,4,2,1,5,0,0
132556,645.161290322581,4,2,1,20,1,0
134814,-100,4,2,1,5,0,0
135136,662.983425414365,4,2,1,20,1,0
137456,-100,4,2,1,5,0,0
137787,681.818181818182,4,2,1,20,1,0
140173,-100,4,2,1,5,0,0
140514,670.391061452514,4,2,1,20,1,0
142860,-100,4,2,1,5,0,0
143195,662.983425414365,4,2,1,20,1,0
145515,-100,4,2,1,5,0,0
145846,625,4,2,1,20,1,0
148033,-100,4,2,1,5,0,0
148346,333.333333333333,4,2,1,30,1,0
148346,-133.333333333333,4,2,1,30,0,0
158012,-113.636363636364,4,2,1,30,0,0
159012,-100,4,2,2,30,0,0
159346,-100,4,2,2,33,0,0
159679,-100,4,2,2,35,0,0
160012,-100,4,2,2,38,0,0
160346,-100,4,2,2,40,0,0
160679,-100,4,2,2,43,0,0
161012,-100,4,2,2,45,0,0
161346,-100,4,2,2,48,0,0
161679,-100,4,2,2,50,0,0
162012,-100,4,2,2,53,0,0
162346,-100,4,2,2,55,0,0
162679,-100,4,2,2,58,0,0
163012,-100,4,2,2,60,0,0
163345,-100,4,2,2,63,0,0
163679,-100,4,2,2,65,0,0
164012,-100,4,2,2,68,0,0
164345,-100,4,2,2,70,0,0
164679,-100,4,2,2,73,0,0
165012,-100,4,2,2,75,0,0
165345,-100,4,2,2,78,0,0
165679,-100,4,2,2,80,0,0
166012,-100,4,2,2,83,0,0
166345,-100,4,2,2,85,0,0
166679,-100,4,2,2,88,0,0
167012,-100,4,2,2,90,0,0
167345,-100,4,2,2,93,0,0
167679,-100,4,2,2,95,0,0
168012,-100,4,2,2,98,0,0
168345,-100,4,2,2,100,0,0
168429,-100,4,2,1,80,0,0
169345,-100,4,2,1,90,0,0
169679,-100,4,2,1,100,0,1
180262,-100,4,2,1,100,0,0
180345,-100,4,2,1,100,0,1
191012,-100,4,2,1,100,0,0
191179,-100,4,2,1,90,0,0
212429,-100,4,2,1,40,0,0
213512,-100,4,2,1,5,0,0
213679,-100,4,2,1,70,0,0
215012,-100,4,2,1,90,0,0
225679,-100,4,2,1,90,0,1
236179,-100,4,2,1,90,0,0

[Colours]
Combo1 : 255,0,0
Combo2 : 192,192,192
Combo3 : 128,128,128
Combo4 : 255,164,164
Combo5 : 255,125,125
Combo6 : 187,187,255
Combo7 : 94,150,255

[HitObjects]
245,85,50,6,0,P|155:91|65:100,2,180.000000894069,4|0|0,3:1|1:0|1:0,0:0:0:0:
331,2,1764,2,0,P|375:-3|471:142,1,240.000001192092,0|0,1:0|1:0,0:0:0:0:
419,246,3050,1,0,1:0:0:0:
306,205,3478,6,0,B|275:261|275:261|299:374,2,180.000000894069,4|0|0,3:1|1:0|1:0,0:0:0:0:
239,37,5407,2,0,P|163:23|85:82,1,180.000000894069,0|0,3:0|3:0,0:0:0:0:
104,200,6478,1,2,1:3:0:0:
37,300,6907,86,0,B|97:293|97:293|151:316|151:316|212:309,1,180.000000894069,4|0,3:1|1:0,0:0:0:0:
383,361,8192,2,0,P|445:367|499:269,2,180.000000894069,0|0|0,1:0|1:0|3:0,0:0:0:0:
320,258,9907,1,0,3:0:0:0:
212,309,10335,6,0,B|151:316|151:316|97:293|97:293|37:300,2,180.000000894069,4|0|0,3:1|1:0|1:0,0:0:0:0:
320,258,12050,2,0,P|327:199|297:148,1,120.000000596046,4|0,1:2|1:0,0:0:0:0:
179,124,12907,1,4,1:0:0:0:
258,34,13335,1,0,1:0:0:0:
375,57,13764,6,0,P|421:50|465:47,2,90.0000004470345,4|0|0,3:2|3:0|3:0,0:0:0:0:
354,113,14621,2,0,P|299:136|243:121,1,120.000000596046,0|0,1:0|0:0,0:0:0:0:
129,160,15478,2,0,P|84:159|45:179,2,90.0000004470345,0|0|0,3:0|3:0|3:0,0:0:0:0:
172,201,16335,1,0,1:0:0:0:
151,319,16764,1,0,1:0:0:0:
260,366,17192,6,0,P|304:359|349:356,1,90.0000004470345,0|0,3:0|3:0,0:0:0:0:
443,351,17835,1,0,3:0:0:0:
443,351,18050,2,0,B|460:307|460:307|438:237,1,120.000000596046,0|0,1:0|0:0,0:0:0:0:
381,131,18907,2,0,P|416:117|467:121,2,90.0000004470345,0|0|0,3:0|3:0|3:0,0:0:0:0:
341,85,19764,2,0,P|283:77|220:68,1,120.000000596046,0|0,1:0|3:0,0:0:0:0:
170,100,20407,1,2,1:3:0:0:
170,100,20621,86,0,P|177:59|161:15,2,90.0000004470345,4|0|0,3:2|3:0|3:0,0:0:0:0:
112,118,21478,2,0,B|88:173|88:173|106:230,1,120.000000596046,0|0,1:0|0:0,0:0:0:0:
146,343,22335,2,0,P|102:337|56:335,2,90.0000004470345,0|0|0,3:0|3:0|3:0,0:0:0:0:
203,360,23192,1,0,1:0:0:0:
290,277,23621,1,0,1:0:0:0:
396,332,24050,6,0,P|439:341|481:327,1,90.0000004470345,0|0,3:0|3:0,0:0:0:0:
439,248,24692,1,0,3:0:0:0:
439,248,24907,2,0,P|441:187|447:129,1,120.000000596046,0|0,1:0|0:0,0:0:0:0:
335,84,25764,2,0,P|327:177|321:276,1,180.000000894069,0|0,3:0|3:0,0:0:0:0:
318,323,26621,1,0,1:0:0:0:
212,380,27050,1,0,1:0:0:0:
134,288,27478,86,0,P|91:293|43:302,2,90.0000004470345,4|0|0,3:2|3:0|3:0,0:0:0:0:
121,229,28335,2,0,P|78:234|30:243,2,90.0000004470345,0|0|0,1:0|3:0|3:0,0:0:0:0:
108,170,29192,2,0,P|65:175|17:184,2,90.0000004470345,0|0|0,3:0|3:0|3:0,0:0:0:0:
135,116,30050,1,0,1:0:0:0:
241,60,30478,1,0,1:0:0:0:
349,112,30907,6,0,P|370:154|368:198,1,90.0000004470345,0|0,3:0|3:0,0:0:0:0:
338,283,31550,1,0,3:0:0:0:
338,283,31764,2,0,P|312:322|273:342,1,90.0000004470345,0|0,1:0|3:0,0:0:0:0:
185,359,32407,1,0,3:0:0:0:
185,359,32621,2,0,P|138:356|101:332,1,90.0000004470345,0|0,3:0|3:0,0:0:0:0:
42,264,33264,1,0,3:0:0:0:
42,264,33478,2,0,P|47:204|55:144,1,120.000000596046,0|0,1:0|3:0,0:0:0:0:
114,123,34121,1,2,1:3:0:0:
114,123,34335,86,0,P|124:73|111:36,2,90.0000004470345,4|0|0,3:2|3:0|3:0,0:0:0:0:
174,120,35192,2,0,P|184:70|171:33,2,90.0000004470345,0|0|0,1:0|3:0|3:0,0:0:0:0:
234,117,36050,2,0,P|244:67|231:30,2,90.0000004470345,0|0|0,3:0|3:0|3:0,0:0:0:0:
208,171,36907,1,0,1:0:0:0:
231,288,37335,1,0,1:0:0:0:
336,344,37764,6,0,P|381:337|425:334,1,90.0000004470345,0|0,3:0|3:0,0:0:0:0:
429,243,38407,1,0,3:0:0:0:
429,243,38621,2,0,P|383:236|340:233,1,90.0000004470345,0|0,1:0|3:0,0:0:0:0:
267,286,39264,1,0,3:0:0:0:
267,286,39478,1,4,3:2:0:0:
267,286,44045,86,0,L|148:303,1,120.000000596046,4|2,3:2|3:2,0:0:0:0:
74,207,44645,2,0,L|193:190,1,120.000000596046,2|0,3:2|3:0,0:0:0:0:
218,136,45095,2,0,P|270:163|328:154,1,120.000000596046,2|2,0:0|0:0,0:0:0:0:
350,35,45695,2,0,P|297:7|239:16,1,120.000000596046,2|0,0:0|0:0,0:0:0:0:
187,47,46145,2,0,P|130:38|68:32,1,120.000000596046,2|0,3:2|3:0,0:0:0:0:
6,135,46745,5,2,3:2:0:0:
105,201,47045,2,0,P|125:257|105:314,1,120.000000596046,2|0,3:2|3:0,0:0:0:0:
64,355,47495,2,0,P|122:349|183:347,1,120.000000596046,2|2,0:0|0:0,0:0:0:0:
303,343,48095,1,2,0:0:0:0:
422,340,48395,2,0,P|453:338|483:344,2,60.000000298023,4|4|4,3:0|3:0|3:0,0:0:0:0:
398,284,48845,86,0,P|403:228|414:162,1,120.000000596046,4|4,3:0|3:0,0:0:0:0:
305,111,49445,2,0,P|296:170|289:229,1,120.000000596046,4|4,3:0|3:0,0:0:0:0:
173,265,50045,2,0,P|114:273|63:241,1,120.000000596046,4|4,3:0|3:0,0:0:0:0:
91,125,50645,2,0,P|150:117|201:149,1,120.000000596046,4|4,3:0|3:0,0:0:0:0:
289,230,51245,6,0,L|407:213,1,120.000000596046,4|4,3:0|3:0,0:0:0:0:
422,94,51845,2,0,L|303:110,1,120.000000596046,4|4,3:0|3:0,0:0:0:0:
200,46,52445,2,0,B|147:55|147:55|108:32|108:32|61:53|48:107|70:155,1,240.000001192092,6|0,3:0|1:0,0:0:0:0:
152,239,53345,2,0,P|150:272|142:303,1,60.000000298023,0|0,1:0|1:0,0:0:0:0:
129,356,53645,86,0,P|189:347|254:343,1,120.000000596046,4|2,3:2|1:2,0:0:0:0:
337,263,54245,2,0,P|405:261|450:297,1,120.000000596046,2|0,3:2|1:0,0:0:0:0:
474,343,54695,2,0,P|477:287|486:223,1,120.000000596046,2|2,0:0|0:0,0:0:0:0:
508,105,55295,1,2,0:0:0:0:
508,105,55445,1,0,3:0:0:0:
423,19,55745,2,0,P|394:13|364:17,1,60.000000298023,2|0,1:2|1:0,0:0:0:0:
327,64,56045,6,0,P|272:57|208:51,1,120.000000596046,0|2,3:0|1:2,0:0:0:0:
97,98,56645,2,0,P|74:153|87:210,1,120.000000596046,2|0,3:2|1:0,0:0:0:0:
117,262,57095,2,0,P|59:248|5:272,2,120.000000596046,2|2|2,0:0|0:0|0:0,0:0:0:0:
158,305,57845,1,0,1:0:0:0:
271,345,58145,1,2,1:2:0:0:
371,279,58445,86,0,P|373:248|378:219,1,60.000000298023,4|0,3:1|0:0,0:0:0:0:
399,163,58745,1,2,1:2:0:0:
354,51,59045,2,0,P|296:31|229:59,1,120.000000596046,2|0,3:2|1:0,0:0:0:0:
184,33,59495,2,0,P|127:50|72:30,2,120.000000596046,2|2|2,0:0|0:0|0:0,0:0:0:0:
175,156,60395,1,0,3:0:0:0:
175,156,60545,2,0,L|163:275,1,120.000000596046,2|0,1:2|3:0,0:0:0:0:
276,314,61145,6,0,L|288:195,2,120.000000596046,2|2|2,1:2|3:2|1:2,0:0:0:0:
389,361,62045,1,2,3:2:0:0:
467,269,62345,1,2,1:2:0:0:
406,167,62645,2,0,P|408:138|414:108,2,60.000000298023,2|0|0,1:3|1:0|1:0,0:0:0:0:
348,185,63095,1,0,1:0:0:0:
348,185,63245,86,0,P|291:166|235:180,1,120.000000596046,4|2,3:1|1:2,0:0:0:0:
147,263,63845,1,2,1:2:0:0:
119,146,64145,1,0,1:0:0:0:
119,146,64295,2,0,P|126:82|132:23,1,120.000000596046,2|2,3:2|3:2,0:0:0:0:
12,17,64895,2,0,P|4:80|-1:140,1,120.000000596046,2|0,3:2|3:0,0:0:0:0:
38,181,65345,2,0,P|46:239|52:300,1,120.000000596046,2|0,1:2|1:0,0:0:0:0:
154,363,65945,5,2,1:2:0:0:
262,311,66245,2,0,P|325:306|374:334,1,120.000000596046,2|0,1:2|1:0,0:0:0:0:
414,376,66695,1,2,3:2:0:0:
502,294,66995,1,2,3:2:0:0:
480,175,67295,2,0,P|473:119|466:54,1,120.000000596046,2|2,3:2|3:2,0:0:0:0:
406,57,67745,2,0,P|399:92|395:119,1,60.000000298023,2|2,1:2|3:2,0:0:0:0:
387,175,68045,1,4,3:2:0:0:
300,257,68345,85,2,1:2:0:0:
179,254,68645,1,2,1:2:0:0:
95,167,68945,1,0,1:0:0:0:
95,167,69095,2,0,P|99:111|107:48,1,120.000000596046,2|2,3:2|3:2,0:0:0:0:
224,21,69695,2,0,P|218:80|211:140,1,120.000000596046,2|0,3:2|3:0,0:0:0:0:
254,182,70145,2,0,P|314:202|368:180,1,120.000000596046,2|0,1:2|3:0,0:0:0:0:
412,219,70595,5,0,3:0:0:0:
412,219,70745,2,0,P|406:248|404:279,1,60.000000298023,10|0,3:2|3:0,0:0:0:0:
401,338,71045,1,10,3:2:0:0:
281,349,71345,2,0,P|254:343|222:338,1,60.000000298023,8|2,3:2|3:2,0:0:0:0:
161,334,71645,2,0,P|103:355|49:335,1,120.000000596046,8|8,3:2|3:2,0:0:0:0:
104,228,72245,1,0,1:0:0:0:
11,151,72545,2,0,P|0:124|1:90,1,60.000000298023,8|8,3:0|3:0,0:0:0:0:
56,70,72845,54,0,L|46:9,1,60.000000298023,2|2,1:2|0:0,0:0:0:0:
106,5,73145,2,0,L|116:66,1,60.000000298023,2|2,0:0|0:0,0:0:0:0:
290,107,73745,2,0,L|300:46,1,60.000000298023,2|2,1:2|0:0,0:0:0:0:
240,43,74045,2,0,L|230:104,1,60.000000298023,2|2,0:0|0:0,0:0:0:0:
216,221,74495,1,0,3:0:0:0:
216,221,74645,2,0,P|269:198|328:214,1,120.000000596046,2|8,1:3|3:0,0:0:0:0:
433,158,75245,22,0,P|435:128|441:98,2,60.000000298023,6|2|2,3:2|3:2|3:2,0:0:0:0:
469,272,75845,1,0,1:0:0:0:
379,352,76145,1,2,3:2:0:0:
379,352,76295,2,0,P|296:343|199:337,1,180.000000894069,2|0,3:2|0:0,0:0:0:0:
79,328,77045,2,0,P|60:271|82:217,1,120.000000596046,2|0,1:2|0:0,0:0:0:0:
200,205,77645,6,0,L|321:193,2,120.000000596046,2|2|0,3:2|3:2|1:0,0:0:0:0:
129,107,78545,2,0,L|371:83,1,240.000001192092,2|0,3:2|0:0,0:0:0:0:
487,70,79445,2,0,P|512:126|505:184,1,120.000000596046,2|2,1:2|3:2,0:0:0:0:
421,268,80045,86,0,P|424:298|430:328,2,60.000000298023,2|2|2,3:2|3:2|3:2,0:0:0:0:
308,225,80645,2,0,P|247:230|186:237,1,120.000000596046,0|2,1:0|3:2,0:0:0:0:
80,184,81245,1,2,3:2:0:0:
89,303,81545,1,0,0:0:0:0:
188,236,81845,2,0,P|192:178|199:116,1,120.000000596046,2|0,1:2|0:0,0:0:0:0:
292,42,82445,5,2,3:2:0:0:
411,56,82745,1,2,3:2:0:0:
486,150,83045,1,0,1:0:0:0:
472,269,83345,2,0,P|363:257|234:246,1,240.000001192092,2|0,3:2|3:0,0:0:0:0:
118,281,84245,1,2,1:3:0:0:
144,164,84545,1,0,3:0:0:0:
170,47,84845,86,0,P|232:37|284:60,1,120.000000596046,4|2,1:0|3:2,0:0:0:0:
399,31,85445,2,0,P|390:93|385:152,1,120.000000596046,2|2,1:2|3:2,0:0:0:0:
436,180,85895,2,0,B|466:235|466:235|435:351,1,180.000000894069,2|2,3:2|3:2,0:0:0:0:
318,373,86645,1,2,1:2:0:0:
210,318,86945,1,2,3:2:0:0:
210,318,87095,6,0,P|118:327|32:339,1,180.000000894069,2|2,3:2|3:2,0:0:0:0:
89,234,87845,1,2,1:2:0:0:
6,146,88145,2,0,P|-4:87|25:37,1,120.000000596046,2|0,3:2|1:0,0:0:0:0:
144,23,88745,2,0,L|323:14,1,180.000000894069,2|0,3:2|3:0,0:0:0:0:
384,12,89345,1,2,3:2:0:0:
487,72,89645,1,4,1:2:0:0:
419,171,89945,85,2,3:2:0:0:
505,254,90245,2,0,P|509:321|511:373,1,120.000000596046,2|2,1:2|3:2,0:0:0:0:
391,378,90845,2,0,P|386:318|385:258,1,120.000000596046,2|2,1:2|3:2,0:0:0:0:
289,185,91445,1,2,1:2:0:0:
180,236,91745,6,0,P|120:248|69:224,1,120.000000596046,2|0,3:2|1:0,0:0:0:0:
80,103,92345,2,0,P|140:91|191:115,1,120.000000596046,2|0,3:2|1:0,0:0:0:0:
289,185,92945,2,0,P|342:209|400:197,1,120.000000596046,2|0,3:2|1:0,0:0:0:0:
411,76,93545,2,0,P|357:51|299:63,1,120.000000596046,2|2,3:2|1:3,0:0:0:0:
191,115,94145,2,0,P|196:175|200:236,1,120.000000596046,2|4,3:2|3:2,0:0:0:0:
199,234,97873,86,0,L|384:218,1,180.000000894069,4|0,3:1|3:0,0:0:0:0:
438,212,98730,2,0,P|450:154|425:101,1,120.000000596046,0|0,1:0|3:0,0:0:0:0:
333,23,99587,2,0,L|148:39,1,180.000000894069,0|0,3:0|3:0,0:0:0:0:
94,45,100444,2,0,P|82:103|107:156,1,120.000000596046,0|0,1:0|3:0,0:0:0:0:
199,234,101302,6,0,L|384:218,1,180.000000894069,0|0,3:0|3:0,0:0:0:0:
438,212,102159,2,0,P|450:154|425:101,1,120.000000596046,0|0,1:0|3:0,0:0:0:0:
305,116,103016,2,0,P|300:72|297:26,2,90.0000004470345,4|0|0,3:2|3:0|3:0,0:0:0:0:
245,121,103873,2,0,P|240:77|237:31,2,90.0000004470345,0|0|0,1:0|3:0|3:0,0:0:0:0:
223,177,104730,86,0,P|155:161|68:218,1,180.000000894069,4|0,3:1|3:0,0:0:0:0:
13,192,105587,2,0,P|26:249|31:312,1,120.000000596046,0|0,1:0|3:0,0:0:0:0:
147,341,106445,2,0,P|215:357|302:300,1,180.000000894069,0|0,3:0|3:0,0:0:0:0:
349,336,107302,2,0,P|339:293|335:247,2,90.0000004470345,0|0|0,1:0|3:0|3:0,0:0:0:0:
407,348,108159,6,0,P|425:262|426:170,1,180.000000894069,0|0,3:0|3:0,0:0:0:0:
419,110,109016,2,0,P|360:127|308:107,1,120.000000596046,0|0,1:0|3:0,0:0:0:0:
214,29,109873,2,0,P|174:10|130:13,1,90.0000004470345,4|0,3:2|3:0,0:0:0:0:
59,70,110516,1,0,3:0:0:0:
59,70,110730,2,0,L|68:161,1,90.0000004470345,0|0,1:0|3:0,0:0:0:0:
129,235,111373,1,0,3:0:0:0:
129,235,111587,86,0,P|191:248|238:220,1,120.000000596046,4|0,3:1|3:0,0:0:0:0:
296,229,112230,1,0,3:0:0:0:
296,229,112445,2,0,P|284:292|281:348,1,120.000000596046,0|0,1:0|3:0,0:0:0:0:
400,357,113302,2,0,P|412:294|415:238,1,120.000000596046,0|0,3:0|3:0,0:0:0:0:
414,178,113945,1,0,3:0:0:0:
414,178,114159,2,0,P|457:166|500:175,2,90.0000004470345,0|0|0,1:0|3:0|3:0,0:0:0:0:
376,130,115016,6,0,P|318:154|219:105,1,180.000000894069,4|0,3:1|3:0,0:0:0:0:
159,115,115873,2,0,P|118:98|44:115,1,120.000000596046,0|0,1:0|3:0,0:0:0:0:
57,233,116730,2,0,L|67:322,1,90.0000004470345,4|0,3:2|3:0,0:0:0:0:
160,342,117373,1,0,3:0:0:0:
160,342,117587,2,0,L|150:253,1,90.0000004470345,0|0,1:0|3:0,0:0:0:0:
223,200,118230,1,0,3:0:0:0:
223,200,118445,86,0,P|304:194|373:258,1,180.000000894069,4|0,3:1|3:0,0:0:0:0:
416,299,119302,2,0,P|422:241|431:177,1,120.000000596046,0|0,1:0|3:0,0:0:0:0:
361,81,120159,2,0,P|359:52|355:22,2,60.000000298023,0|0|10,3:0|1:0|3:0,0:0:0:0:
307,108,120802,1,4,3:0:0:0:
307,108,121016,2,0,P|264:93|220:98,1,90.0000004470345,0|4,3:0|3:2,0:0:0:0:
136,131,121659,1,4,3:1:0:0:
136,131,121873,6,0,P|127:226|124:311,1,180.000000894069,4|0,3:1|3:0,0:0:0:0:
170,348,122730,2,0,P|233:365|281:345,1,120.000000596046,0|0,1:0|3:0,0:0:0:0:
390,293,123587,2,0,P|434:300|480:309,2,90.0000004470345,2|2|2,3:2|3:2|3:2,0:0:0:0:
405,234,124445,2,0,P|449:241|495:250,2,90.0000004470345,10|2|2,3:2|3:2|3:2,0:0:0:0:
362,191,125302,86,0,P|360:145|383:106,1,90.0000004470345,6|4,3:2|3:1,0:0:0:0:
334,31,125945,1,0,3:0:0:0:
334,31,126159,1,4,1:0:0:0:
244,40,126480,1,8,3:0:0:0:
154,49,126802,1,4,3:0:0:0:
154,49,127016,1,6,3:2:0:0:
154,49,148346,22,0,B|96:6|23:39|3:91|3:91|16:161|83:190|140:166|140:166|203:142|259:178|276:243|276:243|293:182|337:171,1,630.000027161835,2|2,0:0|0:0,0:0:0:0:
411,139,151012,6,0,B|502:174|543:303|469:373|388:398|329:373|303:357|303:357|254:326|183:319|135:342|95:377,1,630.000027161835,2|2,0:0|0:0,0:0:0:0:
37,307,153679,86,0,B|-6:243|25:183|65:150|65:150|90:215|161:259|270:231|308:113|244:23|165:9|106:49,1,630.000027161835,2|2,0:0|0:0,0:0:0:0:
155,123,156346,6,0,B|162:348|162:348|297:345,1,360.000015521049,2|0,0:0|0:0,0:0:0:0:
402,345,158012,1,2,0:0:0:0:
478,271,158346,2,0,P|431:241|380:241,1,105.600003747177,2|2,0:0|0:3,0:0:0:0:
291,162,159012,22,0,P|296:104|304:39,1,120.000000596046,10|10,0:0|0:0,0:0:0:0:
190,0,159679,2,0,P|184:59|177:119,1,120.000000596046,8|8,0:0|0:0,0:0:0:0:
135,232,160346,2,0,P|75:224|15:219,1,120.000000596046,10|10,0:0|0:0,0:0:0:0:
58,106,161013,2,0,P|117:113|177:118,1,120.000000596046,10|10,0:0|0:0,0:0:0:0:
290,162,161679,6,0,P|262:213|268:272,1,120.000000596046,10|10,0:0|0:0,0:0:0:0:
386,294,162346,2,0,P|414:242|408:183,1,120.000000596046,8|8,0:0|0:0,0:0:0:0:
290,161,163012,2,0,P|231:167|180:139,1,120.000000596046,10|8,0:0|0:0,0:0:0:0:
201,21,163679,2,0,P|260:15|312:44,1,120.000000596046,10|10,0:0|0:0,0:0:0:0:
256,192,164345,12,12,168345,3:0:0:0:
312,43,169679,38,0,P|307:102|305:166,1,120.000000596046,4|0,3:2|1:0,0:0:0:0:
256,198,170179,2,0,P|208:183|109:253,1,180.000000894069,0|0,3:0|1:0,0:0:0:0:
119,310,170845,2,0,P|175:317|236:333,1,120.000000596046,2|0,0:0|0:0,0:0:0:0:
273,380,171345,1,2,1:2:0:0:
273,380,171512,2,0,P|328:356|450:323,1,180.000000894069,2|0,3:2|1:0,0:0:0:0:
495,215,172345,6,0,P|498:184|505:154,2,60.000000298023,0|2|0,3:0|3:2|1:0,0:0:0:0:
434,211,172845,2,0,P|430:135|417:32,1,180.000000894069,2|0,3:2|1:0,0:0:0:0:
297,47,173679,2,0,P|300:103|308:170,1,120.000000596046,0|0,0:0|1:0,0:0:0:0:
256,197,174179,1,2,3:2:0:0:
256,197,174345,2,0,P|224:187|187:184,2,60.000000298023,0|2|2,3:0|3:2|1:3,0:0:0:0:
320,300,175012,86,0,P|352:290|389:287,2,60.000000298023,2|0|2,3:2|3:0|1:2,0:0:0:0:
282,346,175512,2,0,P|188:338|102:334,1,180.000000894069,2|2,3:2|1:2,0:0:0:0:
45,354,176179,2,0,P|-1:298|26:201,1,180.000000894069,2|0,0:0|1:0,0:0:0:0:
79,175,176845,1,2,3:2:0:0:
79,175,177012,2,0,P|76:146|69:105,2,60.000000298023,2|2|0,3:2|3:2|1:0,0:0:0:0:
191,132,177679,6,0,P|193:103|201:62,2,60.000000298023,0|2|0,3:0|3:2|1:0,0:0:0:0:
244,158,178179,2,0,P|304:147|359:173,1,120.000000596046,2|2,3:2|0:0,0:0:0:0:
394,216,178679,1,0,1:0:0:0:
356,329,179012,1,2,0:0:0:0:
356,329,179179,2,0,P|325:332|298:341,1,60.000000298023,2|0,0:0|1:0,0:0:0:0:
242,364,179512,1,2,3:2:0:0:
122,372,179845,1,2,3:2:0:0:
122,372,180012,2,0,P|92:364|64:360,1,60.000000298023,2|0,1:3|3:0,0:0:0:0:
43,303,180345,86,0,P|30:238|23:184,1,120.000000596046,4|0,1:2|1:0,0:0:0:0:
138,152,181012,2,0,P|190:169|222:238,1,120.000000596046,0|0,1:0|1:0,0:0:0:0:
218,344,181679,1,0,1:0:0:0:
332,383,182012,1,0,1:0:0:0:
403,287,182345,1,0,1:0:0:0:
335,189,182679,2,0,P|303:192|273:198,1,60.000000298023,0|0,1:0|3:0,0:0:0:0:
220,224,183012,6,0,P|164:217|100:211,1,120.000000596046,4|0,1:0|1:0,0:0:0:0:
87,91,183679,2,0,P|146:96|206:103,1,120.000000596046,0|0,1:0|1:0,0:0:0:0:
220,224,184345,1,0,1:0:0:0:
338,247,184679,1,0,1:0:0:0:
396,142,185012,1,0,1:0:0:0:
314,54,185345,2,0,P|287:59|257:69,1,60.000000298023,0|0,1:0|3:0,0:0:0:0:
206,103,185679,86,0,P|213:159|219:228,1,120.000000596046,4|0,1:0|1:0,0:0:0:0:
338,247,186345,2,0,P|330:306|325:366,1,120.000000596046,0|0,1:0|1:0,0:0:0:0:
271,339,186845,1,0,3:0:0:0:
271,339,187012,2,0,P|214:324|160:348,1,120.000000596046,4|0,1:0|1:0,0:0:0:0:
110,238,187679,2,0,P|56:261|-1:246,1,120.000000596046,0|0,1:0|1:0,0:0:0:0:
4,186,188179,1,0,3:0:0:0:
4,186,188345,6,0,P|7:127|15:63,1,120.000000596046,4|0,1:0|1:0,0:0:0:0:
26,7,188845,1,0,3:0:0:0:
26,7,189012,1,4,1:2:0:0:
126,72,189345,2,0,P|160:77|186:71,1,60.000000298023,0|0,1:0|3:0,0:0:0:0:
243,59,189679,1,4,1:0:0:0:
353,11,190012,1,4,1:0:0:0:
459,65,190345,2,0,P|469:96|472:125,1,60.000000298023,4|0,1:0|1:0,0:0:0:0:
476,183,190679,1,2,1:3:0:0:
396,273,191012,85,6,3:2:0:0:
396,273,191179,1,2,3:2:0:0:
280,306,191512,2,0,P|270:337|267:366,2,60.000000298023,2|0|2,3:2|1:0|3:2,0:0:0:0:
163,276,192179,2,0,P|159:217|147:153,1,120.000000596046,2|2,3:2|3:2,0:0:0:0:
249,92,192845,2,0,P|252:62|261:33,1,60.000000298023,2|0,3:2|1:0,0:0:0:0:
313,5,193179,2,0,P|372:13|440:21,1,120.000000596046,2|2,3:2|3:2,0:0:0:0:
490,32,193679,5,2,3:2:0:0:
490,32,193845,1,2,3:2:0:0:
450,145,194179,2,0,P|459:175|461:208,2,60.000000298023,2|0|2,3:2|1:0|3:2,0:0:0:0:
342,198,194845,2,0,P|336:255|333:319,1,120.000000596046,2|2,3:2|3:2,0:0:0:0:
225,371,195512,2,0,P|216:341|214:308,1,60.000000298023,2|0,3:2|1:0,0:0:0:0:
206,252,195845,2,0,P|145:236|93:253,1,120.000000596046,2|2,3:2|3:2,0:0:0:0:
57,306,196345,85,2,3:2:0:0:
57,306,196512,1,2,3:2:0:0:
10,195,196845,2,0,P|14:161|23:129,2,60.000000298023,2|0|2,3:2|1:0|3:2,0:0:0:0:
117,140,197512,2,0,P|110:80|101:17,1,120.000000596046,2|2,3:2|3:2,0:0:0:0:
215,59,198179,2,0,P|248:42|275:38,1,60.000000298023,2|0,3:2|1:0,0:0:0:0:
325,61,198512,2,0,P|382:80|437:60,1,120.000000596046,2|2,3:2|3:2,0:0:0:0:
484,24,199012,5,2,3:2:0:0:
484,24,199179,1,2,3:2:0:0:
492,143,199512,2,0,P|495:171|496:203,2,60.000000298023,2|0|2,3:2|1:0|3:2,0:0:0:0:
392,210,200179,1,2,3:2:0:0:
392,210,200345,2,0,P|388:240|388:270,2,60.000000298023,2|2|2,3:2|3:2|3:2,0:0:0:0:
279,254,201012,2,0,P|287:225|288:195,2,60.000000298023,10|2|2,3:2|3:2|3:2,0:0:0:0:
163,222,201679,85,4,3:2:0:0:
163,222,201845,1,2,3:2:0:0:
101,325,202179,2,0,P|100:354|92:383,2,60.000000298023,2|0|2,3:2|1:0|3:2,0:0:0:0:
18,238,202845,2,0,P|12:181|2:118,1,120.000000596046,2|2,3:2|3:2,0:0:0:0:
90,36,203512,2,0,P|121:31|152:35,1,60.000000298023,2|2,3:2|1:2,0:0:0:0:
190,78,203845,2,0,P|257:85|299:59,1,120.000000596046,2|2,3:2|3:2,0:0:0:0:
341,14,204345,5,2,3:2:0:0:
341,14,204512,1,2,3:2:0:0:
433,90,204845,2,0,P|463:80|493:79,2,60.000000298023,2|0|2,3:2|1:0|3:2,0:0:0:0:
379,197,205512,2,0,P|387:253|395:321,1,120.000000596046,2|2,3:2|3:2,0:0:0:0:
274,312,206179,2,0,P|273:284|277:252,2,60.000000298023,2|0|2,3:2|1:0|3:2,0:0:0:0:
164,361,206845,86,0,P|134:349|106:349,1,60.000000298023,2|2,3:2|3:2,0:0:0:0:
47,359,207179,1,2,3:2:0:0:
5,246,207512,2,0,P|2:184|29:134,2,120.000000596046,2|2|2,3:2|3:2|3:2,0:0:0:0:
121,215,208512,2,0,P|133:159|143:91,1,120.000000596046,2|2,3:2|3:2,0:0:0:0:
146,37,209012,1,0,1:0:0:0:
146,37,209179,2,0,P|203:61|256:45,1,120.000000596046,2|2,3:2|3:2,0:0:0:0:
309,17,209679,5,2,3:2:0:0:
309,17,209845,1,2,3:2:0:0:
420,62,210179,1,2,3:2:0:0:
465,172,210512,1,2,3:2:0:0:
419,282,210845,1,2,3:2:0:0:
419,282,211012,2,0,P|418:311|423:341,2,60.000000298023,2|2|2,3:2|3:2|3:2,0:0:0:0:
313,338,211679,2,0,P|317:308|317:278,2,60.000000298023,2|2|2,1:2|3:2|3:2,0:0:0:0:
200,297,212345,21,4,3:2:0:0:
200,297,213679,2,0,P|139:291|86:319,1,120.000000596046,0|0,1:0|3:0,0:0:0:0:
11,226,214345,2,0,P|11:194|17:161,1,60.000000298023,0|0,3:0|3:0,0:0:0:0:
31,108,214679,1,2,1:3:0:0:
154,94,215012,21,4,3:2:0:0:
154,94,215179,2,0,P|216:85|274:81,1,120.000000596046,2|2,3:2|3:2,0:0:0:0:
392,66,215845,1,2,3:2:0:0:
345,177,216179,2,0,P|329:234|348:290,1,120.000000596046,2|0,3:2|3:0,0:0:0:0:
380,340,216679,2,0,P|287:333|200:331,1,180.000000894069,0|2,3:0|3:2,0:0:0:0:
140,332,217345,1,2,3:2:0:0:
51,250,217679,5,0,3:0:0:0:
51,250,217845,2,0,P|35:191|49:135,2,120.000000596046,2|2|2,3:2|3:2|3:2,0:0:0:0:
155,190,218845,1,2,3:2:0:0:
155,190,219679,2,0,P|213:195|274:204,1,120.000000596046,0|0,1:0|3:0,0:0:0:0:
392,225,220345,85,0,3:0:0:0:
392,225,220512,2,0,P|422:177|414:117,1,120.000000596046,2|2,3:2|3:2,0:0:0:0:
357,10,221179,1,2,3:2:0:0:
243,47,221512,2,0,P|185:39|120:33,1,120.000000596046,2|0,3:2|3:0,0:0:0:0:
64,26,222012,2,0,B|32:77|32:77|53:194,1,180.000000894069,0|2,3:0|3:2,0:0:0:0:
70,252,222679,1,2,3:2:0:0:
182,211,223012,5,0,3:0:0:0:
182,211,223179,2,0,P|243:210|293:238,2,120.000000596046,2|2|2,3:2|3:2|3:2,0:0:0:0:
213,326,224179,1,2,3:2:0:0:
213,326,225012,2,0,P|272:332|334:343,1,120.000000596046,0|0,1:0|3:0,0:0:0:0:
389,358,225512,1,0,3:0:0:0:
389,358,225679,54,0,P|377:271|368:177,2,180.000000894069,6|2|2,3:2|3:2|0:0,0:0:0:0:
489,292,227012,2,0,P|497:202|509:113,2,180.000000894069,2|2|2,0:0|0:0|3:2,0:0:0:0:
389,358,228345,2,0,B|360:357|331:344|331:344|213:370|213:370|183:356|155:357,3,240.000001192092,0|0|0|0,3:0|1:0|0:0|1:0,0:0:0:0:
68,273,230679,1,0,3:0:0:0:
159,195,231012,6,0,P|153:111|142:14,2,180.000000894069,2|2|2,3:2|3:2|0:0,0:0:0:0:
275,223,232345,2,0,P|280:139|292:42,2,180.000000894069,2|2|2,0:0|0:0|3:2,0:0:0:0:
388,264,233679,2,0,P|450:240|399:334,2,240.000001192092,0|0|0,3:0|1:0|0:0,0:0:0:0:
155,322,235679,2,0,P|125:324|93:314,1,60.000000298023,0|0,1:0|3:0,0:0:0:0:
104,256,236012,2,0,P|134:254|166:264,1,60.000000298023,0|0,1:0|3:0,0:0:0:0:
