osu file format v14

[General]
AudioFilename: audio.mp3
AudioLeadIn: 0
PreviewTime: 53595
Countdown: 0
SampleSet: Soft
StackLeniency: 0.5
Mode: 0
LetterboxInBreaks: 0
WidescreenStoryboard: 0

[Editor]
DistanceSpacing: 1.2
BeatDivisor: 4
GridSize: 4
TimelineZoom: 2.200004

[Metadata]
Title:Closure
TitleUnicode:Closure
Artist:Asking Alexandria
ArtistUnicode:Asking Alexandria
Creator:Bearizm
Version:Expert
Source:
Tags:Reckless & Relentless Metalcore Electronicore Post Hardcore Scream Sumerian Records Danny Worsnop Ben Bruce James Cassells Cameron Liddell Sam Bettley LMT Drummer Stingy beaw English Rock
BeatmapID:1857749
BeatmapSetID:887832

[Difficulty]
HPDrainRate:6
CircleSize:4
OverallDifficulty:8.2
ApproachRate:9.1
SliderMultiplier:2.00000000596046
SliderTickRate:1

[Events]
//Background and Video events
0,0,"Closure.jpg",0,0
//Break Periods
2,39678,43395
2,127325,147671
//Storyboard Layer 0 (Background)
//Storyboard Layer 1 (Fail)
//Storyboard Layer 2 (Pass)
//Storyboard Layer 3 (Foreground)
//Storyboard Layer 4 (Overlay)
//Storyboard Sound Samples

[TimingPoints]
50,428.571428571429,4,2,1,60,1,0
5085,-100,4,2,1,5,0,0
5192,-100,4,2,1,60,0,0
5621,-100,4,2,1,5,0,0
5728,-100,4,2,1,60,0,0
10228,-100,4,2,1,5,0,0
10335,-100,4,2,1,60,0,0
12050,-100,4,2,1,70,0,0
12478,-100,4,2,1,75,0,0
12907,-100,4,2,1,80,0,0
13335,-100,4,2,1,85,0,0
13550,-100,4,2,1,60,0,0
13764,-66.6666666666667,4,2,1,90,0,0
13871,-66.6666666666667,4,2,1,5,0,0
13978,-66.6666666666667,4,2,1,90,0,0
17300,-66.6666666666667,4,2,1,5,0,0
17407,-66.6666666666667,4,2,1,90,0,0
20407,-50,4,2,1,90,0,0
20514,-50,4,2,1,5,0,0
20621,-66.6666666666667,4,2,1,90,0,0
20728,-66.6666666666667,4,2,1,5,0,0
20835,-66.6666666666667,4,2,1,90,0,0
24157,-66.6666666666667,4,2,1,5,0,0
24264,-66.6666666666667,4,2,1,90,0,0
25978,-66.6666666666667,4,2,0,70,0,0
26407,-66.6666666666667,4,2,1,90,0,0
27478,-62.5,4,2,1,90,0,0
28228,-62.5,4,2,1,5,0,0
28335,-62.5,4,2,1,90,0,0
29085,-62.5,4,2,1,5,0,0
29192,-62.5,4,2,1,90,0,0
29942,-62.5,4,2,1,5,0,0
30050,-62.5,4,2,1,90,0,0
30800,-62.5,4,2,1,5,0,0
30907,-62.5,4,2,1,90,0,0
31657,-62.5,4,2,1,5,0,0
31764,-62.5,4,2,1,90,0,0
32514,-62.5,4,2,1,5,0,0
32621,-62.5,4,2,1,90,0,0
33371,-62.5,4,2,1,5,0,0
33478,-62.5,4,2,1,90,0,0
34121,-50,4,2,1,90,0,0
34228,-50,4,2,1,5,0,0
34335,-62.5,4,2,1,90,0,0
35085,-62.5,4,2,1,5,0,0
35192,-62.5,4,2,1,90,0,0
35942,-62.5,4,2,1,5,0,0
36050,-62.5,4,2,1,90,0,0
36800,-62.5,4,2,1,5,0,0
36907,-62.5,4,2,1,90,0,0
37657,-62.5,4,2,1,5,0,0
37764,-62.5,4,2,1,90,0,0
38514,-62.5,4,2,1,5,0,0
38621,-62.5,4,2,1,90,0,0
39050,-62.5,4,2,1,5,0,0
39157,-62.5,4,2,1,90,0,0
39371,-62.5,4,2,1,5,0,0
39478,472.44094488189,4,2,1,90,1,0
41367,615.384615384615,4,2,1,50,1,0
41520,428.571428571429,4,2,1,50,1,0
41734,400,4,2,1,50,1,0
41940,476.190476190476,4,2,1,50,1,0
42178,361.44578313253,4,2,1,50,1,0
42358,352.941176470588,4,2,1,50,1,0
42534,461.538461538462,4,2,1,50,1,0
42764,428.571428571429,4,2,1,50,1,0
42871,461.538461538462,4,2,1,50,1,0
43101,333.333333333333,4,2,1,50,1,0
43267,300,4,2,1,50,1,0
43567,319.148936170213,4,2,1,50,1,0
44045,300,4,2,1,60,1,0
52445,-200,4,2,1,60,0,0
53045,-100,4,2,1,70,0,0
53345,-100,4,2,1,70,0,0
53645,-100,4,2,1,90,0,1
63170,-100,4,2,1,90,0,0
63245,-100,4,2,1,100,0,1
72845,-100,4,2,1,70,0,0
75245,-100,4,2,1,90,0,0
83795,-133.333333333333,4,2,1,90,0,0
84245,-100,4,2,1,90,0,0
84395,-133.333333333333,4,2,1,90,0,0
84845,-100,4,2,1,90,0,1
94445,428.571428571429,4,2,1,90,1,0
94552,-100,4,2,1,90,0,0
97873,-100,4,2,1,90,0,0
98409,-100,4,2,1,5,0,0
98516,-100,4,2,1,90,0,0
100123,-100,4,2,1,5,0,0
100230,-100,4,2,1,90,0,0
101837,-100,4,2,1,5,0,0
101945,-100,4,2,1,90,0,0
103016,-133.333333333333,4,2,1,90,0,0
103230,-133.333333333333,4,2,1,5,0,0
103337,-133.333333333333,4,2,1,90,0,0
103552,-133.333333333333,4,2,1,5,0,0
103659,-133.333333333333,4,2,1,90,0,0
104087,-133.333333333333,4,2,1,5,0,0
104195,-133.333333333333,4,2,1,90,0,0
104409,-133.333333333333,4,2,1,5,0,0
104516,-133.333333333333,4,2,1,90,0,0
104730,-100,4,2,1,90,0,0
105266,-100,4,2,1,5,0,0
105373,-100,4,2,1,90,0,0
106980,-100,4,2,1,5,0,0
107087,-100,4,2,1,90,0,0
107302,-133.333333333333,4,2,1,90,0,0
107516,-133.333333333333,4,2,1,5,0,0
107623,-133.333333333333,4,2,1,90,0,0
107837,-133.333333333333,4,2,1,5,0,0
107945,-133.333333333333,4,2,1,90,0,0
108159,-100,4,2,1,90,0,0
108695,-100,4,2,1,5,0,0
108802,-100,4,2,1,90,0,0
109873,-133.333333333333,4,2,1,90,0,0
110087,-133.333333333333,4,2,1,5,0,0
110195,-133.333333333333,4,2,1,90,0,0
110409,-133.333333333333,4,2,1,5,0,0
110516,-133.333333333333,4,2,1,90,0,0
111587,-100,4,2,1,90,0,0
116730,-133.333333333333,4,2,1,90,0,0
116945,-133.333333333333,4,2,1,5,0,0
117052,-133.333333333333,4,2,1,90,0,0
117266,-133.333333333333,4,2,1,5,0,0
117373,-133.333333333333,4,2,1,90,0,0
118445,-100,4,2,1,90,0,0
121016,-133.333333333333,4,2,1,90,0,0
121230,-133.333333333333,4,2,1,5,0,0
121337,-133.333333333333,4,2,1,90,0,0
121552,-133.333333333333,4,2,1,5,0,0
121659,-133.333333333333,4,2,1,90,0,0
121873,-100,4,2,1,90,0,0
125302,-80,4,2,1,90,0,1
125516,-80,4,2,1,5,0,1
125623,-80,4,2,1,90,0,1
125837,-80,4,2,1,5,0,1
125945,-80,4,2,1,90,0,1
126373,-80,4,2,1,5,0,1
126480,-80,4,2,1,90,0,1
126695,-80,4,2,1,5,0,1
126802,-80,4,2,1,90,0,1
126909,-80,4,2,1,5,0,1
127016,718.562874251497,4,2,1,100,1,0
127105,-100,4,2,1,20,0,0
129530,-100,4,2,1,5,0,0
129890,666.666666666667,4,2,1,20,1,0
132223,-100,4,2,1,5,0,0
132556,645.161290322581,4,2,1,20,1,0
134814,-100,4,2,1,5,0,0
135136,662.983425414365,4,2,1,20,1,0
137456,-100,4,2,1,5,0,0
137787,681.818181818182,4,2,1,20,1,0
140173,-100,4,2,1,5,0,0
140514,670.391061452514,4,2,1,20,1,0
142860,-100,4,2,1,5,0,0
143195,662.983425414365,4,2,1,20,1,0
145515,-100,4,2,1,5,0,0
145846,625,4,2,1,20,1,0
148033,-100,4,2,1,5,0,0
148346,333.333333333333,4,2,1,30,1,0
148346,-133.333333333333,4,2,1,30,0,0
159012,-133.333333333333,4,2,2,30,0,0
159346,-133.333333333333,4,2,2,33,0,0
159679,-133.333333333333,4,2,2,35,0,0
160012,-133.333333333333,4,2,2,38,0,0
160346,-133.333333333333,4,2,2,40,0,0
160679,-133.333333333333,4,2,2,43,0,0
161012,-133.333333333333,4,2,2,45,0,0
161346,-133.333333333333,4,2,2,48,0,0
161679,-133.333333333333,4,2,2,50,0,0
162012,-133.333333333333,4,2,2,53,0,0
162346,-133.333333333333,4,2,2,55,0,0
162679,-133.333333333333,4,2,2,58,0,0
163012,-133.333333333333,4,2,2,60,0,0
163345,-133.333333333333,4,2,2,63,0,0
163679,-133.333333333333,4,2,2,65,0,0
164012,-133.333333333333,4,2,2,68,0,0
164345,-133.333333333333,4,2,2,70,0,0
164679,-133.333333333333,4,2,2,73,0,0
165012,-133.333333333333,4,2,2,75,0,0
165345,-133.333333333333,4,2,2,78,0,0
165679,-133.333333333333,4,2,2,80,0,0
166012,-133.333333333333,4,2,2,83,0,0
166345,-133.333333333333,4,2,2,85,0,0
166679,-133.333333333333,4,2,2,88,0,0
167012,-133.333333333333,4,2,2,90,0,0
167345,-133.333333333333,4,2,2,93,0,0
167679,-133.333333333333,4,2,2,95,0,0
168012,-133.333333333333,4,2,2,98,0,0
168345,-133.333333333333,4,2,2,100,0,0
168429,-133.333333333333,4,2,1,80,0,0
169345,-133.333333333333,4,2,1,90,0,0
169679,-100,4,2,1,100,0,1
180262,-100,4,2,1,100,0,0
180345,-100,4,2,1,100,0,1
191012,-100,4,2,1,100,0,0
191179,-100,4,2,1,90,0,0
212429,-100,4,2,1,40,0,0
213512,-100,4,2,1,5,0,0
213679,-100,4,2,1,70,0,0
214679,-400,4,2,1,70,0,0
214929,-400,4,2,1,5,0,0
215012,-100,4,2,1,90,0,0
225679,-133.333333333333,4,2,1,90,0,1
236179,-100,4,2,1,90,0,0

[Colours]
Combo1 : 255,0,0
Combo2 : 192,192,192
Combo3 : 128,128,128
Combo4 : 255,164,164
Combo5 : 255,125,125
Combo6 : 187,187,255
Combo7 : 94,150,255

[HitObjects]
7,205,50,6,0,L|207:180,1,200.000000596046,4|0,3:1|3:0,0:0:0:0:
258,95,692,2,0,P|251:70|251:46,2,50.0000001490115,0|0|0,1:0|0:0|0:0,0:0:0:0:
306,182,1121,1,0,3:0:0:0:
421,272,1335,2,0,B|372:268|372:268|327:290|327:290|277:286,1,150.000000447035,0|0,1:0|0:0,0:0:0:0:
251,286,1764,6,0,P|260:310|264:334,1,50.0000001490115,0|0,1:0|0:0,0:0:0:0:
136,270,1978,1,0,1:0:0:0:
139,246,2085,2,0,P|143:203|151:145,1,100.000000298023,0|0,3:0|3:0,0:0:0:0:
25,113,2407,1,0,3:0:0:0:
25,113,2514,1,0,3:0:0:0:
25,113,2621,86,0,P|31:162|35:212,1,100.000000298023,0|0,1:0|3:0,0:0:0:0:
37,237,2942,1,0,3:0:0:0:
264,322,3157,1,0,1:0:0:0:
264,322,3264,1,0,3:0:0:0:
264,322,3371,1,0,3:0:0:0:
264,322,3478,6,0,P|318:299|428:368,1,200.000000596046,4|0,3:1|3:0,0:0:0:0:
404,219,4121,1,0,1:0:0:0:
404,219,4228,1,0,0:0:0:0:
404,219,4335,2,0,P|397:168|391:118,1,100.000000298023,0|0,0:0|3:0,0:0:0:0:
210,192,4764,2,0,P|220:119|229:37,1,150.000000447035,0|0,1:0|0:0,0:0:0:0:
229,18,5192,1,0,0:0:0:0:
111,147,5407,86,0,P|62:131|11:141,1,100.000000298023,0|0,3:0|0:0,0:0:0:0:
12,226,5728,2,0,P|61:242|112:232,1,100.000000298023,0|0,3:0|3:0,0:0:0:0:
187,197,6050,2,0,L|237:201,3,50.0000001490115,0|0|0|0,3:0|3:0|3:0|3:0,0:0:0:0:
196,282,6478,2,0,L|165:283,6,25.0000000745058,2|0|0|0|0|0|0,1:3|0:0|0:0|0:0|0:0|0:0|0:0,0:0:0:0:
278,334,6907,6,0,P|286:235|299:136,1,200.000000596046,4|0,3:1|3:0,0:0:0:0:
215,64,7550,2,0,P|213:39|208:13,2,50.0000001490115,0|0|0,1:0|0:0|0:0,0:0:0:0:
304,110,7978,1,0,3:0:0:0:
483,64,8192,2,0,P|437:45|382:55,1,100.000000298023,0|0,1:0|0:0,0:0:0:0:
331,207,8621,86,0,P|356:202|383:200,1,50.0000001490115,0|0,1:0|3:0,0:0:0:0:
495,301,8835,1,0,1:0:0:0:
471,296,8942,2,0,P|423:289|371:287,1,100.000000298023,0|0,3:0|3:0,0:0:0:0:
296,347,9264,1,0,3:0:0:0:
296,347,9371,1,0,3:0:0:0:
296,347,9478,6,0,P|247:349|147:360,1,150.000000447035,0|0,3:0|3:0,0:0:0:0:
53,339,9907,2,0,P|94:279|166:265,1,150.000000447035,0|0,3:0|0:0,0:0:0:0:
166,265,10335,86,0,P|159:167|154:64,1,200.000000596046,4|0,3:1|3:0,0:0:0:0:
313,3,10978,2,0,P|319:102|324:202,1,200.000000596046,0|0,1:0|3:0,0:0:0:0:
512,319,11621,2,0,P|476:279|379:280,1,150.000000447035,0|0,1:0|3:0,0:0:0:0:
369,296,12050,6,0,P|293:288|216:282,1,150.000000447035,4|0,1:2|3:0,0:0:0:0:
56,250,12478,86,0,P|132:258|209:264,1,150.000000447035,0|0,1:0|3:0,0:0:0:0:
279,147,12907,6,0,P|272:173|269:198,1,50.0000001490115,4|0,1:0|0:0,0:0:0:0:
178,31,13121,2,0,P|184:57|188:82,1,50.0000001490115,0|0,1:0|0:0,0:0:0:0:
118,161,13335,2,0,P|120:187|124:212,1,50.0000001490115,0|0,1:0|1:0,0:0:0:0:
208,362,13550,5,0,3:0:0:0:
208,362,13657,1,0,3:0:0:0:
208,362,13764,2,0,L|358:344,1,150.000006169081,4|0,3:2|3:0,0:0:0:0:
448,272,14085,2,0,L|298:254,1,150.000006169081,0|0,3:0|3:0,0:0:0:0:
388,180,14407,1,0,3:0:0:0:
116,246,14621,6,0,P|111:281|123:319,2,75.0000030845403,0|0|0,1:0|3:0|3:0,0:0:0:0:
211,199,14942,2,0,B|236:148|236:148|210:56,1,150.000006169081,0|0,3:0|3:0,0:0:0:0:
132,139,15264,1,0,3:0:0:0:
299,254,15478,86,0,P|374:245|452:237,1,150.000006169081,0|0,3:0|3:0,0:0:0:0:
474,142,15800,2,0,P|399:149|324:159,1,150.000006169081,0|0,3:0|3:0,0:0:0:0:
258,87,16121,1,0,3:0:0:0:
199,288,16335,6,0,P|209:318|209:361,2,75.0000030845403,0|0|0,1:0|3:0|3:0,0:0:0:0:
9,244,16764,86,0,P|-1:274|-1:317,2,75.0000030845403,0|0|0,1:0|3:0|3:0,0:0:0:0:
210,145,17192,6,0,P|136:159|80:104,1,150.000006169081,0|0,3:0|3:0,0:0:0:0:
106,26,17514,2,0,P|179:11|235:66,1,150.000006169081,0|0,3:0|3:0,0:0:0:0:
296,122,17835,1,0,3:0:0:0:
488,84,18050,86,0,P|475:50|476:9,2,75.0000030845403,0|0|0,1:0|3:0|3:0,0:0:0:0:
418,142,18371,2,0,P|412:217|402:292,1,150.000006169081,0|0,3:0|3:0,0:0:0:0:
379,379,18692,1,0,3:0:0:0:
202,296,18907,6,0,P|127:283|56:342,1,150.000006169081,0|0,3:0|3:0,0:0:0:0:
125,244,19228,2,0,P|117:169|108:93,1,150.000006169081,0|0,3:0|3:0,0:0:0:0:
90,6,19550,1,0,3:0:0:0:
325,137,19764,85,0,1:0:0:0:
359,150,19871,1,0,1:0:0:0:
396,149,19978,1,0,3:0:0:0:
430,133,20085,1,0,3:0:0:0:
455,106,20192,2,0,P|450:71|445:31,1,75.0000030845403,0|0,3:0|3:0,0:0:0:0:
402,244,20407,54,0,P|407:279|417:346,1,100.000000298023,2|0,1:3|0:0,0:0:0:0:
416,342,20621,54,0,P|346:334|268:328,1,150.000006169081,4|0,3:2|3:0,0:0:0:0:
206,261,20942,2,0,P|132:250|77:301,1,150.000006169081,0|0,3:0|3:0,0:0:0:0:
158,335,21264,1,0,3:0:0:0:
101,150,21478,86,0,P|107:113|97:71,2,75.0000030845403,0|0|0,1:0|3:0|3:0,0:0:0:0:
21,35,21800,2,0,L|171:23,1,150.000006169081,0|0,3:0|3:0,0:0:0:0:
260,9,22121,1,0,3:0:0:0:
467,117,22335,6,0,L|317:105,1,150.000006169081,0|0,3:0|3:0,0:0:0:0:
228,98,22657,1,0,3:0:0:0:
246,276,22871,1,0,3:0:0:0:
249,298,22978,1,0,3:0:0:0:
98,287,23192,86,0,L|23:281,2,75.0000030845403,0|0|0,1:0|3:0|3:0,0:0:0:0:
228,98,23621,6,0,L|153:104,2,75.0000030845403,0|0|0,1:0|3:0|3:0,0:0:0:0:
249,298,24050,86,0,B|302:323|302:323|392:296,1,150.000006169081,0|0,3:0|3:0,0:0:0:0:
472,261,24371,1,0,3:0:0:0:
300,169,24585,1,0,3:0:0:0:
301,192,24692,1,0,3:0:0:0:
425,38,24907,6,0,P|462:38|497:50,2,75.0000030845403,0|0|0,1:0|3:0|3:0,0:0:0:0:
346,80,25228,2,0,P|276:83|197:91,1,150.000006169081,0|0,3:0|3:0,0:0:0:0:
107,103,25550,1,0,3:0:0:0:
170,336,25764,85,0,3:0:0:0:
170,336,25978,5,2,0:3:0:0:
203,319,26085,1,2,0:3:0:0:
240,315,26192,1,2,0:3:0:0:
276,325,26300,1,2,0:3:0:0:
305,348,26407,1,0,3:0:0:0:
431,220,26621,86,0,P|422:186|419:146,2,75.0000030845403,0|0|0,1:0|1:0|3:0,0:0:0:0:
186,192,27050,6,0,P|195:158|198:118,2,75.0000030845403,0|0|0,1:0|1:0|3:0,0:0:0:0:
499,86,27478,86,0,P|429:47|355:68,1,160.000000476837,4|0,3:2|3:0,0:0:0:0:
259,55,27800,2,0,P|189:94|115:73,1,160.000000476837,0|0,3:0|3:0,0:0:0:0:
37,128,28121,2,0,P|29:167|34:209,1,80.0000002384184,0|0,3:0|0:0,0:0:0:0:
129,266,28335,5,0,1:0:0:0:
129,266,28442,1,0,3:0:0:0:
129,266,28550,1,0,3:0:0:0:
129,266,28657,2,0,B|288:249,1,160.000000476837,0|0,3:0|3:0,0:0:0:0:
369,299,28978,2,0,L|362:380,1,80.0000002384184,0|0,3:0|0:0,0:0:0:0:
468,346,29192,86,0,L|481:185,1,160.000000476837,0|0,3:0|3:0,0:0:0:0:
417,113,29514,2,0,B|372:112|343:140|343:140|315:111|272:104,1,160.000000476837,0|0,3:0|3:0,0:0:0:0:
193,52,29835,2,0,P|181:89|182:133,1,80.0000002384184,0|0,3:0|0:0,0:0:0:0:
258,205,30050,5,0,1:0:0:0:
258,205,30157,1,0,3:0:0:0:
258,205,30264,2,0,B|285:311|285:311|261:359,1,160.000000476837,0|0,3:0|1:0,0:0:0:0:
185,299,30585,1,0,3:0:0:0:
185,299,30692,2,0,P|146:305|107:313,1,80.0000002384184,0|0,3:0|0:0,0:0:0:0:
24,261,30907,86,0,P|34:182|42:95,1,160.000000476837,0|0,3:0|3:0,0:0:0:0:
152,55,31228,2,0,P|142:134|134:221,1,160.000000476837,0|0,3:0|3:0,0:0:0:0:
185,299,31550,2,0,P|146:305|107:313,1,80.0000002384184,0|0,3:0|0:0,0:0:0:0:
280,361,31764,5,0,1:0:0:0:
280,361,31871,1,0,3:0:0:0:
280,361,31978,1,0,3:0:0:0:
280,361,32085,2,0,P|359:347|441:337,1,160.000000476837,0|0,3:0|3:0,0:0:0:0:
503,265,32407,2,0,P|503:225|484:187,1,80.0000002384184,0|0,3:0|0:0,0:0:0:0:
399,147,32621,86,0,P|328:183|258:154,1,160.000000476837,0|0,3:0|3:0,0:0:0:0:
250,58,32942,2,0,P|321:22|391:51,1,160.000000476837,0|0,3:0|3:0,0:0:0:0:
488,12,33264,2,0,P|480:52|477:92,1,80.0000002384184,0|0,3:0|0:0,0:0:0:0:
399,147,33478,5,0,1:0:0:0:
380,178,33585,1,0,1:0:0:0:
374,214,33692,1,0,3:0:0:0:
384,251,33800,1,0,3:0:0:0:
406,280,33907,2,0,P|448:274|488:271,1,80.0000002384184,0|0,3:0|3:0,0:0:0:0:
285,331,34121,38,0,P|235:321|185:314,1,100.000000298023,2|0,1:3|0:0,0:0:0:0:
186,314,34335,38,0,B|158:343|116:349|116:349|73:335|59:296,1,160.000000476837,4|0,3:2|3:0,0:0:0:0:
70,211,34657,2,0,B|97:181|140:176|140:176|183:190|196:228,1,160.000000476837,0|0,3:0|3:0,0:0:0:0:
143,135,34978,2,0,P|148:96|155:56,1,80.0000002384184,0|0,3:0|0:0,0:0:0:0:
256,36,35192,5,0,1:0:0:0:
256,36,35300,1,0,3:0:0:0:
256,36,35407,1,0,3:0:0:0:
256,36,35514,2,0,B|303:63|303:63|408:45,1,160.000000476837,0|0,3:0|3:0,0:0:0:0:
481,105,35835,2,0,P|470:140|472:185,1,80.0000002384184,0|0,3:0|0:0,0:0:0:0:
493,277,36050,86,0,L|334:265,1,160.000000476837,0|0,3:0|3:0,0:0:0:0:
258,324,36371,2,0,L|99:312,1,160.000000476837,0|0,3:0|3:0,0:0:0:0:
26,248,36692,2,0,P|21:207|37:169,1,80.0000002384184,0|0,3:0|0:0,0:0:0:0:
124,122,36907,5,0,1:0:0:0:
124,122,37014,1,0,3:0:0:0:
124,122,37121,2,0,B|109:96|87:84|87:84|194:73,1,160.000000476837,0|0,3:0|1:0,0:0:0:0:
273,125,37442,1,0,3:0:0:0:
273,125,37550,2,0,L|352:116,1,80.0000002384184,0|0,3:0|0:0,0:0:0:0:
429,173,37764,86,0,L|412:332,1,160.000000476837,0|0,3:0|3:0,0:0:0:0:
324,384,38085,2,0,L|307:225,1,160.000000476837,0|0,3:0|3:0,0:0:0:0:
222,317,38407,2,0,P|186:333|144:329,1,80.0000002384184,0|0,3:0|0:0,0:0:0:0:
61,287,38621,5,0,1:0:0:0:
61,287,38728,1,0,3:0:0:0:
61,287,38835,1,0,3:0:0:0:
61,287,38942,2,0,B|53:229|53:229|61:205|61:205|50:130,1,160.000000476837,0|0,3:0|3:0,0:0:0:0:
116,57,39264,2,0,P|140:87|149:126,1,80.0000002384184,0|0,3:0|0:0,0:0:0:0:
148,240,39478,85,4,3:2:0:0:
148,240,44045,5,4,3:2:0:0:
148,240,44195,1,0,0:0:0:0:
148,240,44345,2,0,L|247:255,1,100.000000298023,2|0,3:2|0:0,0:0:0:0:
313,154,44645,2,0,L|115:124,1,200.000000596046,2|0,3:2|3:0,0:0:0:0:
186,26,45095,2,0,L|285:41,1,100.000000298023,2|0,0:0|3:0,0:0:0:0:
246,254,45395,2,0,L|147:239,1,100.000000298023,2|0,0:0|3:0,0:0:0:0:
115,124,45695,2,0,L|313:154,1,200.000000596046,2|0,0:0|0:0,0:0:0:0:
427,116,46145,2,0,L|419:15,1,100.000000298023,2|0,3:2|0:0,0:0:0:0:
320,161,46445,85,0,3:0:0:0:
320,161,46595,1,0,0:0:0:0:
320,161,46745,2,0,P|310:209|329:254,1,100.000000298023,2|0,3:2|0:0,0:0:0:0:
431,319,47045,2,0,P|374:288|269:361,1,200.000000596046,2|0,3:2|3:0,0:0:0:0:
160,307,47495,2,0,P|108:310|69:283,1,100.000000298023,2|0,0:0|3:0,0:0:0:0:
102,168,47795,2,0,P|153:164|192:191,1,100.000000298023,2|0,0:0|3:0,0:0:0:0:
16,206,48095,1,2,0:0:0:0:
34,87,48245,1,4,3:0:0:0:
34,87,48320,1,4,3:0:0:0:
34,87,48395,1,4,3:0:0:0:
34,87,48470,1,4,3:0:0:0:
34,87,48545,2,0,P|31:62|25:38,3,50.0000001490115,4|4|4|4,3:0|3:0|3:0|3:0,0:0:0:0:
111,53,48845,6,0,L|210:40,1,100.000000298023,4|0,3:0|3:0,0:0:0:0:
262,148,49145,2,0,L|163:161,1,100.000000298023,4|0,3:0|3:0,0:0:0:0:
0,241,49445,86,0,L|99:228,1,100.000000298023,4|0,3:0|3:0,0:0:0:0:
151,336,49745,2,0,L|52:349,1,100.000000298023,4|0,3:0|3:0,0:0:0:0:
187,236,50045,6,0,P|240:229|280:248,1,100.000000298023,4|0,3:0|3:0,0:0:0:0:
259,366,50345,2,0,P|206:373|166:354,1,100.000000298023,4|0,3:0|3:0,0:0:0:0:
423,192,50645,86,0,P|430:245|411:285,1,100.000000298023,4|0,3:0|3:0,0:0:0:0:
293,264,50945,2,0,P|286:211|305:171,1,100.000000298023,4|0,3:0|3:0,0:0:0:0:
211,19,51245,6,0,B|164:5|164:5|119:28,1,100.000000298023,4|0,3:0|3:0,0:0:0:0:
129,147,51545,2,0,B|176:161|176:161|221:138,1,100.000000298023,4|0,3:0|3:0,0:0:0:0:
10,157,51845,86,0,B|-4:204|-4:204|19:249,1,100.000000298023,4|0,3:0|3:0,0:0:0:0:
138,239,52145,2,0,B|152:192|152:192|129:147,1,100.000000298023,4|0,3:0|3:0,0:0:0:0:
86,334,52445,54,0,P|169:323|255:318,1,150.000000447035,6|0,3:0|3:0,0:0:0:0:
465,328,53045,53,0,1:0:0:0:
465,328,53120,1,0,1:0:0:0:
465,328,53195,1,0,1:0:0:0:
465,328,53270,1,0,1:0:0:0:
465,328,53345,1,0,1:0:0:0:
369,152,53495,1,0,1:0:0:0:
258,320,53645,85,4,3:2:0:0:
364,270,53795,1,0,3:0:0:0:
258,320,53945,2,0,P|205:330|164:310,1,100.000000298023,2|0,1:2|0:0,0:0:0:0:
180,142,54245,2,0,P|233:132|274:152,1,100.000000298023,2|0,3:2|0:0,0:0:0:0:
80,329,54545,1,0,1:0:0:0:
75,219,54695,6,0,P|69:169|60:119,1,100.000000298023,2|0,0:0|3:0,0:0:0:0:
287,52,54995,2,0,P|277:101|272:150,1,100.000000298023,2|0,0:0|1:0,0:0:0:0:
366,226,55295,1,2,0:0:0:0:
470,167,55445,1,0,3:0:0:0:
349,237,55595,1,0,3:0:0:0:
430,359,55745,1,2,1:2:0:0:
450,263,55895,1,0,1:0:0:0:
280,343,56045,86,0,L|181:335,1,100.000000298023,0|0,3:0|3:0,0:0:0:0:
129,225,56345,2,0,P|120:176|139:130,1,100.000000298023,2|0,1:2|0:0,0:0:0:0:
258,144,56645,2,0,P|266:192|247:238,1,100.000000298023,2|0,3:2|0:0,0:0:0:0:
207,36,56945,1,0,1:0:0:0:
258,144,57095,6,0,L|358:130,1,100.000000298023,2|0,0:0|3:0,0:0:0:0:
500,28,57395,2,0,L|400:42,1,100.000000298023,2|0,0:0|1:0,0:0:0:0:
425,200,57695,1,2,0:0:0:0:
448,317,57845,1,0,1:0:0:0:
448,317,57920,1,0,1:0:0:0:
448,317,57995,1,2,1:2:0:0:
333,278,58145,1,2,1:2:0:0:
333,278,58220,1,0,1:0:0:0:
333,278,58295,1,2,1:2:0:0:
149,356,58445,86,0,P|130:310|134:261,1,100.000000298023,4|0,3:1|0:0,0:0:0:0:
192,67,58745,1,2,1:2:0:0:
2,170,58895,2,0,P|50:163|101:158,1,100.000000298023,0|2,0:0|3:2,0:0:0:0:
310,150,59195,1,0,0:0:0:0:
182,49,59345,1,0,1:0:0:0:
231,175,59495,2,0,P|281:198|386:115,1,200.000000596046,2|2,0:0|0:0,0:0:0:0:
498,160,59945,6,0,P|484:207|478:266,1,100.000000298023,0|2,1:0|0:0,0:0:0:0:
473,378,60245,1,0,3:0:0:0:
372,311,60395,2,0,P|324:301|279:320,1,100.000000298023,0|2,3:0|1:2,0:0:0:0:
35,325,60695,2,0,P|91:349|200:269,1,200.000000596046,0|0,0:0|0:0,0:0:0:0:
109,143,61145,86,0,P|104:193|101:243,1,100.000000298023,2|0,1:2|0:0,0:0:0:0:
289,116,61445,2,0,P|285:66|280:16,1,100.000000298023,2|0,3:2|0:0,0:0:0:0:
16,139,61745,6,0,P|66:156|109:143,1,100.000000298023,2|0,1:2|0:0,0:0:0:0:
280,16,62045,2,0,P|240:50|230:94,1,100.000000298023,2|0,3:2|0:0,0:0:0:0:
255,307,62345,2,0,P|244:255|211:224,1,100.000000298023,2|0,1:2|0:0,0:0:0:0:
13,258,62645,85,2,1:3:0:0:
78,371,62795,1,0,1:0:0:0:
78,371,62870,1,0,1:0:0:0:
78,371,62945,2,0,P|124:367|177:361,1,100.000000298023,0|0,1:0|1:0,0:0:0:0:
456,332,63245,6,0,P|413:306|364:307,1,100.000000298023,4|0,3:1|3:0,0:0:0:0:
177,360,63545,2,0,P|167:310|160:245,1,100.000000298023,2|0,1:2|3:0,0:0:0:0:
365,67,63845,2,0,P|355:117|348:182,1,100.000000298023,2|0,1:2|3:0,0:0:0:0:
364,306,64145,1,0,1:0:0:0:
100,197,64295,86,0,P|147:175|204:183,1,100.000000298023,2|0,3:2|1:0,0:0:0:0:
365,67,64595,2,0,P|315:70|271:48,1,100.000000298023,2|0,3:2|1:0,0:0:0:0:
263,243,64895,2,0,P|272:297|279:350,1,100.000000298023,2|0,3:2|1:0,0:0:0:0:
456,332,65195,1,0,3:0:0:0:
484,143,65345,2,0,P|474:197|467:250,1,100.000000298023,2|0,1:2|3:0,0:0:0:0:
314,120,65645,5,0,1:0:0:0:
422,185,65795,1,0,3:0:0:0:
314,120,65945,2,0,P|265:112|219:131,1,100.000000298023,2|0,1:2|3:0,0:0:0:0:
20,66,66245,2,0,P|65:85|114:77,1,100.000000298023,2|0,1:2|3:0,0:0:0:0:
215,12,66545,1,0,1:0:0:0:
122,183,66695,86,0,P|117:232|114:282,1,100.000000298023,2|0,3:2|1:0,0:0:0:0:
267,271,66995,6,0,P|271:320|274:370,1,100.000000298023,2|0,3:2|1:0,0:0:0:0:
400,182,67295,86,0,P|404:231|407:281,1,100.000000298023,2|0,3:2|1:0,0:0:0:0:
273,171,67595,5,2,3:2:0:0:
361,90,67745,1,2,1:2:0:0:
281,1,67895,1,2,3:2:0:0:
192,81,68045,1,4,3:2:0:0:
273,171,68195,85,0,3:0:0:0:
273,171,68270,1,0,3:0:0:0:
273,171,68345,2,0,P|272:221|267:270,1,100.000000298023,2|0,1:2|3:0,0:0:0:0:
26,341,68645,2,0,P|20:291|19:241,1,100.000000298023,2|0,1:2|3:0,0:0:0:0:
20,215,68870,1,0,3:0:0:0:
20,215,68945,1,0,1:0:0:0:
192,81,69095,6,0,P|140:95|93:80,1,100.000000298023,2|0,3:2|1:0,0:0:0:0:
292,16,69395,1,2,3:2:0:0:
292,16,69470,1,0,3:0:0:0:
292,16,69545,2,0,P|344:2|391:17,1,100.000000298023,0|2,1:0|3:2,0:0:0:0:
468,103,69845,85,0,1:0:0:0:
390,194,69995,1,0,3:0:0:0:
390,194,70070,1,0,3:0:0:0:
390,194,70145,1,2,1:2:0:0:
472,280,70295,1,0,3:0:0:0:
394,371,70445,6,0,L|346:361,3,50.0000001490115,0|0|0|0,3:0|3:0|3:0|3:0,0:0:0:0:
285,288,70745,1,10,3:2:0:0:
260,284,70820,1,0,3:0:0:0:
235,288,70895,1,0,3:0:0:0:
213,299,70970,1,0,3:0:0:0:
195,317,71045,86,0,P|199:290|199:262,3,50.0000001490115,10|0|0|0,3:2|3:0|3:0|3:0,0:0:0:0:
114,354,71345,2,0,P|92:346|65:341,1,50.0000001490115,8|0,3:2|3:0,0:0:0:0:
13,247,71495,2,0,P|35:239|62:234,1,50.0000001490115,2|0,3:2|3:0,0:0:0:0:
113,144,71645,6,0,P|107:117|105:89,3,50.0000001490115,8|0|2|0,3:2|3:0|3:2|3:0,0:0:0:0:
213,62,71945,2,0,P|218:35|220:7,3,50.0000001490115,8|0|2|0,3:2|3:0|3:2|3:0,0:0:0:0:
313,125,72245,85,0,1:0:0:0:
335,114,72320,1,0,1:0:0:0:
360,111,72395,1,2,1:2:0:0:
385,114,72470,1,0,1:0:0:0:
408,123,72545,2,0,P|437:123|457:114,3,50.0000001490115,8|8|8|8,3:0|3:0|3:0|3:0,0:0:0:0:
400,216,72845,69,2,1:2:0:0:
392,309,72995,1,2,0:0:0:0:
304,284,73145,1,2,0:0:0:0:
296,377,73295,1,2,0:0:0:0:
403,205,73745,5,2,1:2:0:0:
395,298,73895,1,2,3:2:0:0:
307,273,74045,1,2,3:2:0:0:
299,366,74195,1,2,3:2:0:0:
24,200,74495,85,0,3:0:0:0:
24,200,74570,1,0,3:0:0:0:
24,200,74645,1,2,1:3:0:0:
100,248,74795,1,4,3:0:0:0:
180,208,74945,1,8,3:0:0:0:
180,208,75245,21,6,3:2:0:0:
160,88,75395,1,2,3:2:0:0:
280,68,75545,1,2,3:2:0:0:
300,188,75695,1,2,3:2:0:0:
300,188,76145,5,2,3:2:0:0:
280,68,76295,1,2,3:2:0:0:
160,88,76445,1,2,3:2:0:0:
180,208,76595,1,2,3:2:0:0:
180,208,77045,85,2,1:2:0:0:
300,188,77195,1,2,3:2:0:0:
488,336,77645,5,2,3:2:0:0:
372,308,77795,1,2,3:2:0:0:
272,375,77945,1,2,3:2:0:0:
156,347,78095,1,2,3:2:0:0:
156,347,78545,85,2,3:2:0:0:
272,375,78695,1,2,3:2:0:0:
372,308,78845,1,2,3:2:0:0:
488,336,78995,1,2,3:2:0:0:
488,336,79445,6,0,P|492:284|497:234,1,100.000000298023,2|2,1:2|3:2,0:0:0:0:
312,83,79745,2,0,P|316:132|320:182,1,100.000000298023,2|2,3:2|1:2,0:0:0:0:
224,253,80045,85,2,3:2:0:0:
106,234,80195,1,2,3:2:0:0:
36,137,80345,1,2,3:2:0:0:
55,25,80495,1,2,3:2:0:0:
55,25,80945,5,2,3:2:0:0:
36,137,81095,1,2,3:2:0:0:
106,234,81245,1,2,3:2:0:0:
224,253,81395,1,2,3:2:0:0:
224,253,81845,85,2,1:2:0:0:
106,234,81995,1,2,3:2:0:0:
337,13,82445,5,2,3:2:0:0:
347,132,82595,1,2,3:2:0:0:
357,251,82745,1,2,3:2:0:0:
367,370,82895,1,2,3:2:0:0:
367,370,83345,85,2,3:2:0:0:
357,251,83495,1,2,3:2:0:0:
357,251,83570,1,0,3:0:0:0:
357,251,83645,1,2,1:2:0:0:
258,319,83795,2,0,P|222:308|183:310,2,75.0000030845403,2|0|0,3:2|3:0|3:0,0:0:0:0:
209,97,84245,1,2,1:3:0:0:
308,165,84395,2,0,P|344:154|383:156,2,75.0000030845403,6|0|0,3:2|3:0|3:0,0:0:0:0:
51,149,84845,6,0,P|104:172|209:96,1,200.000000596046,4|2,1:0|3:2,0:0:0:0:
114,73,85295,1,0,3:0:0:0:
51,149,85445,2,0,P|62:196|68:251,1,100.000000298023,2|0,1:2|3:0,0:0:0:0:
245,256,85745,2,0,P|234:303|228:358,1,100.000000298023,2|2,3:2|3:2,0:0:0:0:
181,171,86045,86,0,P|276:155|344:224,1,200.000000596046,0|2,1:0|3:2,0:0:0:0:
404,327,86495,1,0,3:0:0:0:
463,222,86645,2,0,P|467:171|482:123,1,100.000000298023,2|0,1:2|3:0,0:0:0:0:
390,45,86945,1,2,3:2:0:0:
270,64,87095,1,2,3:2:0:0:
227,176,87245,6,0,B|161:171|161:171|98:196|98:196|30:189,1,200.000000596046,0|2,1:0|3:2,0:0:0:0:
52,70,87695,1,0,3:0:0:0:
52,70,87845,2,0,P|100:61|152:56,1,100.000000298023,2|0,1:2|3:0,0:0:0:0:
177,270,88145,2,0,P|225:278|277:284,1,100.000000298023,2|0,3:2|3:0,0:0:0:0:
442,201,88445,86,0,P|408:129|298:128,2,200.000000596046,0|2|0,1:0|3:2|1:0,0:0:0:0:
410,316,89195,1,0,3:0:0:0:
306,374,89345,1,2,3:2:0:0:
191,341,89495,1,0,3:0:0:0:
133,236,89645,6,0,P|137:190|144:137,1,100.000000298023,4|0,1:2|3:0,0:0:0:0:
255,91,89945,2,0,P|250:136|244:190,1,100.000000298023,2|0,3:2|3:0,0:0:0:0:
411,270,90245,86,0,P|371:239|324:236,1,100.000000298023,2|0,1:2|3:0,0:0:0:0:
279,348,90545,2,0,P|319:379|366:382,1,100.000000298023,2|0,3:2|3:0,0:0:0:0:
133,236,90845,6,0,P|87:243|35:252,1,100.000000298023,2|0,1:2|3:0,0:0:0:0:
39,132,91145,2,0,P|85:125|137:116,1,100.000000298023,2|0,3:2|3:0,0:0:0:0:
377,137,91445,86,0,P|385:86|366:43,1,100.000000298023,2|0,1:2|3:0,0:0:0:0:
248,55,91745,2,0,P|238:104|257:147,1,100.000000298023,2|0,3:2|3:0,0:0:0:0:
437,257,92045,5,0,1:0:0:0:
324,215,92195,1,0,3:0:0:0:
215,265,92345,1,2,3:2:0:0:
174,377,92495,1,0,3:0:0:0:
219,249,92645,86,0,P|212:200|204:150,1,100.000000298023,0|0,1:0|3:0,0:0:0:0:
417,342,92945,2,0,P|423:293|433:244,1,100.000000298023,2|0,3:2|3:0,0:0:0:0:
503,100,93245,5,0,1:0:0:0:
401,163,93395,1,0,3:0:0:0:
284,135,93545,1,2,3:2:0:0:
221,32,93695,1,0,3:0:0:0:
2,67,93845,85,2,1:3:0:0:
104,4,93995,1,0,3:0:0:0:
221,32,94145,1,2,3:2:0:0:
284,135,94295,1,0,3:0:0:0:
256,344,94445,5,4,3:2:0:0:
256,344,95087,54,0,L|249:293,3,50.0000001490115,0|0|0|0,1:0|1:0|1:0|1:0,0:0:0:0:
409,276,95730,6,0,L|416:225,1,50.0000001490115,0|0,1:0|1:0,0:0:0:0:
237,206,96159,86,0,L|230:155,1,50.0000001490115,0|0,1:0|1:0,0:0:0:0:
428,138,96802,6,0,L|435:87,1,50.0000001490115,0|0,1:0|1:0,0:0:0:0:
409,276,97016,2,0,L|416:225,1,50.0000001490115,0|0,1:0|1:0,0:0:0:0:
445,8,97230,85,0,3:0:0:0:
445,8,97337,1,0,3:0:0:0:
445,8,97445,1,2,1:3:0:0:
213,78,97659,2,0,L|162:71,1,50.0000001490115,0|0,3:0|3:0,0:0:0:0:
108,192,97873,21,4,3:1:0:0:
108,192,97980,2,0,L|257:176,1,150.000000447035,0|0,3:0|0:0,0:0:0:0:
384,236,98516,2,0,L|376:288,1,50.0000001490115,0|0,3:0|3:0,0:0:0:0:
360,384,98730,1,0,1:0:0:0:
360,384,98837,1,0,3:0:0:0:
72,304,99159,1,0,3:0:0:0:
72,304,99266,1,0,3:0:0:0:
384,236,99587,5,0,3:0:0:0:
384,236,99695,2,0,L|407:87,1,150.000000447035,0|0,3:0|0:0,0:0:0:0:
256,120,100230,2,0,L|248:169,1,50.0000001490115,0|0,3:0|3:0,0:0:0:0:
156,128,100445,1,0,1:0:0:0:
156,128,100552,1,0,3:0:0:0:
92,380,100873,1,0,3:0:0:0:
92,380,100980,1,0,3:0:0:0:
7,144,101302,85,0,3:0:0:0:
7,144,101409,2,0,L|156:128,1,150.000000447035,0|0,3:0|0:0,0:0:0:0:
304,52,101945,2,0,P|328:52|352:60,1,50.0000001490115,0|0,3:0|3:0,0:0:0:0:
440,112,102159,1,0,1:0:0:0:
440,112,102266,1,0,3:0:0:0:
152,28,102587,1,0,3:0:0:0:
152,28,102694,1,0,3:0:0:0:
224,320,103016,70,0,L|336:304,1,112.50000462681,4|0,3:2|3:0,0:0:0:0:
399,195,103659,2,0,L|424:199,2,25.0000010281801,0|0|0,3:0|3:0|3:0,0:0:0:0:
335,127,103873,2,0,P|376:104|445:115,2,112.50000462681,0|0|0,1:0|3:0|3:0,0:0:0:0:
175,248,104730,21,4,3:1:0:0:
177,215,104837,2,0,P|181:140|187:65,1,150.000000447035,0|0,3:0|0:0,0:0:0:0:
52,94,105373,1,0,3:0:0:0:
56,127,105480,1,0,3:0:0:0:
60,160,105587,1,0,1:0:0:0:
63,193,105695,1,0,3:0:0:0:
259,331,106016,1,0,3:0:0:0:
260,298,106123,1,0,3:0:0:0:
461,167,106445,5,0,3:0:0:0:
428,163,106552,2,0,B|377:157|377:157|332:174|332:174|282:167,1,150.000000447035,0|0,3:0|0:0,0:0:0:0:
104,116,107087,1,0,3:0:0:0:
135,104,107195,1,0,3:0:0:0:
167,110,107302,2,0,P|161:57|154:-1,2,112.50000462681,0|0|0,1:0|3:0|3:0,0:0:0:0:
183,290,108159,85,0,3:0:0:0:
201,316,108266,2,0,P|265:352|332:325,1,150.000000447035,0|0,3:0|0:0,0:0:0:0:
479,314,108802,1,0,3:0:0:0:
468,282,108909,1,0,3:0:0:0:
461,250,109016,1,0,1:0:0:0:
456,217,109123,1,0,3:0:0:0:
273,60,109445,1,0,3:0:0:0:
270,93,109552,1,0,3:0:0:0:
111,252,109873,86,0,P|106:196|96:136,1,112.50000462681,4|0,3:2|3:0,0:0:0:0:
270,93,110516,2,0,L|273:59,2,25.0000010281801,0|0|0,3:0|3:0|3:0,0:0:0:0:
189,156,110730,2,0,P|238:192|288:195,1,112.50000462681,0|0,1:0|3:0,0:0:0:0:
373,121,111373,1,0,3:0:0:0:
472,137,111587,5,4,3:1:0:0:
467,104,111695,2,0,L|461:51,4,50.0000001490115,0|0|0|0|0,3:0|3:0|3:0|3:0|3:0,0:0:0:0:
401,201,112230,1,0,3:0:0:0:
421,227,112337,1,0,3:0:0:0:
425,259,112445,1,0,1:0:0:0:
412,288,112552,6,0,P|407:311|406:338,2,50.0000001490115,0|0|0,3:0|3:0|3:0,0:0:0:0:
263,303,112873,1,0,3:0:0:0:
273,335,112980,2,0,P|277:358|279:385,2,50.0000001490115,0|0|0,3:0|3:0|3:0,0:0:0:0:
137,278,113302,85,0,3:0:0:0:
105,287,113409,2,0,P|76:288|54:282,4,50.0000001490115,0|0|0|0|0,3:0|3:0|3:0|3:0|3:0,0:0:0:0:
60,164,113945,1,0,3:0:0:0:
92,174,114052,1,0,3:0:0:0:
122,160,114159,6,0,P|127:133|137:109,2,50.0000001490115,0|0|0,1:0|3:0|3:0,0:0:0:0:
229,80,114480,2,0,P|251:64|275:54,2,50.0000001490115,0|0|0,3:0|3:0|3:0,0:0:0:0:
360,98,114802,2,0,P|387:102|411:113,1,50.0000001490115,0|0,3:0|3:0,0:0:0:0:
439,203,115016,85,4,3:1:0:0:
412,222,115123,2,0,P|420:296|425:371,1,150.000000447035,0|0,3:0|0:0,0:0:0:0:
237,304,115659,1,0,3:0:0:0:
208,288,115766,1,0,3:0:0:0:
174,288,115873,1,0,1:0:0:0:
144,305,115980,1,0,3:0:0:0:
13,103,116302,1,0,3:0:0:0:
43,120,116409,1,0,3:0:0:0:
263,165,116730,70,0,P|318:155|374:148,1,112.50000462681,4|0,3:2|3:0,0:0:0:0:
448,241,117373,2,0,L|455:209,2,25.0000010281801,0|0|0,3:0|3:0|3:0,0:0:0:0:
496,302,117587,2,0,P|440:292|384:285,1,112.50000462681,0|0,1:0|3:0,0:0:0:0:
245,357,118230,1,0,3:0:0:0:
111,269,118445,21,4,3:1:0:0:
113,236,118552,2,0,P|106:164|101:85,1,150.000000447035,0|0,3:0|0:0,0:0:0:0:
253,40,119087,1,0,3:0:0:0:
277,62,119195,1,0,3:0:0:0:
309,69,119302,1,0,1:0:0:0:
341,58,119409,1,0,3:0:0:0:
443,279,119730,1,0,3:0:0:0:
411,268,119837,1,0,3:0:0:0:
183,192,120159,5,0,3:0:0:0:
142,220,120266,1,0,1:0:0:0:
119,265,120373,1,0,1:0:0:0:
121,314,120480,1,0,1:0:0:0:
144,271,120587,85,10,3:0:0:0:
130,225,120695,1,8,3:0:0:0:
87,202,120802,1,4,3:0:0:0:
41,217,120909,1,4,3:0:0:0:
19,260,121016,6,0,P|16:210|11:147,1,112.50000462681,0|4,3:0|3:2,0:0:0:0:
86,53,121659,1,4,3:1:0:0:
199,100,121873,85,4,3:1:0:0:
231,92,121980,2,0,P|298:82|380:75,1,150.000000447035,0|0,3:0|0:0,0:0:0:0:
424,229,122516,1,0,3:0:0:0:
448,251,122624,1,0,3:0:0:0:
480,258,122731,1,0,1:0:0:0:
512,247,122838,1,0,3:0:0:0:
277,213,123159,1,0,3:0:0:0:
245,224,123266,1,0,3:0:0:0:
66,369,123587,69,2,3:2:0:0:
34,331,123695,1,0,3:0:0:0:
31,282,123802,1,0,3:0:0:0:
59,242,123909,1,2,3:2:0:0:
105,226,124016,1,0,3:0:0:0:
152,243,124123,1,0,3:0:0:0:
178,284,124230,1,2,3:2:0:0:
175,333,124337,1,0,3:0:0:0:
159,286,124445,5,10,3:2:0:0:
154,236,124552,1,0,3:0:0:0:
161,186,124659,1,0,3:0:0:0:
188,146,124766,1,2,3:2:0:0:
182,97,124873,1,0,3:0:0:0:
145,65,124980,1,0,3:0:0:0:
96,65,125087,1,2,3:2:0:0:
59,98,125195,1,0,3:0:0:0:
53,146,125302,6,0,P|49:88|41:20,1,125.000000372529,6|0,3:2|0:0,0:0:0:0:
145,65,125623,2,0,P|137:127|132:189,1,125.000000372529,4|0,3:1|0:0,0:0:0:0:
203,244,125945,2,0,P|222:238|243:235,2,41.6666667908429,0|0|0,3:0|3:0|3:0,0:0:0:0:
192,323,126159,6,0,P|252:327|317:335,1,125.000000372529,4|0,1:0|0:0,0:0:0:0:
506,268,126480,2,0,P|446:272|381:280,1,125.000000372529,8|0,3:0|0:0,0:0:0:0:
326,211,126802,2,0,P|323:180|330:144,1,62.5000001862644,4|0,3:0|0:0,0:0:0:0:
363,43,127016,5,6,3:2:0:0:
231,120,148346,38,0,L|239:194,1,75.0000030845403,2|0,0:0|0:0,0:0:0:0:
253,283,148679,1,2,0:0:0:0:
267,372,148846,1,2,0:0:0:0:
75,270,149512,6,0,L|37:269,4,37.5000015422702,2|2|2|2|2,0:0|0:0|0:0|0:0|0:0,0:0:0:0:
164,277,150012,1,2,0:0:0:0:
232,219,150179,1,2,0:0:0:0:
239,129,150346,86,0,P|232:92|228:54,1,75.0000030845403,2|0,0:0|0:0,0:0:0:0:
368,3,150679,2,0,P|374:39|379:78,1,75.0000030845403,2|0,0:0|0:0,0:0:0:0:
394,166,151012,5,0,0:0:0:0:
409,254,151179,1,0,0:0:0:0:
424,342,151346,1,2,0:0:0:0:
339,313,151512,1,2,0:0:0:0:
339,313,151846,86,0,L|297:323,3,37.5000015422702,2|2|2|2,0:0|0:0|0:0|0:0,0:0:0:0:
292,235,152179,2,0,L|250:225,3,37.5000015422702,2|2|2|2,0:0|0:0|0:0|0:0,0:0:0:0:
212,318,152512,1,0,0:0:0:0:
212,318,152596,1,0,0:0:0:0:
212,318,152679,2,0,P|173:316|139:324,1,75.0000030845403,0|2,0:0|0:0,0:0:0:0:
58,282,153012,6,0,P|53:243|39:211,1,75.0000030845403,2|0,0:0|0:0,0:0:0:0:
108,67,153346,2,0,P|93:101|89:138,1,75.0000030845403,2|2,0:0|0:0,0:0:0:0:
143,210,153679,85,0,0:0:0:0:
232,222,153846,1,0,0:0:0:0:
303,167,154012,1,2,0:0:0:0:
314,77,154179,1,2,0:0:0:0:
76,261,154846,6,0,L|82:301,2,37.5000015422702,2|2|2,0:0|0:0|0:0,0:0:0:0:
232,222,155179,2,0,L|226:262,2,37.5000015422702,2|2|0,0:0|0:0|0:0,0:0:0:0:
311,178,155512,1,2,0:0:0:0:
390,220,155679,86,0,P|392:258|397:297,1,75.0000030845403,2|2,0:0|0:0,0:0:0:0:
504,189,156012,2,0,P|501:150|497:112,1,75.0000030845403,2|2,0:0|0:0,0:0:0:0:
421,64,156346,5,2,0:0:0:0:
348,116,156512,1,0,0:0:0:0:
259,101,156679,1,2,0:0:0:0:
206,27,156846,1,2,0:0:0:0:
206,27,157846,85,2,0:0:0:0:
259,101,158012,1,2,0:0:0:0:
348,116,158179,1,0,0:0:0:0:
421,64,158346,6,0,L|428:106,1,37.5000015422702,2|2,0:0|0:0,0:0:0:0:
489,172,158512,2,0,L|482:214,1,37.5000015422702,2|2,0:0|0:0,0:0:0:0:
407,181,158679,2,0,L|400:217,1,37.5000015422702,2|2,0:3|0:0,0:0:0:0:
450,299,158846,2,0,L|457:341,1,37.5000015422702,2|2,0:0|0:0,0:0:0:0:
334,354,159012,86,0,L|260:348,1,75.0000030845403,10|0,0:0|0:0,0:0:0:0:
104,288,159346,2,0,L|178:294,1,75.0000030845403,10|2,0:0|0:0,0:0:0:0:
324,340,159679,6,0,L|250:334,1,75.0000030845403,8|0,0:0|0:0,0:0:0:0:
94,274,160013,2,0,L|168:280,1,75.0000030845403,8|0,0:0|0:0,0:0:0:0:
331,123,160346,86,0,P|342:88|335:50,1,75.0000030845403,10|2,0:0|0:0,0:0:0:0:
185,42,160679,2,0,P|174:77|181:115,1,75.0000030845403,10|2,0:0|0:0,0:0:0:0:
344,125,161012,6,0,P|355:90|348:52,1,75.0000030845403,10|2,0:0|0:0,0:0:0:0:
198,44,161345,2,0,P|187:79|194:117,1,75.0000030845403,10|2,0:0|0:0,0:0:0:0:
401,208,161679,86,0,L|477:214,1,75.0000030845403,10|0,0:0|0:0,0:0:0:0:
326,271,162012,2,0,L|249:264,1,75.0000030845403,10|2,0:0|0:0,0:0:0:0:
386,217,162346,6,0,L|462:223,1,75.0000030845403,8|0,0:0|0:0,0:0:0:0:
311,281,162679,2,0,L|234:274,1,75.0000030845403,8|2,0:0|0:0,0:0:0:0:
11,258,163012,86,0,P|-3:293|0:332,1,75.0000030845403,10|2,0:0|0:0,0:0:0:0:
59,153,163345,2,0,P|61:115|47:81,1,75.0000030845403,8|2,0:0|0:0,0:0:0:0:
23,261,163679,6,0,P|9:296|12:335,1,75.0000030845403,10|0,0:0|0:0,0:0:0:0:
72,153,164012,2,0,P|74:115|60:81,1,75.0000030845403,10|2,0:0|0:0,0:0:0:0:
294,83,164345,86,0,P|256:82|218:71,1,75.0000030845403,10|0,0:0|0:0,0:0:0:0:
365,230,164679,2,0,P|366:192|377:154,1,75.0000030845403,10|2,0:0|0:0,0:0:0:0:
218,301,165012,2,0,P|256:302|294:313,1,75.0000030845403,10|2,0:0|0:0,0:0:0:0:
147,154,165345,2,0,P|146:192|135:230,1,75.0000030845403,10|2,0:0|0:0,0:0:0:0:
363,99,165679,6,0,P|331:80|303:55,1,75.0000030845403,10|0,0:0|0:0,0:0:0:0:
348,299,166013,2,0,P|367:267|392:239,1,75.0000030845403,10|0,0:0|0:0,0:0:0:0:
148,284,166345,2,0,P|180:303|208:328,1,75.0000030845403,10|2,0:0|0:0,0:0:0:0:
163,84,166679,2,0,P|144:116|119:144,1,75.0000030845403,10|2,0:0|0:0,0:0:0:0:
427,159,167012,86,0,P|404:119|390:75,1,75.0000030845403,10|0,0:0|0:0,0:0:0:0:
288,363,167345,2,0,P|328:340|372:326,1,75.0000030845403,10|2,0:0|0:0,0:0:0:0:
84,224,167679,2,0,P|107:264|121:308,1,75.0000030845403,8|0,0:0|0:0,0:0:0:0:
223,20,168012,2,0,P|183:43|139:57,1,75.0000030845403,8|0,0:0|0:0,0:0:0:0:
256,192,168345,53,12,3:0:0:0:
392,75,168512,37,2,0:0:0:0:
409,163,168679,1,2,0:0:0:0:
425,251,168845,1,2,0:0:0:0:
256,192,169012,5,2,0:0:0:0:
324,133,169179,1,2,0:0:0:0:
425,251,169345,85,2,0:3:0:0:
340,221,169512,1,2,0:0:0:0:
255,191,169679,54,0,P|205:189|163:211,1,100.000000298023,4|0,3:2|3:0,0:0:0:0:
128,347,170012,1,0,1:0:0:0:
44,200,170179,2,0,P|52:111|66:-4,1,200.000000596046,0|0,3:0|0:0,0:0:0:0:
161,211,170679,1,0,1:0:0:0:
183,44,170845,6,0,P|230:26|338:113,1,200.000000596046,2|2,0:0|0:0,0:0:0:0:
491,147,171345,2,0,P|500:87|513:38,1,100.000000298023,2|0,1:2|3:0,0:0:0:0:
374,238,171679,1,2,3:2:0:0:
397,375,171845,1,0,3:0:0:0:
266,326,172012,1,2,1:2:0:0:
243,189,172179,1,2,3:2:0:0:
374,238,172345,86,0,P|424:229|476:225,1,100.000000298023,0|2,3:0|3:2,0:0:0:0:
266,326,172679,1,0,1:0:0:0:
331,137,172845,2,0,P|250:86|162:124,1,200.000000596046,2|2,3:2|0:0,0:0:0:0:
53,213,173345,1,0,1:0:0:0:
34,89,173512,6,0,P|44:138|50:190,1,100.000000298023,2|0,0:0|0:0,0:0:0:0:
226,287,173845,2,0,P|232:237|243:189,1,100.000000298023,2|0,0:0|1:0,0:0:0:0:
337,87,174179,85,2,3:2:0:0:
438,182,174345,1,0,3:0:0:0:
344,284,174512,1,2,3:2:0:0:
243,188,174679,1,2,1:3:0:0:
161,348,174845,5,0,3:0:0:0:
344,283,175012,1,2,3:2:0:0:
156,229,175179,1,0,3:0:0:0:
277,384,175345,1,2,1:2:0:0:
438,182,175512,86,0,P|334:171|237:165,1,200.000000596046,2|0,3:2|0:0,0:0:0:0:
162,8,176012,2,0,P|135:49|134:99,1,100.000000298023,2|2,1:2|0:0,0:0:0:0:
143,122,176262,1,2,0:0:0:0:
143,122,176345,1,2,0:0:0:0:
52,239,176512,1,2,0:0:0:0:
52,239,176595,1,0,0:0:0:0:
52,239,176679,2,0,P|98:231|151:224,1,100.000000298023,0|2,1:0|3:2,0:0:0:0:
267,302,177012,5,2,3:2:0:0:
365,202,177179,1,2,3:2:0:0:
249,124,177345,1,0,1:0:0:0:
150,224,177512,1,2,3:2:0:0:
347,103,177679,85,0,3:0:0:0:
267,302,177845,1,2,3:2:0:0:
149,124,178012,5,0,1:0:0:0:
279,323,178179,2,0,P|383:311|477:303,1,200.000000596046,2|2,3:2|0:0,0:0:0:0:
347,102,178679,2,0,P|325:148|335:196,1,100.000000298023,0|0,1:0|0:0,0:0:0:0:
473,210,179012,1,2,0:0:0:0:
473,210,179179,2,0,P|495:164|485:116,1,100.000000298023,2|0,0:0|1:0,0:0:0:0:
273,38,179512,86,0,P|224:46|180:25,1,100.000000298023,2|2,3:2|3:2,0:0:0:0:
0,110,179845,2,0,P|44:88|92:97,1,100.000000298023,2|2,3:2|1:3,0:0:0:0:
142,302,180179,5,2,3:2:0:0:
142,302,180262,1,0,3:0:0:0:
142,302,180345,2,0,L|241:289,1,100.000000298023,4|0,1:2|3:0,0:0:0:0:
467,313,180679,2,0,L|368:326,1,100.000000298023,0|0,1:0|3:0,0:0:0:0:
212,145,181012,85,0,1:0:0:0:
258,288,181179,1,0,3:0:0:0:
396,187,181345,5,0,1:0:0:0:
350,330,181512,1,0,3:0:0:0:
319,106,181679,85,2,1:2:0:0:
322,93,181762,1,2,0:0:0:0:
325,81,181845,1,2,3:2:0:0:
329,69,181929,1,2,0:0:0:0:
332,56,182012,1,2,1:2:0:0:
212,145,182179,6,0,P|195:158|168:169,2,50.0000001490115,0|0|2,3:0|0:0|1:2,0:0:0:0:
396,187,182512,86,0,P|406:210|420:230,2,50.0000001490115,0|0|2,3:0|0:0|1:2,0:0:0:0:
275,271,182845,5,0,3:0:0:0:
272,284,182928,1,0,3:0:0:0:
268,296,183012,1,4,1:0:0:0:
100,262,183179,1,0,3:0:0:0:
264,308,183345,85,0,1:0:0:0:
101,355,183512,1,0,3:0:0:0:
208,187,183679,6,0,L|198:86,1,100.000000298023,0|0,1:0|3:0,0:0:0:0:
0,57,184012,2,0,L|9:156,1,100.000000298023,0|0,1:0|3:0,0:0:0:0:
195,275,184345,85,2,1:2:0:0:
173,261,184429,1,2,0:0:0:0:
149,254,184512,1,2,3:2:0:0:
124,254,184595,1,2,0:0:0:0:
100,262,184679,2,0,P|47:271|8:251,1,100.000000298023,2|0,1:2|3:0,0:0:0:0:
151,141,185012,5,2,1:2:0:0:
139,341,185179,1,0,3:0:0:0:
268,173,185345,85,2,1:2:0:0:
280,373,185512,1,0,3:0:0:0:
280,373,185595,1,0,3:0:0:0:
280,373,185679,2,0,P|323:364|380:358,1,100.000000298023,4|0,1:0|3:0,0:0:0:0:
512,209,186012,2,0,P|469:200|412:194,1,100.000000298023,0|0,1:0|3:0,0:0:0:0:
324,311,186345,5,0,1:0:0:0:
132,240,186512,1,0,3:0:0:0:
202,51,186679,1,0,1:0:0:0:
391,120,186845,1,2,3:2:0:0:
391,120,186929,1,2,3:2:0:0:
391,120,187012,86,0,P|396:71|405:14,1,100.000000298023,4|0,1:0|3:0,0:0:0:0:
219,169,187345,2,0,P|214:120|205:63,1,100.000000298023,2|0,1:2|3:0,0:0:0:0:
324,311,187679,5,2,1:2:0:0:
66,314,187845,1,0,3:0:0:0:
196,366,188012,1,0,1:0:0:0:
10,185,188179,1,0,3:0:0:0:
10,185,188262,1,0,3:0:0:0:
10,185,188345,2,0,L|21:85,1,100.000000298023,4|0,1:0|3:0,0:0:0:0:
164,287,188679,85,0,1:0:0:0:
108,158,188845,1,0,3:0:0:0:
108,158,188929,1,0,3:0:0:0:
108,158,189012,2,0,L|119:58,1,100.000000298023,4|0,1:2|3:0,0:0:0:0:
262,260,189345,5,0,1:0:0:0:
206,131,189512,1,0,3:0:0:0:
206,131,189595,1,0,3:0:0:0:
206,131,189679,2,0,L|217:31,1,100.000000298023,4|0,1:0|3:0,0:0:0:0:
221,6,189929,1,0,3:0:0:0:
221,6,190012,1,4,1:0:0:0:
488,77,190179,85,0,3:0:0:0:
488,77,190262,1,0,3:0:0:0:
488,77,190345,1,4,1:0:0:0:
310,215,190512,1,0,1:0:0:0:
373,1,190679,1,2,1:3:0:0:
450,212,190846,1,0,1:0:0:0:
263,86,191012,1,6,3:2:0:0:
378,118,191179,6,0,P|364:217|355:317,1,200.000000596046,2|2,3:2|3:2,0:0:0:0:
159,360,191679,1,0,1:0:0:0:
159,360,191845,2,0,P|156:309|150:260,1,100.000000298023,2|0,3:2|0:0,0:0:0:0:
21,118,192179,86,0,P|87:142|190:78,2,200.000000596046,2|2|2,3:2|3:2|3:2,0:0:0:0:
90,32,193012,1,0,1:0:0:0:
281,94,193179,2,0,P|355:32|450:53,1,200.000000596046,2|2,3:2|3:2,0:0:0:0:
381,139,193679,5,2,3:2:0:0:
400,361,193845,2,0,P|393:261|384:161,1,200.000000596046,2|2,3:2|3:2,0:0:0:0:
501,253,194345,1,0,1:0:0:0:
304,268,194512,86,0,P|278:260|255:258,3,50.0000001490115,2|2|2|2,3:2|0:0|0:0|0:0,0:0:0:0:
191,311,194845,2,0,P|166:314|142:320,3,50.0000001490115,2|2|2|2,3:2|0:0|0:0|0:0,0:0:0:0:
70,273,195179,1,2,3:2:0:0:
70,273,195262,1,0,0:0:0:0:
70,273,195345,2,0,P|82:222|72:177,1,100.000000298023,0|2,0:0|3:2,0:0:0:0:
24,43,195679,5,0,1:0:0:0:
147,106,195845,1,2,3:2:0:0:
272,43,196012,2,0,P|263:89|257:144,1,100.000000298023,0|2,0:0|3:2,0:0:0:0:
474,220,196345,85,2,3:2:0:0:
360,180,196512,1,2,3:2:0:0:
261,354,196679,1,0,0:0:0:0:
147,314,196845,2,0,P|141:264|132:215,1,100.000000298023,2|0,3:2|1:0,0:0:0:0:
272,43,197179,2,0,P|263:89|257:144,1,100.000000298023,2|0,3:2|0:0,0:0:0:0:
89,131,197512,6,0,P|113:122|140:120,2,50.0000001490115,2|2|2,3:2|0:0|0:0,0:0:0:0:
261,236,197845,2,0,P|236:233|213:225,2,50.0000001490115,2|0|0,3:2|0:0|0:0,0:0:0:0:
417,108,198179,85,2,3:2:0:0:
465,286,198345,1,0,1:0:0:0:
287,238,198512,1,2,3:2:0:0:
389,211,198679,1,2,0:0:0:0:
465,286,198845,1,2,3:2:0:0:
321,377,199012,6,0,P|274:368|221:360,1,100.000000298023,2|2,3:2|3:2,0:0:0:0:
63,374,199345,1,2,0:0:0:0:
151,229,199512,2,0,P|159:180|141:135,1,100.000000298023,2|0,3:2|1:0,0:0:0:0:
237,268,199845,2,0,P|249:169|214:75,1,200.000000596046,2|2,3:2|3:2,0:0:0:0:
4,153,200345,85,2,3:2:0:0:
193,61,200512,1,2,3:2:0:0:
71,58,200679,5,2,3:2:0:0:
260,150,200846,1,2,3:2:0:0:
126,234,201012,85,10,3:2:0:0:
126,239,201095,1,0,0:0:0:0:
127,245,201179,1,2,3:2:0:0:
128,250,201262,1,0,0:0:0:0:
128,256,201345,2,0,P|122:281|121:308,3,50.0000001490115,2|0|2|0,3:2|0:0|3:2|0:0,0:0:0:0:
221,294,201679,5,4,3:2:0:0:
392,248,201845,1,2,3:2:0:0:
330,355,202012,1,2,0:0:0:0:
284,184,202179,2,0,P|288:133|295:85,1,100.000000298023,2|0,3:2|1:0,0:0:0:0:
130,6,202512,2,0,P|137:55|141:105,1,100.000000298023,2|0,3:2|0:0,0:0:0:0:
153,287,202845,1,2,3:2:0:0:
70,175,203012,85,2,0:0:0:0:
70,175,203095,1,2,0:0:0:0:
70,175,203179,2,0,P|45:177|20:185,2,50.0000001490115,2|2|2,3:2|0:0|0:0,0:0:0:0:
230,233,203512,1,2,3:2:0:0:
230,233,203595,1,2,0:0:0:0:
230,233,203679,1,2,1:2:0:0:
109,350,203845,1,2,3:2:0:0:
109,350,203928,1,2,0:0:0:0:
109,350,204012,2,0,P|159:342|208:337,1,100.000000298023,2|2,0:0|3:2,0:0:0:0:
321,375,204345,5,2,3:2:0:0:
428,322,204512,1,2,3:2:0:0:
467,209,204679,1,0,0:0:0:0:
414,101,204845,2,0,P|363:106|314:111,1,100.000000298023,2|0,3:2|1:0,0:0:0:0:
123,47,205179,2,0,P|174:42|223:37,1,100.000000298023,2|0,3:2|0:0,0:0:0:0:
46,135,205512,85,2,3:2:0:0:
46,135,205595,1,2,0:0:0:0:
46,135,205679,2,0,P|53:157|57:184,3,50.0000001490115,2|2|2|2,0:0|0:0|3:2|0:0,0:0:0:0:
143,146,206012,2,0,P|134:195|129:248,1,100.000000298023,2|2,0:0|3:2,0:0:0:0:
205,337,206345,5,0,1:0:0:0:
323,348,206512,1,2,3:2:0:0:
414,272,206679,1,2,0:0:0:0:
425,154,206845,1,2,3:2:0:0:
329,363,207012,85,2,3:2:0:0:
257,180,207179,1,2,3:2:0:0:
414,272,207345,1,2,0:0:0:0:
434,73,207512,2,0,P|434:49|439:24,3,50.0000001490115,2|0|0|0,3:2|0:0|1:0|0:0,0:0:0:0:
357,102,207845,1,2,3:2:0:0:
337,85,207929,1,0,0:0:0:0:
315,75,208012,1,0,0:0:0:0:
290,72,208095,1,0,0:0:0:0:
265,76,208179,2,0,P|265:50|260:27,3,50.0000001490115,2|0|0|0,3:2|0:0|0:0|0:0,0:0:0:0:
176,118,208512,5,2,3:2:0:0:
176,118,208595,1,0,0:0:0:0:
176,118,208679,2,0,P|128:99|75:104,1,100.000000298023,0|2,0:0|3:2,0:0:0:0:
147,284,209012,2,0,P|187:251|209:203,1,100.000000298023,0|2,1:0|3:2,0:0:0:0:
17,175,209345,2,0,P|24:226|55:269,1,100.000000298023,0|2,0:0|3:2,0:0:0:0:
225,282,209679,85,2,3:2:0:0:
343,270,209845,1,2,3:2:0:0:
462,258,210012,1,0,3:0:0:0:
359,78,210179,6,0,P|349:125|344:176,1,100.000000298023,2|0,3:2|1:0,0:0:0:0:
166,0,210512,2,0,P|176:47|181:98,1,100.000000298023,2|0,3:2|3:0,0:0:0:0:
169,273,210845,1,2,3:2:0:0:
76,252,211012,85,2,3:2:0:0:
184,178,211179,1,2,3:2:0:0:
258,288,211345,1,2,3:2:0:0:
149,362,211512,1,2,3:2:0:0:
94,161,211679,5,10,3:2:0:0:
273,197,211845,1,2,3:2:0:0:
238,377,212012,1,2,3:2:0:0:
60,340,212179,1,2,3:2:0:0:
169,273,212345,85,4,3:2:0:0:
169,273,213679,37,0,1:0:0:0:
169,273,213762,1,0,1:0:0:0:
169,273,213845,1,0,1:0:0:0:
284,305,214012,1,0,3:0:0:0:
358,210,214179,1,0,3:0:0:0:
304,103,214345,1,0,3:0:0:0:
305,90,214429,1,0,3:0:0:0:
306,78,214512,1,0,3:0:0:0:
308,65,214595,1,0,3:0:0:0:
309,53,214679,1,2,1:3:0:0:
158,39,215012,21,4,3:2:0:0:
158,39,215179,2,0,P|165:90|170:138,1,100.000000298023,2|0,3:2|0:0,0:0:0:0:
397,95,215512,2,0,P|390:146|385:194,1,100.000000298023,2|0,3:2|1:0,0:0:0:0:
170,138,215845,2,0,P|177:189|182:237,1,100.000000298023,2|0,3:2|0:0,0:0:0:0:
384,194,216179,2,0,P|377:245|372:293,1,100.000000298023,2|0,3:2|0:0,0:0:0:0:
182,237,216512,5,0,3:0:0:0:
146,226,216595,1,0,3:0:0:0:
109,229,216679,1,0,3:0:0:0:
75,246,216762,1,0,3:0:0:0:
50,274,216845,2,0,P|45:219|37:174,1,100.000000298023,0|0,3:0|1:0,0:0:0:0:
135,327,217179,1,2,3:2:0:0:
135,327,217345,1,2,3:2:0:0:
135,327,217512,1,2,3:2:0:0:
235,119,217679,85,0,3:0:0:0:
235,119,217845,2,0,P|285:123|339:130,1,100.000000298023,2|0,3:2|0:0,0:0:0:0:
235,317,218179,2,0,P|285:313|339:306,1,100.000000298023,2|0,3:2|1:0,0:0:0:0:
135,108,218512,2,0,P|185:112|239:119,1,100.000000298023,2|0,3:2|0:0,0:0:0:0:
135,327,218845,2,0,P|185:323|239:316,1,100.000000298023,2|0,3:2|0:0,0:0:0:0:
234,316,219679,5,0,1:0:0:0:
234,316,219762,1,0,3:0:0:0:
234,316,219845,1,0,3:0:0:0:
312,225,220012,1,0,3:0:0:0:
302,105,220179,1,0,3:0:0:0:
159,185,220345,85,0,3:0:0:0:
159,185,220512,2,0,P|155:134|149:85,1,100.000000298023,2|0,3:2|0:0,0:0:0:0:
379,186,220845,2,0,P|383:135|389:86,1,100.000000298023,2|0,3:2|1:0,0:0:0:0:
168,284,221179,2,0,P|164:233|158:184,1,100.000000298023,2|0,3:2|0:0,0:0:0:0:
369,285,221512,2,0,P|373:234|379:185,1,100.000000298023,2|0,3:2|0:0,0:0:0:0:
283,84,221845,5,0,3:0:0:0:
253,106,221929,1,0,3:0:0:0:
216,114,222012,1,0,3:0:0:0:
180,107,222095,1,0,3:0:0:0:
149,85,222179,2,0,P|155:134|158:184,1,100.000000298023,0|0,3:0|1:0,0:0:0:0:
214,17,222512,1,2,3:2:0:0:
214,17,222679,1,2,3:2:0:0:
214,17,222845,1,2,3:2:0:0:
156,273,223012,85,0,3:0:0:0:
156,273,223179,2,0,P|108:265|57:258,1,100.000000298023,2|0,3:2|0:0,0:0:0:0:
207,90,223512,2,0,P|159:98|108:105,1,100.000000298023,2|0,3:2|1:0,0:0:0:0:
254,287,223845,2,0,P|206:279|155:272,1,100.000000298023,2|0,3:2|0:0,0:0:0:0:
305,75,224179,2,0,P|257:83|206:90,1,100.000000298023,2|0,3:2|0:0,0:0:0:0:
206,89,225012,5,0,1:0:0:0:
206,89,225095,1,0,3:0:0:0:
206,89,225179,1,0,3:0:0:0:
160,199,225345,1,0,3:0:0:0:
205,309,225512,1,0,3:0:0:0:
314,354,225679,54,0,L|390:346,1,75.0000030845403,4|0,3:2|3:0,0:0:0:0:
512,260,226012,2,0,L|437:267,1,75.0000030845403,0|0,3:0|3:0,0:0:0:0:
381,49,226345,1,0,1:0:0:0:
381,49,227012,1,0,0:0:0:0:
381,49,227679,1,0,1:0:0:0:
448,123,227845,1,0,3:0:0:0:
448,123,227929,1,0,3:0:0:0:
448,123,228012,2,0,L|444:162,3,37.5000015422702,0|0|0|0,3:0|3:0|3:0|3:0,0:0:0:0:
367,215,228345,6,0,P|361:251|376:290,1,75.0000030845403,0|0,3:0|3:0,0:0:0:0:
480,336,228679,2,0,P|492:301|487:265,1,75.0000030845403,0|0,3:0|3:0,0:0:0:0:
244,289,229012,1,0,1:0:0:0:
244,289,229679,1,0,0:0:0:0:
244,289,230345,1,0,1:0:0:0:
244,289,230429,1,0,3:0:0:0:
244,289,230512,1,0,3:0:0:0:
312,203,230679,1,0,3:0:0:0:
312,203,230763,1,0,3:0:0:0:
312,203,230846,1,0,3:0:0:0:
175,212,231012,86,0,L|100:219,1,75.0000030845403,0|0,3:0|3:0,0:0:0:0:
1,106,231345,2,0,L|76:99,1,75.0000030845403,0|0,3:0|3:0,0:0:0:0:
302,85,231679,1,0,1:0:0:0:
302,85,232345,1,0,0:0:0:0:
302,85,233012,1,0,1:0:0:0:
376,152,233178,1,0,3:0:0:0:
376,152,233262,1,0,3:0:0:0:
376,152,233345,2,0,L|415:148,3,37.5000015422702,0|0|0|0,3:0|3:0|3:0|3:0,0:0:0:0:
314,217,233679,6,0,P|280:202|243:203,1,75.0000030845403,0|0,3:0|3:0,0:0:0:0:
88,270,234012,2,0,P|125:271|159:256,1,75.0000030845403,0|0,3:0|3:0,0:0:0:0:
188,32,234345,1,0,1:0:0:0:
188,32,235012,1,0,0:0:0:0:
188,32,235679,1,0,1:0:0:0:
188,32,235762,1,0,3:0:0:0:
188,32,235845,1,0,3:0:0:0:
106,184,236012,1,0,1:0:0:0:
106,184,236095,1,0,3:0:0:0:
106,184,236178,1,0,3:0:0:0:
