osu file format v14

[General]
AudioFilename: audio.mp3
AudioLeadIn: 0
PreviewTime: 53595
Countdown: 0
SampleSet: Soft
StackLeniency: 0.6
Mode: 0
LetterboxInBreaks: 0
WidescreenStoryboard: 1

[Editor]
Bookmarks: 13714,43995,53595,75195,82995,94395,126966,169629,214962
DistanceSpacing: 0.4
BeatDivisor: 8
GridSize: 4
TimelineZoom: 2.200004

[Metadata]
Title:Closure
TitleUnicode:Closure
Artist:Asking Alexandria
ArtistUnicode:Asking Alexandria
Creator:Bearizm
Version:Drummer's Reckless
Source:
Tags:Reckless & Relentless Metalcore Electronicore Post Hardcore Scream Sumerian Records Danny Worsnop Ben Bruce James Cassells Cameron Liddell Sam Bettley LMT Drummer Stingy beaw English Rock
BeatmapID:1925547
BeatmapSetID:887832

[Difficulty]
HPDrainRate:5.5
CircleSize:4
OverallDifficulty:9
ApproachRate:9.3
SliderMultiplier:2
SliderTickRate:1

[Events]
//Background and Video events
0,0,"Closure.jpg",0,0
//Break Periods
2,39678,43491
2,130173,147671
//Storyboard Layer 0 (Background)
//Storyboard Layer 1 (Fail)
//Storyboard Layer 2 (Pass)
//Storyboard Layer 3 (Foreground)
//Storyboard Layer 4 (Overlay)
//Storyboard Sound Samples

[TimingPoints]
50,428.571428571429,4,2,7,60,1,0
2942,-80,4,2,7,60,0,0
3478,-100,4,2,7,60,0,0
6478,-80,4,2,7,60,0,0
6907,-100,4,2,7,60,0,0
9907,-80,4,2,7,60,0,0
10228,-80,4,2,7,5,0,0
10335,-100,4,2,7,60,0,0
12050,-90.9090909090909,4,2,7,60,0,0
12264,-90.9090909090909,4,2,7,5,0,0
12371,-90.9090909090909,4,2,7,60,0,0
12692,-90.9090909090909,4,2,7,5,0,0
12800,-90.9090909090909,4,2,7,60,0,0
13014,-90.9090909090909,4,2,7,20,0,0
13121,-90.9090909090909,4,2,7,60,0,0
13228,-90.9090909090909,4,2,7,20,0,0
13335,-90.9090909090909,4,2,7,60,0,0
13764,-66.6666666666667,4,2,7,60,0,0
20407,-50,4,2,7,60,0,0
20567,-50,4,2,7,5,0,0
20621,-66.6666666666667,4,2,7,60,0,0
26567,-66.6666666666667,4,2,7,5,0,0
26621,-66.6666666666667,4,2,7,60,0,0
33692,-66.6666666666667,4,2,8,60,0,0
33907,-66.6666666666667,4,2,7,60,0,0
34121,-50,4,2,7,60,0,0
34335,-66.6666666666667,4,2,7,60,0,0
39478,472.44094488189,4,2,7,90,1,0
39596,-100,4,2,7,40,0,0
41131,-100,4,2,7,10,0,0
41367,615.384615384615,4,2,7,50,1,0
41520,428.571428571429,4,2,7,50,1,0
41734,400,4,2,7,50,1,0
41940,476.190476190476,4,2,7,50,1,0
42178,361.44578313253,4,2,7,50,1,0
42358,352.941176470588,4,2,7,50,1,0
42534,461.538461538462,4,2,7,50,1,0
42764,428.571428571429,4,2,7,50,1,0
42871,461.538461538462,4,2,7,50,1,0
43101,333.333333333333,4,2,7,50,1,0
43267,300,4,2,7,50,1,0
43567,319.148936170213,4,2,7,50,1,0
44045,300,4,2,7,60,1,0
48845,-125,4,2,8,60,0,0
52295,-111.111111111111,4,2,8,60,0,0
53045,-100,4,2,7,70,0,0
53645,-100,4,2,7,90,0,1
63170,-100,4,2,7,90,0,0
63245,-90.9090909090909,4,2,7,100,0,1
72545,-90.9090909090909,4,2,8,100,0,1
72845,-200,4,2,7,100,0,0
72995,-200,4,2,7,70,0,0
73745,-200,4,2,7,90,0,0
74945,-200,4,2,8,90,0,0
75245,-133.333333333333,4,2,7,90,0,0
76070,-133.333333333333,4,2,7,5,0,0
76145,-133.333333333333,4,2,7,90,0,0
76970,-133.333333333333,4,2,7,5,0,0
77045,-133.333333333333,4,2,7,90,0,0
77570,-133.333333333333,4,2,7,5,0,0
77645,-133.333333333333,4,2,7,90,0,0
78470,-133.333333333333,4,2,7,5,0,0
78545,-133.333333333333,4,2,7,90,0,0
79370,-133.333333333333,4,2,7,5,0,0
79445,-133.333333333333,4,2,7,90,0,0
80870,-133.333333333333,4,2,7,5,0,0
80945,-133.333333333333,4,2,7,90,0,0
81770,-133.333333333333,4,2,7,5,0,0
81845,-133.333333333333,4,2,7,90,0,0
82370,-133.333333333333,4,2,7,5,0,0
82445,-133.333333333333,4,2,7,90,0,0
83270,-133.333333333333,4,2,7,5,0,0
83345,-133.333333333333,4,2,7,90,0,0
83795,-133.333333333333,4,2,8,90,0,0
84095,-133.333333333333,4,2,7,90,0,0
84845,-117.647058823529,4,2,7,90,0,1
94445,428.571428571429,4,2,7,90,1,0
97873,-83.3333333333333,4,2,7,90,0,0
103016,-100,4,2,7,90,0,0
104730,-83.3333333333333,4,2,7,90,0,0
109873,-90.9090909090909,4,2,7,90,0,0
111587,-83.3333333333333,4,2,7,90,0,0
116730,-100,4,2,7,90,0,0
118445,-83.3333333333333,4,2,7,90,0,0
120587,-83.3333333333333,4,2,8,90,0,0
120802,-83.3333333333333,4,2,7,90,0,0
121337,-76.9230769230769,4,2,7,90,0,0
121659,-71.4285714285714,4,2,7,90,0,0
121873,-83.3333333333333,4,2,7,90,0,0
125302,-83.3333333333333,4,2,7,90,0,1
125516,-83.3333333333333,4,2,7,5,0,1
125623,-83.3333333333333,4,2,7,90,0,1
125837,-83.3333333333333,4,2,7,5,0,1
125945,-83.3333333333333,4,2,7,90,0,1
126373,-83.3333333333333,4,2,7,5,0,1
126480,-83.3333333333333,4,2,8,90,0,1
126695,-83.3333333333333,4,2,8,5,0,1
126802,-83.3333333333333,4,2,8,90,0,1
126909,-83.3333333333333,4,2,7,5,0,1
127016,718.562874251497,4,2,7,100,1,0
127105,-100,4,2,7,20,0,0
129530,-100,4,2,7,5,0,0
129890,666.666666666667,4,2,7,20,1,0
132223,-100,4,2,7,5,0,0
132556,645.161290322581,4,2,7,20,1,0
134814,-100,4,2,7,5,0,0
135136,662.983425414365,4,2,7,20,1,0
137456,-100,4,2,7,5,0,0
137787,681.818181818182,4,2,7,20,1,0
140173,-100,4,2,7,5,0,0
140514,670.391061452514,4,2,7,20,1,0
142860,-100,4,2,7,5,0,0
143195,662.983425414365,4,2,7,20,1,0
145515,-100,4,2,7,5,0,0
145846,625,4,2,7,20,1,0
148033,-100,4,2,7,5,0,0
148346,333.333333333333,4,2,7,30,1,0
159012,-133.333333333333,4,2,7,30,0,0
159346,-133.333333333333,4,2,7,33,0,0
159679,-133.333333333333,4,2,7,35,0,0
160012,-133.333333333333,4,2,7,38,0,0
160346,-133.333333333333,4,2,7,40,0,0
160679,-133.333333333333,4,2,7,43,0,0
161012,-133.333333333333,4,2,7,45,0,0
161346,-133.333333333333,4,2,7,48,0,0
161679,-133.333333333333,4,2,7,50,0,0
162012,-133.333333333333,4,2,7,53,0,0
162346,-133.333333333333,4,2,7,55,0,0
162679,-133.333333333333,4,2,7,58,0,0
163012,-133.333333333333,4,2,7,60,0,0
163345,-133.333333333333,4,2,7,63,0,0
163679,-133.333333333333,4,2,7,65,0,0
164012,-133.333333333333,4,2,7,68,0,0
164345,-133.333333333333,4,2,7,70,0,0
164679,-133.333333333333,4,2,7,73,0,0
165012,-133.333333333333,4,2,7,75,0,0
165345,-133.333333333333,4,2,7,78,0,0
165679,-133.333333333333,4,2,7,80,0,0
166012,-133.333333333333,4,2,7,83,0,0
166345,-133.333333333333,4,2,7,85,0,0
166679,-133.333333333333,4,2,7,88,0,0
167012,-133.333333333333,4,2,7,90,0,0
167345,-133.333333333333,4,2,7,93,0,0
167679,-133.333333333333,4,2,7,95,0,0
168012,-133.333333333333,4,2,7,98,0,0
168345,-133.333333333333,4,2,8,100,0,0
168429,-133.333333333333,4,2,7,80,0,0
169345,-133.333333333333,4,2,7,90,0,0
169679,-111.111111111111,4,2,7,100,0,1
180262,-111.111111111111,4,2,7,100,0,0
180345,-100,4,2,7,100,0,1
191012,-100,4,2,7,100,0,0
191179,-111.111111111111,4,2,7,90,0,0
212345,-250,4,2,7,90,0,0
212429,-250,4,2,7,40,0,0
213512,-250,4,2,7,5,0,0
213679,-100,4,2,7,70,0,0
214345,-100,4,2,8,70,0,0
214512,-100,4,2,7,70,0,0
214679,-400,4,2,7,70,0,0
214929,-400,4,2,7,5,0,0
215012,-133.333333333333,4,2,7,90,0,0
219012,-166.666666666667,4,2,7,90,0,0
219679,-133.333333333333,4,2,7,90,0,0
224345,-166.666666666667,4,2,7,90,0,0
225012,-133.333333333333,4,2,7,90,0,0
225679,-200,4,2,7,90,0,1
236179,-200,4,2,7,90,0,0

[Colours]
Combo1 : 255,0,0
Combo2 : 192,192,192
Combo3 : 128,128,128
Combo4 : 255,164,164
Combo5 : 255,125,125
Combo6 : 187,187,255
Combo7 : 94,150,255

[HitObjects]
75,53,50,6,0,B|89:59|89:59|103:56|103:56|126:69|119:48|176:59,1,100,2|0,1:3|0:0,0:0:0:0:
275,144,478,1,0,1:0:0:0:
423,63,692,2,0,L|412:111,1,50,2|2,0:3|0:0,0:0:0:0:
396,185,907,6,0,P|432:152|481:143,1,100,0|0,0:0|1:0,0:0:0:0:
371,305,1335,2,0,L|271:299,1,100,2|0,0:3|1:0,0:0:0:0:
113,159,1764,86,0,L|63:162,1,50,2|0,0:3|1:0,0:0:0:0:
8,234,1978,1,2,0:3:0:0:
27,249,2085,2,0,L|143:241,1,100,0|0,1:0|1:0,0:0:0:0:
211,203,2407,1,2,1:2:0:0:
230,218,2514,1,2,1:2:0:0:
305,166,2621,6,0,P|319:135|303:55,1,100,2|0,1:3|0:0,0:0:0:0:
252,22,2942,2,0,L|377:30,1,125,2|0,1:3|0:0,0:0:0:0:
481,109,3264,1,2,1:2:0:0:
496,184,3371,1,2,1:2:0:0:
511,259,3478,86,0,B|497:265|497:265|483:262|483:262|460:275|467:254|414:264,1,100,2|0,1:3|0:0,0:0:0:0:
298,323,3907,1,0,1:0:0:0:
183,193,4121,2,0,L|231:182,1,50,2|2,0:3|0:0,0:0:0:0:
305,166,4336,6,0,P|272:202|263:251,1,100,0|0,0:0|1:0,0:0:0:0:
111,370,4764,2,0,L|133:272,1,100,2|0,0:3|1:0,0:0:0:0:
122,22,5192,86,0,L|170:33,1,50,2|0,0:0|1:0,0:0:0:0:
230,131,5407,2,0,L|132:108,1,100,2|0,1:3|0:0,0:0:0:0:
40,170,5728,2,0,L|137:192,1,100,2|0,1:3|0:0,0:0:0:0:
305,166,6050,5,2,1:3:0:0:
310,180,6157,1,2,1:3:0:0:
307,251,6264,1,2,1:3:0:0:
312,265,6371,1,2,1:3:0:0:
309,336,6478,2,0,L|302:367,6,31.25,2|0|0|0|0|0|0,1:3|0:3|0:3|0:3|0:3|0:3|0:3,0:3:0:0:
305,166,6907,86,0,B|319:172|319:172|333:169|333:169|356:182|349:161|402:171,1,100,2|0,1:3|0:0,0:0:0:0:
237,211,7335,1,0,1:0:0:0:
310,72,7550,2,0,L|262:61,1,50,2|2,0:3|0:0,0:0:0:0:
188,45,7764,6,0,P|221:81|230:130,1,100,0|0,0:0|1:0,0:0:0:0:
115,289,8192,2,0,L|137:191,1,100,2|0,0:3|1:0,0:0:0:0:
348,99,8621,86,0,L|396:109,1,50,2|0,0:3|1:0,0:0:0:0:
438,191,8835,1,2,0:3:0:0:
417,203,8942,2,0,L|303:176,1,100,0|0,1:0|1:0,0:0:0:0:
250,118,9264,1,2,1:2:0:0:
229,130,9371,1,2,1:2:0:0:
157,72,9478,6,0,P|126:58|46:74,1,100,2|0,1:3|0:0,0:0:0:0:
8,139,9800,1,2,1:2:0:0:
56,219,9907,86,0,B|81:204|93:178|93:178|120:201|104:239|104:239|88:272|100:311,1,187.5,2|0,1:3|0:0,0:0:0:0:
156,362,10335,6,0,B|170:356|170:356|184:359|184:359|207:346|200:367|253:357,1,100,2|0,1:3|0:0,0:0:0:0:
365,289,10764,1,0,1:0:0:0:
256,157,10978,2,0,L|267:205,1,50,2|2,0:3|0:0,0:0:0:0:
283,279,11193,86,0,P|247:246|198:237,1,100,0|0,0:0|1:0,0:0:0:0:
24,151,11621,2,0,L|124:145,1,100,2|0,0:3|1:0,0:0:0:0:
351,77,12050,6,0,L|240:70,1,110.000003356934,2|0,3:0|0:0,0:0:0:0:
230,75,12371,1,0,0:0:0:0:
365,163,12478,86,0,L|254:156,1,110.000003356934,2|0,3:0|0:0,0:0:0:0:
244,161,12799,1,0,0:0:0:0:
369,251,12907,6,0,L|313:247,1,55.0000016784668,2|0,3:0|0:0,0:0:0:0:
208,317,13121,2,0,L|152:313,1,55.0000016784668,2|0,3:0|0:0,0:0:0:0:
36,244,13335,85,2,3:3:0:0:
51,169,13442,1,2,3:3:0:0:
66,94,13550,2,0,L|61:62,2,27.5000008392334,2|0|0,3:3|3:0|3:0,3:0:0:0:
139,278,13764,22,0,B|166:292|200:281|200:281|212:288|212:288|247:262|306:286,1,150.000005722046,4|0,3:0|3:0,3:0:0:0:
426,356,14085,2,0,P|441:322|443:273,1,75.0000028610231,0|4,3:0|0:2,0:0:0:0:
419,187,14300,1,0,3:0:0:0:
419,187,14407,1,0,3:0:0:0:
151,194,14621,6,0,L|162:108,1,75.0000028610231,12|0,3:2|3:0,0:0:0:0:
291,33,14835,1,0,3:0:0:0:
304,57,14942,2,0,B|293:132,1,75.0000028610231,0|4,3:0|0:0,0:0:0:0:
269,254,15157,1,0,3:0:0:0:
282,278,15264,1,0,3:0:0:0:
99,79,15478,86,0,P|109:151|72:214,1,150.000005722046,4|0,3:2|3:0,3:0:0:0:
1,352,15800,2,0,P|35:337|84:335,1,75.0000028610231,0|4,3:0|0:2,0:0:0:0:
170,359,16015,1,0,3:0:0:0:
170,359,16122,1,0,3:0:0:0:
406,134,16335,5,12,3:2:0:0:
413,160,16442,1,0,3:0:0:0:
419,187,16550,1,0,3:0:0:0:
214,69,16764,1,4,3:2:0:0:
207,95,16871,1,0,3:0:0:0:
201,122,16979,1,0,3:0:0:0:
419,359,17192,86,0,L|269:349,1,150.000005722046,4|0,3:2|3:0,3:0:0:0:
157,233,17514,2,0,L|231:237,1,75.0000028610231,0|4,3:0|0:0,0:0:0:0:
333,204,17728,1,0,3:0:0:0:
333,204,17835,1,0,3:0:0:0:
41,23,18050,6,0,P|25:57|22:94,1,75.0000028610231,12|0,3:2|3:0,0:0:0:0:
90,248,18264,1,0,3:0:0:0:
112,234,18371,2,0,P|127:199|130:162,1,75.0000028610231,0|4,3:0|0:0,0:0:0:0:
126,33,18585,1,0,3:0:0:0:
148,19,18692,1,0,3:0:0:0:
482,194,18907,86,0,L|332:203,1,150.000005722046,4|0,3:2|3:0,3:0:0:0:
237,336,19228,2,0,L|311:331,1,75.0000028610231,0|4,3:0|0:0,0:0:0:0:
403,283,19443,1,0,3:0:0:0:
403,283,19550,1,0,3:0:0:0:
228,30,19764,5,12,3:2:0:0:
221,65,19871,1,0,3:0:0:0:
233,136,19978,1,0,3:0:0:0:
239,156,20085,1,0,3:0:0:0:
214,224,20192,1,4,3:2:0:0:
211,232,20299,1,0,3:0:0:0:
239,334,20407,38,0,B|265:325|265:325|221:288|220:342|141:314,1,150,12|0,0:1|0:0,0:0:0:0:
82,264,20621,38,0,P|131:212|122:140,1,150.000005722046,4|0,3:0|3:0,3:0:0:0:
37,12,20942,2,0,P|21:46|18:83,1,75.0000028610231,0|4,3:0|0:0,0:0:0:0:
50,185,21157,1,0,3:0:0:0:
50,185,21264,1,0,3:0:0:0:
295,40,21478,6,0,L|205:46,1,75.0000028610231,12|0,3:2|3:0,3:0:0:0:
121,138,21693,1,0,3:0:0:0:
145,153,21800,2,0,B|220:147,1,75.0000028610231,0|4,3:0|0:0,0:0:0:0:
343,132,22015,1,0,3:0:0:0:
367,147,22122,1,0,3:0:0:0:
68,285,22335,86,0,P|127:243|201:245,1,150.000005722046,4|0,3:2|3:0,3:0:0:0:
300,370,22657,2,0,P|284:336|281:299,1,75.0000028610231,0|4,3:0|0:0,0:0:0:0:
310,211,22871,1,0,3:0:0:0:
310,211,22978,1,0,3:0:0:0:
440,50,23192,5,12,3:2:0:0:
447,76,23299,1,0,3:0:0:0:
453,103,23407,1,0,3:0:0:0:
227,18,23621,1,4,3:2:0:0:
220,44,23728,1,0,3:0:0:0:
214,71,23836,1,0,3:0:0:0:
411,328,24050,86,0,L|402:178,1,150.000005722046,4|0,3:2|3:0,3:0:0:0:
341,34,24371,2,0,L|344:107,1,75.0000028610231,0|4,3:0|0:0,0:0:0:0:
310,211,24585,1,0,3:0:0:0:
310,211,24692,1,0,3:0:0:0:
87,356,24907,6,0,P|71:322|68:285,1,75.0000028610231,12|0,3:2|3:0,3:0:0:0:
136,131,25121,1,0,3:0:0:0:
158,145,25228,2,0,P|173:180|176:217,1,75.0000028610231,0|4,3:0|0:0,0:0:0:0:
172,346,25442,1,0,3:0:0:0:
194,360,25549,1,0,3:0:0:0:
345,108,25764,85,4,3:2:0:0:
377,350,25978,5,0,0:0:0:0:
373,336,26085,1,0,0:0:0:0:
297,315,26192,85,4,0:2:0:0:
301,301,26299,1,0,0:0:0:0:
365,254,26407,2,0,P|396:227|407:153,1,112.500004291535,0|0,3:0|0:0,0:0:0:0:
345,108,26621,5,8,0:0:0:0:
221,160,26728,1,8,0:0:0:0:
349,98,26835,1,8,0:0:0:0:
135,33,27050,85,8,0:0:0:0:
259,85,27157,1,8,0:0:0:0:
131,23,27264,1,8,0:0:0:0:
175,360,27478,6,0,B|161:334|172:300|172:300|165:288|165:288|187:254|174:212,1,150.000005722046,4|0,3:0|3:0,3:0:0:0:
60,116,27800,2,0,P|45:150|43:199,1,75.0000028610231,0|4,3:0|0:0,0:0:0:0:
67,285,28015,1,0,3:0:0:0:
67,285,28122,1,0,3:0:0:0:
259,85,28335,86,0,L|345:96,1,75.0000028610231,12|0,3:2|3:0,3:0:0:0:
420,225,28549,1,0,3:0:0:0:
396,238,28656,2,0,B|321:227,1,75.0000028610231,0|4,3:0|0:0,0:0:0:0:
199,203,28871,1,0,3:0:0:0:
175,216,28978,1,0,3:0:0:0:
385,14,29192,6,0,P|424:74|411:148,1,150.000005722046,4|0,3:2|3:0,3:0:0:0:
343,296,29514,2,0,P|324:263|321:226,1,75.0000028610231,0|4,3:0|0:0,0:0:0:0:
334,133,29729,1,0,3:0:0:0:
334,133,29836,1,0,3:0:0:0:
465,356,30050,85,12,3:2:0:0:
458,330,30157,1,0,3:0:0:0:
452,303,30265,1,0,3:0:0:0:
211,338,30478,1,4,3:2:0:0:
217,311,30585,1,0,3:0:0:0:
224,285,30692,1,0,3:0:0:0:
166,66,30907,6,0,L|175:216,1,150.000005722046,4|0,3:2|3:0,3:0:0:0:
89,353,31228,2,0,L|85:278,1,75.0000028610231,0|4,3:0|0:0,0:0:0:0:
41,187,31442,1,0,3:0:0:0:
41,187,31549,1,0,3:0:0:0:
299,311,31764,86,0,P|333:327|370:330,1,75.0000028610231,12|0,3:2|3:0,3:0:0:0:
505,265,31978,1,0,3:0:0:0:
491,243,32085,2,0,P|456:228|419:225,1,75.0000028610231,0|4,3:0|0:0,0:0:0:0:
290,229,32300,1,0,3:0:0:0:
276,207,32407,1,0,3:0:0:0:
31,65,32621,6,0,L|181:74,1,150.000005722046,4|0,3:2|3:0,3:0:0:0:
276,207,32943,2,0,L|202:202,1,75.0000028610231,0|4,3:0|0:0,0:0:0:0:
110,154,33157,1,0,3:0:0:0:
110,154,33264,1,0,3:0:0:0:
369,330,33478,85,12,3:2:0:0:
362,295,33585,1,0,3:0:0:0:
374,224,33692,1,2,3:0:0:0:
380,204,33799,1,8,3:0:0:0:
355,136,33906,1,0,3:0:0:0:
352,128,34013,1,0,3:0:0:0:
380,26,34121,54,0,B|406:35|406:35|362:72|361:18|289:43,1,150,12|0,0:1|0:0,0:0:0:0:
272,118,34335,54,0,P|210:163|133:157,1,150.000005722046,4|0,3:0|3:0,3:0:0:0:
34,32,34656,2,0,P|18:66|15:103,1,75.0000028610231,0|4,3:0|0:0,0:0:0:0:
51,197,34871,1,0,3:0:0:0:
51,197,34978,1,0,3:0:0:0:
412,279,35192,86,0,L|401:193,1,75.0000028610231,12|0,3:2|3:0,3:0:0:0:
272,118,35406,1,0,3:0:0:0:
259,142,35514,2,0,B|270:217,1,75.0000028610231,0|4,3:0|0:0,0:0:0:0:
294,339,35728,1,0,3:0:0:0:
281,363,35835,1,0,3:0:0:0:
182,62,36050,6,0,P|244:17|321:23,1,150.000005722046,4|0,3:2|3:0,3:0:0:0:
446,112,36371,2,0,P|412:127|375:131,1,75.0000028610231,0|4,3:0|0:0,0:0:0:0:
275,121,36586,1,0,3:0:0:0:
275,121,36693,1,0,3:0:0:0:
425,332,36907,85,12,3:2:0:0:
418,306,37014,1,0,3:0:0:0:
412,279,37121,1,0,3:0:0:0:
141,324,37335,1,4,3:2:0:0:
148,298,37442,1,0,3:0:0:0:
154,271,37550,1,0,3:0:0:0:
501,29,37764,6,0,L|492:179,1,150.000005722046,4|0,3:2|3:0,3:0:0:0:
346,230,38085,2,0,L|349:157,1,75.0000028610231,0|4,3:0|0:0,0:0:0:0:
381,68,38300,1,0,3:0:0:0:
381,68,38407,1,0,3:0:0:0:
148,298,38621,86,0,P|164:264|167:227,1,75.0000028610231,12|0,3:2|3:0,3:0:0:0:
93,84,38835,1,0,3:0:0:0:
71,98,38942,2,0,P|56:133|53:170,1,75.0000028610231,0|4,3:0|0:0,0:0:0:0:
64,298,39157,1,0,3:0:0:0:
50,320,39264,1,0,3:0:0:0:
349,155,39478,5,4,3:0:0:0:
105,98,44045,85,4,3:0:0:0:
105,98,44195,1,0,0:0:0:0:
38,276,44345,2,0,L|137:267,1,100,2|0,3:0|0:0,0:0:0:0:
0,366,44645,2,0,L|99:357,1,100,2|0,3:0|0:0,0:0:0:0:
281,308,44945,1,0,3:0:0:0:
330,145,45095,6,0,P|346:173|340:250,1,100,2|0,0:3|3:0,0:0:0:0:
272,78,45395,2,0,P|300:62|377:67,1,100,2|0,0:3|3:0,0:0:0:0:
205,137,45695,2,0,P|189:108|194:31,1,100,2|0,0:3|3:0,0:0:0:0:
263,205,45995,1,0,0:0:0:0:
366,63,46145,2,0,L|471:72,1,100,2|0,3:3|0:0,0:0:0:0:
255,0,46445,85,0,3:0:0:0:
255,0,46595,1,0,0:0:0:0:
105,98,46745,2,0,L|6:89,1,100,2|0,3:3|0:0,0:0:0:0:
143,188,47045,2,0,L|44:179,1,100,2|0,3:3|0:0,0:0:0:0:
213,278,47345,1,0,3:0:0:0:
366,63,47495,6,0,P|373:112|358:159,1,100,2|0,0:3|3:0,0:0:0:0:
429,312,47795,2,0,P|414:264|421:215,1,100,2|0,0:3|3:0,0:0:0:0:
284,105,48095,1,2,0:3:0:0:
292,323,48245,85,0,3:0:0:0:
292,316,48320,1,0,3:0:0:0:
293,310,48395,1,2,3:3:0:0:
293,304,48470,1,0,3:0:0:0:
294,298,48545,1,2,3:2:0:0:
295,291,48620,1,0,3:0:0:0:
295,285,48695,1,2,3:3:0:0:
296,279,48770,1,0,3:0:0:0:
296,273,48845,5,8,3:3:0:0:
210,365,48995,1,0,3:0:0:0:
143,188,49145,2,0,L|222:195,1,80,8|0,0:3|3:0,0:0:0:0:
45,264,49445,2,0,L|124:271,1,80,8|0,0:3|3:0,0:0:0:0:
23,177,49745,1,8,0:3:0:0:
208,88,49895,86,0,P|222:54|219:4,1,80,0|8,3:0|0:3,0:0:0:0:
143,188,50195,2,0,P|129:154|132:104,1,80,0|8,3:0|0:3,0:0:0:0:
208,288,50495,2,0,P|222:254|219:204,1,80,0|8,3:0|0:3,0:0:0:0:
145,384,50795,1,0,3:0:0:0:
45,264,50945,2,0,L|124:271,1,80,8|0,0:3|3:0,0:0:0:0:
305,186,51245,5,8,0:3:0:0:
208,88,51395,1,0,3:0:0:0:
389,11,51545,2,0,L|381:90,1,80,8|0,0:3|3:0,0:0:0:0:
496,0,51845,2,0,L|488:79,1,80,8|0,0:3|3:0,0:0:0:0:
399,224,52145,1,8,0:3:0:0:
208,88,52295,86,0,P|244:70|310:75,1,89.9999972534181,0|8,3:0|0:3,0:0:0:0:
143,188,52595,2,0,P|98:188|58:169,1,89.9999972534181,0|8,3:0|0:3,0:0:0:0:
173,9,52895,1,0,3:0:0:0:
305,186,53045,5,8,0:0:0:0:
301,223,53120,1,8,0:0:0:0:
297,260,53195,1,8,0:0:0:0:
293,297,53270,1,8,0:0:0:0:
289,335,53345,1,8,0:0:0:0:
143,188,53495,1,8,0:0:0:0:
377,141,53645,85,4,3:0:0:0:
208,88,53795,1,0,3:0:0:0:
332,255,53945,2,0,L|321:358,1,100,10|0,0:1|3:0,0:0:0:0:
132,287,54245,2,0,L|142:187,1,100,2|0,3:1|3:0,3:0:0:0:
255,16,54545,1,10,0:1:0:0:
44,83,54695,6,0,P|34:134|46:188,1,100,0|2,3:0|3:1,3:0:0:0:
222,265,54995,2,0,P|232:214|220:160,1,100,0|10,3:0|0:1,0:0:0:0:
46,263,55295,1,0,3:0:0:0:
223,353,55445,2,0,P|274:363|328:351,1,100,2|0,3:1|3:0,3:0:0:0:
223,167,55745,1,10,0:1:0:0:
134,377,55895,1,8,0:0:0:0:
333,256,56045,85,2,3:1:0:0:
141,187,56195,1,0,3:0:0:0:
315,86,56345,2,0,L|304:185,1,100,10|0,0:1|3:0,0:0:0:0:
489,247,56645,2,0,L|478:147,1,100,2|0,3:1|3:0,3:0:0:0:
365,20,56945,1,10,0:1:0:0:
333,256,57095,6,0,P|361:278|436:285,1,100,0|2,3:0|3:1,3:0:0:0:
315,86,57395,2,0,P|265:90|224:118,1,100,0|10,3:0|0:1,0:0:0:0:
132,287,57695,1,0,3:0:0:0:
298,184,57845,1,8,0:0:0:0:
298,184,57920,1,8,0:0:0:0:
298,184,57995,1,8,0:0:0:0:
78,136,58145,1,8,0:0:0:0:
78,136,58220,1,8,0:0:0:0:
78,136,58295,1,8,0:0:0:0:
212,25,58445,85,4,3:0:0:0:
250,250,58595,1,0,3:0:0:0:
393,110,58745,2,0,P|404:158|400:208,1,100,10|0,0:1|3:0,0:0:0:0:
243,347,59045,2,0,P|238:297|249:249,1,100,2|0,3:1|3:0,3:0:0:0:
315,86,59345,1,10,0:1:0:0:
142,187,59495,6,0,L|132:287,1,100,0|2,3:0|3:1,3:0:0:0:
0,182,59795,1,0,3:0:0:0:
224,117,59945,1,10,0:1:0:0:
62,26,60095,1,0,3:0:0:0:
53,249,60245,2,0,L|43:349,1,100,2|0,3:1|3:0,3:0:0:0:
249,249,60545,1,10,0:1:0:0:
138,72,60695,1,8,0:0:0:0:
393,110,60845,85,2,3:1:0:0:
177,199,60995,1,0,3:0:0:0:
328,329,61145,2,0,P|376:340|426:336,1,100,10|0,0:1|3:0,0:0:0:0:
491,116,61445,2,0,P|442:104|392:109,1,100,2|0,3:1|3:0,3:0:0:0:
249,249,61745,1,10,0:1:0:0:
218,29,61895,1,0,3:0:0:0:
166,278,62045,5,2,3:1:0:0:
308,103,62195,1,0,3:0:0:0:
79,131,62345,2,0,L|69:231,1,100,10|0,0:1|3:0,0:0:0:0:
241,323,62645,85,8,0:0:0:0:
245,286,62720,1,8,0:0:0:0:
249,249,62795,1,8,0:0:0:0:
253,212,62870,1,8,0:0:0:0:
257,174,62945,1,8,0:0:0:0:
80,315,63095,1,8,0:0:0:0:
310,378,63245,5,12,0:2:0:0:
172,184,63395,1,0,3:0:0:0:
399,208,63545,2,0,L|413:318,1,110.000003356934,12|0,0:0|3:0,0:0:0:0:
468,65,63845,2,0,L|481:173,1,110.000003356934,12|0,0:0|3:0,0:0:0:0:
306,18,64145,1,12,0:0:0:0:
329,269,64295,1,0,3:0:0:0:
164,102,64445,85,12,0:0:0:0:
397,122,64595,1,0,3:0:0:0:
245,286,64745,2,0,P|198:295|135:300,1,110.000003356934,12|0,0:0|3:0,0:0:0:0:
392,356,65045,2,0,P|337:360|283:369,1,110.000003356934,12|0,0:0|3:0,0:0:0:0:
484,251,65345,1,12,0:0:0:0:
247,156,65495,1,0,3:0:0:0:
468,65,65645,6,0,L|481:174,1,110.000003356934,12|0,0:0|3:0,0:0:0:0:
392,356,65945,1,12,0:0:0:0:
259,170,66095,1,0,3:0:0:0:
484,251,66245,1,12,0:0:0:0:
252,291,66395,1,0,3:0:0:0:
481,337,66545,1,12,0:0:0:0:
381,129,66695,1,0,3:0:0:0:
282,369,66845,86,0,P|235:378|172:383,1,110.000003356934,12|0,0:0|3:0,0:0:0:0:
259,170,67145,1,12,0:0:0:0:
34,192,67295,2,0,P|88:201|142:205,1,110.000003356934,0|12,3:0|0:0,0:0:0:0:
45,0,67595,1,0,3:0:0:0:
253,84,67745,1,12,0:0:0:0:
40,165,67895,1,0,3:0:0:0:
192,17,68045,5,12,0:0:0:0:
223,252,68195,1,0,3:0:0:0:
223,252,68270,1,0,3:0:0:0:
223,252,68345,2,0,L|210:361,1,110.000003356934,12|0,0:0|3:0,0:0:0:0:
40,165,68645,85,12,0:0:0:0:
253,84,68795,1,0,3:0:0:0:
253,84,68870,1,0,3:0:0:0:
253,84,68945,1,12,0:0:0:0:
63,23,69095,1,0,3:0:0:0:
259,170,69245,5,12,0:0:0:0:
59,275,69395,1,0,3:0:0:0:
59,275,69470,1,0,3:0:0:0:
59,275,69545,2,0,L|72:384,1,110.000003356934,12|0,0:0|3:0,0:0:0:0:
313,240,69845,85,12,0:0:0:0:
137,88,69995,1,0,3:0:0:0:
137,88,70070,1,0,3:0:0:0:
137,88,70145,1,12,0:0:0:0:
317,21,70295,1,0,3:0:0:0:
155,180,70445,5,12,3:2:0:0:
143,210,70520,1,0,3:0:0:0:
140,242,70595,1,0,3:0:0:0:
148,273,70670,1,0,3:0:0:0:
167,299,70745,1,12,3:2:0:0:
193,319,70820,1,0,3:0:0:0:
224,327,70895,1,0,3:0:0:0:
256,325,70970,1,0,3:0:0:0:
286,312,71045,85,12,3:2:0:0:
323,303,71120,1,0,3:0:0:0:
361,305,71195,1,0,3:0:0:0:
395,321,71270,1,0,3:0:0:0:
433,324,71345,1,12,3:2:0:0:
469,312,71420,1,0,3:0:0:0:
494,283,71495,1,0,3:0:0:0:
506,246,71570,1,0,3:0:0:0:
501,207,71645,5,12,3:2:0:0:
476,170,71720,1,0,3:0:0:0:
436,151,71795,1,0,3:0:0:0:
392,154,71870,1,0,3:0:0:0:
355,178,71945,2,0,P|322:192|290:195,1,55.0000016784668,12|0,3:2|3:0,3:0:0:0:
185,107,72095,2,0,P|149:102|117:107,1,55.0000016784668,0|0,3:0|3:0,3:0:0:0:
24,208,72245,85,8,0:0:0:0:
25,229,72320,1,8,0:0:0:0:
27,251,72395,1,8,0:0:0:0:
28,273,72470,1,8,0:0:0:0:
30,295,72545,1,2,0:3:0:0:
30,308,72620,1,2,0:3:0:0:
31,322,72695,1,8,0:3:0:0:
32,336,72770,1,8,0:3:0:0:
33,349,72845,70,0,L|88:359,3,50,8|2|2|2,3:2|0:0|0:0|0:0,0:0:0:0:
361,305,73745,5,8,0:0:0:0:
155,180,73895,1,0,3:0:0:0:
302,114,74045,1,0,3:0:0:0:
302,114,74195,1,0,3:0:0:0:
0,108,74495,85,0,3:0:0:0:
0,108,74570,1,0,3:0:0:0:
0,108,74645,1,8,0:0:0:0:
241,168,74795,1,0,3:0:0:0:
116,340,74945,1,10,0:3:0:0:
77,0,75245,21,4,3:0:0:0:
155,180,75395,1,0,3:0:0:0:
259,9,75545,2,0,L|161:15,1,75.0000028610231,0|0,3:2|3:0,3:0:0:0:
301,113,75845,2,0,P|350:130|413:125,1,112.500004291535,12|0,0:0|0:0,0:0:0:0:
417,121,76145,1,0,3:0:0:0:
291,25,76295,1,0,3:0:0:0:
323,210,76445,5,4,3:2:0:0:
323,210,76595,1,0,3:0:0:0:
147,300,76745,2,0,L|153:187,1,112.500004291535
155,180,77045,1,12,0:0:0:0:
235,324,77195,1,0,3:0:0:0:
50,384,77345,2,0,L|56:271,1,112.500004291535
58,264,77645,85,4,3:2:0:0:
14,107,77795,1,0,3:0:0:0:
158,20,77945,2,0,P|156:57|149:94,1,75.0000028610231,0|0,3:0|3:0,3:0:0:0:
242,224,78245,2,0,P|237:168|254:115,1,112.500004291535,12|0,0:2|0:0,0:0:0:0:
260,110,78545,1,0,3:0:0:0:
323,256,78695,1,0,3:0:0:0:
441,141,78845,5,4,3:2:0:0:
441,141,78995,1,0,3:0:0:0:
512,305,79145,2,0,L|399:299,1,112.500004291535
392,297,79445,1,12,0:2:0:0:
218,350,79595,1,0,3:0:0:0:
332,237,79745,1,0,3:0:0:0:
196,157,79895,1,8,0:0:0:0:
302,337,80045,85,4,3:2:0:0:
150,277,80195,1,0,3:0:0:0:
332,237,80345,2,0,L|323:162,1,75.0000028610231,0|0,3:0|3:0,3:0:0:0:
359,13,80645,2,0,P|310:30|247:25,1,112.500004291535,12|0,0:2|0:0,0:0:0:0:
243,21,80945,1,0,3:0:0:0:
390,96,81095,1,0,3:0:0:0:
249,227,81245,5,4,3:2:0:0:
249,227,81395,1,0,3:0:0:0:
149,94,81545,2,0,L|35:99,1,112.500004291535
28,100,81845,1,12,0:2:0:0:
160,0,81995,1,0,3:0:0:0:
121,196,82145,2,0,L|7:201,1,112.500004291535
0,202,82445,85,4,3:2:0:0:
150,277,82595,1,0,3:0:0:0:
240,152,82745,2,0,P|247:188|248:226,1,75.0000028610231,0|0,3:0|3:0,3:0:0:0:
307,378,83045,2,0,P|302:322|319:269,1,112.500004291535,12|0,0:0|0:0,0:0:0:0:
325,264,83345,1,0,3:0:0:0:
457,360,83495,1,0,3:0:0:0:
356,188,83645,5,12,0:2:0:0:
488,284,83795,1,2,0:3:0:0:
448,124,83945,1,8,3:0:0:0:
448,124,84095,1,0,3:0:0:0:
390,315,84245,85,12,0:0:0:0:
240,152,84395,1,4,3:1:0:0:
439,209,84545,1,4,3:2:0:0:
225,360,84695,1,4,3:1:0:0:
163,128,84845,6,0,L|173:43,1,85.0000016212464,12|0,3:3|3:0,3:0:0:0:
356,188,85145,2,0,L|366:103,1,85.0000016212464,4|0,3:2|3:0,3:0:0:0:
237,242,85445,1,12,3:2:0:0:
284,56,85595,1,0,3:0:0:0:
356,188,85745,1,4,3:2:0:0:
163,128,85895,1,0,3:0:0:0:
325,264,86045,86,0,P|324:306|314:347,1,85.0000016212464,12|0,3:2|3:0,3:0:0:0:
131,279,86345,2,0,P|121:237|120:195,1,85.0000016212464,4|0,3:2|3:0,3:0:0:0:
284,56,86645,1,12,3:2:0:0:
237,242,86795,1,0,3:0:0:0:
172,43,86945,1,4,3:2:0:0:
365,103,87095,1,0,3:0:0:0:
237,242,87245,5,12,3:2:0:0:
275,38,87395,1,0,3:0:0:0:
440,156,87545,2,0,L|430:241,1,85.0000016212464,4|0,3:2|3:0,3:0:0:0:
297,368,87845,1,12,3:2:0:0:
276,167,87995,1,0,3:0:0:0:
131,279,88145,2,0,L|121:194,1,85.0000016212464,4|0,3:2|3:0,3:0:0:0:
275,38,88445,85,12,3:2:0:0:
225,258,88595,1,0,3:0:0:0:
181,83,88745,2,0,P|139:72|97:71,1,85.0000016212464,4|0,3:2|3:0,3:0:0:0:
47,266,89045,1,12,3:2:0:0:
250,150,89195,1,0,3:0:0:0:
50,141,89345,1,4,3:2:0:0:
149,306,89495,1,0,3:0:0:0:
276,167,89645,6,0,L|361:157,1,85.0000016212464,12|0,3:2|3:0,3:0:0:0:
222,348,89945,2,0,L|307:338,1,85.0000016212464,4|0,3:2|3:0,3:0:0:0:
171,188,90245,1,12,3:2:0:0:
348,266,90395,1,0,3:0:0:0:
149,306,90545,1,4,3:2:0:0:
250,150,90695,1,0,3:0:0:0:
50,141,90845,86,0,P|39:183|38:225,1,85.0000016212464,12|0,3:2|3:0,3:0:0:0:
262,233,91145,2,0,P|260:190|249:149,1,85.0000016212464,4|0,3:2|3:0,3:0:0:0:
149,306,91445,1,12,3:2:0:0:
348,266,91595,1,0,3:0:0:0:
171,188,91745,1,4,3:2:0:0:
306,338,91895,1,0,3:0:0:0:
360,157,92045,5,12,3:2:0:0:
170,284,92195,1,0,3:0:0:0:
106,83,92345,2,0,L|191:93,1,85.0000016212464,4|0,3:2|3:0,3:0:0:0:
415,84,92645,1,12,3:2:0:0:
262,233,92795,1,0,3:0:0:0:
461,284,92945,2,0,L|376:294,1,85.0000016212464,4|0,3:2|3:0,3:0:0:0:
171,188,93245,85,12,3:2:0:0:
360,157,93395,1,0,3:0:0:0:
262,233,93545,1,4,3:2:0:0:
272,142,93695,1,0,3:0:0:0:
376,293,93845,5,12,3:2:0:0:
184,272,93995,1,0,3:0:0:0:
272,142,94145,1,4,3:2:0:0:
262,233,94295,1,0,3:0:0:0:
190,92,94445,85,4,3:0:0:0:
59,297,95087,70,8,L|54:234,1,50
68,166,95302,5,8,0:0:0:0:
68,166,95409,2,0,L|131:171,2,50,8|0|0,0:0|0:0|0:0,0:0:0:0:
46,89,95730,85,8,0:0:0:0:
46,89,95837,2,0,L|109:94,2,50,8|0|0,0:0|0:0|0:0,0:0:0:0:
30,11,96159,5,8,0:0:0:0:
30,11,96266,1,8,0:0:0:0:
30,11,96373,2,0,L|93:16,1,50
160,41,96587,86,0,L|191:38,3,25,2|0|0|0,0:3|0:0|0:0|0:0,0:0:0:0:
231,18,96802,2,8,L|280:21,1,50
363,65,97016,5,8,0:0:0:0:
356,88,97123,1,8,0:0:0:0:
278,148,97230,85,0,3:0:0:0:
310,226,97337,1,0,3:0:0:0:
415,171,97445,6,0,L|366:167,1,50,8|2,0:0|0:0,0:0:0:0:
225,217,97659,1,0,3:0:0:0:
257,295,97766,1,0,3:0:0:0:
310,226,97873,5,4,3:0:0:0:
176,285,97980,1,0,3:0:0:0:
219,368,98087,2,0,P|190:376|145:373,1,59.9999981689454,2|0,0:0|0:0,0:0:0:0:
38,327,98302,2,0,P|66:319|96:318,1,59.9999981689454,4|0,0:1|0:0,0:0:0:0:
142,211,98516,1,2,3:2:0:0:
137,181,98623,1,0,3:0:0:0:
132,151,98730,5,12,3:1:0:0:
27,228,98837,1,0,3:0:0:0:
25,216,98945,2,0,L|33:155,1,59.9999981689454,2|0,0:2|0:0,0:0:0:0:
119,47,99159,85,4,3:1:0:0:
231,135,99266,1,0,3:0:0:0:
236,124,99374,2,0,L|232:65,1,59.9999981689454,2|0,0:2|0:0,0:0:0:0:
142,211,99587,5,4,3:1:0:0:
257,295,99695,1,0,3:0:0:0:
175,287,99802,2,0,P|177:315|189:344,1,59.9999981689454,2|0,0:2|0:0,0:0:0:0:
326,345,100016,2,0,P|337:317|340:287,1,59.9999981689454,4|0,0:1|0:0,0:0:0:0:
305,156,100230,1,2,3:2:0:0:
335,161,100337,1,0,3:0:0:0:
365,166,100444,85,12,3:1:0:0:
257,295,100552,2,0,B|209:286|160:302|160:302|180:283,1,119.999996337891,0|0,3:0|0:0,0:0:0:0:
251,215,100873,1,4,3:1:0:0:
157,127,100980,1,0,3:0:0:0:
168,122,101087,2,0,L|227:118,1,59.9999981689454,2|0,0:2|0:0,0:0:0:0:
365,166,101302,5,4,3:1:0:0:
275,50,101409,1,0,3:0:0:0:
366,25,101516,2,0,P|368:54|363:84,1,59.9999981689454,2|0,0:2|0:0,0:0:0:0:
332,180,101730,2,0,P|329:209|334:239,1,59.9999981689454,4|0,0:1|0:0,0:0:0:0:
384,319,101945,1,2,3:2:0:0:
379,349,102052,1,0,3:0:0:0:
374,379,102159,85,12,3:1:0:0:
268,301,102266,1,0,3:0:0:0:
257,295,102373,2,0,L|198:299,1,59.9999981689454,2|0,0:2|0:0,0:0:0:0:
25,295,102587,5,4,3:1:0:0:
131,217,102694,1,0,3:0:0:0:
142,211,102801,2,0,L|201:215,1,59.9999981689454,2|0,0:2|0:0,0:0:0:0:
28,153,103016,54,0,B|19:175|30:200|30:200|21:206|21:206|37:235|7:229|27:306,1,150,4|0,3:2|3:0,0:0:0:0:
85,368,103445,1,2,0:2:0:0:
142,211,103659,85,0,3:0:0:0:
140,191,103730,1,0,3:0:0:0:
139,171,103801,1,0,3:0:0:0:
137,151,103873,2,0,B|179:126|254:143|254:143|226:127,2,150,12|0|0,0:2|3:0|3:0,0:0:0:0:
360,36,104730,37,4,3:0:0:0:
332,180,104837,1,0,3:0:0:0:
405,130,104945,2,0,P|415:157|419:187,1,59.9999981689454,2|0,0:0|0:0,0:0:0:0:
301,253,105159,2,0,P|304:223|315:195,1,59.9999981689454,4|0,0:1|0:0,0:0:0:0:
384,319,105373,1,2,3:2:0:0:
354,324,105480,1,0,3:0:0:0:
324,329,105587,5,12,3:1:0:0:
197,299,105695,1,0,3:0:0:0:
186,293,105802,2,0,L|127:297,1,59.9999981689454,2|0,0:2|0:0,0:0:0:0:
268,248,106016,85,4,3:1:0:0:
142,211,106124,1,0,3:0:0:0:
131,217,106231,2,0,L|72:221,1,59.9999981689454,2|0,0:2|0:0,0:0:0:0:
228,128,106445,5,4,3:1:0:0:
111,40,106552,1,0,3:0:0:0:
63,113,106659,2,0,P|90:123|120:127,1,59.9999981689454,2|0,0:2|0:0,0:0:0:0:
218,42,106873,2,0,P|247:45|275:56,1,59.9999981689454,4|0,0:1|0:0,0:0:0:0:
345,140,107087,1,2,3:2:0:0:
375,135,107194,1,0,3:0:0:0:
405,130,107302,86,0,B|396:164|396:164|407:179|407:179|409:222|391:266|391:266|417:238,1,179.999994506836,12|0,3:1|3:0,0:0:0:0:
486,187,107730,2,0,P|502:243|480:298,1,119.999996337891,4|2,0:1|3:2,0:0:0:0:
301,253,108159,5,4,3:1:0:0:
417,340,108266,1,0,3:0:0:0:
326,383,108373,2,0,P|329:353|340:325,1,59.9999981689454,2|0,0:2|0:0,0:0:0:0:
219,266,108587,2,0,P|229:294|233:323,1,59.9999981689454,4|0,0:1|0:0,0:0:0:0:
121,277,108802,1,2,3:2:0:0:
126,247,108909,1,0,3:0:0:0:
131,217,109016,85,12,3:1:0:0:
239,134,109123,1,0,3:0:0:0:
228,128,109230,2,0,L|169:124,1,59.9999981689454,2|0,0:2|0:0,0:0:0:0:
405,130,109445,5,4,3:1:0:0:
297,47,109552,1,0,3:3:0:0:
308,41,109659,2,0,L|367:37,1,59.9999981689454,2|0,0:2|0:3,0:3:0:0:
100,121,109873,54,0,B|118:92|118:92|105:135|126:162|126:162|119:186|119:186|130:216,1,165.000005035401,4|0,3:2|3:0,0:0:0:0:
219,266,110302,1,2,0:0:0:0:
14,371,110516,85,0,3:0:0:0:
15,351,110587,1,0,3:0:0:0:
16,331,110658,1,0,3:0:0:0:
18,311,110730,2,0,B|66:339|86:294|149:327|149:327|142:310|128:306,2,165.000005035401,12|0|0,0:2|3:0|3:2,0:0:0:0:
5,111,111587,37,4,3:0:0:0:
25,98,111694,1,0,3:2:0:0:
47,89,111801,1,0,3:0:0:0:
71,85,111908,1,0,3:0:0:0:
95,86,112016,1,2,3:0:0:0:
118,92,112122,1,0,3:0:0:0:
194,129,112230,5,0,3:0:0:0:
217,123,112337,1,0,3:0:0:0:
279,65,112445,85,12,3:3:0:0:
334,156,112552,2,0,L|325:219,2,59.9999981689454,0|0|0,3:0|3:0|3:0,3:0:0:0:
363,33,112873,5,2,3:0:0:0:
418,124,112980,2,0,L|409:187,2,59.9999981689454,0|0|0,3:0|3:0|3:0,3:0:0:0:
447,1,113302,85,4,3:0:0:0:
502,92,113409,1,0,3:0:0:0:
498,115,113516,1,0,3:0:0:0:
495,139,113623,1,0,3:0:0:0:
491,163,113730,1,2,3:0:0:0:
488,187,113837,1,0,3:0:0:0:
445,260,113945,5,0,3:0:0:0:
448,284,114052,1,0,3:0:0:0:
440,366,114159,86,0,P|470:363|497:349,2,59.9999981689454,12|0|0,3:3|3:0|3:0,3:0:0:0:
358,336,114480,5,0,3:0:0:0:
334,331,114587,1,2,3:0:0:0:
310,326,114695,1,2,3:2:0:0:
304,238,114802,85,2,3:2:0:0:
274,243,114910,1,2,3:2:0:0:
197,275,115016,5,6,3:0:0:0:
245,144,115123,2,0,B|215:155|207:193|207:193|180:165|180:165|161:200|118:200,1,179.999994506836,0|4,3:0|0:1,0:0:0:0:
41,17,115659,1,2,3:1:0:0:
71,22,115766,1,0,3:0:0:0:
101,27,115873,85,12,3:1:0:0:
11,163,115980,2,0,P|57:199|116:199,1,119.999996337891,0|0,3:0|0:0,0:0:0:0:
165,137,116302,5,4,3:1:0:0:
137,280,116409,2,0,L|196:274,1,59.9999981689454,0|0,3:0|0:0,0:0:0:0:
330,14,116730,54,0,B|339:36|328:61|328:61|337:67|337:67|321:96|351:90|333:155,1,150,4|0,3:2|3:0,0:0:0:0:
273,242,117159,1,4,0:1:0:0:
485,287,117373,85,0,3:0:0:0:
487,267,117444,1,0,3:0:0:0:
488,247,117515,1,0,3:0:0:0:
490,227,117587,2,0,B|448:202|373:219|373:219|401:203,1,150,12|0,0:0|3:0,0:0:0:0:
332,155,118016,22,0,P|332:205|293:253,1,100,4|0,0:1|3:0,0:0:0:0:
135,311,118445,5,4,3:0:0:0:
193,159,118552,2,0,B|271:133|254:177|333:155|333:155|296:142,1,179.999994506836,0|4,3:0|0:1,0:0:0:0:
112,58,119087,1,0,3:0:0:0:
117,88,119194,1,0,3:0:0:0:
122,118,119302,5,12,3:1:0:0:
51,234,119409,2,0,P|108:222|165:238,1,119.999996337891,0|0,3:0|0:0,0:0:0:0:
218,305,119730,1,4,3:1:0:0:
193,159,119837,1,0,3:0:0:0:
209,167,120159,85,4,3:1:0:0:
330,204,120266,1,8,0:0:0:0:
254,103,120373,1,8,0:0:0:0:
257,229,120480,1,8,0:0:0:0:
331,126,120587,1,2,0:3:0:0:
209,167,120695,1,8,0:3:0:0:
330,204,120802,2,0,P|334:228|327:262,1,59.9999981689454,0|0,3:0|3:0,3:0:0:0:
233,332,121016,6,0,B|280:348|280:348|304:336|304:336|346:346,1,119.999996337891,10|0,0:1|0:0,0:0:0:0:
436,367,121337,86,0,B|426:349|426:349|435:335|435:335|395:308|407:252,1,129.999994049073,4|0,3:2|0:0,0:0:0:0:
476,166,121659,6,0,B|441:179|441:179|393:155,1,69.9999978637696,4|0,3:1|0:0,0:0:0:0:
312,49,121873,85,4,3:0:0:0:
209,167,121980,2,0,B|167:178|137:152|137:152|114:169|114:169|95:139|50:136,1,179.999994506836,0|4,3:0|0:1,0:0:0:0:
127,340,122516,1,0,3:0:0:0:
132,310,122623,1,0,3:0:0:0:
137,280,122730,5,12,3:1:0:0:
40,358,122837,2,0,L|59:231,1,119.999996337891,0|0,3:3|0:3,0:3:0:0:
50,136,123159,1,4,3:1:0:0:
137,280,123266,1,0,3:0:0:0:
144,285,123587,53,4,3:1:0:0:
167,283,123694,1,0,3:0:0:0:
191,282,123801,1,0,3:0:0:0:
257,229,123909,1,0,3:0:0:0:
280,227,124016,1,4,3:1:0:0:
304,226,124123,1,0,3:0:0:0:
369,279,124230,1,0,3:0:0:0:
393,278,124337,1,0,3:0:0:0:
436,198,124445,5,12,3:1:0:0:
431,174,124552,1,0,3:0:0:0:
427,150,124659,1,0,3:0:0:0:
343,152,124766,1,0,3:0:0:0:
348,128,124873,1,4,3:1:0:0:
352,104,124980,1,0,3:0:0:0:
428,68,125087,1,0,3:0:0:0:
424,44,125194,1,0,3:0:0:0:
342,18,125302,6,0,B|310:14|289:30|289:30|259:22|259:22|229:38,1,119.999996337891,4|0,3:2|0:0,0:0:0:0:
147,74,125623,6,0,B|178:81|178:81|205:66|205:66|230:76|260:63,1,119.999996337891,4|0,3:0|0:0,0:0:0:0:
71,37,125945,37,0,3:0:0:0:
65,57,126016,1,0,3:0:0:0:
63,76,126087,1,0,3:0:0:0:
65,96,126159,38,0,B|72:111|72:111|69:126|69:126|102:159|86:207,1,119.999996337891,8|0,0:0|0:0,0:0:0:0:
30,267,126480,2,0,P|87:250|144:266,1,119.999996337891,2|0,0:3|0:0,0:0:0:0:
88,347,126802,1,8,0:3:0:0:
260,62,127016,21,4,3:0:0:0:
256,192,127105,12,0,129890,0:0:0:0:
93,113,148346,37,2,0:0:0:0:
165,80,148512,1,0,0:0:0:0:
235,117,148679,1,2,0:0:0:0:
307,84,148846,1,2,0:0:0:0:
307,84,149512,5,2,0:0:0:0:
308,96,149595,1,2,0:0:0:0:
309,108,149678,1,2,0:0:0:0:
310,121,149762,1,2,0:0:0:0:
312,133,149845,1,2,0:0:0:0:
264,198,150012,1,0,0:0:0:0:
334,235,150179,1,2,0:0:0:0:
212,285,150346,85,2,0:0:0:0:
264,198,150512,1,0,0:0:0:0:
93,191,150679,5,2,0:0:0:0:
258,218,150846,1,0,0:0:0:0:
200,312,151012,85,2,0:0:0:0:
272,345,151178,1,0,0:0:0:0:
342,308,151345,1,2,0:0:0:0:
414,341,151512,1,2,0:0:0:0:
414,341,151846,5,2,0:0:0:0:
416,329,151929,1,2,0:0:0:0:
417,316,152013,1,2,0:0:0:0:
418,304,152096,1,2,0:0:0:0:
440,279,152179,85,2,0:0:0:0:
438,267,152262,1,2,0:0:0:0:
437,254,152346,1,2,0:0:0:0:
436,242,152429,1,2,0:0:0:0:
414,217,152512,5,2,0:0:0:0:
416,205,152595,1,0,0:0:0:0:
417,192,152679,1,0,0:0:0:0:
473,128,152846,1,2,0:0:0:0:
425,58,153012,85,2,0:0:0:0:
312,133,153179,1,0,0:0:0:0:
417,192,153346,5,2,0:0:0:0:
235,117,153512,1,0,0:0:0:0:
334,235,153679,85,2,0:0:0:0:
262,268,153845,1,0,0:0:0:0:
192,231,154012,1,2,0:0:0:0:
120,264,154179,1,2,0:0:0:0:
120,264,154846,5,2,0:0:0:0:
118,252,154929,1,2,0:0:0:0:
117,239,155013,1,2,0:0:0:0:
15,159,155179,1,2,0:0:0:0:
17,147,155262,1,2,0:0:0:0:
19,135,155346,1,0,0:0:0:0:
79,75,155512,1,2,0:0:0:0:
24,10,155679,85,2,0:0:0:0:
154,49,155846,1,2,0:0:0:0:
89,98,156012,5,0,0:0:0:0:
233,40,156179,1,2,0:0:0:0:
151,157,156346,85,2,0:0:0:0:
223,124,156512,1,0,0:0:0:0:
293,161,156679,1,2,0:0:0:0:
365,128,156846,1,2,0:0:0:0:
365,128,157846,5,2,0:0:0:0:
293,191,158012,1,0,0:0:0:0:
223,124,158179,1,2,0:0:0:0:
149,189,158346,85,2,0:0:0:0:
150,201,158429,1,2,0:0:0:0:
170,224,158512,5,2,0:3:0:0:
169,236,158595,1,2,0:3:0:0:
149,259,158679,85,2,0:0:0:0:
150,271,158762,1,2,0:0:0:0:
170,294,158845,5,0,0:0:0:0:
169,306,158928,1,0,0:0:0:0:
149,329,159012,85,2,1:2:0:0:
231,382,159179,1,0,0:0:0:0:
312,328,159346,1,2,1:2:0:0:
394,381,159513,1,2,0:2:0:0:
488,285,159679,2,0,P|450:280|413:280,1,75.0000028610231,0|0,1:0|0:0,0:0:0:0:
306,205,160012,2,0,P|343:209|380:209,1,75.0000028610231,0|0,1:0|0:0,0:0:0:0:
467,58,160346,5,2,1:2:0:0:
455,59,160429,1,2,0:2:0:0:
443,60,160512,1,2,0:2:0:0:
430,61,160596,1,2,0:2:0:0:
418,62,160679,1,0,1:2:0:0:
296,16,160846,1,2,0:2:0:0:
283,17,160930,1,2,0:2:0:0:
271,18,161011,85,2,1:2:0:0:
198,126,161179,1,2,0:2:0:0:
210,125,161262,1,2,0:2:0:0:
223,124,161345,1,2,1:2:0:0:
154,49,161512,1,0,0:0:0:0:
289,181,161678,5,2,1:2:0:0:
207,234,161846,1,0,0:3:0:0:
126,180,162012,1,2,1:2:0:0:
44,233,162180,1,2,0:2:0:0:
119,345,162346,2,0,P|123:307|123:270,1,75.0000028610231,0|0,1:0|0:0,0:0:0:0:
50,151,162679,1,0,1:3:0:0:
117,33,162845,85,2,0:2:0:0:
129,34,162928,1,2,0:2:0:0:
154,49,163012,5,2,1:2:0:0:
166,48,163095,1,2,0:2:0:0:
179,47,163179,1,2,0:2:0:0:
191,46,163262,1,2,0:2:0:0:
203,45,163345,1,0,1:3:0:0:
296,16,163512,1,2,0:2:0:0:
223,124,163679,85,2,1:2:0:0:
389,74,163845,1,0,0:0:0:0:
203,45,164012,5,2,1:2:0:0:
399,89,164179,1,0,0:0:0:0:
289,181,164345,85,2,1:2:0:0:
371,234,164512,1,0,0:3:0:0:
452,180,164679,1,2,1:2:0:0:
366,318,164845,5,2,0:2:0:0:
354,317,164928,1,2,0:2:0:0:
341,316,165012,1,2,1:2:0:0:
329,315,165095,1,2,0:2:0:0:
299,292,165179,85,2,0:2:0:0:
287,293,165262,1,2,0:2:0:0:
274,294,165346,1,2,1:2:0:0:
262,295,165429,1,2,0:2:0:0:
234,319,165511,5,2,0:2:0:0:
222,318,165595,1,2,0:2:0:0:
209,317,165679,1,2,1:2:0:0:
197,316,165762,1,2,0:2:0:0:
185,315,165845,1,0,0:0:0:0:
110,252,166012,1,0,1:2:0:0:
39,319,166179,1,2,0:2:0:0:
75,161,166345,85,2,1:2:0:0:
110,252,166512,1,2,0:2:0:0:
196,88,166679,5,2,1:2:0:0:
161,179,166846,1,2,0:0:0:0:
116,53,167012,85,2,1:2:0:0:
198,0,167179,1,0,0:3:0:0:
279,54,167346,1,2,1:2:0:0:
361,1,167513,1,2,0:2:0:0:
445,103,167679,2,0,P|445:65|441:28,1,75.0000028610231,0|0,1:0|0:0,0:0:0:0:
332,130,168012,2,0,P|327:167|328:204,1,75.0000028610231,0|0,1:0|0:0,0:0:0:0:
345,366,168345,5,2,1:0:0:0:
186,200,168512,85,2,0:0:0:0:
258,167,168678,1,0,0:0:0:0:
328,204,168845,1,2,0:0:0:0:
151,271,169012,5,2,0:0:0:0:
327,123,169179,1,2,0:3:0:0:
85,67,169345,85,2,0:0:0:0:
258,167,169512,1,2,0:0:0:0:
49,351,169679,54,0,B|52:336|45:325|45:325|50:315|50:315|38:291|46:265,1,89.9999972534181,4|0,3:0|3:0,0:0:0:0:
117,136,170012,1,10,0:1:0:0:
215,322,170179,1,2,3:2:0:0:
258,167,170345,2,0,L|251:77,1,89.9999972534181,2|0,0:1|0:0,0:0:0:0:
111,47,170679,2,0,L|117:136,1,89.9999972534181,10|2,0:1|0:0,0:0:0:0:
123,144,170929,1,2,0:0:0:0:
129,152,171012,6,0,L|132:196,1,44.999998626709,2|2,0:1|0:0,0:0:0:0:
129,297,171179,1,2,0:0:0:0:
17,137,171345,1,10,0:1:0:0:
235,187,171512,1,0,3:0:0:0:
69,243,171679,85,2,3:1:0:0:
207,108,171845,1,0,3:0:0:0:
215,322,172012,1,10,0:1:0:0:
129,152,172179,1,0,3:0:0:0:
330,123,172345,6,0,P|336:150|337:213,1,89.9999972534181,2|0,3:1|3:0,3:0:0:0:
295,343,172679,1,10,0:1:0:0:
437,186,172845,1,2,3:2:0:0:
349,45,173012,2,0,P|393:53|438:52,1,89.9999972534181,2|2,0:1|0:0,0:0:0:0:
446,49,173262,1,2,0:0:0:0:
454,46,173345,86,0,L|451:90,1,44.999998626709,10|2,0:1|0:0,0:0:0:0:
362,136,173512,2,0,L|359:180,1,44.999998626709,2|2,0:0|0:0,0:0:0:0:
402,258,173679,1,2,0:1:0:0:
401,269,173762,1,2,0:0:0:0:
400,280,173845,1,2,0:0:0:0:
399,291,173929,1,2,0:0:0:0:
398,302,174012,5,10,0:1:0:0:
276,263,174179,1,0,3:0:0:0:
437,186,174345,85,2,3:1:0:0:
295,343,174512,1,0,3:0:0:0:
263,165,174679,1,10,0:1:0:0:
483,252,174845,1,0,3:0:0:0:
295,343,175012,6,0,L|205:336,1,89.9999972534181,2|0,3:1|3:0,3:0:0:0:
69,243,175345,1,10,0:1:0:0:
263,165,175512,1,2,3:2:0:0:
117,114,175679,2,0,L|207:107,1,89.9999972534181,2|0,0:1|0:0,0:0:0:0:
342,19,176012,2,0,L|252:26,1,89.9999972534181,10|2,0:1|0:2,0:0:0:0:
244,30,176262,1,2,0:0:0:0:
236,34,176345,85,2,0:1:0:0:
362,136,176512,1,2,0:0:0:0:
354,140,176595,1,2,0:0:0:0:
346,144,176679,1,10,0:1:0:0:
418,68,176845,1,0,3:0:0:0:
402,258,177012,5,2,3:1:0:0:
263,165,177179,1,0,3:0:0:0:
489,122,177345,1,10,0:1:0:0:
400,280,177512,1,0,3:0:0:0:
263,165,177679,86,0,P|257:192|256:255,1,89.9999972534181,2|0,3:1|3:0,3:0:0:0:
321,357,178012,1,10,0:1:0:0:
346,144,178179,1,2,3:2:0:0:
247,281,178345,2,0,P|220:287|157:288,1,89.9999972534181,2|0,0:1|0:0,0:0:0:0:
98,138,178679,2,0,P|125:132|188:131,1,89.9999972534181,10|0,0:1|0:0,0:0:0:0:
365,169,179012,5,2,0:1:0:0:
247,281,179179,1,2,0:0:0:0:
251,80,179345,1,10,0:1:0:0:
452,194,179512,1,2,3:2:0:0:
247,281,179679,86,0,L|250:237,1,44.999998626709,2|2,3:1|0:0,0:0:0:0:
342,99,179845,2,0,L|345:143,1,44.999998626709,2|2,3:0|0:3,0:0:0:0:
412,326,180012,2,0,L|415:282,1,44.999998626709,10|2,0:1|0:2,0:0:0:0:
473,114,180179,1,2,3:2:0:0:
481,118,180263,1,2,3:2:0:0:
489,122,180346,5,12,0:0:0:0:
269,56,180512,1,0,3:0:0:0:
328,257,180679,2,0,L|320:359,1,100,10|2,0:1|3:2,0:0:0:0:
165,188,181012,2,0,L|157:290,1,100,10|0,0:1|3:0,0:0:0:0:
342,99,181345,1,10,0:1:0:0:
143,15,181512,1,0,3:0:0:0:
250,236,181679,85,10,0:1:0:0:
343,22,181845,1,0,3:0:0:0:
452,194,182012,2,0,P|422:200|353:201,1,100,10|0,0:1|3:0,0:0:0:0:
511,333,182345,2,0,P|461:324|411:325,1,100,10|0,0:1|3:0,0:0:0:0:
489,122,182679,1,10,0:1:0:0:
269,56,182845,1,0,3:0:0:0:
265,64,182929,1,0,3:0:0:0:
261,72,183012,5,12,0:0:0:0:
337,284,183179,1,0,3:0:0:0:
421,76,183345,1,10,0:1:0:0:
203,149,183512,1,2,3:2:0:0:
337,284,183679,2,0,L|329:184,1,100,10|0,0:1|3:0,0:0:0:0:
177,68,184012,1,10,0:1:0:0:
157,287,184179,1,0,3:0:0:0:
329,184,184345,85,10,0:1:0:0:
113,126,184512,1,0,3:0:0:0:
238,319,184679,1,10,0:1:0:0:
272,95,184845,1,0,3:0:0:0:
66,196,185012,2,0,P|64:245|72:295,1,100,10|0,0:1|3:0,0:0:0:0:
243,332,185345,1,10,0:1:0:0:
280,111,185512,1,0,3:0:0:0:
276,103,185595,1,0,3:0:0:0:
272,95,185679,5,12,0:0:0:0:
451,224,185845,1,0,3:0:0:0:
238,319,186012,2,0,L|246:219,1,100,10|2,0:1|3:2,0:0:0:0:
347,42,186345,1,10,0:1:0:0:
367,266,186512,1,0,3:0:0:0:
203,149,186679,1,10,0:1:0:0:
420,77,186845,1,0,3:0:0:0:
424,85,186929,1,0,3:0:0:0:
428,93,187012,85,12,0:0:0:0:
211,1,187179,1,0,3:0:0:0:
245,219,187345,1,10,0:1:0:0:
353,13,187512,1,0,3:0:0:0:
203,149,187679,2,0,P|153:157|103:155,1,100,10|0,0:1|3:0,0:0:0:0:
1,60,188012,1,10,0:1:0:0:
81,275,188179,1,0,3:0:0:0:
77,283,188263,1,0,3:0:0:0:
73,291,188346,5,12,0:0:0:0:
144,48,188512,1,0,3:0:0:0:
214,304,188679,1,10,0:1:0:0:
403,118,188845,1,0,3:0:0:0:
407,126,188929,1,0,3:0:0:0:
411,134,189012,85,12,0:0:0:0:
340,377,189178,1,0,3:0:0:0:
280,111,189345,1,10,0:1:0:0:
140,333,189512,1,0,3:0:0:0:
143,341,189596,1,0,3:0:0:0:
146,350,189679,5,12,0:0:0:0:
373,249,189845,1,0,3:0:0:0:
370,257,189929,1,0,3:0:0:0:
367,266,190012,85,12,0:0:0:0:
135,202,190179,1,0,3:0:0:0:
138,210,190263,1,0,3:0:0:0:
141,219,190346,5,12,0:0:0:0:
411,134,190512,1,8,0:0:0:0:
89,138,190679,85,8,0:0:0:0:
359,53,190845,1,8,0:0:0:0:
237,325,191012,5,4,3:0:0:0:
280,111,191179,1,0,3:0:0:0:
367,267,191345,1,6,0:0:0:0:
141,219,191512,2,0,L|231:212,1,89.9999972534181,2|12,3:2|0:0,0:0:0:0:
60,311,191845,2,0,L|150:304,1,89.9999972534181,0|4,3:0|0:0,0:0:0:0:
367,267,192179,85,2,3:2:0:0:
366,278,192262,1,2,0:2:0:0:
365,289,192345,1,6,0:0:0:0:
364,300,192429,1,2,0:0:0:0:
363,311,192512,1,0,3:2:0:0:
315,192,192679,1,4,0:0:0:0:
477,296,192845,1,2,3:2:0:0:
307,382,193012,5,14,0:0:0:0:
400,164,193179,1,0,3:0:0:0:
230,212,193345,1,6,0:0:0:0:
451,282,193512,1,0,3:0:0:0:
355,75,193679,85,6,3:2:0:0:
287,265,193845,1,0,3:0:0:0:
473,203,194012,1,6,0:0:0:0:
344,60,194179,2,0,P|317:54|254:53,1,89.9999972534181,2|12,3:2|0:0,0:0:0:0:
69,79,194512,5,2,3:2:0:0:
70,90,194595,1,2,0:2:0:0:
71,101,194678,1,6,0:2:0:0:
72,112,194762,1,2,0:2:0:0:
89,138,194845,85,2,3:2:0:0:
88,149,194928,1,2,0:2:0:0:
87,160,195011,1,6,0:2:0:0:
86,171,195095,1,2,0:2:0:0:
69,197,195179,5,2,3:2:0:0:
70,208,195262,1,0,0:0:0:0:
71,219,195345,1,4,0:0:0:0:
155,83,195512,1,0,3:0:0:0:
149,304,195679,85,14,0:0:0:0:
0,150,195845,1,0,3:0:0:0:
223,129,196012,1,6,0:0:0:0:
67,301,196179,1,0,3:0:0:0:
69,79,196345,5,6,3:2:0:0:
218,214,196512,1,0,3:0:0:0:
254,52,196679,1,6,0:0:0:0:
413,155,196845,2,0,L|323:148,1,89.9999972534181,2|12,3:2|0:0,0:0:0:0:
501,61,197179,2,0,L|411:54,1,89.9999972534181,0|4,3:0|0:0,0:0:0:0:
302,226,197512,85,2,3:2:0:0:
303,237,197595,1,2,0:2:0:0:
304,248,197678,1,6,0:2:0:0:
495,159,197845,1,2,3:2:0:0:
494,170,197928,1,2,0:2:0:0:
493,181,198011,1,6,0:2:0:0:
420,326,198179,1,0,3:0:0:0:
323,148,198345,5,14,0:0:0:0:
512,273,198512,1,2,3:2:0:0:
330,340,198679,1,4,0:0:0:0:
413,155,198845,1,2,3:2:0:0:
218,214,199012,85,6,3:2:0:0:
403,298,199179,1,0,3:0:0:0:
206,331,199345,1,6,0:0:0:0:
323,148,199512,2,0,P|329:121|330:58,1,89.9999972534181,2|12,3:2|0:0,0:0:0:0:
218,214,199845,2,0,P|212:187|211:124,1,89.9999972534181,0|4,3:0|0:0,0:0:0:0:
322,320,200179,1,0,3:0:0:0:
139,261,200345,5,4,3:2:0:0:
323,148,200512,1,2,3:2:0:0:
227,356,200679,1,4,3:2:0:0:
108,168,200845,1,2,3:2:0:0:
323,148,201012,86,0,L|326:193,1,44.999998626709,14|2,0:2|0:0,0:0:0:0:
170,68,201179,2,0,L|173:113,1,44.999998626709,2|2,3:0|0:3,0:0:0:0:
409,110,201345,2,0,L|412:155,1,44.999998626709,6|2,3:2|0:0,0:0:0:0:
256,30,201512,2,0,L|259:75,1,44.999998626709,2|2,3:2|0:0,0:0:0:0:
401,235,201679,5,4,3:0:0:0:
347,50,201845,1,0,3:0:0:0:
218,214,202012,1,6,0:2:0:0:
412,154,202179,2,0,L|502:161,1,89.9999972534181,2|12,3:2|0:2,0:0:0:0:
311,228,202512,2,0,L|401:235,1,89.9999972534181,0|4,3:0|0:2,0:0:0:0:
251,110,202845,1,0,3:0:0:0:
303,317,203012,85,6,0:2:0:0:
314,318,203095,1,2,0:2:0:0:
325,319,203178,1,2,3:2:0:0:
336,320,203262,1,2,0:2:0:0:
347,321,203345,1,4,0:0:0:0:
220,192,203512,5,2,3:2:0:0:
219,203,203595,1,2,0:2:0:0:
218,214,203678,1,14,0:2:0:0:
411,143,203845,1,2,3:2:0:0:
412,154,203928,1,2,0:2:0:0:
413,165,204011,1,6,0:2:0:0:
240,18,204179,1,0,3:0:0:0:
311,228,204345,85,6,3:2:0:0:
431,67,204512,1,0,3:0:0:0:
251,110,204679,1,6,0:0:0:0:
421,269,204845,2,0,P|429:313|428:358,1,89.9999972534181,2|12,3:2|0:0,0:0:0:0:
311,228,205179,2,0,P|302:272|303:317,1,89.9999972534181,0|4,3:0|0:0,0:0:0:0:
411,143,205512,1,2,3:2:0:0:
400,140,205596,1,2,0:2:0:0:
375,122,205679,5,6,0:2:0:0:
364,123,205762,1,2,0:2:0:0:
353,124,205845,1,2,3:2:0:0:
342,125,205929,1,2,0:2:0:0:
331,126,206012,1,4,0:0:0:0:
218,214,206179,1,0,3:0:0:0:
421,269,206345,85,14,0:0:0:0:
251,110,206512,1,0,3:0:0:0:
283,334,206679,1,6,0:0:0:0:
411,143,206845,1,0,3:0:0:0:
168,140,207012,5,6,3:2:0:0:
327,251,207179,1,0,3:0:0:0:
132,305,207345,1,6,0:0:0:0:
251,110,207512,85,2,3:2:0:0:
262,109,207595,1,2,0:2:0:0:
273,108,207679,1,14,0:2:0:0:
284,107,207762,1,2,0:2:0:0:
311,92,207845,5,2,3:2:0:0:
322,93,207928,1,2,0:2:0:0:
333,94,208012,1,6,0:2:0:0:
344,95,208095,1,2,0:2:0:0:
364,123,208179,85,2,3:2:0:0:
375,122,208262,1,2,0:2:0:0:
386,121,208346,1,6,0:2:0:0:
397,120,208429,1,2,0:2:0:0:
408,119,208512,1,0,3:0:0:0:
256,25,208679,1,4,0:0:0:0:
218,214,208845,1,2,3:2:0:0:
408,119,209012,5,14,0:2:0:0:
178,57,209179,1,2,3:2:0:0:
311,228,209345,1,6,3:2:0:0:
410,27,209512,1,2,3:2:0:0:
491,200,209679,85,6,3:2:0:0:
322,93,209845,1,0,3:0:0:0:
512,42,210012,1,6,3:2:0:0:
408,246,210179,2,0,L|415:336,1,89.9999972534181,2|12,3:2|3:2,0:0:0:0:
218,214,210512,2,0,L|225:304,1,89.9999972534181,0|4,3:0|3:2,0:0:0:0:
322,93,210845,1,0,3:0:0:0:
130,215,211012,5,4,3:2:0:0:
327,325,211179,1,2,3:2:0:0:
242,116,211345,1,4,3:2:0:0:
144,299,211512,1,2,3:2:0:0:
408,246,211679,85,14,3:2:0:0:
141,131,211845,1,2,3:0:0:0:
387,39,212012,1,6,3:2:0:0:
218,214,212179,1,2,3:2:0:0:
409,329,212345,6,0,B|364:352|325:328|325:328|313:341|313:341|260:307|207:351|207:351|226:323|224:295,1,280,4|0,3:0|0:0,0:0:0:0:
218,214,213679,21,8,3:2:0:0:
217,203,213762,1,8,0:2:0:0:
216,192,213846,1,8,3:2:0:0:
367,258,214012,1,0,3:0:0:0:
367,258,214179,1,0,3:0:0:0:
144,299,214345,5,2,0:3:0:0:
143,288,214428,1,8,0:3:0:0:
142,277,214512,1,0,3:0:0:0:
141,266,214595,1,0,3:0:0:0:
140,255,214679,2,0,L|136:210,1,37.5,8|0,0:0|0:0,0:0:0:0:
141,131,215012,5,4,3:0:0:0:
63,342,215179,2,0,L|56:267,1,75.0000028610231,0|4,3:0|0:0,0:0:0:0:
46,155,215512,1,0,3:0:0:0:
218,214,215679,1,12,0:0:0:0:
134,56,215845,2,0,L|140:130,1,75.0000028610231,0|4,3:0|0:0,0:0:0:0:
226,297,216179,6,0,P|262:303|300:302,1,75.0000028610231,0|4,3:0|0:0,0:0:0:0:
461,198,216512,1,0,3:0:0:0:
462,216,216595,1,0,3:0:0:0:
464,235,216678,1,4,3:2:0:0:
465,254,216762,1,0,3:0:0:0:
467,272,216845,1,0,3:0:0:0:
342,109,217012,1,12,0:0:0:0:
300,302,217179,85,0,3:0:0:0:
227,85,217345,1,4,3:2:0:0:
455,115,217512,1,0,3:0:0:0:
239,193,217679,5,4,3:2:0:0:
369,13,217845,2,0,L|363:87,1,75.0000028610231,0|4,3:0|0:2,0:0:0:0:
367,258,218179,2,0,L|373:184,1,75.0000028610231,0|12,3:0|0:2,0:0:0:0:
227,85,218512,2,0,L|221:159,1,75.0000028610231,0|4,3:0|0:2,0:0:0:0:
316,330,218845,1,0,3:0:0:0:
344,240,219012,86,0,B|285:220|285:259|226:240,1,119.999996337891,4|4,0:2|0:2,0:0:0:0:
462,216,219679,5,12,3:2:0:0:
463,234,219762,1,0,3:0:0:0:
465,253,219845,1,0,3:0:0:0:
362,87,220012,1,4,3:2:0:0:
362,87,220179,1,0,3:0:0:0:
512,133,220345,85,4,3:0:0:0:
344,240,220512,2,0,L|338:166,1,75.0000028610231,0|4,3:0|0:2,0:0:0:0:
327,53,220845,1,0,3:0:0:0:
453,203,221012,1,12,0:0:0:0:
259,135,221179,2,0,L|265:209,1,75.0000028610231,0|4,3:0|0:0,0:0:0:0:
401,58,221512,6,0,P|364:51|326:52,1,75.0000028610231,0|4,3:0|0:0,0:0:0:0:
137,93,221845,1,0,3:0:0:0:
138,111,221928,1,0,3:0:0:0:
140,130,222011,1,4,3:2:0:0:
141,149,222095,1,0,3:0:0:0:
143,167,222178,1,0,3:0:0:0:
243,0,222345,1,12,0:0:0:0:
47,62,222512,85,0,3:0:0:0:
259,135,222679,1,4,3:2:0:0:
60,252,222845,1,0,3:0:0:0:
137,93,223012,5,4,3:2:0:0:
230,295,223179,2,0,L|224:221,1,75.0000028610231,0|4,3:0|0:0,0:0:0:0:
146,361,223512,2,0,L|140:287,1,75.0000028610231,0|12,3:0|0:0,0:0:0:0:
327,350,223845,2,0,L|321:276,1,75.0000028610231,0|4,3:0|0:0,0:0:0:0:
259,135,224179,1,0,3:0:0:0:
361,82,224345,86,0,B|341:140|380:140|361:199,1,119.999996337891,4|4,0:0|0:0,0:0:0:0:
183,22,225012,5,12,3:2:0:0:
201,23,225095,1,0,3:0:0:0:
220,25,225178,1,0,3:0:0:0:
58,148,225345,1,4,3:2:0:0:
58,148,225512,1,0,3:0:0:0:
230,295,225679,53,4,3:1:0:0:
135,269,225845,1,0,3:0:0:0:
231,213,226012,1,0,3:0:0:0:
136,187,226178,1,0,3:0:0:0:
236,116,226345,2,0,B|239:133|239:133|232:148|232:148|244:173|230:212,1,100,12|0,0:1|0:0,0:0:0:0:
183,22,227012,6,0,B|221:40|300:24|300:24|268:51,1,150,4|0,0:1|0:0,0:0:0:0:
236,116,227679,1,12,0:1:0:0:
348,169,227845,1,0,3:0:0:0:
346,156,227928,1,0,3:0:0:0:
345,144,228011,1,0,3:0:0:0:
344,131,228095,1,0,3:0:0:0:
343,119,228178,1,0,3:0:0:0:
342,106,228261,1,0,3:0:0:0:
341,94,228346,85,4,3:1:0:0:
436,120,228512,1,0,3:0:0:0:
348,169,228679,1,0,3:0:0:0:
443,195,228845,1,0,3:0:0:0:
343,266,229012,2,0,B|340:249|340:249|347:234|347:234|335:209|348:169,1,100,12|0,0:1|0:0,0:0:0:0:
429,337,229679,6,0,P|376:310|281:327,1,150,4|0,0:1|0:0,0:0:0:0:
203,365,230345,85,12,3:1:0:0:
204,347,230428,1,0,3:0:0:0:
206,328,230511,1,0,3:0:0:0:
429,337,230679,1,0,3:0:0:0:
428,319,230762,1,0,3:0:0:0:
426,300,230845,1,0,3:0:0:0:
253,195,231012,5,4,3:1:0:0:
348,169,231178,1,0,3:0:0:0:
243,101,231345,1,0,3:0:0:0:
338,75,231511,1,0,3:0:0:0:
237,4,231679,2,0,B|234:21|234:21|241:36|241:36|229:61|242:100,1,100,12|0,0:1|0:0,0:0:0:0:
172,295,232345,86,0,B|162:267|175:235|175:235|164:229|164:229|183:192|168:151,1,150,4|0,0:1|0:0,0:0:0:0:
81,110,233012,1,12,0:1:0:0:
97,288,233179,1,0,3:0:0:0:
110,290,233262,1,0,3:0:0:0:
122,291,233345,1,0,3:0:0:0:
135,292,233429,1,0,3:0:0:0:
147,293,233512,1,0,3:0:0:0:
160,294,233595,1,0,3:0:0:0:
172,295,233679,5,4,3:1:0:0:
142,192,233845,1,0,3:0:0:0:
272,203,234012,1,0,3:0:0:0:
242,100,234178,1,0,3:0:0:0:
368,208,234346,2,0,B|351:211|351:211|336:204|336:204|311:216|271:202,1,100,12|0,0:1|0:0,0:0:0:0:
441,124,235012,86,0,P|414:177|431:272,1,150,4|0,0:1|0:0,0:0:0:0:
476,343,235679,5,12,3:1:0:0:
458,344,235762,1,0,3:0:0:0:
439,346,235845,1,0,3:0:0:0:
478,121,236013,1,12,3:1:0:0:
460,122,236096,1,0,3:0:0:0:
441,124,236179,1,0,3:0:0:0:
