osu file format v14

[General]
AudioFilename: audio.mp3
AudioLeadIn: 0
PreviewTime: 69019
Countdown: 0
SampleSet: Soft
StackLeniency: 0.6
Mode: 0
LetterboxInBreaks: 0
WidescreenStoryboard: 1

[Editor]
Bookmarks: 1790,60832,82663,84648
DistanceSpacing: 1
BeatDivisor: 4
GridSize: 16
TimelineZoom: 1

[Metadata]
Title:Maigo Inu to Ame no Beat
TitleUnicode:迷子犬と雨のビート
Artist:Asian Kung-Fu Generation
ArtistUnicode:Asian Kung-Fu Generation
Creator:-Alne-
Version:Easy
Source:四畳半神話大系
Tags:the tatami galaxy yojouhan shinwa taikei watashi akashi ozu madhouse masaaki yuasa
BeatmapID:956451
BeatmapSetID:445049

[Difficulty]
HPDrainRate:2
CircleSize:3
OverallDifficulty:2
ApproachRate:3
SliderMultiplier:0.5
SliderTickRate:1

[Events]
//Background and Video events
Video,0,"The Tatami Galaxy Opening HD.mp4"
0,0,"661073-the-tatami-galaxy-wallpaper.jpg",0,0
//Break Periods
//Storyboard Layer 0 (Background)
//Storyboard Layer 1 (Fail)
//Storyboard Layer 2 (Pass)
//Storyboard Layer 3 (Foreground)
//Storyboard Sound Samples

[TimingPoints]
1298.05542997008,495.785820525533,4,2,0,100,1,0

[HitObjects]
128,192,1298,2,0,P|144:176|176:176,1,50
336,256,2289,1,0,0:0:0:0:
240,96,2785,1,0,0:0:0:0:
432,112,3281,6,0,P|416:128|416:160,1,50
464,288,4272,1,0,0:0:0:0:
256,208,4768,2,0,L|224:160,1,50
48,64,5760,5,0,0:0:0:0:
96,272,6255,1,0,0:0:0:0:
272,320,6751,1,0,0:0:0:0:
400,160,7247,2,0,P|400:128|384:128,1,50
176,80,8239,6,0,L|144:80,1,25
144,208,8734,2,0,L|112:208,2,25
16,112,9726,5,0,0:0:0:0:
16,304,10222,1,0,0:0:0:0:
176,288,10717,2,0,P|208:288|224:272,1,50
304,112,11709,1,0,0:0:0:0:
96,48,12205,1,0,0:0:0:0:
304,176,12701,1,0,0:0:0:0:
112,192,13196,6,0,P|144:192|208:224,1,100
336,240,14560,2,0,L|352:224,1,12.5
464,96,15056,1,0,0:0:0:0:
320,112,15427,2,0,L|304:112,1,12.5
128,144,15923,1,0,0:0:0:0:
400,304,16667,5,0,0:0:0:0:
112,240,17163,5,0,0:0:0:0:
0,160,17658,2,0,P|16:144|48:128,1,50
416,160,18650,1,0,0:0:0:0:
160,272,19146,5,0,0:0:0:0:
288,176,19642,1,0,0:0:0:0:
32,192,20137,2,0,P|32:160|48:144,1,50
112,144,21129,6,0,P|128:176|128:192,1,50
368,208,22121,1,0,0:0:0:0:
176,304,22616,1,0,0:0:0:0:
320,192,23112,6,0,L|272:208,1,50
80,192,24104,2,0,P|64:176|80:160,1,50
384,80,25095,5,0,0:0:0:0:
240,272,25591,1,0,0:0:0:0:
48,192,26087,2,0,L|32:144,1,50
160,144,27078,2,0,L|128:192,1,50
416,144,28070,1,0,0:0:0:0:
384,288,28566,6,0,P|368:288|336:272,1,50
144,240,29557,2,0,P|160:240|192:224,1,50
176,64,30549,1,0,0:0:0:0:
384,240,31045,1,0,0:0:0:0:
96,208,31540,1,0,0:0:0:0:
384,240,32036,1,0,0:0:0:0:
48,80,32532,1,0,0:0:0:0:
0,272,33028,6,0,P|32:288|48:288,1,50
240,160,34019,2,0,L|240:144,1,12.5
240,160,34515,2,0,L|240:176,1,12.5
432,128,35011,1,0,0:0:0:0:
496,224,35507,1,0,0:0:0:0:
432,128,36003,5,0,0:0:0:0:
496,48,36498,1,0,0:0:0:0:
432,128,36994,5,0,0:0:0:0:
368,48,37490,1,0,0:0:0:0:
432,128,37986,5,0,0:0:0:0:
368,224,38481,1,0,0:0:0:0:
272,160,38977,2,0,L|224:128,1,50
80,192,39969,1,0,0:0:0:0:
224,304,40465,1,0,0:0:0:0:
176,224,40960,6,0,P|176:208|208:192,1,50
288,192,41952,2,0,P|320:192|320:208,1,50
288,272,42944,2,0,P|272:272|240:256,1,50
224,192,43935,2,0,P|240:176|272:176,1,50
480,128,44927,5,0,0:0:0:0:
336,272,45422,1,0,0:0:0:0:
304,96,45918,1,0,0:0:0:0:
128,208,46414,6,0,P|112:192|112:160,1,50
288,64,47406,1,0,0:0:0:0:
112,272,47901,1,0,0:0:0:0:
16,80,48397,2,0,L|64:48,1,50
256,192,49389,5,0,0:0:0:0:
464,304,49885,1,0,0:0:0:0:
96,176,50380,2,0,L|48:144,1,50
128,64,51372,1,0,0:0:0:0:
224,144,51868,2,0,P|256:160|256:176,1,50
272,304,52859,5,0,0:0:0:0:
448,176,53355,1,0,0:0:0:0:
96,208,53851,2,0,L|64:160,1,50
32,64,54842,1,0,0:0:0:0:
192,112,55338,2,0,L|240:128,1,50
384,256,56330,1,0,0:0:0:0:
128,288,56826,6,0,L|80:272,1,50
16,128,57817,1,0,0:0:0:0:
256,240,58313,1,0,0:0:0:0:
112,64,58809,5,0,0:0:0:0:
96,272,59304,2,0,P|80:256|80:224,1,50
160,128,60296,1,0,0:0:0:0:
480,48,60792,5,0,0:0:0:0:
480,288,61288,1,0,0:0:0:0:
400,48,61783,1,0,0:0:0:0:
400,288,62279,1,0,0:0:0:0:
80,64,62775,5,0,0:0:0:0:
80,288,63271,1,0,0:0:0:0:
160,64,63767,1,0,0:0:0:0:
160,288,64262,1,0,0:0:0:0:
64,144,64758,6,0,L|32:96,1,50
144,144,65750,2,0,L|176:96,1,50
64,224,66741,6,0,L|32:272,1,50
144,224,67733,2,0,L|176:272,1,50
416,80,68724,5,0,0:0:0:0:
512,192,69220,1,0,0:0:0:0:
416,304,69716,1,0,0:0:0:0:
320,192,70212,1,0,0:0:0:0:
176,112,70708,5,0,0:0:0:0:
336,112,71203,1,0,0:0:0:0:
336,272,71699,1,0,0:0:0:0:
176,272,72195,1,0,0:0:0:0:
32,128,72691,6,0,P|16:96|0:96,1,50
0,208,73682,2,0,P|16:224|48:224,1,50
160,112,74674,5,0,0:0:0:0:
304,192,75170,1,0,0:0:0:0:
112,240,75665,2,0,P|96:224|112:208,1,50
288,192,76657,1,0,0:0:0:0:
224,80,77153,6,0,P|192:80|176:96,1,50
144,272,78144,1,0,0:0:0:0:
368,128,78640,1,0,0:0:0:0:
272,288,79136,1,0,0:0:0:0:
160,160,79632,6,0,P|144:160|128:128,1,50
128,32,80623,1,0,0:0:0:0:
368,224,81119,2,0,P|368:240|336:256,1,50
128,256,82111,1,0,0:0:0:0:
256,192,82606,12,0,84590,0:0:0:0:
240,192,85085,5,0,0:0:0:0:
432,160,85581,2,0,P|448:176|448:208,1,50
224,320,86573,1,0,0:0:0:0:
16,224,87069,1,0,0:0:0:0:
128,96,87564,6,0,P|144:80|176:80,1,50
448,96,88556,1,0,0:0:0:0:
256,192,89052,1,0,0:0:0:0:
