osu file format v14

[General]
AudioFilename: audio.mp3
AudioLeadIn: 0
PreviewTime: 69019
Countdown: 0
SampleSet: Soft
StackLeniency: 0.6
Mode: 0
LetterboxInBreaks: 0
WidescreenStoryboard: 0

[Editor]
Bookmarks: 7247,8612,8860,8984,9108,10596,10720,13077,14194,15062,31807,33047,68026,68150,68274,68398,68523,68647,68771,86945,87069,87440
DistanceSpacing: 1
BeatDivisor: 4
GridSize: 16
TimelineZoom: 1

[Metadata]
Title:Maigo Inu to Ame no Beat
TitleUnicode:迷子犬と雨のビート
Artist:Asian Kung-Fu Generation
ArtistUnicode:Asian Kung-Fu Generation
Creator:-Alne-
Version:4.5 Tatami Mat Room
Source:四畳半神話大系
Tags:the tatami galaxy yojouhan shinwa taikei watashi akashi ozu madhouse masaaki yuasa
BeatmapID:956069
BeatmapSetID:445049

[Difficulty]
HPDrainRate:6
CircleSize:4.5
OverallDifficulty:6.5
ApproachRate:9
SliderMultiplier:1.4
SliderTickRate:1

[Events]
//Background and Video events
Video,0,"The Tatami Galaxy Opening HD.mp4"
0,0,"661073-the-tatami-galaxy-wallpaper.jpg",0,0
//Break Periods
//Storyboard Layer 0 (Background)
//Storyboard Layer 1 (Fail)
//Storyboard Layer 2 (Pass)
//Storyboard Layer 3 (Foreground)
//Storyboard Sound Samples

[TimingPoints]
1298.05542997008,495.785820525533,4,2,0,100,1,0

[HitObjects]
80,64,1298,5,0,0:0:0:0:
384,304,1793,1,0,0:0:0:0:
64,288,2289,2,0,L|112:144,1,140
288,48,3281,5,0,0:0:0:0:
448,272,3776,2,0,L|304:240,1,140
32,48,4768,1,0,0:0:0:0:
336,304,5264,1,0,0:0:0:0:
112,256,5760,6,0,L|48:128,1,140
208,64,6751,1,0,0:0:0:0:
368,144,7247,2,0,B|336:176|288:192|288:144|288:144|256:192|256:192,1,140
224,208,8115,5,0,0:0:0:0:
224,208,8239,1,0,0:0:0:0:
368,256,8610,5,0,0:0:0:0:
368,256,8734,1,0,0:0:0:0:
368,256,8858,1,0,0:0:0:0:
336,240,8982,1,0,0:0:0:0:
320,224,9106,1,0,0:0:0:0:
320,224,9230,2,0,L|192:144,1,140
64,96,10222,5,0,0:0:0:0:
400,80,10594,2,0,L|352:112,1,35
176,256,11089,1,0,0:0:0:0:
48,128,11585,5,0,0:0:0:0:
96,80,11709,1,0,0:0:0:0:
352,144,12081,1,0,0:0:0:0:
352,288,12453,1,0,0:0:0:0:
352,288,12577,1,0,0:0:0:0:
96,144,12949,1,0,0:0:0:0:
96,144,13072,2,0,B|192:128|192:128|240:160|272:48|272:48|304:128,1,315
80,144,14560,5,0,0:0:0:0:
128,224,14684,1,0,0:0:0:0:
256,224,15056,2,0,L|336:176,1,70
176,80,15551,1,0,0:0:0:0:
128,112,15675,1,0,0:0:0:0:
48,256,15923,2,0,L|128:224,1,70
48,128,16419,1,0,0:0:0:0:
112,112,16543,1,0,0:0:0:0:
176,96,16667,1,0,0:0:0:0:
320,144,16915,5,0,0:0:0:0:
368,176,17039,1,0,0:0:0:0:
320,208,17163,1,0,0:0:0:0:
48,192,17411,2,0,L|32:144,1,35
36,158,17658,1,0,0:0:0:0:
336,96,17906,5,0,0:0:0:0:
336,96,18030,1,0,0:0:0:0:
336,96,18154,1,0,0:0:0:0:
464,176,18402,1,0,0:0:0:0:
464,176,18526,1,0,0:0:0:0:
464,176,18650,1,0,0:0:0:0:
256,240,18898,5,0,0:0:0:0:
192,240,19022,1,0,0:0:0:0:
128,240,19146,1,0,0:0:0:0:
64,112,19394,1,0,0:0:0:0:
128,112,19518,1,0,0:0:0:0:
192,112,19642,1,0,0:0:0:0:
352,160,19890,5,0,0:0:0:0:
400,208,20013,1,0,0:0:0:0:
448,256,20137,1,0,0:0:0:0:
96,288,20385,1,0,0:0:0:0:
144,224,20509,1,0,0:0:0:0:
192,288,20633,1,0,0:0:0:0:
48,64,20881,5,0,0:0:0:0:
64,80,21005,1,0,0:0:0:0:
80,96,21129,2,0,L|144:64,1,70
142,64,21501,1,0,0:0:0:0:
224,144,21625,1,0,0:0:0:0:
384,336,21873,1,0,0:0:0:0:
96,208,22121,6,0,L|64:176,2,35
352,160,22616,1,0,0:0:0:0:
112,192,22864,1,0,0:0:0:0:
48,96,22988,1,0,0:0:0:0:
224,112,23360,6,0,L|256:80,1,35
448,144,23856,1,0,0:0:0:0:
416,208,23980,2,0,B|368:240|352:240|352:240|320:288,1,105
336,272,24476,1,0,0:0:0:0:
80,80,24847,1,0,0:0:0:0:
48,240,25095,5,0,0:0:0:0:
224,48,25343,1,0,0:0:0:0:
176,192,25591,1,0,0:0:0:0:
432,320,25839,1,0,0:0:0:0:
416,144,26087,2,0,L|304:96,1,105
319,102,26583,1,0,0:0:0:0:
48,144,26831,6,0,L|64:224,1,70
144,256,27326,2,0,L|176:192,1,70
304,176,27822,1,0,0:0:0:0:
176,80,28070,1,0,0:0:0:0:
80,304,28318,2,0,L|32:224,1,70
16,112,28814,1,0,0:0:0:0:
176,208,29062,1,0,0:0:0:0:
80,320,29309,6,0,L|80:240,1,70
160,128,29805,2,0,L|240:144,1,70
272,336,30301,2,0,L|176:304,1,70
160,128,30797,2,0,L|240:144,1,70
272,336,31293,2,0,L|192:304,1,70
256,192,31788,12,0,33028,0:0:0:0:
144,64,33524,5,0,0:0:0:0:
496,304,34019,1,0,0:0:0:0:
80,48,34515,1,0,0:0:0:0:
480,272,35011,1,0,0:0:0:0:
96,64,35383,1,0,0:0:0:0:
144,16,35507,1,0,0:0:0:0:
432,336,36003,1,0,0:0:0:0:
48,144,36374,1,0,0:0:0:0:
32,80,36498,1,0,0:0:0:0:
480,176,36994,6,0,L|368:160,1,105
376,161,37490,1,0,0:0:0:0:
96,320,37986,1,0,0:0:0:0:
272,96,38358,2,0,L|304:80,1,35
16,320,38977,1,0,0:0:0:0:
128,64,39349,2,0,L|176:80,1,35
384,352,39969,1,0,0:0:0:0:
32,112,40341,2,0,L|16:64,1,35
496,80,40960,5,0,0:0:0:0:
272,176,41208,2,0,L|240:144,2,35
32,224,41828,2,0,L|80:240,1,35
432,320,42448,1,0,0:0:0:0:
432,96,42944,1,0,0:0:0:0:
256,208,43191,1,0,0:0:0:0:
432,96,43439,1,0,0:0:0:0:
48,96,43935,1,0,0:0:0:0:
384,352,44431,1,0,0:0:0:0:
64,304,44927,5,0,0:0:0:0:
64,192,45175,1,0,0:0:0:0:
64,80,45422,1,0,0:0:0:0:
400,224,45918,5,0,0:0:0:0:
48,320,46290,2,0,L|64:288,1,35
128,48,46910,1,0,0:0:0:0:
432,256,47282,1,0,0:0:0:0:
464,304,47406,1,0,0:0:0:0:
160,304,47654,1,0,0:0:0:0:
256,192,47901,1,0,0:0:0:0:
144,96,48149,1,0,0:0:0:0:
64,208,48397,2,0,L|112:288,1,70
304,304,48893,5,0,0:0:0:0:
400,160,49389,2,0,P|336:144|256:144,1,140
80,176,50256,2,0,L|64:128,1,35
448,64,50876,1,0,0:0:0:0:
224,256,51124,1,0,0:0:0:0:
416,32,51372,1,0,0:0:0:0:
320,128,51868,2,0,P|272:112|192:160,1,140
96,96,52859,5,0,0:0:0:0:
48,288,53107,1,0,0:0:0:0:
160,48,53355,1,0,0:0:0:0:
448,320,53851,1,0,0:0:0:0:
176,304,54099,1,0,0:0:0:0:
32,64,54347,1,0,0:0:0:0:
96,256,54842,1,0,0:0:0:0:
320,128,55090,1,0,0:0:0:0:
64,336,55338,1,0,0:0:0:0:
272,272,55834,5,0,0:0:0:0:
208,160,56082,1,0,0:0:0:0:
48,192,56330,1,0,0:0:0:0:
416,96,56702,5,0,0:0:0:0:
464,304,56826,1,0,0:0:0:0:
176,224,57073,2,0,L|112:192,1,70
32,32,57817,1,0,0:0:0:0:
64,320,58189,2,0,L|80:272,1,35
64,32,58809,1,0,0:0:0:0:
480,176,59057,1,0,0:0:0:0:
48,96,59304,1,0,0:0:0:0:
464,352,59552,5,0,0:0:0:0:
336,224,59800,1,0,0:0:0:0:
48,288,60172,2,0,L|80:256,1,35
112,48,60792,5,0,0:0:0:0:
96,320,61040,1,0,0:0:0:0:
176,16,61288,1,0,0:0:0:0:
480,96,61783,1,0,0:0:0:0:
272,304,62031,1,0,0:0:0:0:
512,48,62279,1,0,0:0:0:0:
32,32,62775,1,0,0:0:0:0:
80,336,63023,1,0,0:0:0:0:
16,16,63271,1,0,0:0:0:0:
192,96,63767,6,0,L|304:64,1,105
292,67,64262,2,0,L|288:176,1,105
288,171,64758,1,0,0:0:0:0:
64,320,65006,1,0,0:0:0:0:
448,32,65254,1,0,0:0:0:0:
480,352,65750,5,0,0:0:0:0:
240,16,65998,1,0,0:0:0:0:
128,352,66245,1,0,0:0:0:0:
480,48,66741,1,0,0:0:0:0:
0,384,66989,1,0,0:0:0:0:
432,16,67237,1,0,0:0:0:0:
0,32,67733,5,0,0:0:0:0:
208,96,67981,1,0,0:0:0:0:
256,144,68105,1,0,0:0:0:0:
304,192,68229,1,0,0:0:0:0:
352,240,68353,1,0,0:0:0:0:
400,288,68477,1,0,0:0:0:0:
448,336,68600,2,0,L|400:336,1,35
112,80,68972,2,0,L|64:144,1,70
64,224,69468,2,0,L|144:192,1,70
256,144,69964,2,0,P|272:176|240:224,1,70
176,272,70460,1,0,0:0:0:0:
416,304,70708,1,0,0:0:0:0:
320,96,70955,1,0,0:0:0:0:
32,160,71203,5,0,0:0:0:0:
256,48,71451,1,0,0:0:0:0:
32,160,71699,1,0,0:0:0:0:
256,160,71947,1,0,0:0:0:0:
32,160,72195,1,0,0:0:0:0:
256,272,72443,1,0,0:0:0:0:
288,160,72691,2,0,P|336:112|400:128,1,140
64,64,73434,5,0,0:0:0:0:
16,320,73682,1,0,0:0:0:0:
144,48,73930,2,0,L|176:112,1,70
64,240,74426,1,0,0:0:0:0:
128,192,74674,1,0,0:0:0:0:
192,144,74922,1,0,0:0:0:0:
256,96,75170,1,0,0:0:0:0:
320,48,75418,1,0,0:0:0:0:
432,96,75665,6,0,P|480:128|464:192,1,105
480,170,76161,1,0,0:0:0:0:
400,288,76409,1,0,0:0:0:0:
464,112,76657,1,0,0:0:0:0:
240,144,77153,2,0,P|160:160|112:224,1,140
384,112,77896,5,0,0:0:0:0:
288,304,78144,1,0,0:0:0:0:
352,48,78392,1,0,0:0:0:0:
240,352,78640,1,0,0:0:0:0:
128,96,78888,1,0,0:0:0:0:
368,320,79136,2,0,L|400:256,1,70
304,176,79632,1,0,0:0:0:0:
96,256,79880,1,0,0:0:0:0:
16,112,80128,2,0,P|48:96|96:112,1,70
256,192,80623,5,0,0:0:0:0:
256,192,80747,1,0,0:0:0:0:
256,192,80871,1,0,0:0:0:0:
432,64,81119,1,0,0:0:0:0:
224,336,81367,1,0,0:0:0:0:
496,32,81615,1,0,0:0:0:0:
160,336,81863,1,0,0:0:0:0:
352,64,82111,6,0,P|304:64|240:96,1,105
256,192,82606,12,0,84590,0:0:0:0:
96,112,85085,5,0,0:0:0:0:
336,288,85581,1,0,0:0:0:0:
112,240,85953,2,0,L|64:208,1,35
64,64,86449,1,0,0:0:0:0:
432,176,86945,1,0,0:0:0:0:
368,256,87069,1,0,0:0:0:0:
352,96,87440,1,0,0:0:0:0:
64,128,87936,2,0,P|112:96|176:112,1,105
336,144,88556,5,0,0:0:0:0:
256,192,89052,2,0,B|224:208|224:208|224:192|224:192|208:192|208:192|208:208|208:208|224:224|224:224|208:224,1,105
