osu file format v14

[General]
AudioFilename: audio.mp3
AudioLeadIn: 0
PreviewTime: 60185
Countdown: 0
SampleSet: Soft
StackLeniency: 0.4
Mode: 0
LetterboxInBreaks: 0
WidescreenStoryboard: 1

[Editor]
Bookmarks: 30337,50761,60814,79662,90971,101023,121128,131180,151285,171390,181442
DistanceSpacing: 1.1
BeatDivisor: 4
GridSize: 32
TimelineZoom: 2.2

[Metadata]
Title:After Dark
TitleUnicode:アフターダーク
Artist:ASIAN KUNG-FU GENERATION
ArtistUnicode:ASIAN KUNG-FU GENERATION
Creator:Seto Kousuke
Version:Mikan's Another
Source:BLEACH
Tags:World ワールド ブリーチ Opening yshadowxop_ shadowX -Mikan Mikan
BeatmapID:1824385
BeatmapSetID:855765

[Difficulty]
HPDrainRate:6
CircleSize:4
OverallDifficulty:8.5
ApproachRate:9
SliderMultiplier:1.91
SliderTickRate:1

[Events]
//Background and Video events
0,0,"anime-1537905070603-7844.jpg",0,0
//Break Periods
2,91171,99952
//Storyboard Layer 0 (Background)
//Storyboard Layer 1 (Fail)
//Storyboard Layer 2 (Pass)
//Storyboard Layer 3 (Foreground)
//Storyboard Sound Samples

[TimingPoints]
500,314.13612565445,4,2,1,45,1,0
500,-133.333333333333,4,2,1,45,0,0
735,-133.333333333333,4,2,1,5,0,0
814,-133.333333333333,4,2,1,45,0,0
1520,-133.333333333333,4,2,1,5,0,0
1599,-133.333333333333,4,2,1,45,0,0
1835,-133.333333333333,4,2,1,5,0,0
1913,-133.333333333333,4,2,1,45,0,0
3248,-133.333333333333,4,2,1,5,0,0
3327,-133.333333333333,4,2,1,45,0,0
4034,-133.333333333333,4,2,1,5,0,0
4112,-133.333333333333,4,2,1,45,0,0
4348,-133.333333333333,4,2,1,5,0,0
4426,-133.333333333333,4,2,1,45,0,0
5526,-133.333333333333,4,2,1,50,0,0
6547,-133.333333333333,4,2,1,5,0,0
6625,-133.333333333333,4,2,1,50,0,0
8274,-133.333333333333,4,2,1,5,0,0
8353,-133.333333333333,4,2,1,50,0,0
9060,-133.333333333333,4,2,1,5,0,0
9138,-133.333333333333,4,2,1,50,0,0
10473,-133.333333333333,4,2,1,5,0,0
10552,-133.333333333333,4,2,1,55,0,0
11573,-133.333333333333,4,2,1,5,0,0
11651,-133.333333333333,4,2,1,55,0,0
14086,-133.333333333333,4,2,1,5,0,0
14164,-133.333333333333,4,2,1,55,0,0
14793,-133.333333333333,4,2,1,60,0,0
15578,-100,4,2,1,70,0,0
30657,-125,4,2,1,60,0,0
35683,-100,4,2,1,70,0,0
40630,-100,4,2,1,5,0,0
40709,-125,4,2,1,60,0,0
45735,-100,4,2,1,70,0,0
48170,-100,4,2,1,5,0,0
48248,-100,4,2,1,70,0,0
50683,-100,4,2,1,5,0,0
50761,-111.111111111111,4,2,1,70,0,0
59479,-111.111111111111,4,2,1,5,0,0
59557,-111.111111111111,4,2,1,70,0,0
60814,-83.3333333333333,4,2,1,100,0,1
63248,-83.3333333333333,4,2,1,5,0,1
63327,-83.3333333333333,4,2,1,100,0,1
65761,-83.3333333333333,4,2,1,5,0,1
65840,-83.3333333333333,4,2,1,100,0,1
68274,-83.3333333333333,4,2,1,5,0,1
68353,-83.3333333333333,4,2,1,100,0,1
69531,-83.3333333333333,4,2,1,5,0,1
69609,-83.3333333333333,4,2,1,100,0,1
70787,-83.3333333333333,4,2,1,5,0,1
70866,-83.3333333333333,4,2,1,100,0,1
73301,-83.3333333333333,4,2,1,5,0,1
73379,-83.3333333333333,4,2,1,100,0,1
75814,-83.3333333333333,4,2,1,5,0,1
75892,-83.3333333333333,4,2,1,100,0,1
78327,-83.3333333333333,4,2,1,5,0,1
78405,-83.3333333333333,4,2,1,100,0,1
79583,-83.3333333333333,4,2,1,5,0,1
79662,-83.3333333333333,4,2,1,100,0,1
80840,-83.3333333333333,4,2,1,5,0,1
80918,-83.3333333333333,4,2,1,100,0,1
82725,-83.3333333333333,4,2,1,5,0,1
82803,-83.3333333333333,4,2,1,100,0,1
83039,-83.3333333333333,4,2,1,5,0,1
83117,-83.3333333333333,4,2,1,100,0,1
83353,-83.3333333333333,4,2,1,5,0,1
83431,-83.3333333333333,4,2,1,100,0,1
85238,-83.3333333333333,4,2,1,5,0,1
85316,-83.3333333333333,4,2,1,100,0,1
85552,-83.3333333333333,4,2,1,5,0,1
85630,-83.3333333333333,4,2,1,100,0,1
85866,-83.3333333333333,4,2,1,5,0,1
85945,-83.3333333333333,4,2,1,100,0,1
88379,-83.3333333333333,4,2,1,5,0,1
88458,-83.3333333333333,4,2,1,100,0,1
90657,-71.4285714285714,4,2,1,100,0,1
90971,-100,4,2,1,90,0,0
91285,-100,4,2,1,70,0,0
100552,-125,4,2,1,60,0,0
106285,-125,4,2,1,5,0,0
106363,-125,4,2,1,60,0,0
107384,-125,4,2,1,5,0,0
107463,-125,4,2,1,60,0,0
108798,-125,4,2,1,5,0,0
108876,-125,4,2,1,60,0,0
109897,-125,4,2,1,5,0,0
109976,-125,4,2,1,60,0,0
110997,-125,4,2,1,5,0,0
111075,-125,4,2,1,60,0,0
116023,-125,4,2,1,5,0,0
116102,-100,4,2,1,70,0,0
118536,-100,4,2,1,5,0,0
118615,-100,4,2,1,70,0,0
121049,-100,4,2,1,5,0,0
121128,-100,4,2,1,70,0,0
126154,-100,4,2,1,77,0,0
128589,-100,4,2,1,5,0,0
128667,-100,4,2,1,70,0,0
129845,-100,4,2,1,5,0,0
129924,-100,4,2,1,70,0,0
131180,-153.846153846153,4,2,1,55,0,0
135814,-153.846153846153,4,2,1,5,0,0
135892,-153.846153846153,4,2,1,55,0,0
136128,-153.846153846153,4,2,1,5,0,0
136206,-153.846153846153,4,2,1,55,0,0
148772,-117.647058823529,4,2,1,60,0,0
149400,-117.647058823529,4,2,1,70,0,0
150028,-117.647058823529,4,2,1,80,0,0
151285,-83.3333333333333,4,2,1,100,0,1
152463,-83.3333333333333,4,2,1,5,0,1
152541,-83.3333333333333,4,2,1,100,0,1
153719,-83.3333333333333,4,2,1,5,0,1
153798,-83.3333333333333,4,2,1,100,0,1
154976,-83.3333333333333,4,2,1,5,0,1
155054,-83.3333333333333,4,2,1,100,0,1
156232,-83.3333333333333,4,2,1,5,0,1
156311,-83.3333333333333,4,2,1,100,0,1
157489,-83.3333333333333,4,2,1,5,0,1
157568,-83.3333333333333,4,2,1,100,0,1
158117,-83.3333333333333,4,2,1,5,0,1
158196,-83.3333333333333,4,2,1,100,0,1
160002,-83.3333333333333,4,2,1,5,0,1
160081,-83.3333333333333,4,2,1,100,0,1
161259,-83.3333333333333,4,2,1,5,0,1
161337,-83.3333333333333,4,2,1,100,0,1
162515,-83.3333333333333,4,2,1,5,0,1
162594,-83.3333333333333,4,2,1,100,0,1
163772,-83.3333333333333,4,2,1,5,0,1
163850,-83.3333333333333,4,2,1,100,0,1
165028,-83.3333333333333,4,2,1,5,0,1
165107,-83.3333333333333,4,2,1,100,0,1
166285,-83.3333333333333,4,2,1,5,0,1
166363,-83.3333333333333,4,2,1,100,0,1
167541,-83.3333333333333,4,2,1,5,0,1
167620,-83.3333333333333,4,2,1,100,0,1
168798,-83.3333333333333,4,2,1,5,0,1
168876,-83.3333333333333,4,2,1,100,0,1
170054,-83.3333333333333,4,2,1,5,0,1
170133,-83.3333333333333,4,2,1,100,0,1
171311,-83.3333333333333,4,2,1,5,0,1
171390,-83.3333333333333,4,2,1,100,0,1
173196,-83.3333333333333,4,2,1,5,0,1
173274,-83.3333333333333,4,2,1,100,0,1
173824,-83.3333333333333,4,2,1,5,0,1
173903,-83.3333333333333,4,2,1,100,0,1
175709,-83.3333333333333,4,2,1,5,0,1
175787,-83.3333333333333,4,2,1,100,0,1
176337,-83.3333333333333,4,2,1,5,0,1
176416,-83.3333333333333,4,2,1,100,0,1
178850,-83.3333333333333,4,2,1,5,0,1
178929,-83.3333333333333,4,2,1,100,0,1
181128,-66.6666666666667,4,2,1,100,0,1
181442,-100,4,2,1,90,0,0
181756,-100,4,2,1,70,0,0
188903,-100,4,2,1,5,0,0
188981,-100,4,2,1,70,0,0

[Colours]
Combo1 : 210,150,52
Combo2 : 113,111,133
Combo3 : 225,95,63
Combo4 : 130,156,171

[HitObjects]
37,15,500,6,0,P|69:66|80:139,1,107.437504098416,4|0,3:2|0:0,0:0:0:0:
34,166,814,2,0,B|63:137|104:154|104:154|138:176|182:164,1,143.250005464554,8|0,0:2|3:0,0:0:0:0:
254,229,1285,2,0,P|214:262|148:270,1,107.437504098416,2|0,3:0|0:0,0:0:0:0:
100,300,1599,6,0,P|170:309|202:340,1,107.437504098416,12|0,0:2|0:0,0:0:0:0:
211,367,1913,1,0,3:0:0:0:
179,190,2070,2,0,P|223:201|252:230,1,71.625002732277,8|0,0:0|0:0,0:0:0:0:
499,296,2384,5,0,3:0:0:0:
423,357,2541,1,0,3:0:0:0:
403,270,2698,2,0,P|427:309|432:352,1,71.625002732277,8|0,0:0|0:0,0:0:0:0:
295,384,3013,2,0,P|304:320|340:270,1,107.437504098416,4|0,3:2|0:0,0:0:0:0:
398,248,3327,2,0,P|430:210|442:105,1,143.250005464554,8|0,0:0|3:0,0:0:0:0:
360,40,3798,2,0,L|245:56,1,107.437504098416,2|0,3:0|0:0,0:0:0:0:
182,88,4112,6,0,L|288:100,1,107.437504098416,8|0,0:0|0:0,0:0:0:0:
322,125,4426,1,0,3:0:0:0:
193,3,4583,2,0,P|109:37|96:106,1,143.250005464554,8|2,0:0|0:0,0:0:0:0:
68,199,5054,1,0,3:0:0:0:
68,180,5133,1,0,3:0:0:0:
57,159,5212,2,0,P|33:128|-9:106,1,71.625002732277,12|0,0:0|0:0,0:0:0:0:
6,270,5526,5,4,3:2:0:0:
84,230,5683,1,0,0:0:0:0:
140,295,5840,2,0,L|129:381,1,71.625002732277,8|0,0:0|0:0,0:0:0:0:
293,271,6154,1,0,3:0:0:0:
211,242,6311,2,0,L|221:380,1,107.437504098416,2|0,3:0|0:0,0:0:0:0:
240,378,6625,6,0,P|285:388|335:375,1,71.625002732277,8|2,0:0|0:0,0:0:0:0:
384,309,6939,1,0,3:0:0:0:
307,213,7096,2,0,L|299:296,1,71.625002732277,8|0,0:0|0:0,0:0:0:0:
416,209,7410,5,0,3:0:0:0:
416,209,7568,1,0,3:0:0:0:
349,79,7725,1,8,0:0:0:0:
430,121,7882,1,0,3:0:0:0:
281,136,8039,6,0,P|232:124|185:65,1,107.437504098416,4|0,3:2|0:0,0:0:0:0:
152,50,8353,2,0,P|122:93|113:139,1,71.625002732277,8|0,0:0|0:0,0:0:0:0:
155,196,8667,1,0,3:0:0:0:
18,103,8824,2,0,P|29:149|71:199,1,107.437504098416,2|0,3:0|0:0,0:0:0:0:
92,209,9138,6,0,L|183:198,1,71.625002732277,8|2,0:0|0:0,0:0:0:0:
272,259,9452,1,0,3:0:0:0:
222,332,9609,2,0,L|131:330,1,71.625002732277,8|0,0:0|0:0,0:0:0:0:
308,269,9924,5,8,0:0:0:0:
316,288,10002,1,0,3:0:0:0:
313,309,10081,1,0,3:0:0:0:
317,329,10159,1,0,3:0:0:0:
316,347,10238,2,0,L|430:336,1,107.437504098416,12|0,0:0|0:0,0:0:0:0:
482,292,10552,6,0,P|498:250|498:210,1,71.625002732277,4|0,3:2|0:0,0:0:0:0:
381,168,10866,2,0,P|387:213|403:244,1,71.625002732277,8|0,0:0|0:0,0:0:0:0:
460,95,11180,1,0,3:0:0:0:
460,95,11337,2,0,L|324:86,1,107.437504098416,2|0,3:0|0:0,0:0:0:0:
287,54,11651,6,0,L|203:59,1,71.625002732277,8|2,0:0|0:0,0:0:0:0:
92,129,11965,1,0,3:0:0:0:
140,205,12123,2,0,L|232:210,1,71.625002732277,8|0,0:0|3:0,0:0:0:0:
211,208,12358,1,0,3:0:0:0:
211,208,12437,1,0,3:0:0:0:
268,144,12594,1,0,3:0:0:0:
293,302,12751,1,8,0:0:0:0:
334,213,12908,1,0,3:0:0:0:
201,318,13065,6,0,L|112:328,1,71.625002732277,4|0,3:2|0:0,0:0:0:0:
30,222,13379,2,0,L|110:227,1,71.625002732277,8|0,0:0|0:0,0:0:0:0:
28,311,13693,1,0,3:0:0:0:
28,311,13850,2,0,L|13:178,1,107.437504098416,2|0,3:0|0:0,0:0:0:0:
57,139,14164,6,0,P|73:103|78:65,1,71.625002732277,8|2,0:0|0:0,0:0:0:0:
26,0,14479,1,0,3:0:0:0:
153,88,14636,2,0,L|246:83,1,71.625002732277,12|0,0:2|3:0,0:0:0:0:
290,116,14871,2,0,P|301:139|307:157,1,35.8125013661385,8|2,0:0|3:1,0:0:0:0:
188,209,15028,5,8,0:3:0:0:
196,192,15107,1,0,3:0:0:0:
209,178,15185,1,0,3:0:0:0:
224,173,15264,2,0,L|214:298,1,107.437504098416,12|0,0:0|0:0,0:0:0:0:
247,345,15578,6,0,B|281:370|352:350|311:301|380:279|418:302,2,191,4|12|0,3:1|0:3|3:0,0:0:0:0:
127,258,16363,1,0,3:0:0:0:
96,362,16520,1,12,0:3:0:0:
231,231,16678,6,0,B|233:166|233:166|260:121|260:121|239:45,1,191,4|0,3:1|3:0,0:0:0:0:
161,107,17149,2,0,B|223:152|223:152|264:154|264:154|339:204,1,191,12|0,0:3|3:0,0:0:0:0:
343,278,17620,1,0,3:0:0:0:
411,134,17777,1,12,0:3:0:0:
439,239,17934,1,0,0:0:0:0:
244,255,18091,6,0,B|177:260|177:260|139:305|139:305|45:318,2,191,4|12|0,3:1|0:3|3:0,0:0:0:0:
311,329,18876,1,0,3:0:0:0:
331,173,19034,1,12,0:3:0:0:
168,369,19191,6,0,L|146:168,1,191,4|0,3:1|3:0,0:0:0:0:
169,78,19662,2,0,P|248:53|213:137,1,191,12|0,0:3|3:0,0:0:0:0:
161,186,20133,1,0,3:0:0:0:
71,55,20290,1,12,0:3:0:0:
58,151,20447,1,0,0:0:0:0:
288,56,20604,6,0,P|336:43|393:51,1,95.5,4|0,3:1|0:0,0:0:0:0:
469,114,20918,1,8,0:3:0:0:
455,131,21075,1,0,0:0:0:0:
338,156,21232,1,0,3:0:0:0:
353,170,21390,1,2,3:0:0:0:
384,72,21547,1,0,0:0:0:0:
284,221,21704,6,0,L|296:318,1,95.5,8|0,0:3|0:0,0:0:0:0:
128,213,22018,1,0,3:0:0:0:
211,179,22175,2,0,L|200:295,1,95.5,10|0,0:3|3:0,0:0:0:0:
436,128,22489,1,0,3:0:0:0:
364,89,22646,1,0,3:0:0:0:
302,153,22803,2,0,L|314:250,1,95.5,10|0,0:3|3:0,0:0:0:0:
132,355,23117,6,0,P|51:354|14:339,1,95.5,4|0,3:2|0:0,0:0:0:0:
2,251,23431,1,10,0:3:0:0:
16,269,23589,1,0,0:0:0:0:
126,207,23746,1,0,3:2:0:0:
116,230,23903,1,2,3:3:0:0:
41,152,24060,1,0,0:0:0:0:
116,54,24217,6,0,P|180:62|214:85,1,95.5,8|0,0:3|0:0,0:0:0:0:
261,200,24531,1,0,3:3:0:0:
282,112,24688,2,0,P|219:122|186:149,1,95.5,10|0,0:3|3:0,0:0:0:0:
132,251,25002,1,0,3:0:0:0:
132,251,25159,1,0,3:0:0:0:
170,152,25316,1,10,0:3:0:0:
230,308,25473,1,0,3:0:0:0:
348,168,25630,6,0,P|403:194|443:316,2,191,4|12|0,3:1|0:3|3:0,0:0:0:0:
311,250,26416,1,0,3:0:0:0:
267,111,26573,1,12,0:3:0:0:
220,325,26730,6,0,B|161:354|109:314|109:314|58:318|37:361,1,191,4|0,3:1|3:0,0:0:0:0:
172,249,27201,2,0,B|187:147|187:147|190:121|174:95|143:83|100:105,1,191,12|0,0:3|3:0,0:0:0:0:
30,246,27672,1,0,3:0:0:0:
47,119,27829,1,12,0:3:0:0:
164,260,27986,1,0,0:0:0:0:
260,104,28143,6,0,B|299:75|366:74|327:122|430:129|465:57,2,191,4|12|0,3:1|0:3|3:0,0:0:0:0:
311,168,28929,1,0,3:0:0:0:
390,27,29086,1,12,0:3:0:0:
488,189,29243,6,0,B|464:323|464:323|424:257,1,191,4|0,3:1|3:0,0:0:0:0:
346,202,29714,2,0,B|311:170|311:170|341:311,1,191,12|0,0:3|3:0,0:0:0:0:
340,310,30185,1,0,3:0:0:0:
280,375,30342,2,0,P|235:388|183:383,1,95.5,12|0,0:3|0:0,0:0:0:0:
137,280,30657,6,0,P|198:246|181:322,2,152.8,4|8|0,3:1|0:3|3:0,0:0:0:0:
61,358,31442,1,2,3:0:0:0:
61,358,31599,2,0,L|49:180,1,152.8,0|0,0:0|0:0,0:0:0:0:
151,90,32070,1,0,3:0:0:0:
151,90,32227,2,0,L|139:188,1,76.4,10|0,0:3|3:0,0:0:0:0:
54,92,32541,1,0,3:0:0:0:
51,65,32698,1,0,3:0:0:0:
117,7,32856,1,10,0:3:0:0:
117,7,32934,1,0,0:0:0:0:
117,7,33013,1,0,3:0:0:0:
242,93,33170,6,0,B|283:113|321:93|321:93|358:63|411:81,2,152.8,4|10|0,3:2|0:3|3:2,0:0:0:0:
376,152,33955,1,2,3:3:0:0:
376,152,34112,2,0,L|364:323,1,152.8
252,348,34583,1,0,3:3:0:0:
252,348,34740,2,0,L|242:238,1,76.4,10|0,0:3|3:0,0:0:0:0:
375,293,35054,1,0,3:0:0:0:
364,326,35212,1,0,3:0:0:0:
326,235,35369,1,10,0:3:0:0:
396,143,35526,1,0,3:0:0:0:
345,24,35683,6,0,P|287:45|235:162,2,191,4|12|0,3:1|0:3|3:0,0:0:0:0:
376,125,36468,1,0,3:0:0:0:
256,30,36625,1,12,0:3:0:0:
146,130,36782,6,0,B|155:207|155:207|141:230|141:230|151:257|151:257|163:292|163:292|153:334,1,191,4|0,3:1|3:0,0:0:0:0:
0,320,37253,2,0,P|43:297|117:314,1,95.5,12|0,0:3|0:0,0:0:0:0:
294,380,37568,2,0,P|234:382|194:356,1,95.5,0|0,3:0|3:0,0:0:0:0:
21,199,37882,6,0,P|113:253|121:348,2,191,12|4|12,0:3|3:1|0:3,0:0:0:0:
20,290,38667,1,0,0:0:0:0:
96,147,38824,1,0,3:0:0:0:
173,239,38981,1,0,3:0:0:0:
7,128,39138,1,12,0:3:0:0:
156,45,39295,6,0,B|213:37|239:88|239:88|268:136|336:119,1,191,4|0,3:1|3:0,0:0:0:0:
324,19,39767,1,12,0:3:0:0:
311,44,39924,1,0,0:0:0:0:
396,83,40081,1,0,3:0:0:0:
407,112,40238,1,0,3:0:0:0:
304,132,40395,6,0,P|284:185|275:294,1,143.25,12|0,0:3|0:0,0:0:0:0:
293,312,40709,6,0,B|348:305|348:305|388:329|388:329|464:334,2,152.8,4|8|0,3:1|0:3|3:0,0:0:0:0:
213,366,41494,1,2,3:0:0:0:
213,366,41651,2,0,P|154:372|133:282,1,152.8,0|0,0:0|0:0,0:0:0:0:
153,157,42123,1,0,3:0:0:0:
153,157,42280,2,0,P|170:212|163:251,1,76.4,10|0,0:3|3:0,0:0:0:0:
75,213,42594,1,0,3:0:0:0:
83,200,42751,1,0,3:0:0:0:
204,299,42908,1,10,0:3:0:0:
115,302,43065,1,0,3:0:0:0:
253,199,43222,6,0,P|276:146|293:34,2,152.8,4|10|0,3:2|0:3|3:2,0:0:0:0:
168,229,44007,1,2,3:3:0:0:
168,229,44164,2,0,P|133:168|114:70,1,152.8,0|0,0:0|0:0,0:0:0:0:
212,17,44636,1,0,3:3:0:0:
212,17,44793,2,0,P|207:86|196:112,1,76.4,10|0,0:3|3:0,0:0:0:0:
92,87,45107,1,0,3:0:0:0:
106,56,45264,1,0,3:0:0:0:
147,167,45421,1,10,0:3:0:0:
89,263,45578,1,0,3:0:0:0:
164,354,45735,6,0,P|216:319|354:306,2,191,4|12|0,3:1|0:3|3:0,0:0:0:0:
84,274,46520,1,0,3:0:0:0:
49,349,46678,1,12,0:3:0:0:
173,241,46835,6,0,B|181:174|181:174|159:109|159:109|168:45,1,191,4|0,3:1|3:0,0:0:0:0:
238,5,47306,1,12,0:3:0:0:
280,83,47463,1,0,0:0:0:0:
373,32,47620,2,0,B|360:85|360:85|365:133,1,95.5,0|0,3:0|3:0,0:0:0:0:
419,291,47934,2,0,B|448:238|448:238|441:142,1,143.25,12|0,0:3|0:0,0:0:0:0:
464,132,48248,6,0,L|477:335,2,191,4|12|0,3:1|0:3|3:0,0:0:0:0:
383,45,49034,1,0,3:0:0:0:
486,38,49191,1,12,0:3:0:0:
372,131,49348,2,0,B|335:156|270:149|283:108|238:83|183:110,1,191,4|0,3:1|3:0,0:0:0:0:
125,193,49819,1,12,0:3:0:0:
135,169,49976,1,0,0:0:0:0:
236,254,50133,1,0,3:0:0:0:
227,221,50290,1,0,3:0:0:0:
160,309,50447,6,0,L|339:294,1,143.25,12|0,0:3|0:0,0:0:0:0:
339,293,50761,6,0,P|364:346|359:382,1,85.9499973770142,2|0,3:0|3:0,0:0:0:0:
280,350,51075,1,8,0:3:0:0:
374,161,51232,6,0,P|399:214|394:250,1,85.9499973770142,2|0,3:0|3:0,0:0:0:0:
315,218,51546,1,8,0:3:0:0:
409,23,51704,6,0,P|434:76|429:112,1,85.9499973770142,2|0,3:0|3:0,0:0:0:0:
350,80,52018,1,8,0:3:0:0:
509,109,52175,1,2,3:0:0:0:
497,148,52332,1,0,3:0:0:0:
431,101,52489,5,8,0:3:0:0:
376,244,52646,2,0,P|364:199|382:154,1,85.9499973770142,2|0,3:0|3:0,0:0:0:0:
497,148,52960,1,10,0:3:0:0:
201,66,53274,6,0,L|93:85,1,85.9499973770142,2|0,3:0|3:0,0:0:0:0:
42,35,53589,1,8,0:3:0:0:
25,146,53746,6,0,L|133:165,1,85.9499973770142,2|0,3:0|3:0,0:0:0:0:
184,115,54061,1,8,0:3:0:0:
230,223,54217,6,0,L|122:242,1,85.9499973770142,2|0,3:0|3:0,0:0:0:0:
71,192,54532,1,8,0:3:0:0:
83,328,54688,1,2,3:0:0:0:
102,303,54845,1,0,3:0:0:0:
21,263,55002,5,8,0:3:0:0:
191,370,55159,1,10,3:0:0:0:
181,332,55316,1,0,3:0:0:0:
83,328,55473,5,8,0:3:0:0:
384,248,55787,5,2,3:0:0:0:
393,281,55945,1,0,3:0:0:0:
428,171,56102,1,8,0:3:0:0:
313,208,56259,5,2,3:0:0:0:
296,247,56416,1,0,3:0:0:0:
447,187,56573,1,8,0:3:0:0:
309,123,56730,5,2,3:0:0:0:
256,145,56887,1,0,3:0:0:0:
466,204,57044,1,8,0:3:0:0:
381,72,57201,5,2,3:0:0:0:
312,45,57358,1,0,3:0:0:0:
160,148,57515,1,8,0:3:0:0:
255,166,57672,2,0,P|237:99|207:62,1,85.9499973770142,2|0,3:0|3:0,0:0:0:0:
92,79,57986,2,0,P|65:133|59:173,1,85.9499973770142,10|0,0:3|0:0,0:0:0:0:
109,275,58301,6,0,B|162:250|200:290|200:290|238:328|290:306,2,171.899994754028,4|8|0,3:1|0:3|3:0,0:0:0:0:
59,343,59086,1,0,3:0:0:0:
257,232,59243,2,0,P|272:172|272:83,1,128.924996065521,8|0,0:3|0:0,0:0:0:0:
218,48,59557,1,0,3:0:0:0:
218,48,59714,1,0,3:0:0:0:
104,97,59871,2,0,P|110:159|125:207,1,85.9499973770142,8|0,0:3|3:0,0:0:0:0:
306,27,60185,5,0,3:0:0:0:
333,15,60264,1,0,3:0:0:0:
362,22,60342,1,0,3:0:0:0:
388,38,60421,1,0,3:0:0:0:
416,35,60499,2,0,L|424:81,3,42.9749986885071,8|8|8|8,0:3|0:3|0:3|0:3,0:0:0:0:
502,145,60814,6,0,P|430:180|406:229,1,114.599996502686,4|0,3:1|0:0,0:0:0:0:
286,213,61128,2,0,P|397:246|426:356,1,229.199993005371,12|0,0:0|3:0,0:0:0:0:
316,322,61599,1,0,0:0:0:0:
504,237,61756,1,12,0:0:0:0:
496,267,61913,1,0,0:0:0:0:
367,143,62070,6,0,L|353:21,1,114.599996502686,0|0,3:0|3:0,0:0:0:0:
215,194,62384,2,0,L|220:63,1,114.599996502686,12|0,0:0|0:0,0:0:0:0:
359,226,62698,1,0,3:0:0:0:
281,256,62856,1,0,3:0:0:0:
134,163,63013,2,0,P|76:204|45:304,1,171.899994754028,12|0,0:0|0:0,0:0:0:0:
69,337,63327,6,0,L|184:318,1,114.599996502686,0|0,3:0|0:0,0:0:0:0:
257,249,63641,2,0,B|349:268|349:268|371:316|371:316|474:336,1,229.199993005371,12|0,0:0|3:0,0:0:0:0:
471,243,64112,1,0,0:0:0:0:
281,335,64269,1,12,0:0:0:0:
298,362,64426,1,0,0:0:0:0:
401,213,64583,6,0,P|389:149|365:103,1,114.599996502686,0|0,3:0|3:0,0:0:0:0:
214,176,64897,2,0,P|229:117|265:61,1,114.599996502686,12|0,0:0|0:0,0:0:0:0:
443,48,65212,1,0,3:0:0:0:
374,114,65369,1,0,3:0:0:0:
218,3,65526,2,0,P|144:0|56:81,1,171.899994754028,12|0,0:1|0:0,0:0:0:0:
53,97,65840,6,0,P|77:153|69:220,1,114.599996502686,0|0,3:0|0:0,0:0:0:0:
0,296,66154,2,0,L|244:317,1,229.199993005371,12|0,0:0|3:0,0:0:0:0:
302,209,66625,1,0,0:0:0:0:
220,130,66782,2,0,P|196:186|204:253,1,114.599996502686,12|0,0:0|0:0,0:0:0:0:
346,276,67096,5,0,3:0:0:0:
304,198,67253,1,0,3:0:0:0:
325,355,67410,2,0,L|459:365,1,114.599996502686,12|0,0:0|0:0,0:0:0:0:
471,167,67725,5,0,3:0:0:0:
412,228,67882,1,0,3:0:0:0:
490,277,68039,2,0,L|504:70,1,171.899994754028,12|0,0:0|0:0,0:0:0:0:
474,34,68353,5,12,0:1:0:0:
396,114,68510,1,0,3:0:0:0:
400,134,68667,1,0,3:0:0:0:
384,39,68824,5,12,0:1:0:0:
259,109,68981,1,0,3:0:0:0:
288,34,69138,1,0,3:0:0:0:
326,179,69295,2,0,P|258:142|147:127,1,171.899994754028,8|0,0:0|0:0,0:0:0:0:
92,159,69609,5,12,0:1:0:0:
32,81,69767,1,0,3:0:0:0:
18,107,69924,1,0,3:0:0:0:
124,61,70081,5,12,0:1:0:0:
177,205,70238,1,0,3:0:0:0:
80,152,70395,1,0,3:0:0:0:
59,284,70552,2,0,P|127:247|238:232,1,171.899994754028,8|0,0:0|0:0,0:0:0:0:
293,282,70866,6,0,B|284:338|284:338|319:385,1,114.599996502686,4|0,3:1|0:0,0:0:0:0:
490,294,71180,2,0,P|392:262|410:348,1,229.199993005371,12|0,0:0|3:0,0:0:0:0:
485,374,71651,1,0,0:0:0:0:
389,198,71808,1,12,0:0:0:0:
374,238,71965,1,0,0:0:0:0:
484,141,72123,6,0,L|470:19,1,114.599996502686,0|0,3:0|3:0,0:0:0:0:
293,182,72437,2,0,L|300:40,1,114.599996502686,12|0,0:0|0:0,0:0:0:0:
445,215,72751,1,0,3:0:0:0:
363,250,72908,1,0,3:0:0:0:
196,158,73065,2,0,B|211:216|211:216|256:264|256:264|250:330,1,171.899994754028,12|0,0:0|0:0,0:0:0:0:
189,369,73379,6,0,L|69:361,1,114.599996502686,4|0,3:1|0:0,0:0:0:0:
8,235,73693,2,0,B|125:228|125:228|218:134,1,229.199993005371,12|0,0:0|3:0,0:0:0:0:
79,135,74164,1,0,0:0:0:0:
250,263,74321,1,12,0:0:0:0:
266,233,74479,1,0,0:0:0:0:
89,144,74636,6,0,P|71:83|66:29,1,114.599996502686,0|0,3:0|3:0,0:0:0:0:
275,110,74950,2,0,P|285:53|303:0,1,114.599996502686,12|0,0:0|0:0,0:0:0:0:
475,144,75264,1,0,3:0:0:0:
395,171,75421,1,0,3:0:0:0:
417,82,75578,2,0,P|444:163|450:248,1,171.899994754028,12|0,0:1|0:0,0:0:0:0:
426,283,75892,6,0,L|302:270,1,114.599996502686,0|0,3:0|0:0,0:0:0:0:
220,226,76206,2,0,B|139:244|139:244|110:290|110:290|7:281,1,229.199993005371,12|0,0:0|3:0,0:0:0:0:
0,43,76678,1,0,0:0:0:0:
67,98,76835,2,0,L|69:233,1,114.599996502686,12|0,0:0|0:0,0:0:0:0:
184,343,77149,5,0,3:0:0:0:
197,319,77306,1,0,3:0:0:0:
168,230,77463,1,12,0:0:0:0:
153,186,77620,1,0,0:0:0:0:
252,108,77777,1,0,3:0:0:0:
271,20,77934,1,0,3:0:0:0:
155,91,78091,6,0,P|214:177|301:208,1,171.899994754028,12|0,0:0|0:0,0:0:0:0:
347,174,78405,5,12,0:1:0:0:
305,290,78562,1,0,3:0:0:0:
305,290,78719,1,0,3:0:0:0:
413,243,78876,1,12,0:1:0:0:
412,357,79034,1,0,3:0:0:0:
388,329,79191,1,0,3:0:0:0:
496,301,79348,6,0,P|504:224|512:125,1,171.899994754028,8|0,0:0|0:0,0:0:0:0:
476,61,79662,5,12,0:1:0:0:
354,126,79819,1,0,3:0:0:0:
429,163,79976,1,0,3:0:0:0:
368,36,80133,1,12,0:1:0:0:
332,141,80290,1,0,3:0:0:0:
354,126,80447,1,0,3:0:0:0:
263,65,80604,6,0,P|203:103|158:213,1,171.899994754028,8|0,0:0|0:0,0:0:0:0:
172,269,80918,6,0,L|293:253,1,114.599996502686,4|0,3:1|0:0,0:0:0:0:
469,303,81232,2,0,B|382:284|382:284|368:332|368:332|278:346,1,229.199993005371,10|0,0:1|3:0,0:0:0:0:
182,352,81704,1,0,0:0:0:0:
60,288,81861,6,0,P|26:222|24:162,1,114.599996502686,10|0,0:1|3:0,0:0:0:0:
145,56,82175,1,0,3:0:0:0:
116,158,82332,1,0,0:0:0:0:
63,36,82489,6,0,L|264:23,1,171.899994754028,10|0,0:1|0:0,0:0:0:0:
267,35,82803,2,0,B|307:70|297:166|253:90|237:177|277:213,1,171.899994754028,0|0,3:0|0:0,0:0:0:0:
288,225,83117,2,0,L|474:205,1,171.899994754028,10|0,0:1|0:0,0:0:0:0:
510,151,83431,5,4,3:1:0:0:
432,101,83589,1,0,0:0:0:0:
386,244,83746,2,0,B|374:301|374:301|395:366,1,114.599996502686,10|0,0:1|3:0,0:0:0:0:
179,246,84060,5,0,3:0:0:0:
262,191,84217,1,0,0:0:0:0:
303,320,84374,2,0,B|275:364|144:334|256:299|142:244|81:306,1,229.199993005371,10|0,0:1|3:0,0:0:0:0:
31,355,84845,1,0,0:0:0:0:
51,221,85002,6,0,B|62:163|62:163|38:106|38:106|50:32,1,171.899994754028,10|0,0:1|0:0,0:0:0:0:
69,34,85316,2,0,P|168:21|250:41,1,171.899994754028,0|0,3:0|0:0,0:0:0:0:
254,53,85630,2,0,B|262:103|262:103|238:160|238:160|249:218,1,171.899994754028,10|0,0:1|0:0,0:0:0:0:
314,266,85945,5,4,3:1:0:0:
366,183,86102,1,0,0:0:0:0:
447,264,86259,2,0,L|436:390,1,114.599996502686,10|0,0:1|0:0,0:0:0:0:
263,181,86573,5,0,3:0:0:0:
334,288,86730,1,0,0:0:0:0:
454,175,86887,2,0,P|455:98|322:29,1,229.199993005371,10|0,0:1|3:0,0:0:0:0:
268,77,87358,1,0,0:0:0:0:
155,20,87515,1,10,0:1:0:0:
166,48,87672,1,0,0:0:0:0:
250,1,87829,6,0,L|241:129,1,114.599996502686,0|0,3:0|0:0,0:0:0:0:
90,267,88143,2,0,L|69:91,1,171.899994754028,8|0,0:1|0:0,0:0:0:0:
56,24,88458,5,12,0:1:0:0:
2,143,88615,1,0,3:0:0:0:
0,71,88772,5,12,0:1:0:0:
49,203,88929,1,0,3:0:0:0:
2,143,89086,5,12,0:1:0:0:
124,200,89243,1,0,3:0:0:0:
49,203,89400,5,12,0:1:0:0:
168,137,89557,1,0,3:0:0:0:
124,200,89714,5,12,0:1:0:0:
160,62,89871,1,0,3:0:0:0:
28,320,90028,6,0,L|180:305,1,114.599996502686,12|0,0:1|3:0,0:0:0:0:
355,194,90342,2,0,L|223:181,1,114.599996502686,8|0,0:1|3:0,0:0:0:0:
198,360,90657,6,0,B|229:332|227:279|196:254|196:254|149:214|146:147|201:114,1,267.3999918396,8|4,0:1|3:1,0:0:0:0:
51,40,100552,5,0,3:0:0:0:
51,40,100630,1,0,0:0:0:0:
51,40,100709,2,0,L|60:126,1,76.4,10|0,0:3|3:0,0:0:0:0:
123,193,101023,6,0,B|171:211|184:182|202:181|209:149|271:166,2,152.8,4|8|0,3:1|0:3|3:0,0:0:0:0:
139,120,101808,1,2,3:0:0:0:
241,239,101965,2,0,B|235:339|235:339|247:368|283:367,1,152.8,0|0,0:0|0:0,0:0:0:0:
362,295,102437,1,0,3:0:0:0:
362,295,102594,2,0,L|355:204,1,76.4,10|0,0:3|3:0,0:0:0:0:
275,140,102908,5,0,3:0:0:0:
285,56,103065,1,0,3:0:0:0:
393,26,103222,1,10,0:3:0:0:
380,114,103379,1,0,3:0:0:0:
219,15,103536,6,0,P|151:25|105:100,2,152.8,4|10|0,3:2|0:3|3:2,0:0:0:0:
191,100,104321,1,2,3:3:0:0:
38,202,104479,2,0,L|27:49,1,152.8,0|0,0:0|0:0,0:0:0:0:
142,167,104950,1,0,3:3:0:0:
142,167,105107,2,0,L|138:262,1,76.4,10|0,0:3|3:0,0:0:0:0:
64,339,105421,5,0,3:0:0:0:
42,302,105578,1,0,3:0:0:0:
158,358,105735,1,10,0:3:0:0:
216,281,105892,1,0,3:0:0:0:
309,356,106049,6,0,L|447:350,1,114.6,4|0,3:1|0:0,0:0:0:0:
455,336,106363,2,0,P|487:276|488:239,1,76.4,8|0,0:3|0:0,0:0:0:0:
405,194,106678,1,0,3:0:0:0:
412,222,106835,1,2,3:0:0:0:
412,222,107149,6,0,L|283:229,1,114.6,8|0,0:3|0:0,0:0:0:0:
258,209,107463,1,0,3:0:0:0:
250,113,107620,2,0,P|302:124|342:161,1,76.4,10|0,0:3|3:0,0:0:0:0:
161,252,107934,2,0,P|155:198|169:156,1,76.4,0|0,3:0|3:0,0:0:0:0:
342,265,108248,2,0,P|306:296|262:308,1,76.4,10|0,0:3|3:0,0:0:0:0:
178,352,108562,6,0,L|36:346,1,114.6,4|0,3:2|0:0,0:0:0:0:
29,323,108876,2,0,P|9:289|11:245,1,76.4,10|0,0:3|0:0,0:0:0:0:
119,234,109191,1,0,3:2:0:0:
98,262,109348,1,2,3:3:0:0:
98,262,109662,6,0,L|102:131,1,114.6,8|0,0:3|0:0,0:0:0:0:
115,107,109976,1,0,3:3:0:0:
190,41,110133,2,0,B|234:35|234:35|291:55|291:55|338:49,1,152.8,10|0,0:3|3:0,0:0:0:0:
426,33,110604,1,0,3:0:0:0:
503,128,110761,2,0,P|494:203|456:264,1,114.6,10|0,0:3|0:0,0:0:0:0:
397,274,111075,6,0,B|371:298|267:271|385:267|273:242|244:271,2,152.8,4|8|0,3:1|0:3|3:0,0:0:0:0:
407,196,111861,1,2,3:0:0:0:
469,326,112018,2,0,P|418:363|308:376,1,152.8,0|0,0:0|0:0,0:0:0:0:
252,265,112489,1,0,3:0:0:0:
252,265,112646,2,0,P|216:246|173:239,1,76.4,10|0,0:3|3:0,0:0:0:0:
106,330,112960,5,0,3:0:0:0:
143,320,113117,1,0,3:0:0:0:
58,250,113274,1,10,0:3:0:0:
137,162,113431,1,0,3:0:0:0:
55,65,113589,6,0,P|87:43|150:31,1,76.4,0|0,3:0|3:0,0:0:0:0:
207,83,113903,1,10,0:1:0:0:
381,89,114060,6,0,P|349:67|286:55,1,76.4,0|0,3:0|3:0,0:0:0:0:
229,107,114374,1,10,0:1:0:0:
398,8,114531,5,0,3:0:0:0:
325,163,114688,1,0,3:3:0:0:
313,148,114845,1,10,0:1:0:0:
298,30,115002,5,0,3:0:0:0:
393,244,115159,1,0,3:0:0:0:
407,221,115316,1,10,0:1:0:0:
437,109,115473,5,0,3:0:0:0:
293,246,115630,1,0,3:0:0:0:
124,135,115787,6,0,P|77:177|52:243,1,114.6,10|0,0:1|0:0,0:0:0:0:
60,273,116102,6,0,B|129:262|129:262|158:276|175:304|175:304|249:292,2,191,4|12|0,3:1|0:3|3:0,0:0:0:0:
33,360,116887,1,0,3:0:0:0:
202,214,117044,1,12,0:3:0:0:
369,360,117201,6,0,B|351:246|351:246|388:212|388:212|398:153,1,191,4|0,3:1|3:0,0:0:0:0:
297,111,117672,1,12,0:3:0:0:
311,145,117829,1,0,0:0:0:0:
431,18,117986,1,0,3:0:0:0:
409,103,118143,1,0,3:0:0:0:
258,18,118301,6,0,B|205:5|202:5|103:48,1,143.25,12|0,0:3|0:0,0:0:0:0:
94,79,118615,6,0,L|101:283,2,191,4|12|0,3:1|0:3|3:0,0:0:0:0:
23,24,119400,1,0,3:0:0:0:
179,139,119557,1,12,0:3:0:0:
37,315,119714,6,0,B|86:275|142:318|142:318|180:349|231:321,1,191,4|0,3:1|3:0,0:0:0:0:
289,278,120185,1,12,0:3:0:0:
274,252,120342,1,0,0:0:0:0:
374,310,120499,1,0,3:0:0:0:
406,219,120657,1,0,3:0:0:0:
510,338,120814,6,0,L|487:165,1,143.25,12|0,0:3|0:0,0:0:0:0:
481,122,121128,5,2,3:0:0:0:
510,338,121285,1,0,3:0:0:0:
318,62,121599,5,2,3:0:0:0:
289,278,121756,1,0,3:0:0:0:
481,122,122070,5,2,3:0:0:0:
510,338,122227,1,0,3:0:0:0:
318,62,122541,5,2,3:0:0:0:
289,278,122698,1,0,3:0:0:0:
234,221,122856,1,8,0:3:0:0:
385,131,123013,6,0,L|510:119,1,95.5,2|0,3:0|3:0,0:0:0:0:
243,28,123327,2,0,L|118:16,1,95.5,10|0,0:3|0:0,0:0:0:0:
66,8,123562,1,0,3:0:0:0:
66,8,123641,5,2,3:0:0:0:
243,28,123798,1,0,3:0:0:0:
242,129,124112,5,2,3:0:0:0:
65,149,124269,1,0,3:0:0:0:
62,270,124583,5,2,3:0:0:0:
239,290,124740,1,0,3:0:0:0:
148,104,125054,5,2,3:0:0:0:
187,348,125212,1,0,3:0:0:0:
239,290,125369,1,8,0:3:0:0:
62,270,125526,5,10,3:0:0:0:
271,366,125683,1,0,3:0:0:0:
206,219,125840,1,8,0:3:0:0:
97,358,125997,1,0,0:0:0:0:
97,358,126075,1,0,0:0:0:0:
97,358,126154,5,6,3:0:0:0:
360,306,126311,1,4,3:0:0:0:
360,306,126625,5,6,3:0:0:0:
136,244,126782,1,4,3:0:0:0:
62,270,126939,6,0,L|7:287,2,47.75,8|0|6,0:3|0:0|3:0,0:0:0:0:
307,205,127253,1,4,3:0:0:0:
383,227,127410,6,0,L|447:245,2,47.75,8|0|6,0:3|0:0|3:0,0:0:0:0:
149,168,127725,1,4,3:0:0:0:
222,229,127882,1,8,0:3:0:0:
188,61,128039,5,6,3:0:0:0:
136,244,128196,1,0,3:0:0:0:
279,122,128353,2,0,P|345:123|390:222,1,143.25,14|0,0:3|0:0,0:0:0:0:
354,242,128667,6,0,L|244:233,1,95.5,4|0,3:1|0:0,0:0:0:0:
363,97,128981,2,0,L|466:90,1,95.5,8|0,0:3|0:0,0:0:0:0:
511,166,129295,1,0,3:0:0:0:
462,263,129452,1,0,3:0:0:0:
500,368,129609,6,0,P|480:265|446:211,1,143.25,8|0,0:3|0:0,0:0:0:0:
398,197,129924,1,0,3:0:0:0:
398,197,130081,1,0,3:0:0:0:
346,291,130238,6,0,B|290:286|290:286|258:261|258:261|202:252,1,143.25,8|0,0:3|0:0,0:0:0:0:
212,254,130552,1,8,0:3:0:0:
108,312,130709,1,8,0:3:0:0:
211,384,130866,1,0,3:0:0:0:
181,319,131023,1,0,3:0:0:0:
27,308,131180,6,0,L|33:370,1,62.0749971584321,6|0,3:1|0:0,0:0:0:0:
108,206,131494,2,0,L|105:281,1,62.0749971584321,0|0,3:1|3:0,0:0:0:0:
20,175,131808,6,0,L|13:114,1,62.0749971584321,8|0,0:3|3:0,0:0:0:0:
110,81,132123,2,0,L|113:19,1,62.0749971584321,0|0,3:0|3:0,0:0:0:0:
24,34,132437,5,2,3:1:0:0:
114,160,132594,2,0,P|158:146|179:121,1,62.0749971584321,8|0,0:3|3:0,0:0:0:0:
243,44,132908,1,0,3:0:0:0:
270,229,133065,2,0,P|226:215|205:190,1,62.0749971584321,8|0,0:3|3:0,0:0:0:0:
211,43,133379,2,0,P|260:14|327:25,1,124.149994316864,0|2,3:0|3:1,0:0:0:0:
383,87,133850,5,0,0:0:0:0:
383,87,134007,2,0,L|378:156,1,62.0749971584321,0|0,3:0|3:0,0:0:0:0:
286,278,134321,2,0,L|276:216,1,62.0749971584321,12|0,0:3|0:0,0:0:0:0:
428,234,134636,2,0,L|361:229,1,62.0749971584321,0|0,3:0|3:0,0:0:0:0:
168,149,134950,2,0,L|301:134,1,124.149994316864,2|0,3:1|3:0,0:0:0:0:
291,135,135421,1,0,3:0:0:0:
472,174,135578,6,0,P|504:228|497:265,1,93.1124957376482,8|0,0:3|0:0,0:0:0:0:
459,272,135892,2,0,L|362:263,1,93.1124957376482,4|0,3:0|0:0,0:0:0:0:
320,281,136206,6,0,P|317:317|331:354,1,62.0749971584321,6|0,3:1|0:0,0:0:0:0:
199,266,136520,2,0,P|217:312|236:330,1,62.0749971584321,0|0,3:0|3:0,0:0:0:0:
283,160,136835,6,0,P|266:202|268:239,1,62.0749971584321,8|0,0:3|3:0,0:0:0:0:
140,130,137149,2,0,P|157:166|184:190,1,62.0749971584321,0|0,3:0|3:0,0:0:0:0:
224,96,137463,5,2,3:1:0:0:
135,41,137620,2,0,L|47:37,1,62.0749971584321,8|0,0:3|3:0,0:0:0:0:
22,110,137934,1,0,3:0:0:0:
152,24,138091,2,0,L|218:17,1,62.0749971584321,8|0,0:3|3:0,0:0:0:0:
303,73,138405,2,0,L|430:78,1,124.149994316864,0|2,3:0|3:1,0:0:0:0:
501,138,138876,5,0,0:0:0:0:
501,138,139034,2,0,L|496:214,1,62.0749971584321,0|0,3:0|3:0,0:0:0:0:
411,303,139348,2,0,L|396:233,1,62.0749971584321,12|0,0:3|0:0,0:0:0:0:
292,94,139662,2,0,L|287:160,1,62.0749971584321,0|0,3:0|3:0,0:0:0:0:
248,319,139976,2,0,P|229:268|157:229,1,124.149994316864,2|0,3:1|3:0,0:0:0:0:
96,271,140447,5,0,3:0:0:0:
108,298,140604,1,8,0:3:0:0:
32,365,140761,1,8,0:3:0:0:
40,343,140918,1,4,3:0:0:0:
168,357,141075,1,0,3:0:0:0:
178,378,141232,6,0,L|253:370,1,62.0749971584321,4|0,3:1|0:0,0:0:0:0:
381,292,141547,2,0,L|310:289,1,62.0749971584321,0|0,3:0|3:0,0:0:0:0:
145,175,141861,6,0,L|220:167,1,62.0749971584321,8|0,0:3|3:0,0:0:0:0:
348,89,142176,2,0,L|277:86,1,62.0749971584321,0|0,3:0|3:0,0:0:0:0:
189,78,142489,1,0,3:0:0:0:
189,78,142646,1,8,0:3:0:0:
297,168,142803,1,0,3:0:0:0:
297,168,142960,1,0,3:0:0:0:
402,23,143117,5,8,0:3:0:0:
414,53,143274,1,0,3:0:0:0:
311,6,143431,1,0,3:0:0:0:
285,86,143589,1,8,0:3:0:0:
482,0,143746,6,0,L|504:67,1,62.0749971584321,4|0,3:1|0:0,0:0:0:0:
451,143,144060,2,0,L|470:212,1,62.0749971584321,0|0,3:0|3:0,0:0:0:0:
353,218,144374,6,0,L|347:279,1,62.0749971584321,8|0,0:3|3:0,0:0:0:0:
255,323,144688,2,0,L|249:384,1,62.0749971584321,0|0,3:0|3:0,0:0:0:0:
353,376,145002,5,0,3:0:0:0:
345,359,145159,1,8,0:3:0:0:
263,225,145316,1,0,3:0:0:0:
253,239,145473,1,0,3:0:0:0:
150,358,145630,1,8,0:3:0:0:
170,356,145787,1,8,0:3:0:0:
255,323,145945,5,0,3:0:0:0:
255,323,146102,1,8,0:3:0:0:
107,239,146259,6,0,P|73:214|53:177,1,62.0749971584321,4|0,3:1|0:0,0:0:0:0:
168,148,146573,2,0,P|159:108|162:82,1,62.0749971584321,0|0,3:0|3:0,0:0:0:0:
369,246,146887,6,0,P|403:221|423:184,1,62.0749971584321,8|0,0:3|3:0,0:0:0:0:
308,155,147201,2,0,P|317:115|314:89,1,62.0749971584321,0|0,3:0|3:0,0:0:0:0:
218,242,147515,6,0,L|292:236,1,62.0749971584321,4|8,3:1|0:3,0:0:0:0:
408,116,147829,2,0,L|476:112,1,62.0749971584321,0|0,3:0|3:0,0:0:0:0:
390,226,148143,1,8,0:3:0:0:
322,145,148301,1,0,3:0:0:0:
271,269,148458,2,0,L|159:263,1,93.1124957376482,4|0,3:1|0:0,0:0:0:0:
106,277,148772,5,8,3:1:0:0:
161,341,148929,1,0,3:1:0:0:
125,193,149086,2,0,L|252:175,1,121.762502322435,12|0,3:3|3:1,0:0:0:0:
320,194,149400,5,10,3:1:0:0:
271,269,149557,1,0,3:1:0:0:
272,100,149714,2,0,L|135:91,1,121.762502322435,12|0,3:3|3:1,0:0:0:0:
51,81,150028,5,8,0:3:0:0:
94,162,150185,1,8,0:3:0:0:
107,187,150264,1,8,0:3:0:0:
107,215,150342,1,8,0:3:0:0:
93,240,150421,1,8,0:3:0:0:
69,256,150499,1,8,0:3:0:0:
49,271,150578,1,8,0:3:0:0:
40,294,150657,1,8,0:3:0:0:
41,318,150735,1,8,0:3:0:0:
54,338,150814,1,8,0:3:0:0:
76,347,150892,1,8,0:3:0:0:
100,346,150971,2,0,P|120:331|129:314,3,40.5875007741451,8|8|8|8,0:3|0:3|0:3|0:3,0:0:0:0:
191,217,151285,6,0,P|257:255|286:308,1,114.599996502686,4|0,3:1|0:0,0:0:0:0:
348,384,151599,2,0,P|379:307|424:279,1,114.599996502686,12|0,0:0|0:0,0:0:0:0:
512,287,151913,1,0,3:0:0:0:
444,376,152070,1,0,0:0:0:0:
340,235,152227,6,0,B|329:134|329:134|384:103|378:42,1,171.899994754028,12|0,0:0|0:0,0:0:0:0:
298,59,152541,1,0,3:0:0:0:
414,172,152698,1,0,3:0:0:0:
462,37,152856,1,12,0:0:0:0:
462,37,153013,1,0,0:0:0:0:
287,62,153170,5,0,3:0:0:0:
411,187,153327,1,0,3:0:0:0:
476,25,153484,2,0,P|384:12|293:51,1,171.899994754028,12|0,0:0|0:0,0:0:0:0:
244,121,153798,6,0,L|112:111,1,114.599996502686,0|0,3:0|0:0,0:0:0:0:
32,255,154112,2,0,L|163:248,1,114.599996502686,12|0,0:0|0:0,0:0:0:0:
113,114,154426,1,0,3:0:0:0:
160,249,154583,1,0,0:0:0:0:
116,24,154740,6,0,P|35:63|37:172,1,171.899994754028,12|0,0:0|0:0,0:0:0:0:
57,204,155054,1,0,3:0:0:0:
113,114,155212,1,0,3:0:0:0:
160,249,155369,2,0,L|296:240,1,114.599996502686,12|0,0:0|0:0,0:0:0:0:
406,233,155683,5,0,3:0:0:0:
328,139,155840,1,0,3:0:0:0:
354,339,155997,2,0,L|167:326,1,171.899994754028,12|0,0:1|0:0,0:0:0:0:
89,306,156311,6,0,P|68:253|84:198,1,114.599996502686,0|0,3:0|0:0,0:0:0:0:
243,86,156625,2,0,P|213:150|163:171,1,114.599996502686,12|0,0:0|0:0,0:0:0:0:
56,71,156939,1,0,3:0:0:0:
153,82,157096,1,0,0:0:0:0:
308,29,157253,6,0,B|430:14|430:14|477:61,1,171.899994754028,12|0,0:0|0:0,0:0:0:0:
504,115,157568,1,0,3:0:0:0:
504,115,157725,1,0,3:0:0:0:
434,180,157882,2,0,B|312:165|312:165|265:212,1,171.899994754028,12|0,0:0|0:0,0:0:0:0:
229,258,158196,1,0,3:0:0:0:
229,258,158353,1,0,3:0:0:0:
303,325,158510,2,0,L|450:314,1,114.599996502686,12|0,0:0|0:0,0:0:0:0:
201,176,158824,5,12,0:1:0:0:
155,315,158981,1,0,3:0:0:0:
143,295,159138,1,0,3:0:0:0:
248,256,159295,1,12,0:1:0:0:
223,370,159452,1,0,3:0:0:0:
303,325,159609,1,0,3:0:0:0:
411,378,159767,6,0,B|393:306|393:306|408:201,1,171.899994754028,8|0,0:0|0:0,0:0:0:0:
426,123,160081,5,12,0:1:0:0:
506,211,160238,1,0,3:0:0:0:
506,211,160395,1,0,3:0:0:0:
344,160,160552,1,12,0:1:0:0:
469,30,160709,1,0,3:0:0:0:
484,56,160866,1,0,3:0:0:0:
363,76,161023,6,0,P|254:32|190:29,1,171.899994754028,8|0,0:0|0:0,0:0:0:0:
118,89,161337,6,0,L|124:217,1,114.599996502686,4|0,3:1|0:0,0:0:0:0:
254,311,161651,2,0,L|271:179,1,114.599996502686,12|0,0:0|0:0,0:0:0:0:
89,167,161965,1,0,3:0:0:0:
167,282,162123,1,0,0:0:0:0:
260,112,162280,6,0,P|340:150|362:243,1,171.899994754028,12|0,0:0|0:0,0:0:0:0:
271,207,162594,1,0,3:0:0:0:
450,214,162751,1,0,3:0:0:0:
371,312,162908,1,12,0:0:0:0:
371,312,163065,1,0,0:0:0:0:
453,125,163222,5,0,3:0:0:0:
473,301,163379,1,0,3:0:0:0:
340,243,163536,2,0,P|373:158|451:117,1,171.899994754028,12|0,0:0|0:0,0:0:0:0:
504,41,163850,6,0,L|349:12,1,114.599996502686,4|0,3:1|0:0,0:0:0:0:
231,80,164164,2,0,L|91:99,1,114.599996502686,12|0,0:0|0:0,0:0:0:0:
242,4,164479,1,0,3:0:0:0:
328,99,164636,1,0,3:0:0:0:
212,173,164793,6,0,B|196:243|196:243|218:302|218:302|205:356,1,171.899994754028,12|0,0:0|0:0,0:0:0:0:
147,376,165107,1,2,3:0:0:0:
110,292,165264,1,0,3:0:0:0:
288,235,165421,2,0,L|432:250,1,114.599996502686,12|0,0:0|0:0,0:0:0:0:
486,313,165735,5,0,3:0:0:0:
404,369,165892,1,0,3:0:0:0:
461,146,166049,2,0,L|272:154,1,171.899994754028,12|0,0:1|0:0,0:0:0:0:
207,133,166363,6,0,P|169:83|171:22,1,114.599996502686,0|0,3:0|0:0,0:0:0:0:
38,11,166678,2,0,P|2:80|19:139,1,114.599996502686,12|0,0:0|0:0,0:0:0:0:
113,194,166992,1,0,3:0:0:0:
89,88,167149,1,0,3:0:0:0:
55,258,167306,6,0,B|97:231|97:231|238:256,1,171.899994754028,12|0,0:0|0:0,0:0:0:0:
262,319,167620,1,0,3:0:0:0:
262,319,167777,1,0,0:0:0:0:
192,366,167934,1,12,0:0:0:0:
112,352,168091,1,0,0:0:0:0:
336,261,168248,1,0,3:0:0:0:
413,297,168405,1,0,3:0:0:0:
254,191,168562,6,0,B|230:140|263:101|261:123|301:70|258:19,1,171.899994754028,12|0,0:0|0:0,0:0:0:0:
189,6,168876,5,12,0:1:0:0:
120,115,169034,1,0,3:0:0:0:
120,115,169191,1,0,3:0:0:0:
329,162,169348,1,12,0:1:0:0:
213,89,169505,1,0,3:0:0:0:
224,121,169662,1,0,3:0:0:0:
377,48,169819,6,0,B|406:24|450:35|450:35|486:74|481:124,1,171.899994754028,8|0,0:0|0:0,0:0:0:0:
432,188,170133,5,12,0:1:0:0:
476,101,170290,1,0,3:0:0:0:
503,254,170447,1,0,3:0:0:0:
356,148,170604,1,12,0:1:0:0:
444,170,170761,1,0,3:0:0:0:
409,254,170918,1,0,3:0:0:0:
309,232,171075,6,0,P|234:227|140:267,1,171.899994754028,8|0,0:0|0:0,0:0:0:0:
61,343,171390,6,0,L|39:217,1,114.599996502686,4|0,3:1|0:0,0:0:0:0:
131,0,171704,2,0,B|108:66|108:66|149:96|149:96|106:208,1,229.199993005371,10|0,0:1|3:0,0:0:0:0:
22,145,172175,1,0,0:0:0:0:
203,43,172332,6,0,P|268:29|321:47,1,114.599996502686,10|0,0:1|3:0,0:0:0:0:
325,192,172646,1,0,3:0:0:0:
272,125,172803,1,0,0:0:0:0:
437,99,172960,6,0,L|413:276,1,171.899994754028,10|0,0:1|0:0,0:0:0:0:
366,332,173274,1,0,3:0:0:0:
366,332,173431,1,0,0:0:0:0:
281,289,173589,2,0,L|257:88,1,171.899994754028,10|0,0:1|0:0,0:0:0:0:
202,43,173903,6,0,P|130:33|68:72,1,114.599996502686,4|0,3:1|0:0,0:0:0:0:
51,180,174217,1,10,0:1:0:0:
146,133,174374,1,0,3:0:0:0:
17,83,174531,1,0,3:0:0:0:
25,103,174688,1,0,0:0:0:0:
142,222,174845,6,0,B|163:286|120:340|120:340|31:355|14:274,1,229.199993005371,10|0,0:1|3:0,0:0:0:0:
47,199,175316,1,0,0:0:0:0:
240,272,175473,6,0,P|349:321|422:311,1,171.899994754028,10|0,0:1|0:0,0:0:0:0:
463,274,175787,1,0,3:0:0:0:
463,274,175945,1,0,0:0:0:0:
450,153,176102,2,0,P|386:194|256:190,1,171.899994754028,10|0,0:1|0:0,0:0:0:0:
231,148,176416,5,4,3:1:0:0:
304,74,176573,1,0,0:0:0:0:
210,22,176730,2,0,L|68:6,1,114.599996502686,10|0,0:1|3:0,0:0:0:0:
325,160,177044,5,0,3:0:0:0:
218,70,177201,1,0,0:0:0:0:
342,6,177358,2,0,P|467:31|500:129,1,229.199993005371,10|0,0:1|3:0,0:0:0:0:
407,212,177829,5,0,0:0:0:0:
398,101,177986,1,10,0:1:0:0:
410,115,178143,1,0,3:0:0:0:
493,200,178301,2,0,L|478:324,1,114.599996502686,0|0,3:0|0:0,0:0:0:0:
382,362,178615,6,0,B|339:376|289:352|314:342|263:308|200:329,1,171.899994754028,8|0,0:1|0:0,0:0:0:0:
147,363,178929,5,12,0:1:0:0:
202,245,179086,1,0,3:0:0:0:
221,324,179243,5,12,0:1:0:0:
125,217,179400,1,0,3:0:0:0:
92,290,179557,5,12,0:1:0:0:
186,165,179714,1,0,3:0:0:0:
202,245,179871,5,12,0:1:0:0:
76,116,180028,1,0,3:0:0:0:
50,189,180185,5,12,0:1:0:0:
170,56,180342,1,0,3:0:0:0:
314,117,180499,6,0,L|460:108,1,114.599996502686,12|0,0:1|3:0,0:0:0:0:
183,216,180814,2,0,L|52:209,1,114.599996502686,8|0,0:1|3:0,0:0:0:0:
237,98,181128,6,0,P|306:150|329:352,2,286.500010929108,8|4|8,0:1|3:1|0:3,0:0:0:0:
154,95,182070,5,0,3:0:0:0:
154,95,182227,1,2,3:0:0:0:
362,45,182541,5,8,0:3:0:0:
428,107,182698,1,0,0:0:0:0:
417,128,182856,1,0,3:0:0:0:
484,184,183013,1,10,0:3:0:0:
484,184,183327,5,0,3:0:0:0:
476,212,183484,1,0,3:0:0:0:
391,258,183641,2,0,L|404:365,1,95.5,10|0,0:3|3:0,0:0:0:0:
262,380,183955,6,0,B|200:376|200:376|176:359|176:359|72:355,1,191,4|10,3:2|0:3,0:0:0:0:
19,297,184426,1,0,0:0:0:0:
83,243,184583,1,0,3:2:0:0:
83,243,184740,1,2,3:3:0:0:
0,73,185054,5,8,0:3:0:0:
77,40,185212,1,0,0:0:0:0:
108,48,185369,1,0,3:3:0:0:
191,23,185526,1,10,0:3:0:0:
191,23,185840,5,0,3:0:0:0:
263,74,185997,1,0,3:0:0:0:
263,74,186075,1,0,0:0:0:0:
263,74,186154,2,0,L|358:79,1,95.5,10|0,0:3|3:0,0:0:0:0:
480,16,186468,6,0,B|451:53|473:129|483:88|518:150|467:212,1,191,4|8,3:1|0:3,0:0:0:0:
396,232,186939,1,0,0:0:0:0:
403,148,187096,1,0,3:0:0:0:
403,148,187253,1,2,3:0:0:0:
478,358,187568,5,8,0:3:0:0:
409,314,187725,1,0,0:0:0:0:
374,319,187882,1,0,3:0:0:0:
291,330,188039,1,10,0:3:0:0:
254,336,188196,1,0,3:0:0:0:
169,351,188353,5,0,3:0:0:0:
329,324,188510,1,0,3:0:0:0:
248,221,188667,2,0,L|77:211,1,143.25,10|0,0:3|0:0,0:0:0:0:
29,206,188981,5,8,0:3:0:0:
248,221,189138,1,8,3:0:0:0:
318,175,189295,6,0,L|364:141,2,47.75,0|0|8,3:0|3:0|0:3,0:0:0:0:
133,294,189609,1,8,3:0:0:0:
50,289,189767,6,0,L|-3:281,2,47.75,0|0|8,3:0|3:0|0:3,0:0:0:0:
316,318,190081,1,8,3:0:0:0:
363,248,190238,5,0,3:0:0:0:
363,248,190316,1,0,3:0:0:0:
363,248,190395,1,8,0:3:0:0:
73,362,190552,1,8,0:3:0:0:
