osu file format v14

[General]
AudioFilename: audio.mp3
AudioLeadIn: 0
PreviewTime: 60185
Countdown: 0
SampleSet: Soft
StackLeniency: 0.7
Mode: 0
LetterboxInBreaks: 0
WidescreenStoryboard: 0

[Editor]
Bookmarks: 15564,30643,50747,57658,60800,80904,121114,131166,151271,171390
DistanceSpacing: 1.1
BeatDivisor: 4
GridSize: 32
TimelineZoom: 2.2

[Metadata]
Title:After Dark
TitleUnicode:アフターダーク
Artist:ASIAN KUNG-FU GENERATION
ArtistUnicode:ASIAN KUNG-FU GENERATION
Creator:Seto Kousuke
Version:Insane
Source:BLEACH
Tags:World ワールド ブリーチ Opening yshadowxop_ shadowX -Mikan Mikan
BeatmapID:1787987
BeatmapSetID:855765

[Difficulty]
HPDrainRate:6
CircleSize:4
OverallDifficulty:8
ApproachRate:8.8
SliderMultiplier:1.8
SliderTickRate:1

[Events]
//Background and Video events
0,0,"anime-1537905070603-7844.jpg",0,0
//Break Periods
2,91171,100394
//Storyboard Layer 0 (Background)
//Storyboard Layer 1 (Fail)
//Storyboard Layer 2 (Pass)
//Storyboard Layer 3 (Foreground)
//Storyboard Sound Samples

[TimingPoints]
500,314.13612565445,4,2,1,55,1,0
500,-100,4,2,1,55,0,0
15421,-100,4,2,1,90,0,0
15578,-100,4,2,1,90,0,0
20604,-117.647058823529,4,2,1,70,0,0
25630,-100,4,2,1,90,0,0
30657,-117.647058823529,4,2,1,70,0,0
35683,-100,4,2,1,90,0,0
40709,-117.647058823529,4,2,1,70,0,0
45735,-100,4,2,1,90,0,0
50761,-133.333333333333,4,2,1,70,0,0
58301,-105.263157894737,4,2,1,80,0,0
60814,-100,4,2,1,100,0,1
90971,-100,4,2,1,70,0,0
101023,-117.647058823529,4,2,1,70,0,0
116102,-100,4,2,1,90,0,0
121128,-133.333333333333,4,2,1,70,0,0
128667,-105.263157894737,4,2,1,90,0,0
131180,-133.333333333333,4,2,1,70,0,0
141232,-117.647058823529,4,2,1,80,0,0
151285,-100,4,2,1,100,0,1
181442,-100,4,2,1,70,0,0

[Colours]
Combo1 : 210,150,52
Combo2 : 113,111,133
Combo3 : 225,95,63
Combo4 : 130,156,171

[HitObjects]
219,36,14950,6,0,L|161:48,2,45,8|0|0,3:1|0:3|3:0,0:0:0:0:
383,55,15264,2,0,P|409:113|361:165,1,135,12|0,0:0|0:0,0:0:0:0:
328,182,15578,6,0,B|242:205|241:145|147:180,1,180,4|12,3:1|0:3,0:0:0:0:
81,234,16049,1,0,0:0:0:0:
114,98,16206,1,0,3:0:0:0:
114,98,16363,1,0,3:0:0:0:
29,148,16520,1,12,0:3:0:0:
18,297,16678,6,0,P|98:326|160:268,1,180,4|0,3:1|3:0,0:0:0:0:
252,161,17149,2,0,P|237:202|247:246,1,90,12|0,0:3|0:0,0:0:0:0:
314,305,17463,1,0,3:0:0:0:
314,305,17620,1,0,3:0:0:0:
418,215,17777,2,0,L|429:102,1,90,12|0,0:3|0:0,0:0:0:0:
346,31,18091,6,0,L|327:230,1,180,4|12,3:1|0:3,0:0:0:0:
247,246,18562,1,0,0:0:0:0:
140,163,18719,1,0,3:0:0:0:
140,163,18876,1,0,3:0:0:0:
157,251,19034,1,12,0:3:0:0:
245,137,19191,6,0,P|202:59|113:56,1,180,4|0,3:1|3:0,0:0:0:0:
15,8,19662,2,0,P|38:46|37:91,1,90,12|0,0:3|0:0,0:0:0:0:
11,176,19976,1,0,3:0:0:0:
11,176,20133,1,0,3:0:0:0:
148,235,20290,2,0,P|192:236|230:214,1,90,12|0,0:3|0:0,0:0:0:0:
376,159,20604,6,0,B|344:179|308:180|308:180|292:143|243:136,1,153.000002918243,4|8,3:1|0:3,0:0:0:0:
107,112,21075,1,0,0:0:0:0:
174,161,21232,1,0,3:0:0:0:
174,161,21390,2,0,P|174:205|158:237,1,76.5000014591217,2|0,3:0|0:0,0:0:0:0:
57,331,21704,6,0,B|136:313|125:364|221:325,1,153.000002918243,8|0,0:3|3:0,0:0:0:0:
257,272,22175,1,10,0:3:0:0:
351,359,22332,1,0,3:0:0:0:
351,359,22410,1,0,3:0:0:0:
351,359,22489,1,0,3:0:0:0:
338,276,22646,1,0,3:0:0:0:
206,330,22803,2,0,P|168:339|106:320,1,76.5000014591217,10|0,0:3|3:0,0:0:0:0:
21,267,23117,6,0,B|52:277|78:266|78:266|122:233|166:255,1,153.000002918243,4|10,3:2|0:3,0:0:0:0:
243,258,23589,1,0,0:0:0:0:
227,117,23746,1,0,3:2:0:0:
227,117,23903,2,0,P|241:157|278:185,1,76.5000014591217,2|0,3:3|0:0,0:0:0:0:
418,191,24217,6,0,P|347:219|331:290,1,153.000002918243,8|0,0:3|3:3,0:0:0:0:
488,336,24688,1,10,0:3:0:0:
510,237,24845,1,0,3:0:0:0:
510,237,24924,1,0,3:0:0:0:
510,237,25002,2,0,L|503:145,1,76.5000014591217,0|0,3:0|3:0,0:0:0:0:
447,32,25316,1,10,0:3:0:0:
447,32,25630,6,0,B|383:28|383:28|335:48|335:48|267:45,1,180,4|12,3:1|0:3,0:0:0:0:
182,25,26102,1,0,0:0:0:0:
240,151,26259,1,0,3:0:0:0:
240,151,26416,1,0,3:0:0:0:
162,105,26573,1,12,0:3:0:0:
80,206,26730,6,0,P|85:271|198:277,1,180,4|0,3:1|3:0,0:0:0:0:
348,338,27201,2,0,P|313:310|270:314,1,90,12|0,0:3|0:0,0:0:0:0:
206,378,27515,1,0,3:0:0:0:
206,378,27672,1,0,3:0:0:0:
247,240,27829,2,0,L|239:144,1,90,12|0,0:3|0:0,0:0:0:0:
135,16,28143,6,0,B|136:71|183:80|183:80|220:50|272:65,1,180,4|12,3:1|0:3,0:0:0:0:
324,141,28615,1,0,0:0:0:0:
403,30,28772,1,0,3:0:0:0:
403,30,28929,1,0,3:0:0:0:
420,118,29086,1,12,0:3:0:0:
269,64,29243,6,0,P|230:116|272:220,1,180,4|0,3:1|3:0,0:0:0:0:
426,239,29714,2,0,P|383:234|349:261,1,90,12|0,0:3|0:0,0:0:0:0:
284,379,30028,1,0,3:0:0:0:
284,379,30185,1,0,3:0:0:0:
245,297,30342,1,12,0:3:0:0:
368,348,30499,1,0,0:0:0:0:
451,243,30657,6,0,B|479:177|424:155|460:93,1,153.000002918243,4|8,3:1|0:3,0:0:0:0:
493,26,31128,1,0,0:0:0:0:
386,74,31285,1,0,3:0:0:0:
386,74,31442,2,0,P|345:67|305:30,1,76.5000014591217,2|0,3:0|0:0,0:0:0:0:
192,33,31756,6,0,P|247:78|212:139,1,153.000002918243,8|0,0:3|3:0,0:0:0:0:
172,204,32227,2,0,P|135:209|84:178,1,76.5000014591217,10|0,0:3|3:0,0:0:0:0:
43,81,32541,1,0,3:0:0:0:
43,81,32698,1,0,3:0:0:0:
10,179,32856,2,0,L|8:270,1,76.5000014591217,10|0,0:3|3:0,0:0:0:0:
21,291,33091,1,0,0:0:0:0:
21,291,33170,6,0,B|42:308|75:305|75:305|129:280|176:311,1,153.000002918243,4|10,3:2|0:3,0:0:0:0:
224,356,33641,1,0,0:0:0:0:
285,238,33798,1,0,3:2:0:0:
285,238,33955,2,0,P|282:280|300:312,1,76.5000014591217,2|0,3:3|0:0,0:0:0:0:
424,366,34269,6,0,L|414:185,1,153.000002918243,8|0,0:3|3:3,0:0:0:0:
345,93,34740,1,10,0:3:0:0:
427,134,34897,1,0,3:0:0:0:
427,134,34976,1,0,3:0:0:0:
427,134,35054,1,0,3:0:0:0:
416,49,35212,1,0,3:0:0:0:
343,177,35369,2,0,P|307:173|277:137,1,76.5000014591217,10|0,0:3|3:0,0:0:0:0:
185,16,35683,6,0,B|218:87|147:108|181:190,1,180,4|12,3:1|0:3,0:0:0:0:
232,263,36154,1,0,0:0:0:0:
347,181,36311,1,0,3:0:0:0:
347,181,36468,1,0,3:0:0:0:
320,266,36625,1,12,0:3:0:0:
181,189,36782,6,0,P|117:216|128:319,1,180,4|0,3:1|3:0,0:0:0:0:
12,376,37253,2,0,P|29:334|26:290,1,90,12|0,0:3|0:0,0:0:0:0:
3,202,37568,1,0,3:0:0:0:
3,202,37725,1,0,3:0:0:0:
125,99,37882,2,0,L|220:100,1,90,12|0,0:3|0:0,0:0:0:0:
352,162,38196,6,0,B|286:162|286:162|246:189|246:189|178:187,1,180,4|12,3:1|0:3,0:0:0:0:
85,192,38667,1,0,0:0:0:0:
72,38,38824,1,0,3:0:0:0:
72,38,38981,1,0,3:0:0:0:
30,117,39138,1,12,0:3:0:0:
171,26,39295,6,0,B|203:18|229:23|229:23|298:53|298:53|333:57|364:35,1,180,4|0,3:1|3:0,0:0:0:0:
461,53,39767,2,0,P|418:109|429:152,1,90,12|0,0:3|0:0,0:0:0:0:
423,214,40081,1,0,3:0:0:0:
423,214,40238,1,0,3:0:0:0:
271,168,40395,2,0,L|177:164,1,90,12|0,0:3|0:0,0:0:0:0:
36,276,40709,6,0,P|89:250|188:293,1,153.000002918243,4|8,3:1|0:3,0:0:0:0:
216,340,41180,1,0,0:0:0:0:
284,205,41337,1,0,3:0:0:0:
284,205,41494,2,0,P|290:164|266:121,1,76.5000014591217,2|0,3:0|0:0,0:0:0:0:
165,56,41808,6,0,B|221:85|250:26|317:57,1,153.000002918243,8|0,0:3|3:0,0:0:0:0:
382,89,42280,2,0,P|401:130|397:166,1,76.5000014591217,10|0,0:3|3:0,0:0:0:0:
394,297,42594,1,0,3:0:0:0:
394,297,42751,1,0,3:0:0:0:
313,239,42908,2,0,P|273:230|223:249,1,76.5000014591217,10|0,0:3|3:0,0:0:0:0:
215,268,43143,1,0,0:0:0:0:
215,268,43222,6,0,L|214:360,1,76.5000014591217,4|0,3:2|0:0,0:0:0:0:
394,297,43536,2,0,L|394:220,1,76.5000014591217,10|0,0:3|0:0,0:0:0:0:
284,119,43850,1,0,3:2:0:0:
284,119,44007,2,0,P|327:126|386:110,1,76.5000014591217,2|0,3:3|0:0,0:0:0:0:
479,43,44321,6,0,L|323:44,1,153.000002918243,8|0,0:3|3:3,0:0:0:0:
200,122,44793,1,10,0:3:0:0:
245,51,44950,1,0,3:0:0:0:
245,51,45028,1,0,3:0:0:0:
245,51,45107,1,0,3:0:0:0:
160,51,45264,1,0,3:0:0:0:
244,195,45421,2,0,P|284:201|345:187,1,76.5000014591217,10|0,0:3|3:0,0:0:0:0:
414,66,45735,6,0,B|381:137|452:158|418:240,1,180,4|12,3:1|0:3,0:0:0:0:
366,314,46206,1,0,0:0:0:0:
319,196,46363,1,0,3:0:0:0:
319,196,46520,1,0,3:0:0:0:
260,265,46678,1,12,0:3:0:0:
417,240,46835,6,0,P|429:180|341:90,1,180,4|0,3:1|3:0,0:0:0:0:
196,34,47306,2,0,P|237:50|282:44,1,90,12|0,0:3|0:0,0:0:0:0:
362,4,47620,1,0,3:0:0:0:
362,4,47777,1,0,3:0:0:0:
276,143,47934,2,0,P|234:129|173:141,1,90,12|0,0:3|0:0,0:0:0:0:
64,59,48248,6,0,P|111:126|60:219,1,180,4|12,3:1|0:3,0:0:0:0:
7,267,48719,1,0,0:0:0:0:
100,372,48876,1,0,3:0:0:0:
100,372,49034,1,0,3:0:0:0:
132,287,49191,1,12,0:3:0:0:
256,379,49348,6,0,B|316:376|316:376|366:330|344:262,1,180,4|0,3:1|3:0,0:0:0:0:
288,197,49819,1,12,0:3:0:0:
288,197,49976,1,0,0:0:0:0:
424,124,50133,1,0,3:0:0:0:
424,213,50290,1,0,3:0:0:0:
333,104,50447,2,0,P|292:90|240:107,1,90,12|0,0:3|0:0,0:0:0:0:
108,249,50761,5,2,3:0:0:0:
108,249,50918,2,0,P|115:213|98:165,1,67.5000025749208,0|8,3:0|0:3,0:0:0:0:
0,75,51232,1,2,3:0:0:0:
0,75,51389,2,0,P|36:68|84:85,1,67.5000025749208,0|8,3:0|0:3,0:0:0:0:
30,228,51704,1,2,3:0:0:0:
30,228,51861,2,0,P|23:192|40:144,1,67.5000025749208,0|8,3:0|0:3,0:0:0:0:
157,36,52175,1,2,3:0:0:0:
157,36,52332,2,0,P|164:72|147:120,1,67.5000025749208,0|8,3:0|0:3,0:0:0:0:
108,183,52646,5,2,3:0:0:0:
65,74,52803,1,0,3:0:0:0:
220,193,52960,1,10,0:3:0:0:
228,201,53274,5,2,3:0:0:0:
228,201,53431,2,0,B|261:209|261:209|312:190,1,67.5000025749208,0|8,3:0|0:3,0:0:0:0:
324,55,53746,1,2,3:0:0:0:
324,55,53903,2,0,B|316:88|316:88|335:139,1,67.5000025749208,0|8,3:0|0:3,0:0:0:0:
463,149,54217,1,2,3:0:0:0:
463,149,54374,2,0,B|430:141|430:141|398:152,1,67.5000025749208,0|8,3:0|0:3,0:0:0:0:
367,295,54689,1,2,3:0:0:0:
367,295,54846,2,0,B|375:262|375:262|363:230,1,67.5000025749208,0|8,3:0|0:3,0:0:0:0:
228,201,55159,5,10,3:0:0:0:
327,119,55316,1,0,3:0:0:0:
260,324,55473,1,8,0:3:0:0:
260,324,55787,5,2,3:0:0:0:
260,324,55945,2,0,L|351:325,1,67.5000025749208,0|8,3:0|0:3,0:0:0:0:
456,183,56259,1,2,3:0:0:0:
456,183,56416,2,0,L|365:184,1,67.5000025749208,0|8,3:0|0:3,0:0:0:0:
258,238,56730,1,2,3:0:0:0:
258,238,56888,2,0,L|325:238,1,67.5000025749208,0|8,3:0|0:3,0:0:0:0:
469,288,57201,1,2,3:0:0:0:
469,288,57359,2,0,L|401:288,1,67.5000025749208,0|8,3:0|0:3,0:0:0:0:
299,164,57672,5,2,3:0:0:0:
327,324,57829,1,0,3:0:0:0:
141,272,57986,1,10,0:3:0:0:
141,272,58301,6,0,P|156:227|133:174,1,85.4999977169037,4|0,3:1|0:0,0:0:0:0:
142,95,58615,2,0,P|101:102|72:133,1,85.4999977169037,8|0,0:3|0:0,0:0:0:0:
67,226,58929,1,0,3:0:0:0:
67,226,59086,1,0,3:0:0:0:
218,152,59243,2,0,L|310:151,1,85.4999977169037,8|0,0:3|3:0,0:0:0:0:
416,273,59557,1,0,3:0:0:0:
435,147,59714,1,0,3:0:0:0:
301,264,59871,2,0,L|215:264,1,85.4999977169037,8|0,0:3|3:0,0:0:0:0:
67,305,60185,5,0,3:0:0:0:
67,305,60264,1,0,3:0:0:0:
67,305,60342,1,8,0:3:0:0:
88,332,60420,1,8,0:3:0:0:
118,346,60499,1,8,0:3:0:0:
152,347,60577,1,8,0:3:0:0:
183,332,60656,1,8,0:3:0:0:
205,306,60734,1,8,0:3:0:0:
215,264,60814,6,0,L|215:147,1,90,4|0,3:1|0:0,0:0:0:0:
85,72,61128,2,0,L|85:162,1,90,12|0,0:0|0:0,0:0:0:0:
263,109,61442,2,0,P|220:93|174:105,1,90,0|0,3:0|0:0,0:0:0:0:
38,237,61756,2,0,P|80:252|126:240,1,90,12|0,0:0|0:0,0:0:0:0:
85,72,62070,5,0,3:0:0:0:
85,162,62227,1,0,3:0:0:0:
178,102,62384,2,0,P|222:92|263:107,1,90,12|0,0:0|0:0,0:0:0:0:
338,250,62698,1,0,3:0:0:0:
338,250,62856,1,0,3:0:0:0:
403,139,63013,2,0,L|405:25,1,90,12|0,0:0|0:0,0:0:0:0:
493,213,63327,6,0,P|500:258|460:307,1,90,0|0,3:0|0:0,0:0:0:0:
312,342,63641,2,0,L|402:343,1,90,12|0,0:0|0:0,0:0:0:0:
314,155,63955,2,0,P|267:139|224:154,1,90,0|0,3:0|0:0,0:0:0:0:
161,295,64269,2,0,L|159:206,1,90,12|0,0:0|0:0,0:0:0:0:
139,32,64583,5,0,3:0:0:0:
69,88,64740,1,0,3:0:0:0:
223,59,64897,2,0,L|312:59,1,90,12|0,0:0|0:0,0:0:0:0:
476,65,65212,1,0,3:0:0:0:
476,65,65369,1,0,3:0:0:0:
413,255,65526,1,12,0:1:0:0:
413,255,65840,6,0,P|368:232|302:254,1,90,0|0,3:0|0:0,0:0:0:0:
234,116,66154,2,0,P|257:154|255:199,1,90,12|0,0:0|0:0,0:0:0:0:
235,370,66468,2,0,P|258:331|255:287,1,90,0|0,3:0|0:0,0:0:0:0:
92,158,66782,2,0,P|136:158|174:182,1,90,12|0,0:0|2:0,2:0:0:0:
103,365,67096,5,0,3:0:0:0:
176,312,67253,1,0,3:0:0:0:
31,227,67410,2,0,P|15:268|28:310,1,90,12|0,0:0|0:0,0:0:0:0:
174,182,67725,2,0,L|166:59,1,90,0|0,3:0|3:0,0:0:0:0:
13,27,68039,2,0,P|40:59|103:58,1,90,12|0,0:0|0:0,0:0:0:0:
280,21,68353,6,0,L|263:125,1,90,12|0,0:1|3:0,0:0:0:0:
296,194,68667,1,0,3:0:0:0:
367,41,68824,2,0,L|371:144,1,90,12|0,0:1|3:0,0:0:0:0:
458,18,69138,1,0,3:0:0:0:
457,185,69295,1,8,0:0:0:0:
457,185,69609,6,0,P|432:226|357:224,1,90,12|0,0:1|3:0,0:0:0:0:
304,220,69924,1,0,3:0:0:0:
353,380,70081,2,0,P|365:338|346:299,1,90,12|0,0:1|3:0,0:0:0:0:
186,236,70395,1,0,3:0:0:0:
317,121,70552,1,8,0:0:0:0:
317,121,70866,6,0,L|203:99,1,90,4|0,3:1|0:0,0:0:0:0:
49,120,71180,2,0,L|138:103,1,90,12|0,0:0|0:0,0:0:0:0:
318,218,71494,2,0,L|204:196,1,90,0|0,3:0|0:0,0:0:0:0:
50,217,71808,2,0,L|138:199,1,90,12|0,0:0|0:0,0:0:0:0:
300,309,72123,5,0,3:0:0:0:
318,218,72280,1,0,3:0:0:0:
376,358,72437,2,0,P|456:355|487:330,1,90,12|0,0:0|0:0,0:0:0:0:
408,194,72751,1,0,3:0:0:0:
408,194,72908,1,0,3:0:0:0:
300,309,73065,2,0,P|256:318|213:308,1,90,12|0,0:0|0:0,0:0:0:0:
48,318,73379,6,0,P|105:283|129:225,1,90,4|0,3:1|0:0,0:0:0:0:
107,87,73693,2,0,P|103:131|119:174,1,90,12|0,0:0|0:0,0:0:0:0:
276,252,74007,2,0,P|239:226|196:219,1,90,0|0,3:0|0:0,0:0:0:0:
38,215,74321,1,12,0:0:0:0:
119,174,74479,1,0,0:0:0:0:
43,301,74636,6,0,P|49:348|98:380,1,90,0|0,3:0|3:0,0:0:0:0:
210,384,74950,2,0,P|241:353|246:309,1,90,12|0,0:0|0:0,0:0:0:0:
230,144,75264,1,0,3:0:0:0:
230,144,75421,1,0,3:0:0:0:
407,232,75578,1,12,0:1:0:0:
407,232,75892,6,0,P|394:183|415:140,1,90,0|0,3:0|0:0,0:0:0:0:
503,39,76206,2,0,L|383:38,1,90,12|0,0:0|0:0,0:0:0:0:
312,163,76520,2,0,P|331:119|299:59,1,90,0|0,3:0|0:0,0:0:0:0:
191,32,76835,2,0,L|75:36,1,90,12|0,0:0|0:0,0:0:0:0:
21,203,77149,5,0,3:0:0:0:
19,99,77306,1,0,3:0:0:0:
115,183,77463,2,0,P|169:185|215:152,1,90,12|0,0:0|0:0,0:0:0:0:
301,18,77777,2,0,P|285:72|303:129,1,90,0|0,3:0|3:0,0:0:0:0:
322,256,78091,1,12,0:0:0:0:
322,256,78248,1,0,0:0:0:0:
199,168,78405,6,0,L|77:172,1,90,12|0,0:1|3:0,0:0:0:0:
4,183,78719,1,0,3:0:0:0:
44,337,78876,2,0,P|69:300|67:256,1,90,12|0,0:1|3:0,0:0:0:0:
36,91,79191,1,0,3:0:0:0:
109,170,79348,2,0,L|199:168,1,90,8|0,0:0|3:0,0:0:0:0:
328,63,79662,6,0,P|302:101|301:150,1,90,12|0,0:1|3:0,0:0:0:0:
342,280,79976,1,0,3:0:0:0:
372,196,80133,1,12,0:1:0:0:
260,240,80290,1,0,3:0:0:0:
423,317,80447,1,0,3:0:0:0:
476,165,80604,1,8,0:0:0:0:
476,165,80918,6,0,P|427:166|382:139,1,90,4|0,3:1|0:0,0:0:0:0:
337,26,81232,1,10,0:1:0:0:
337,26,81390,1,0,3:0:0:0:
273,89,81547,2,0,L|273:183,1,90,0|0,3:0|0:0,0:0:0:0:
276,317,81861,1,10,0:1:0:0:
276,317,82018,1,0,3:0:0:0:
195,260,82175,6,0,P|143:253|91:275,1,90,0|0,3:0|0:0,0:0:0:0:
18,365,82489,1,10,0:1:0:0:
18,365,82646,1,0,3:0:0:0:
81,288,82803,2,0,P|94:245|78:181,1,90,0|0,3:0|0:0,0:0:0:0:
63,60,83117,1,10,0:1:0:0:
63,60,83274,1,0,3:0:0:0:
184,128,83431,6,0,B|280:149|252:90|359:114,1,180,4|10,3:1|0:1,0:0:0:0:
448,124,83903,1,0,3:0:0:0:
392,194,84060,2,0,P|378:245|396:286,1,90,0|0,3:0|0:0,0:0:0:0:
512,353,84374,2,0,L|432:359,1,90,10|0,0:1|0:0,0:0:0:0:
244,340,84688,6,0,L|333:345,1,90,0|0,3:0|0:0,0:0:0:0:
481,242,85002,1,10,0:1:0:0:
481,242,85159,1,0,3:0:0:0:
389,170,85316,2,0,P|338:167|290:210,1,90,0|0,3:0|0:0,0:0:0:0:
142,179,85630,2,0,P|186:184|224:162,1,90,10|0,0:1|0:0,0:0:0:0:
302,19,85945,6,0,L|283:127,1,90,4|0,3:1|0:0,0:0:0:0:
436,16,86259,2,0,L|455:124,1,90,10|0,0:1|0:0,0:0:0:0:
457,267,86573,2,0,P|409:276|362:247,1,90,0|0,3:0|0:0,0:0:0:0:
186,260,86887,2,0,P|237:257|273:225,1,90,10|0,0:1|0:0,0:0:0:0:
424,184,87201,5,0,3:0:0:0:
424,184,87358,1,0,3:0:0:0:
335,85,87515,2,0,P|320:126|328:170,1,90,10|0,0:1|0:0,0:0:0:0:
512,89,87829,2,0,L|422:91,1,90,0|0,3:0|0:0,0:0:0:0:
322,256,88143,2,0,P|336:214|328:170,1,90,8|0,0:1|0:0,0:0:0:0:
218,49,88458,5,12,0:1:0:0:
218,49,88615,1,0,3:0:0:0:
250,213,88772,1,12,0:1:0:0:
250,213,88929,1,0,3:0:0:0:
403,101,89086,1,12,0:1:0:0:
403,101,89243,1,0,3:0:0:0:
233,31,89400,1,12,0:1:0:0:
233,31,89557,1,0,3:0:0:0:
170,177,89714,6,0,P|156:218|187:276,1,90,12|0,0:1|3:0,0:0:0:0:
326,251,90028,2,0,P|341:208|305:151,1,90,12|0,0:1|3:0,0:0:0:0:
233,31,90342,1,8,0:1:0:0:
233,31,90499,1,0,3:0:0:0:
250,213,90657,2,0,L|250:325,1,90,8|0,0:1|3:0,0:0:0:0:
68,258,90971,5,4,3:1:0:0:
84,136,101023,6,0,P|154:146|159:234,1,153.000002918243,4|8,3:1|0:3,0:0:0:0:
141,288,101494,1,0,0:0:0:0:
252,363,101651,1,0,3:0:0:0:
252,363,101808,2,0,L|355:353,1,76.5000014591217,2|0,3:0|0:0,0:0:0:0:
431,291,102123,6,0,P|374:285|392:197,1,153.000002918243,8|0,0:3|3:0,0:0:0:0:
312,162,102594,2,0,P|341:137|399:131,1,76.5000014591217,10|0,0:3|3:0,0:0:0:0:
487,203,102908,1,0,3:0:0:0:
487,203,103065,1,0,3:0:0:0:
447,71,103222,2,0,P|420:48|358:48,1,76.5000014591217,10|0,0:3|3:0,0:0:0:0:
346,59,103458,1,0,0:0:0:0:
346,59,103536,6,0,B|286:62|286:62|263:51|263:51|171:55,1,153.000002918243,4|10,3:2|0:3,0:0:0:0:
119,57,104007,1,0,0:0:0:0:
190,174,104164,1,0,3:2:0:0:
190,174,104321,2,0,L|191:285,1,76.5000014591217,2|0,3:3|0:0,0:0:0:0:
93,357,104636,6,0,L|91:194,1,153.000002918243,8|0,0:3|3:3,0:0:0:0:
154,88,105107,1,10,0:3:0:0:
92,45,105264,1,0,3:0:0:0:
92,45,105342,1,0,3:0:0:0:
92,45,105421,1,0,3:0:0:0:
77,120,105578,1,0,3:0:0:0:
231,66,105735,2,0,L|318:65,1,76.5000014591217,10|0,0:3|3:0,0:0:0:0:
400,15,106049,6,0,B|432:99|377:108|407:172,1,153.000002918243,4|8,3:1|0:3,0:0:0:0:
456,220,106520,1,0,0:0:0:0:
437,294,106678,1,0,3:0:0:0:
437,294,106835,2,0,L|353:294,1,76.5000014591217,2|0,3:0|0:0,0:0:0:0:
310,351,107149,6,0,P|283:284|330:223,1,153.000002918243,8|0,0:3|3:0,0:0:0:0:
422,112,107620,2,0,P|412:149|386:176,1,76.5000014591217,10|0,0:3|3:0,0:0:0:0:
258,173,107934,1,0,3:0:0:0:
258,173,108091,1,0,3:0:0:0:
228,96,108248,2,0,P|232:57|266:29,1,76.5000014591217,10|0,0:3|3:0,0:0:0:0:
325,104,108562,6,0,L|230:261,1,153.000002918243,4|10,3:2|0:3,0:0:0:0:
170,251,109034,1,0,0:0:0:0:
118,194,109191,1,0,3:2:0:0:
118,194,109348,2,0,L|124:109,1,76.5000014591217,2|0,3:3|0:0,0:0:0:0:
48,36,109662,6,0,L|36:202,1,153.000002918243,8|0,0:3|3:3,0:0:0:0:
32,319,110133,2,0,P|40:282|69:258,1,76.5000014591217,10|0,0:3|3:0,0:0:0:0:
198,180,110447,1,0,3:0:0:0:
198,180,110604,1,0,3:0:0:0:
248,343,110761,1,10,0:3:0:0:
248,343,111075,6,0,P|327:353|368:279,1,153.000002918243,4|8,3:1|0:3,0:0:0:0:
384,225,111547,1,0,0:0:0:0:
274,172,111704,1,0,3:0:0:0:
274,172,111861,2,0,L|171:182,1,76.5000014591217,2|0,3:0|0:0,0:0:0:0:
72,128,112176,6,0,P|59:59|126:41,1,153.000002918243,10|0,0:3|3:0,0:0:0:0:
184,91,112647,2,0,P|224:96|264:86,1,76.5000014591217,10|0,0:3|3:0,0:0:0:0:
361,5,112961,1,0,3:0:0:0:
361,5,113118,1,0,3:0:0:0:
442,71,113275,2,0,P|451:105|425:161,1,76.5000014591217,10|0,0:3|3:0,0:0:0:0:
422,177,113510,1,0,3:0:0:0:
422,177,113589,6,0,B|380:188|380:188|348:178,2,76.5000014591217,0|0|10,3:0|3:0|0:1,0:0:0:0:
272,55,114060,2,0,B|261:97|261:97|270:128,2,76.5000014591217,0|0|10,3:0|3:0|0:1,0:0:0:0:
140,198,114531,2,0,B|182:209|182:209|213:200,2,76.5000014591217,0|0|10,3:0|3:3|0:1,0:0:0:0:
290,318,115002,2,0,B|301:276|301:276|292:245,2,76.5000014591217,0|0|10,3:0|3:0|0:1,0:0:0:0:
175,377,115474,1,0,3:0:0:0:
175,377,115631,1,0,3:0:0:0:
213,199,115787,1,10,0:1:0:0:
213,199,116102,6,0,P|281:222|350:145,1,180,4|12,3:1|0:3,0:0:0:0:
355,61,116573,1,0,0:0:0:0:
467,155,116730,1,0,3:0:0:0:
467,155,116887,1,0,3:0:0:0:
493,69,117044,1,12,0:3:0:0:
349,151,117201,6,0,B|266:163|276:116|173:130,1,180,4|0,3:1|3:0,0:0:0:0:
13,76,117672,2,0,P|55:64|96:83,1,90,12|0,0:3|0:0,0:0:0:0:
100,172,117986,1,0,3:0:0:0:
100,172,118143,1,0,3:0:0:0:
174,50,118301,2,0,P|221:43|281:63,1,90,12|0,0:3|0:0,0:0:0:0:
403,29,118615,6,0,B|427:102|358:115|395:210,1,180,4|12,3:1|0:3,0:0:0:0:
427,286,119086,1,0,0:0:0:0:
475,158,119243,1,0,3:0:0:0:
475,158,119400,1,0,3:0:0:0:
510,240,119557,1,12,0:3:0:0:
390,124,119714,6,0,P|326:110|236:193,1,180,4|0,3:1|3:0,0:0:0:0:
202,341,120185,2,0,P|215:299|202:257,1,90,12|0,0:3|0:0,0:0:0:0:
144,187,120499,1,0,3:0:0:0:
144,187,120657,1,0,3:0:0:0:
336,216,120814,1,12,0:3:0:0:
336,216,121128,5,2,3:0:0:0:
430,88,121285,2,0,L|413:36,2,33.7500012874604,0|0|8,3:0|3:0|0:3,0:0:0:0:
487,167,121599,1,2,3:0:0:0:
336,118,121756,2,0,L|278:115,2,33.7500012874604,0|0|8,3:0|3:0|0:3,3:0:0:0:
405,175,122070,1,2,3:0:0:0:
347,37,122227,2,0,L|338:4,2,33.7500012874604,0|0|8,3:0|3:0|0:3,0:0:0:0:
430,88,122541,1,2,3:0:0:0:
261,49,122698,2,0,L|203:46,2,33.7500012874604,0|0|8,3:0|3:0|0:3,3:0:0:0:
336,118,123013,5,2,3:0:0:0:
429,4,123170,1,0,3:0:0:0:
494,151,123327,1,10,0:3:0:0:
494,151,123641,5,2,3:0:0:0:
470,319,123798,2,0,L|465:361,2,33.7500012874604,0|0|8,3:0|3:0|0:3,0:0:0:0:
482,237,124112,1,2,3:0:0:0:
328,299,124269,2,0,L|289:315,2,33.7500012874604,0|0|8,3:0|3:0|0:3,0:0:0:0:
401,264,124583,1,2,3:0:0:0:
270,161,124740,2,0,L|236:135,2,33.7500012874604,0|0|8,3:0|3:0|0:3,0:0:0:0:
329,215,125054,1,2,3:0:0:0:
175,277,125211,2,0,L|136:293,2,33.7500012874604,0|0|8,3:0|3:0|0:3,0:0:0:0:
250,247,125526,5,10,3:0:0:0:
127,173,125683,1,0,3:0:0:0:
282,49,125840,1,8,0:3:0:0:
282,49,126154,5,6,3:0:0:0:
118,36,126311,2,0,L|76:45,2,33.7500012874604,4|0|8,3:0|3:0|0:3,0:0:0:0:
203,16,126625,1,6,3:0:0:0:
216,180,126782,2,0,L|207:222,2,33.7500012874604,4|0|8,3:0|3:0|0:3,0:0:0:0:
132,153,127096,1,6,3:0:0:0:
296,140,127253,2,0,L|338:149,2,33.7500012874604,4|0|8,3:0|3:0|0:3,0:0:0:0:
214,105,127568,1,6,3:0:0:0:
201,269,127725,2,0,L|210:311,2,33.7500012874604,4|0|8,3:0|3:0|0:3,0:0:0:0:
275,222,128039,5,6,3:0:0:0:
120,231,128196,1,0,3:0:0:0:
268,365,128353,1,14,0:3:0:0:
268,365,128667,6,0,B|294:377|325:369|325:369|360:340|360:340|392:329|438:343,1,170.999995433807,4|8,3:1|0:3,0:0:0:0:
501,380,129138,1,0,0:0:0:0:
449,261,129295,2,0,P|444:221|467:168,1,85.4999977169037,0|0,3:0|3:0,0:0:0:0:
489,54,129609,1,8,0:3:0:0:
489,54,129767,1,0,3:0:0:0:
420,104,129924,6,0,P|380:98|322:83,1,85.4999977169037,0|0,3:0|3:0,0:0:0:0:
210,46,130238,1,8,0:3:0:0:
254,131,130395,1,0,3:0:0:0:
120,50,130552,1,8,0:3:0:0:
120,50,130709,1,8,0:3:0:0:
178,199,130866,1,0,3:0:0:0:
210,46,131023,1,0,3:0:0:0:
95,149,131180,6,0,B|71:196|108:238|88:280,1,135.000005149842,6|0,3:1|3:1,0:0:0:0:
55,346,131651,1,0,3:0:0:0:
123,375,131808,2,0,B|169:382|169:382|264:350,1,135.000005149842,8|0,0:3|3:0,0:0:0:0:
301,296,132280,1,0,3:0:0:0:
226,282,132437,6,0,L|140:310,2,67.5000025749208,2|8|0,3:1|0:3|3:0,0:0:0:0:
276,227,132908,1,0,3:0:0:0:
376,312,133065,2,0,P|411:311|448:295,1,67.5000025749208,8|0,0:3|3:0,0:0:0:0:
417,229,133379,2,0,P|381:229|345:246,1,67.5000025749208,0|0,3:0|3:0,0:0:0:0:
283,356,133693,6,0,B|296:324|296:324|275:226,1,135.000005149842,2|0,3:1|3:0,0:0:0:0:
214,184,134164,1,0,3:0:0:0:
157,136,134321,2,0,P|215:108|273:138,1,135.000005149842,12|0,0:3|3:0,0:0:0:0:
343,165,134793,1,0,3:0:0:0:
391,108,134950,6,0,L|388:34,2,67.5000025749208,2|8|0,3:1|0:3|3:0,0:0:0:0:
420,176,135421,1,0,3:0:0:0:
273,138,135578,2,0,L|189:144,1,67.5000025749208,8|0,0:3|3:0,0:0:0:0:
131,150,135892,1,4,3:0:0:0:
131,150,136049,1,0,3:0:0:0:
174,209,136206,6,0,P|179:256|96:309,1,135.000005149842,6|0,3:1|3:0,0:0:0:0:
43,303,136678,1,0,3:0:0:0:
11,235,136835,2,0,L|29:90,1,135.000005149842,8|0,0:3|3:0,0:0:0:0:
83,51,137306,1,0,3:0:0:0:
123,113,137463,6,0,L|113:189,2,67.5000025749208,2|8|0,3:1|0:3|3:0,0:0:0:0:
186,74,137934,1,0,3:0:0:0:
244,194,138091,2,0,L|236:261,1,67.5000025749208,8|0,0:3|3:0,0:0:0:0:
157,303,138405,2,0,L|165:236,1,67.5000025749208,0|0,3:0|3:0,0:0:0:0:
252,116,138719,6,0,B|329:92|325:139|402:113,1,135.000005149842,2|0,3:1|3:0,0:0:0:0:
444,73,139191,1,0,3:0:0:0:
495,126,139348,2,0,P|510:179|482:263,1,135.000005149842,12|0,0:3|3:0,0:0:0:0:
427,295,139819,1,0,3:0:0:0:
358,266,139976,6,0,L|277:265,2,67.5000025749208,2|8|0,3:1|0:3|3:0,0:0:0:0:
312,367,140447,1,0,3:0:0:0:
159,305,140604,1,8,0:3:0:0:
159,305,140761,1,8,0:3:0:0:
159,305,140918,2,0,L|227:306,1,67.5000025749208,4|0,3:0|3:0,0:0:0:0:
351,190,141232,6,0,B|258:187|258:187|223:196|208:254,1,153.000002918243,4|0,3:1|3:0,0:0:0:0:
226,305,141704,1,0,3:0:0:0:
157,338,141861,2,0,P|114:341|68:312,1,76.5000014591217,8|0,0:3|3:0,0:0:0:0:
49,259,142175,1,0,3:0:0:0:
49,259,142332,6,0,P|39:222|46:172,1,76.5000014591217,0|0,3:0|3:0,0:0:0:0:
110,64,142646,1,8,0:3:0:0:
110,64,142803,2,0,P|113:102|104:139,1,76.5000014591217,0|0,3:0|3:0,0:0:0:0:
175,254,143117,2,0,P|174:176|233:124,1,153.000002918243,8|0,0:3|3:0,0:0:0:0:
299,109,143589,1,8,0:3:0:0:
356,159,143746,6,0,L|358:328,1,153.000002918243,4|0,3:1|3:0,0:0:0:0:
408,368,144217,1,0,3:0:0:0:
460,312,144374,2,0,L|467:213,1,76.5000014591217,8|0,0:3|3:0,0:0:0:0:
464,159,144688,1,0,3:0:0:0:
463,158,144845,6,0,P|435:133|421:98,1,76.5000014591217,0|0,3:0|3:0,0:0:0:0:
304,15,145159,1,8,0:3:0:0:
304,15,145316,2,0,P|332:40|347:76,1,76.5000014591217,0|0,3:0|3:0,0:0:0:0:
279,173,145630,1,8,0:3:0:0:
262,97,145787,1,8,0:3:0:0:
190,70,145945,1,0,3:0:0:0:
190,70,146102,1,8,0:3:0:0:
133,190,146259,6,0,B|115:229|135:266|135:266|132:305|84:329,1,153.000002918243,4|0,3:1|3:0,0:0:0:0:
45,264,146730,1,0,3:0:0:0:
205,223,146887,2,0,L|294:225,1,76.5000014591217,8|0,0:3|3:0,0:0:0:0:
362,280,147201,1,0,3:0:0:0:
362,280,147358,1,0,3:0:0:0:
430,114,147515,6,0,P|366:85|328:144,1,153.000002918243,4|0,3:1|3:0,0:0:0:0:
281,224,147986,1,0,3:0:0:0:
213,128,148143,2,0,P|178:112|119:111,1,76.5000014591217,8|0,0:3|3:0,0:0:0:0:
22,221,148458,1,4,3:1:0:0:
22,221,148772,5,4,3:1:0:0:
75,347,148929,1,8,3:3:0:0:
126,211,149086,1,0,3:1:0:0:
126,211,149243,1,0,3:3:0:0:
174,295,149400,6,0,L|184:336,3,38.2500007295609,12|0|0|0,3:3|3:1|3:1|3:1,0:0:0:0:
221,216,149714,2,0,L|231:175,3,38.2500007295609,12|0|0|0,3:3|3:1|3:1|3:1,0:0:0:0:
294,312,150028,1,8,0:3:0:0:
294,312,150107,1,8,0:3:0:0:
294,312,150185,1,8,0:3:0:0:
294,312,150264,1,8,0:3:0:0:
294,312,150342,2,0,L|349:314,3,38.2500007295609,8|8|8|8,0:3|0:3|0:3|0:3,0:0:0:0:
416,250,150657,2,0,L|471:252,3,38.2500007295609,8|8|8|8,0:3|0:3|0:3|0:3,0:0:0:0:
348,180,150971,2,0,L|293:182,3,38.2500007295609,8|8|8|8,0:3|0:3|0:3|0:3,0:0:0:0:
442,132,151285,6,0,P|453:87|410:39,1,90,4|0,3:1|0:0,0:0:0:0:
278,87,151599,2,0,L|188:85,1,90,12|0,0:0|0:0,0:0:0:0:
55,228,151913,2,0,P|44:183|87:135,1,90,0|0,3:0|0:0,0:0:0:0:
219,183,152227,2,0,L|309:181,1,90,12|0,0:0|0:0,0:0:0:0:
440,311,152541,1,0,3:0:0:0:
420,210,152698,1,0,3:0:0:0:
295,331,152856,6,0,P|260:305|200:300,1,90,12|0,0:0|0:0,0:0:0:0:
104,376,153170,1,0,3:0:0:0:
104,376,153327,1,0,3:0:0:0:
130,253,153484,2,0,P|126:213|88:166,1,90,12|0,0:0|0:0,0:0:0:0:
180,13,153798,6,0,P|172:77|193:121,1,90,0|0,3:0|0:0,0:0:0:0:
251,263,154112,2,0,P|243:199|264:155,1,90,12|0,0:0|0:0,0:0:0:0:
320,0,154426,2,0,P|312:64|333:108,1,90,0|0,3:0|0:0,0:0:0:0:
391,250,154740,2,0,P|383:186|404:142,1,90,12|0,0:0|0:0,0:0:0:0:
472,46,155054,5,0,3:0:0:0:
485,135,155212,1,0,3:0:0:0:
343,71,155369,2,0,P|305:63|252:65,1,90,12|0,0:0|0:0,0:0:0:0:
100,108,155683,1,0,3:0:0:0:
100,108,155840,1,0,3:0:0:0:
162,304,155997,1,12,0:1:0:0:
162,304,156311,6,0,P|152:241|164:202,1,90,0|0,3:0|0:0,0:0:0:0:
301,127,156625,2,0,L|300:232,1,90,12|0,0:0|0:0,0:0:0:0:
429,309,156939,2,0,P|439:265|433:221,1,90,0|0,3:0|0:0,0:0:0:0:
342,55,157253,2,0,P|298:44|256:57,1,90,12|0,0:0|0:0,0:0:0:0:
123,145,157568,5,0,3:0:0:0:
144,44,157725,1,0,3:0:0:0:
242,164,157882,2,0,P|252:211|238:265,1,90,12|0,0:0|0:0,0:0:0:0:
89,316,158196,2,0,L|179:313,1,90,0|0,3:0|3:0,0:0:0:0:
339,361,158510,2,0,P|331:317|350:278,1,90,12|0,0:0|0:0,0:0:0:0:
500,182,158824,6,0,P|456:194|411:179,1,90,12|0,0:1|3:0,0:0:0:0:
344,118,159138,1,0,3:0:0:0:
496,57,159295,2,0,P|448:47|407:59,1,90,12|0,0:1|3:0,0:0:0:0:
285,201,159609,1,0,3:0:0:0:
186,33,159767,1,8,0:0:0:0:
186,33,160081,6,0,P|174:77|189:122,1,90,12|0,0:1|3:0,0:0:0:0:
250,189,160395,1,0,3:0:0:0:
82,163,160552,2,0,P|114:193|157:205,1,90,12|0,0:1|3:0,0:0:0:0:
347,177,160866,1,0,3:0:0:0:
257,349,161023,1,8,0:0:0:0:
257,349,161337,6,0,B|230:333|230:333|142:325,1,90,4|0,3:1|0:0,0:0:0:0:
22,242,161651,2,0,B|49:258|49:258|108:264,1,90,12|0,0:0|0:0,0:0:0:0:
279,260,161965,2,0,B|252:244|252:244|164:236,1,90,0|0,3:0|0:0,0:0:0:0:
44,153,162279,2,0,B|71:169|71:169|129:174,1,90,12|0,0:0|0:0,0:0:0:0:
308,181,162594,5,0,3:0:0:0:
221,114,162751,1,0,3:0:0:0:
193,238,162908,2,0,P|189:288|236:339,1,90,12|0,0:0|0:0,0:0:0:0:
370,350,163222,1,0,3:0:0:0:
370,350,163379,1,0,3:0:0:0:
444,163,163536,1,12,0:0:0:0:
456,285,163693,1,0,3:0:0:0:
335,151,163850,6,0,P|272:138|236:168,1,90,4|0,3:1|0:0,0:0:0:0:
85,230,164164,2,0,P|126:215|167:232,1,90,12|0,0:0|0:0,0:0:0:0:
287,345,164479,1,0,3:0:0:0:
292,255,164636,1,0,3:0:0:0:
166,351,164793,2,0,P|124:367|83:353,1,90,12|0,0:0|0:0,0:0:0:0:
8,222,165107,6,0,L|25:110,1,90,0|0,3:0|3:0,0:0:0:0:
238,59,165421,2,0,L|251:147,1,90,12|0,0:0|0:0,0:0:0:0:
156,268,165735,1,0,3:0:0:0:
156,268,165892,1,0,3:0:0:0:
114,69,166049,1,12,0:1:0:0:
114,69,166363,6,0,P|169:66|226:49,1,90,0|0,3:0|0:0,0:0:0:0:
397,54,166678,2,0,P|341:51|285:34,1,90,12|0,0:0|0:0,0:0:0:0:
190,170,166992,1,0,3:0:0:0:
233,91,167149,1,0,3:0:0:0:
348,185,167306,2,0,P|361:231|334:275,1,90,12|0,0:0|0:0,0:0:0:0:
216,346,167620,6,0,L|106:334,1,90,0|0,3:0|0:0,0:0:0:0:
24,231,167934,2,0,P|71:235|110:208,1,90,12|0,0:0|0:0,0:0:0:0:
185,80,168248,2,0,L|190:191,1,90,0|0,3:0|3:0,0:0:0:0:
48,151,168562,1,12,0:0:0:0:
48,151,168719,1,0,3:0:0:0:
179,257,168876,6,0,P|229:254|270:209,1,90,12|0,0:1|3:0,0:0:0:0:
300,149,169191,1,0,3:0:0:0:
426,259,169348,2,0,P|376:256|335:211,1,90,12|0,0:1|3:0,0:0:0:0:
373,92,169662,1,0,3:0:0:0:
300,149,169819,2,0,L|193:153,1,90,8|0,0:0|3:0,0:0:0:0:
96,50,170133,6,0,P|120:87|122:132,1,90,12|0,0:1|3:0,0:0:0:0:
84,268,170447,1,0,3:0:0:0:
51,184,170604,1,12,0:1:0:0:
173,268,170761,1,0,3:0:0:0:
37,339,170918,1,0,3:0:0:0:
139,177,171075,1,8,0:0:0:0:
139,177,171390,6,0,P|179:168|244:196,1,90,4|0,3:1|0:0,0:0:0:0:
334,314,171704,1,10,0:1:0:0:
334,314,171861,1,0,3:0:0:0:
367,220,172018,2,0,L|365:106,1,90,0|0,3:0|0:0,0:0:0:0:
225,35,172332,1,10,0:1:0:0:
225,35,172489,1,0,3:0:0:0:
174,120,172646,6,0,P|217:135|279:108,1,90,0|0,3:0|0:0,0:0:0:0:
399,34,172960,1,10,0:1:0:0:
399,34,173117,1,0,3:0:0:0:
466,106,173274,2,0,L|467:195,1,90,0|0,3:0|0:0,0:0:0:0:
434,357,173589,1,10,0:1:0:0:
434,357,173746,1,0,3:0:0:0:
310,268,173903,6,0,B|214:247|242:306|135:282,1,180,4|10,3:1|0:1,0:0:0:0:
60,217,174374,1,0,3:0:0:0:
166,165,174531,2,0,P|183:125|162:66,1,90,0|0,3:0|0:0,0:0:0:0:
4,118,174845,2,0,L|112:120,1,90,10|0,0:1|3:0,0:0:0:0:
210,6,175159,6,0,P|178:36|173:80,1,90,0|0,3:0|0:0,0:0:0:0:
249,221,175473,1,10,0:1:0:0:
249,221,175630,1,0,3:0:0:0:
330,137,175787,2,0,P|369:126|432:155,1,90,0|0,3:0|0:0,0:0:0:0:
418,302,176102,2,0,P|378:312|315:283,1,90,10|0,0:1|3:0,0:0:0:0:
237,131,176416,6,0,L|249:221,1,90,4|0,3:1|0:0,0:0:0:0:
117,93,176730,2,0,L|105:182,1,90,10|0,0:1|3:0,0:0:0:0:
172,336,177044,2,0,P|158:294|169:251,1,90,0|0,3:0|0:0,0:0:0:0:
336,252,177358,2,0,P|346:295|332:337,1,90,10|0,0:1|3:0,0:0:0:0:
249,221,177672,6,0,L|250:128,1,90,0|0,3:0|0:0,0:0:0:0:
367,21,177986,1,10,0:1:0:0:
367,21,178143,1,0,3:0:0:0:
334,139,178301,2,0,P|294:147|228:106,1,90,0|0,3:0|0:0,0:0:0:0:
120,7,178615,2,0,P|143:44|142:89,1,90,8|0,0:1|0:0,0:0:0:0:
40,259,178929,5,12,0:1:0:0:
40,259,179086,1,0,3:0:0:0:
232,206,179243,1,12,0:1:0:0:
232,206,179400,1,0,3:0:0:0:
166,365,179557,1,12,0:1:0:0:
166,365,179714,1,0,3:0:0:0:
107,171,179871,1,12,0:1:0:0:
107,171,180028,1,0,3:0:0:0:
238,303,180185,6,0,P|285:309|336:271,1,90,12|0,0:1|3:0,0:0:0:0:
397,103,180499,2,0,L|394:201,1,90,12|0,0:1|3:0,0:0:0:0:
425,352,180814,1,8,0:1:0:0:
425,352,180971,1,0,3:0:0:0:
310,204,181128,2,0,P|263:198|212:236,1,90,8|0,0:1|3:0,0:0:0:0:
100,323,181442,6,0,P|126:274|49:170,1,180,4|8,3:1|0:3,0:0:0:0:
11,106,181913,1,0,0:0:0:0:
156,34,182070,1,0,3:0:0:0:
156,34,182227,2,0,L|258:40,1,90,2|0,3:0|0:0,0:0:0:0:
420,52,182541,6,0,B|377:30|328:43|328:43|328:96|283:112,1,180,8|0,0:3|3:0,0:0:0:0:
101,127,183013,2,0,P|143:111|187:114,1,90,10|0,0:3|3:0,0:0:0:0:
297,194,183327,1,0,3:0:0:0:
297,194,183484,1,0,3:0:0:0:
224,246,183641,2,0,L|122:245,1,90,10|0,0:3|3:0,0:0:0:0:
195,347,183955,6,0,B|272:370|291:311|372:350,1,180,4|10,3:2|0:3,0:0:0:0:
458,370,184426,1,0,0:0:0:0:
496,230,184583,1,0,3:2:0:0:
496,230,184740,2,0,L|460:136,1,90,2|0,3:3|0:0,0:0:0:0:
352,33,185054,6,0,P|389:81|304:152,1,180,8|0,0:3|3:3,0:0:0:0:
271,79,185526,1,10,0:3:0:0:
206,205,185683,1,0,3:0:0:0:
206,205,185761,1,0,3:0:0:0:
206,205,185840,2,0,B|169:212|169:212|99:201,2,90,0|0|10,3:0|3:0|0:3,0:0:0:0:
170,101,186311,1,0,3:0:0:0:
55,146,186468,6,0,P|28:212|124:291,1,180,4|8,3:1|0:3,0:0:0:0:
180,294,186939,1,0,0:0:0:0:
294,169,187096,1,0,3:0:0:0:
294,169,187253,2,0,L|297:272,1,90,2|0,3:0|0:0,0:0:0:0:
391,355,187568,6,0,L|384:137,1,180,8|0,0:3|3:0,0:0:0:0:
351,91,188039,1,10,0:3:0:0:
476,145,188196,1,0,3:0:0:0:
476,145,188274,1,0,3:0:0:0:
476,145,188353,1,0,3:0:0:0:
439,62,188510,1,0,3:0:0:0:
371,193,188667,2,0,P|333:199|272:185,1,90,10|0,0:3|3:0,0:0:0:0:
146,71,188981,5,8,0:3:0:0:
133,226,189138,2,0,L|133:282,2,45,8|8|0,3:0|3:0|3:0,0:0:0:0:
91,146,189452,1,8,0:3:0:0:
62,309,189609,2,0,L|62:365,2,45,8|8|0,3:0|3:0|3:0,0:0:0:0:
26,225,189924,1,8,0:3:0:0:
181,149,190081,2,0,L|237:149,2,45,8|8|0,3:0|3:0|3:0,0:0:0:0:
91,146,190395,1,8,0:3:0:0:
244,269,190552,1,8,0:3:0:0:
