osu file format v14

[General]
AudioFilename: audio.mp3
AudioLeadIn: 0
PreviewTime: 60185
Countdown: 0
SampleSet: Soft
StackLeniency: 0.7
Mode: 0
LetterboxInBreaks: 0
WidescreenStoryboard: 0

[Editor]
Bookmarks: 15564,30643,50747,57658,60800,80904,121114,131166,151271
DistanceSpacing: 1.1
BeatDivisor: 4
GridSize: 32
TimelineZoom: 1.4

[Metadata]
Title:After Dark
TitleUnicode:アフターダーク
Artist:ASIAN KUNG-FU GENERATION
ArtistUnicode:ASIAN KUNG-FU GENERATION
Creator:Seto Kousuke
Version:Hard
Source:BLEACH
Tags:World ワールド ブリーチ Opening yshadowxop_ shadowX -Mikan Mikan
BeatmapID:1787985
BeatmapSetID:855765

[Difficulty]
HPDrainRate:4
CircleSize:4
OverallDifficulty:6
ApproachRate:7.5
SliderMultiplier:1.4
SliderTickRate:1

[Events]
//Background and Video events
0,0,"anime-1537905070603-7844.jpg",0,0
//Break Periods
2,91171,100198
2,131380,140407
//Storyboard Layer 0 (Background)
//Storyboard Layer 1 (Fail)
//Storyboard Layer 2 (Pass)
//Storyboard Layer 3 (Foreground)
//Storyboard Sound Samples

[TimingPoints]
500,314.13612565445,4,2,1,90,1,0
20604,-100,4,2,1,70,0,0
25630,-100,4,2,1,90,0,0
30657,-100,4,2,1,70,0,0
35683,-100,4,2,1,90,0,0
40709,-100,4,2,1,70,0,0
45735,-100,4,2,1,90,0,0
50761,-100,4,2,1,70,0,0
58301,-100,4,2,1,80,0,0
60814,-100,4,2,1,100,0,1
90971,-100,4,2,1,70,0,0
116102,-100,4,2,1,90,0,0
121128,-100,4,2,1,70,0,0
128667,-100,4,2,1,90,0,0
131180,-100,4,2,1,70,0,0
141232,-100,4,2,1,80,0,0
151285,-100,4,2,1,100,0,1
181442,-100,4,2,1,70,0,0

[Colours]
Combo1 : 210,150,52
Combo2 : 113,111,133
Combo3 : 225,95,63
Combo4 : 130,156,171

[HitObjects]
102,190,14950,6,0,P|137:192|170:180,1,70,8|0,3:1|3:0,0:0:0:0:
222,123,15264,1,12,0:0:0:0:
299,256,15578,6,0,P|368:273|410:210,1,140,4|12,3:1|0:3,0:0:0:0:
291,125,16206,2,0,L|221:122,1,70,0|0,3:0|3:0,0:0:0:0:
177,58,16520,1,12,0:3:0:0:
177,58,16678,2,0,P|140:109|174:183,1,140,4|0,3:1|3:0,0:0:0:0:
237,202,17149,2,0,L|306:204,1,70,12|0,0:3|0:0,0:0:0:0:
366,155,17463,1,0,3:0:0:0:
366,155,17620,1,0,3:0:0:0:
430,196,17777,2,0,P|442:232|423:272,1,70,12|0,0:3|0:0,0:0:0:0:
399,330,18091,6,0,B|378:361|378:361|336:374|260:354,1,140,4|12,3:1|0:3,0:0:0:0:
248,206,18719,2,0,P|252:240|231:280,1,70,0|0,3:0|3:0,0:0:0:0:
182,325,19033,1,12,0:3:0:0:
182,325,19191,2,0,B|140:339|140:339|32:293,1,140,4|0,3:1|3:0,0:0:0:0:
14,234,19662,2,0,P|10:203|29:166,1,70,12|0,0:3|0:0,0:0:0:0:
91,127,19976,1,0,3:0:0:0:
91,127,20133,1,0,3:0:0:0:
156,167,20290,2,0,B|188:176|188:176|229:166,1,70,12|0,0:3|0:0,0:0:0:0:
266,230,20604,6,0,P|300:171|272:110,1,140,4|8,3:1|0:3,0:0:0:0:
128,60,21232,2,0,L|216:39,1,70,0|2,3:0|3:0,0:0:0:0:
272,34,21547,1,0,0:0:0:0:
272,34,21704,2,0,B|346:18|336:52|422:38,1,140,8|0,0:3|3:0,0:0:0:0:
486,53,22175,2,0,P|473:89|479:132,1,70,10|0,0:3|3:0,0:0:0:0:
494,194,22489,1,0,3:0:0:0:
494,194,22646,1,0,3:0:0:0:
467,266,22803,2,0,P|434:275|384:256,1,70,10|0,0:3|3:0,0:0:0:0:
342,216,23117,6,0,P|289:198|211:232,1,140,4|10,3:2|0:3,0:0:0:0:
78,301,23746,2,0,P|95:273|87:214,1,70,0|2,3:2|3:3,0:0:0:0:
60,166,24060,1,0,0:0:0:0:
60,166,24217,2,0,P|101:156|128:128,1,70,8|0,0:3|0:0,0:0:0:0:
144,64,24531,1,0,3:3:0:0:
216,90,24688,2,0,L|295:80,1,70,10|0,0:3|3:0,0:0:0:0:
343,30,25002,1,0,3:0:0:0:
343,30,25159,1,0,3:0:0:0:
406,72,25316,1,10,0:3:0:0:
291,175,25630,6,0,P|266:244|315:300,1,140,4|12,3:1|0:3,0:0:0:0:
431,210,26259,2,0,L|434:120,1,70,0|0,3:0|3:0,0:0:0:0:
495,94,26573,1,12,0:3:0:0:
495,94,26730,2,0,P|445:60|371:96,1,140,4|0,3:1|3:0,0:0:0:0:
353,162,27201,2,0,L|350:231,1,70,12|0,0:3|0:0,0:0:0:0:
403,287,27515,1,0,3:0:0:0:
403,287,27672,1,0,3:0:0:0:
356,348,27829,2,0,P|324:361|272:353,1,70,12|0,0:3|0:0,0:0:0:0:
251,293,28143,6,0,B|235:224|275:227|245:139,1,140,4|12,3:1|0:3,0:0:0:0:
138,47,28772,2,0,P|121:81|135:129,1,70,0|0,3:0|3:0,0:0:0:0:
176,175,29086,1,12,0:3:0:0:
176,175,29243,2,0,P|157:245|100:271,1,140,4|0,3:1|3:0,0:0:0:0:
27,297,29714,2,0,P|20:265|40:220,1,70,12|0,0:3|0:0,0:0:0:0:
99,191,30028,1,0,3:0:0:0:
99,191,30185,1,0,3:0:0:0:
57,126,30342,1,12,0:3:0:0:
201,181,30657,6,0,B|236:192|279:174|279:174|319:191|322:231,1,140,4|8,3:1|0:3,0:0:0:0:
386,354,31285,1,0,3:0:0:0:
386,354,31442,1,2,3:0:0:0:
471,226,31756,2,0,L|455:71,1,140,8|0,0:3|3:0,0:0:0:0:
407,27,32227,2,0,P|373:23|332:36,1,70,10|0,0:3|3:0,0:0:0:0:
280,82,32541,1,0,3:0:0:0:
280,82,32698,1,0,3:0:0:0:
209,49,32856,1,10,0:3:0:0:
142,187,33170,6,0,B|165:218|165:218|218:203|277:227,1,140,4|10,3:2|0:3,0:0:0:0:
381,322,33798,1,0,3:2:0:0:
381,322,33955,1,2,3:3:0:0:
238,367,34269,2,0,L|66:361,1,140,8|0,0:3|3:3,0:0:0:0:
32,321,34740,2,0,P|53:293|62:238,1,70,10|0,0:3|3:0,0:0:0:0:
101,165,35054,2,0,P|111:199|132:227,1,70,0|0,3:0|3:0,0:0:0:0:
206,249,35369,1,10,0:3:0:0:
306,132,35683,6,0,P|323:76|246:57,1,140,4|12,3:1|0:3,0:0:0:0:
107,25,36311,2,0,P|79:45|61:91,1,70,0|0,3:0|3:0,0:0:0:0:
52,152,36625,1,12,0:3:0:0:
52,152,36782,2,0,L|202:143,1,140,4|0,3:1|3:0,0:0:0:0:
259,180,37253,2,0,P|274:214|257:268,1,70,12|0,0:3|0:0,0:0:0:0:
226,309,37568,1,0,3:0:0:0:
226,309,37725,1,0,3:0:0:0:
275,367,37882,2,0,L|376:356,1,70,12|0,0:3|0:0,0:0:0:0:
432,363,38196,6,0,P|414:323|469:241,1,140,4|12,3:1|0:3,0:0:0:0:
500,97,38824,2,0,P|471:108|419:91,1,70,0|0,3:0|3:0,0:0:0:0:
385,40,39138,1,12,0:3:0:0:
385,40,39295,2,0,B|330:22|313:76|246:35,1,140,4|0,3:1|3:0,0:0:0:0:
174,19,39767,2,0,P|135:18|91:41,1,70,12|0,0:3|0:0,0:0:0:0:
44,75,40081,1,0,3:0:0:0:
44,75,40238,1,0,3:0:0:0:
57,150,40395,1,12,0:3:0:0:
174,249,40709,6,0,B|221:247|221:247|265:216|265:216|323:214,1,140,4|8,3:1|0:3,0:0:0:0:
434,296,41337,1,0,3:0:0:0:
434,296,41494,1,2,3:0:0:0:
482,149,41808,2,0,P|441:102|396:150,1,140,8|0,0:3|3:0,0:0:0:0:
321,124,42280,2,0,P|319:158|333:191,1,70,10|0,0:3|3:0,0:0:0:0:
402,223,42594,1,0,3:0:0:0:
402,223,42751,1,0,3:0:0:0:
371,293,42908,1,10,0:3:0:0:
230,356,43222,6,0,B|185:366|185:366|80:328,1,140,4|10,3:2|0:3,0:0:0:0:
20,200,43850,2,0,P|13:166|29:135,1,70,0|2,3:2|3:3,0:0:0:0:
94,94,44164,1,0,0:0:0:0:
94,94,44321,2,0,B|170:78|165:120|248:92,1,140,8|0,0:3|3:3,0:0:0:0:
287,42,44793,2,0,P|307:68|303:117,1,70,10|0,0:3|3:0,0:0:0:0:
212,190,45107,2,0,P|241:171|276:174,1,70,0|0,3:0|3:0,0:0:0:0:
352,166,45421,1,10,0:3:0:0:
413,307,45735,6,0,B|391:275|405:239|405:239|440:210|434:170,1,140,4|12,3:1|0:3,0:0:0:0:
334,63,46363,2,0,L|235:62,1,70,0|0,3:0|3:0,0:0:0:0:
197,21,46678,1,12,0:3:0:0:
197,21,46835,2,0,P|184:87|238:134,1,140,4|0,3:1|3:0,0:0:0:0:
295,177,47306,2,0,P|308:208|290:263,1,70,12|0,0:3|0:0,0:0:0:0:
249,298,47620,1,0,3:0:0:0:
249,298,47777,1,0,3:0:0:0:
185,253,47934,2,0,P|142:243|103:249,1,70,12|0,0:3|0:0,0:0:0:0:
10,276,48248,6,0,P|42:241|15:135,1,140,4|12,3:1|0:3,0:0:0:0:
107,18,48876,2,0,P|107:53|135:92,1,70,0|0,3:0|3:0,0:0:0:0:
189,124,49191,1,12,0:3:0:0:
189,124,49348,2,0,B|232:131|232:131|278:101|294:51,1,140,4|0,3:1|3:0,0:0:0:0:
370,10,49819,2,0,P|364:41|374:85,1,70,12|0,0:3|0:0,0:0:0:0:
426,131,50133,1,0,3:0:0:0:
426,131,50290,1,0,3:0:0:0:
382,194,50447,1,12,0:3:0:0:
464,323,50761,5,2,3:0:0:0:
464,323,50918,2,0,L|367:313,1,70,0|8,3:0|0:3,0:0:0:0:
339,262,51232,1,2,3:0:0:0:
339,262,51389,2,0,L|270:270,1,70,0|8,3:0|0:3,0:0:0:0:
255,353,51704,1,2,3:0:0:0:
255,353,51861,2,0,L|325:346,1,70,0|8,3:0|0:3,0:0:0:0:
196,298,52175,1,2,3:0:0:0:
196,298,52332,2,0,L|127:291,1,70,0|8,3:0|0:3,0:0:0:0:
118,212,52646,2,0,L|49:219,2,70,2|0|10,3:0|3:0|0:3,0:0:0:0:
271,204,53274,5,2,3:0:0:0:
271,204,53431,2,0,L|329:129,1,70,0|8,3:0|0:3,0:0:0:0:
359,85,53746,1,2,3:0:0:0:
359,85,53903,2,0,L|317:29,1,70,0|8,3:0|0:3,0:0:0:0:
255,92,54217,1,2,3:0:0:0:
255,92,54374,2,0,L|213:147,1,70,0|8,3:0|0:3,0:0:0:0:
135,139,54688,1,2,3:0:0:0:
135,139,54845,2,0,L|92:84,1,70,0|8,3:0|0:3,0:0:0:0:
165,207,55159,2,0,L|167:306,2,70,10|0|8,3:0|3:0|0:3,0:0:0:0:
217,61,55787,5,2,3:0:0:0:
217,61,55945,2,0,P|179:67|122:57,1,70,0|8,3:0|0:3,0:0:0:0:
34,128,56259,1,2,3:0:0:0:
33,128,56417,2,0,P|68:122|103:124,1,70,0|8,3:0|0:3,0:0:0:0:
221,186,56730,1,2,3:0:0:0:
221,186,56888,2,0,P|183:192|126:182,1,70,0|8,3:0|0:3,0:0:0:0:
40,259,57201,1,2,3:0:0:0:
40,259,57359,2,0,P|78:253|135:263,1,70,0|8,3:0|0:3,0:0:0:0:
156,315,57672,2,0,P|194:321|248:303,1,70,2|0,3:0|3:0,0:0:0:0:
273,255,57986,1,10,0:3:0:0:
213,112,58301,6,0,B|214:159|214:159|190:192|190:192|190:244,1,140,4|8,3:1|0:3,0:0:0:0:
224,315,58772,1,0,0:0:0:0:
299,329,58929,2,0,L|379:304,1,70,0|0,3:0|3:0,0:0:0:0:
427,354,59243,2,0,P|443:321|435:280,1,70,8|0,0:3|3:0,0:0:0:0:
388,234,59557,1,0,3:0:0:0:
388,234,59714,1,0,3:0:0:0:
450,189,59871,2,0,P|462:154|454:109,1,70,8|0,0:3|3:0,0:0:0:0:
426,51,60185,2,0,P|395:41|361:14,1,70,0|0,3:0|3:0,0:0:0:0:
288,14,60499,2,0,P|262:36|227:48,1,70,8|8,0:3|0:3,0:0:0:0:
161,6,60814,6,0,P|152:74|199:122,1,140,4|12,3:1|0:0,0:0:0:0:
275,137,61285,1,0,3:0:0:0:
275,137,61442,2,0,B|342:153|337:112|419:140,1,140,0|12,3:0|0:0,0:0:0:0:
483,167,61913,1,0,3:0:0:0:
495,242,62070,2,0,P|485:275|465:303,1,70,0|0,3:0|0:0,0:0:0:0:
405,351,62384,2,0,P|380:314|333:306,1,70,12|0,0:0|0:0,0:0:0:0:
284,220,62698,2,0,P|290:255|282:289,1,70,0|0,3:0|0:0,0:0:0:0:
250,358,63013,2,0,P|217:343|167:345,1,70,12|0,0:0|0:0,0:0:0:0:
90,286,63327,6,0,P|157:267|168:189,1,140,0|12,3:0|0:0,0:0:0:0:
158,129,63798,1,0,3:0:0:0:
158,129,63955,2,0,B|158:90|178:67|178:67|227:63|253:97,1,140,0|12,3:0|0:0,0:0:0:0:
303,139,64426,1,0,3:0:0:0:
335,208,64583,2,0,P|331:241|300:283,1,70,0|0,3:0|0:0,0:0:0:0:
308,363,64897,2,0,P|334:341|385:334,1,70,12|0,0:0|0:0,0:0:0:0:
490,305,65212,1,0,3:0:0:0:
490,305,65369,1,0,3:0:0:0:
442,365,65526,1,12,0:1:0:0:
312,272,65840,6,0,P|303:207|343:148,1,140,0|12,3:0|0:0,0:0:0:0:
415,121,66311,1,0,3:0:0:0:
415,121,66468,2,0,B|407:79|369:70|369:70|284:72,1,140,0|12,3:0|0:0,0:0:0:0:
225,75,66939,1,0,3:0:0:0:
175,133,67096,2,0,P|164:165|171:202,2,70,0|0|12,3:0|3:0|0:0,0:0:0:0:
125,73,67568,1,0,3:0:0:0:
62,117,67725,2,0,P|46:152|53:202,1,70,0|0,3:0|3:0,0:0:0:0:
65,257,68039,1,12,0:0:0:0:
220,234,68353,6,0,L|369:214,1,140,12|0,0:1|3:0,0:0:0:0:
457,282,68824,1,12,0:1:0:0:
457,282,68981,2,0,P|437:254|435:220,1,70,0|0,3:0|3:0,0:0:0:0:
459,146,69295,1,8,0:0:0:0:
332,58,69609,6,0,L|183:78,1,140,12|0,0:1|3:0,0:0:0:0:
63,88,70080,1,12,0:1:0:0:
63,88,70237,2,0,P|97:90|124:110,1,70,0|0,3:0|3:0,0:0:0:0:
157,186,70551,1,8,0:0:0:0:
157,186,70866,6,0,B|222:206|228:163|310:191,1,140,4|12,3:1|0:0,0:0:0:0:
358,239,71337,1,0,3:0:0:0:
358,239,71494,2,0,P|391:298|349:357,1,140,0|12,3:0|0:0,0:0:0:0:
280,368,71965,1,0,3:0:0:0:
222,317,72123,2,0,P|187:310|138:330,1,70,0|0,3:0|0:0,0:0:0:0:
32,265,72437,2,0,P|66:272|100:264,1,70,12|0,0:0|0:0,0:0:0:0:
219,205,72751,2,0,P|185:198|152:207,1,70,0|0,3:0|0:0,0:0:0:0:
29,153,73065,2,0,P|63:160|97:152,1,70,12|0,0:0|0:0,0:0:0:0:
223,98,73379,6,0,B|194:88|165:100|165:100|136:65|87:75,1,140,4|12,3:1|0:0,0:0:0:0:
15,75,73850,1,0,3:0:0:0:
52,7,74007,2,0,P|121:-4|188:21,1,140,0|12,3:0|0:0,0:0:0:0:
223,98,74479,1,0,3:0:0:0:
292,44,74636,2,0,P|328:33|373:43,1,70,0|0,3:0|0:0,0:0:0:0:
494,42,74950,2,0,P|459:46|430:65,1,70,12|0,0:0|0:0,0:0:0:0:
377,190,75264,1,0,3:0:0:0:
377,190,75421,1,0,3:0:0:0:
373,114,75578,1,12,0:1:0:0:
477,239,75892,6,0,P|496:304|436:343,1,140,0|12,3:0|0:0,0:0:0:0:
368,347,76363,1,0,3:0:0:0:
368,347,76520,2,0,B|335:349|335:349|275:323|275:323|218:332,1,140,0|12,3:0|0:0,0:0:0:0:
156,330,76992,1,0,3:0:0:0:
96,280,77149,2,0,B|85:248|85:248|100:194,1,70,0|0,3:0|3:0,0:0:0:0:
203,191,77463,2,0,B|212:226|212:226|202:257,1,70,12|0,0:0|0:0,0:0:0:0:
142,143,77777,2,0,B|131:111|131:111|141:76,1,70,0|0,3:0|3:0,0:0:0:0:
190,16,78091,1,12,0:0:0:0:
313,107,78405,6,0,B|361:101|399:126|399:126|410:106|447:94,1,140,12|0,0:1|3:0,0:0:0:0:
467,236,78876,1,12,0:1:0:0:
467,236,79034,2,0,P|473:202|458:170,1,70,0|0,3:0|3:0,0:0:0:0:
392,213,79348,1,8,0:0:0:0:
328,353,79662,6,0,B|292:376|292:376|249:336|190:350,1,140,12|0,0:1|3:0,0:0:0:0:
127,365,80133,1,12,0:1:0:0:
140,288,80290,2,0,P|136:253|114:226,1,70,0|0,3:0|3:0,0:0:0:0:
78,161,80604,1,8,0:2:0:0:
78,161,80918,6,0,B|117:142|154:161|154:161|187:140|192:89,1,140,4|10,3:1|0:1,0:0:0:0:
230,47,81390,1,0,3:0:0:0:
292,92,81547,2,0,P|328:99|371:83,1,70,0|0,3:0|0:0,0:0:0:0:
419,41,81861,1,10,0:1:0:0:
476,183,82175,6,0,P|469:220|381:227,1,140,0|10,3:0|0:1,0:0:0:0:
327,173,82646,1,0,3:0:0:0:
273,228,82803,2,0,P|272:271|289:301,1,70,0|0,3:0|0:0,0:0:0:0:
258,384,83117,2,0,P|236:357|204:344,1,70,10|0,0:1|3:0,0:0:0:0:
128,359,83431,6,0,P|172:337|180:239,1,140,4|10,3:1|0:1,0:0:0:0:
131,200,83903,1,0,3:0:0:0:
181,142,84060,2,0,L|263:148,1,70,0|0,3:0|0:0,0:0:0:0:
325,129,84374,2,0,B|328:99|310:75|310:75|213:64,1,140,10|0,0:1|3:0,0:0:0:0:
151,66,84845,1,0,3:0:0:0:
102,125,85002,6,0,P|99:163|120:192,1,70,10|0,0:1|3:0,0:0:0:0:
183,225,85316,2,0,L|265:231,1,70,0|0,3:0|0:0,0:0:0:0:
318,269,85630,2,0,P|321:307|300:336,1,70,10|0,0:1|0:0,0:0:0:0:
392,384,85945,6,0,P|391:345|464:280,1,140,4|10,3:1|0:1,0:0:0:0:
502,216,86416,1,0,3:0:0:0:
449,160,86573,2,0,P|416:149|371:163,1,70,0|0,3:0|0:0,0:0:0:0:
310,184,86887,6,0,B|272:190|248:221|248:221|190:172|104:190,1,210,10|0,0:1|3:0,0:0:0:0:
43,187,87515,1,10,0:1:0:0:
43,187,87672,1,0,3:0:0:0:
54,108,87829,2,0,P|60:71|46:37,1,70,0|0,3:0|0:0,0:0:0:0:
124,11,88143,2,0,L|211:18,1,70,8|0,0:1|0:0,0:0:0:0:
262,51,88458,6,0,B|301:72|301:72|344:44|402:48,2,140,12|12|12,0:1|0:1|0:1,0:0:0:0:
193,16,89243,1,0,3:0:0:0:
193,16,89400,2,0,P|182:47|201:96,1,70,12|0,0:1|3:0,0:0:0:0:
243,138,89714,2,0,P|276:159|316:171,1,70,12|0,0:1|3:0,0:0:0:0:
381,174,90028,2,0,P|420:164|444:145,1,70,12|0,0:1|3:0,0:0:0:0:
337,237,90342,2,0,P|334:274|346:321,2,70,8|0|8,0:1|3:0|0:1,0:0:0:0:
378,88,90971,5,4,3:1:0:0:
166,348,101023,6,0,P|208:284|181:216,1,140,4|8,3:1|0:3,0:0:0:0:
52,161,101651,1,0,3:0:0:0:
52,161,101808,1,2,3:0:0:0:
166,57,102123,2,0,B|202:45|202:45|317:57,1,140,8|0,0:3|3:0,0:0:0:0:
368,96,102594,2,0,P|380:129|368:170,1,70,10|0,0:3|3:0,0:0:0:0:
327,224,102908,1,0,3:0:0:0:
327,224,103065,1,0,3:0:0:0:
362,292,103222,1,10,0:3:0:0:
477,190,103536,6,0,P|489:123|459:30,1,140,4|10,3:2|0:3,0:0:0:0:
325,11,104164,1,0,3:2:0:0:
325,11,104321,1,2,3:3:0:0:
222,126,104636,2,0,B|198:189|237:200|209:278,1,140,8|0,0:3|3:3,0:0:0:0:
169,326,105107,1,10,0:3:0:0:
169,326,105264,1,0,3:0:0:0:
92,335,105421,2,0,P|57:326|26:279,1,70,0|0,3:0|3:0,0:0:0:0:
27,225,105735,2,0,L|35:141,1,70,10|0,0:3|3:0,0:0:0:0:
10,81,106049,6,0,B|65:63|100:112|100:112|117:119|157:112,1,140,4|8,3:1|0:3,0:0:0:0:
209,89,106520,1,0,0:0:0:0:
209,89,106678,2,0,B|247:87|247:87|293:111,1,70,0|2,3:0|3:0,0:0:0:0:
334,151,106992,1,0,0:0:0:0:
334,151,107149,6,0,L|329:304,1,140,8|0,0:3|3:0,0:0:0:0:
332,367,107620,2,0,P|367:362|394:325,1,70,10|0,0:3|3:0,0:0:0:0:
405,262,107934,1,0,3:0:0:0:
405,262,108091,1,0,3:0:0:0:
329,290,108248,2,0,L|248:289,1,70,10|0,0:3|3:0,0:0:0:0:
209,348,108562,6,0,P|177:289|220:223,1,140,4|10,3:2|0:3,0:0:0:0:
284,215,109034,1,0,0:0:0:0:
284,215,109191,2,0,P|296:176|278:131,1,70,0|2,3:2|3:3,0:0:0:0:
248,83,109505,1,0,0:0:0:0:
248,83,109662,6,0,B|186:82|186:82|164:91|164:91|108:92,1,140,8|0,0:3|3:3,0:0:0:0:
43,131,110133,2,0,P|28:167|51:213,1,70,10|0,0:3|3:0,0:0:0:0:
90,257,110447,1,0,3:0:0:0:
90,257,110604,1,0,3:0:0:0:
150,211,110761,2,0,L|231:212,1,70,10|0,0:3|3:0,0:0:0:0:
294,232,111075,6,0,P|327:279|271:348,1,140,4|8,3:1|0:3,0:0:0:0:
135,360,111704,1,0,3:0:0:0:
135,360,111861,1,2,3:0:0:0:
76,217,112175,2,0,L|87:54,1,140,10|0,0:3|3:0,0:0:0:0:
130,14,112646,2,0,P|166:5|217:22,1,70,10|0,0:3|3:0,0:0:0:0:
261,63,112960,1,0,3:0:0:0:
261,63,113117,1,0,3:0:0:0:
319,14,113274,1,10,0:3:0:0:
399,145,113589,6,0,B|404:198|404:198|394:246|394:246|397:298,1,140,0|10,3:0|0:1,0:0:0:0:
409,359,114060,1,0,3:0:0:0:
409,359,114217,1,0,3:0:0:0:
333,344,114374,2,0,P|291:340|253:358,1,70,10|0,0:1|3:0,0:0:0:0:
188,349,114688,1,0,3:3:0:0:
188,349,114845,6,0,P|198:306|187:265,1,70,10|0,0:1|3:0,0:0:0:0:
161,211,115159,2,0,L|82:203,2,70,0|10|0,3:0|0:1|3:0,0:0:0:0:
221,163,115630,1,0,3:0:0:0:
287,201,115787,1,10,0:1:0:0:
346,58,116102,6,0,P|301:32|204:58,1,140,4|12,3:1|0:3,0:0:0:0:
162,100,116573,1,0,0:0:0:0:
162,100,116730,2,0,L|147:181,1,70,0|0,3:0|3:0,0:0:0:0:
89,217,117044,1,12,0:3:0:0:
89,217,117201,6,0,P|139:246|217:205,1,140,4|0,3:1|3:0,0:0:0:0:
257,155,117672,2,0,B|295:147|295:147|334:161,1,70,12|0,0:3|0:0,0:0:0:0:
387,201,117986,1,0,3:0:0:0:
387,201,118143,1,0,3:0:0:0:
449,154,118301,1,12,0:3:0:0:
482,304,118615,6,0,B|472:334|453:345|453:345|358:344,1,140,4|12,3:1|0:3,0:0:0:0:
306,293,119086,1,0,0:0:0:0:
306,293,119243,2,0,P|269:297|229:321,1,70,0|0,3:0|3:0,0:0:0:0:
172,357,119557,1,12,0:3:0:0:
172,357,119714,6,0,P|157:305|73:296,1,140,4|0,3:1|3:0,0:0:0:0:
0,251,120185,2,0,P|32:232|54:191,1,70,12|0,0:3|0:0,0:0:0:0:
57,128,120499,1,0,3:0:0:0:
57,128,120657,1,0,3:0:0:0:
129,153,120814,2,0,B|154:159|154:159|211:153,1,70,12|0,0:3|0:0,0:0:0:0:
264,116,121128,5,2,3:0:0:0:
264,116,121285,2,0,L|354:114,1,70,0|8,3:0|0:3,0:0:0:0:
409,98,121599,1,2,3:0:0:0:
409,98,121756,2,0,P|410:139|369:179,1,70,0|8,3:0|0:3,0:0:0:0:
328,199,122070,1,2,3:0:0:0:
328,199,122227,2,0,L|237:200,1,70,0|8,3:0|0:3,0:0:0:0:
183,181,122541,1,2,3:0:0:0:
183,181,122698,2,0,P|181:222|222:262,1,70,0|8,3:0|0:3,0:0:0:0:
263,282,123013,2,0,L|332:280,2,70,2|0|10,3:0|3:0|0:3,0:0:0:0:
123,346,123641,5,2,3:0:0:0:
123,346,123798,2,0,P|103:313|99:271,1,70,0|8,3:0|0:3,0:0:0:0:
23,264,124112,1,2,3:0:0:0:
23,264,124269,2,0,P|41:231|75:206,1,70,0|8,3:0|0:3,0:0:0:0:
45,136,124583,1,2,3:0:0:0:
45,136,124740,2,0,P|82:135|121:152,1,70,0|8,3:0|0:3,0:0:0:0:
167,92,125054,1,2,3:0:0:0:
167,92,125211,2,0,P|186:124|190:166,1,70,0|8,3:0|0:3,0:0:0:0:
221,292,125526,2,0,P|210:259|221:227,1,70,10|0,3:0|3:0,0:0:0:0:
269,167,125840,1,8,0:3:0:0:
273,171,126154,5,6,3:0:0:0:
273,171,126311,2,0,P|304:191|359:187,1,70,4|8,3:0|0:3,0:0:0:0:
460,145,126625,1,6,3:0:0:0:
460,145,126782,2,0,P|426:161|402:211,1,70,4|8,3:0|0:3,0:0:0:0:
390,321,127096,1,6,3:0:0:0:
390,321,127253,2,0,P|392:284|361:237,1,70,4|8,3:0|0:3,0:0:0:0:
273,171,127567,1,6,3:0:0:0:
273,171,127725,2,0,L|200:172,1,70,4|8,3:0|0:3,0:0:0:0:
140,216,128039,2,0,P|128:252|147:294,2,70,6|0|14,3:0|3:0|0:3,0:0:0:0:
237,97,128667,6,0,L|387:98,1,140,4|8,3:1|0:3,0:0:0:0:
451,117,129138,1,0,0:0:0:0:
451,117,129295,2,0,P|482:216|452:255,1,140,0|8,3:0|0:3,0:0:0:0:
410,292,129767,1,0,3:0:0:0:
346,248,129924,2,0,B|307:236|307:236|256:246,1,70,0|0,3:0|3:0,0:0:0:0:
270,318,130238,2,0,B|309:330|309:330|337:324,1,70,8|0,0:3|3:0,0:0:0:0:
208,271,130552,2,0,P|172:270|133:290,1,70,8|8,0:3|0:3,0:0:0:0:
85,336,130866,1,0,3:0:0:0:
10,316,131023,1,0,3:0:0:0:
1,239,131180,5,6,3:1:0:0:
61,97,141232,6,0,P|117:120|196:79,1,140,4|0,3:1|3:0,0:0:0:0:
251,50,141704,1,0,3:0:0:0:
314,94,141861,2,0,P|377:118|439:89,1,140,8|0,0:3|3:0,0:0:0:0:
475,21,142332,1,0,3:0:0:0:
451,94,142489,2,0,P|435:169|480:244,2,140,0|0|8,3:0|3:0|0:3,0:0:0:0:
304,26,143431,2,0,P|316:58|308:106,1,70,0|8,3:0|0:3,0:0:0:0:
274,160,143746,6,0,B|239:189|239:189|192:164|145:193,1,140,4|0,3:1|3:0,0:0:0:0:
108,256,144217,1,0,3:0:0:0:
145,323,144374,2,0,B|188:349|235:324|235:324|270:353,1,140,8|0,0:3|3:0,0:0:0:0:
343,377,144845,1,0,3:0:0:0:
411,342,145002,2,0,P|438:300|389:205,2,140,0|0|8,3:0|3:0|0:3,0:0:0:0:
343,377,145787,1,8,0:3:0:0:
269,353,145945,2,0,P|252:324|250:266,1,70,0|8,3:0|0:3,0:0:0:0:
189,204,146259,6,0,P|172:258|82:264,1,140,4|0,3:1|3:0,0:0:0:0:
28,240,146730,1,0,3:0:0:0:
38,163,146887,2,0,L|144:63,1,140,8|0,0:3|3:0,0:0:0:0:
201,20,147358,1,0,3:0:0:0:
265,62,147515,6,0,P|329:82|401:45,1,140,4|0,3:1|3:0,0:0:0:0:
459,14,147986,1,0,3:0:0:0:
502,77,148143,2,0,B|507:121|507:121|489:176|489:176|494:238,1,140,8|4,0:3|3:1,0:0:0:0:
506,289,148615,1,8,0:3:0:0:
454,346,148772,6,0,P|420:358|366:350,1,70,4|0,3:1|3:1,0:0:0:0:
337,297,149086,2,0,P|303:285|249:293,1,70,0|0,3:1|3:1,0:0:0:0:
213,338,149400,2,0,P|179:350|125:342,1,70,12|0,3:3|3:1,0:0:0:0:
96,289,149714,2,0,P|62:277|8:285,1,70,12|0,3:3|3:1,0:0:0:0:
4,194,150028,6,0,P|58:200|135:133,1,140,8|8,0:3|0:3,0:0:0:0:
135,76,150499,1,8,0:3:0:0:
205,43,150657,2,0,P|241:58|289:56,1,70,8|8,0:3|0:3,0:0:0:0:
406,23,150971,2,0,P|374:36|348:59,1,70,8|8,0:3|0:3,0:0:0:0:
310,126,151285,6,0,B|285:181|334:213|294:271,1,140,4|12,3:1|0:0,0:0:0:0:
249,320,151756,1,0,3:0:0:0:
249,320,151913,2,0,B|211:325|185:349|185:349|164:320|108:307,1,140,0|12,3:0|0:0,0:0:0:0:
61,274,152384,1,0,3:0:0:0:
90,203,152541,6,0,P|90:171|65:131,1,70,0|0,3:0|0:0,0:0:0:0:
35,48,152856,2,0,P|65:64|100:65,1,70,12|0,0:0|0:0,0:0:0:0:
178,172,153170,2,0,P|186:141|172:95,1,70,0|0,3:0|0:0,0:0:0:0:
172,8,153485,2,0,P|196:32|230:41,1,70,12|0,0:0|0:0,0:0:0:0:
348,80,153798,6,0,P|285:102|276:168,1,140,0|12,3:0|0:0,0:0:0:0:
327,232,154269,1,0,3:0:0:0:
327,232,154426,2,0,B|390:255|399:213|473:237,1,140,0|12,3:0|0:0,0:0:0:0:
504,300,154897,1,0,3:0:0:0:
459,363,155054,2,0,P|425:376|369:363,1,70,0|0,3:0|0:0,0:0:0:0:
274,320,155369,2,0,P|307:310|342:315,1,70,12|0,0:0|0:0,0:0:0:0:
464,234,155683,1,0,3:0:0:0:
464,234,155840,1,0,3:0:0:0:
417,298,155997,1,12,0:1:0:0:
275,238,156311,6,0,B|240:236|206:265|206:265|176:242|121:252,1,140,0|12,3:0|0:0,0:0:0:0:
75,282,156782,1,0,3:0:0:0:
75,282,156939,2,0,B|51:221|102:200|76:137,1,140,0|12,3:0|0:0,0:0:0:0:
45,75,157410,1,0,3:0:0:0:
121,83,157568,2,0,P|146:104|148:161,2,70,0|0|12,3:0|3:0|0:0,0:0:0:0:
84,10,158039,1,0,3:0:0:0:
160,2,158196,2,0,P|196:12|232:41,1,70,0|0,3:0|3:0,0:0:0:0:
247,103,158510,1,12,0:0:0:0:
372,14,158824,6,0,B|400:16|411:48|411:48|402:152,1,140,12|0,0:1|3:0,0:0:0:0:
460,192,159295,1,12,0:1:0:0:
460,192,159452,2,0,P|432:212|378:205,1,70,0|0,3:0|3:0,0:0:0:0:
333,170,159767,1,8,0:0:0:0:
427,291,160081,6,0,B|425:319|393:330|393:330|289:321,1,140,12|0,0:1|3:0,0:0:0:0:
249,379,160552,1,12,0:1:0:0:
249,379,160709,2,0,P|229:351|236:297,1,70,0|0,3:0|3:0,0:0:0:0:
271,252,161024,1,8,0:0:0:0:
149,346,161337,6,0,P|87:345|84:264,1,140,4|12,3:1|0:0,0:0:0:0:
113,213,161808,1,0,3:0:0:0:
113,213,161965,2,0,B|144:146|98:128|132:72,1,140,0|12,3:0|0:0,0:0:0:0:
185,23,162437,1,0,3:0:0:0:
244,72,162594,6,0,P|278:73|325:53,1,70,0|0,3:0|0:0,0:0:0:0:
411,8,162908,2,0,P|393:37|387:72,1,70,12|0,0:0|0:0,0:0:0:0:
280,165,163222,2,0,P|309:146|343:138,1,70,0|0,3:0|0:0,0:0:0:0:
475,181,163536,2,0,P|451:156|420:141,1,70,12|0,0:0|0:0,0:0:0:0:
325,225,163850,6,0,P|374:211|428:288,1,140,4|12,3:1|0:0,0:0:0:0:
397,340,164321,1,0,3:0:0:0:
320,350,164479,2,0,L|157:322,1,140,0|12,3:0|0:0,0:0:0:0:
105,316,164950,1,0,3:0:0:0:
148,252,165107,2,0,P|145:214|129:182,1,70,0|0,3:0|0:0,0:0:0:0:
34,83,165421,2,0,P|57:109|90:119,1,70,12|0,0:0|0:0,0:0:0:0:
208,57,165735,1,0,3:0:0:0:
208,57,165892,1,0,3:0:0:0:
167,122,166049,1,12,0:1:0:0:
248,252,166363,6,0,B|291:278|291:278|412:266,1,140,0|12,3:0|0:0,0:0:0:0:
450,236,166835,1,0,3:0:0:0:
450,236,166992,2,0,P|466:164|414:123,1,140,0|12,3:0|0:0,0:0:0:0:
344,119,167463,1,0,3:0:0:0:
285,169,167620,6,0,P|250:173|217:162,1,70,0|0,3:0|0:0,0:0:0:0:
228,46,167934,2,0,P|263:41|296:52,1,70,12|0,0:0|0:0,0:0:0:0:
175,101,168248,2,0,L|82:96,1,70,0|0,3:0|3:0,0:0:0:0:
28,95,168562,1,12,0:0:0:0:
43,248,168876,6,0,B|94:249|94:249|128:232|128:232|184:231,1,140,12|0,0:1|3:0,0:0:0:0:
260,243,169348,1,12,0:1:0:0:
260,243,169505,2,0,P|249:280|205:301,1,70,0|0,3:0|3:0,0:0:0:0:
146,313,169819,1,8,0:0:0:0:
77,175,170133,2,0,P|98:114|176:129,1,140,12|0,0:1|3:0,0:0:0:0:
233,151,170604,1,12,0:1:0:0:
308,138,170761,2,0,P|332:100|325:58,1,70,0|0,3:0|3:0,0:0:0:0:
291,11,171075,1,8,0:2:0:0:
291,11,171390,6,0,B|249:12|249:12|200:23|200:23|130:20,1,140,4|10,3:1|0:1,0:0:0:0:
75,27,171861,1,0,3:0:0:0:
104,98,172018,2,0,P|111:135|87:178,1,70,0|0,3:0|0:0,0:0:0:0:
42,216,172332,1,10,0:1:0:0:
154,320,172646,6,0,B|198:336|198:336|302:310,1,140,0|10,3:0|0:1,0:0:0:0:
348,265,173117,1,0,3:0:0:0:
410,310,173274,2,0,P|444:316|494:287,1,70,0|0,3:0|0:0,0:0:0:0:
478,227,173589,2,0,P|443:220|394:250,1,70,10|0,0:1|3:0,0:0:0:0:
302,227,173903,2,0,P|351:187|323:100,1,140,4|10,3:1|0:1,0:0:0:0:
296,54,174374,1,0,3:0:0:0:
224,82,174531,2,0,L|132:89,1,70,0|0,3:0|0:0,0:0:0:0:
109,24,174845,2,0,P|73:68|103:146,1,140,10|0,0:1|3:0,0:0:0:0:
170,164,175316,1,0,3:0:0:0:
127,228,175473,6,0,P|113:262|120:299,1,70,10|0,0:1|3:0,0:0:0:0:
175,344,175787,2,0,L|266:344,1,70,0|0,3:0|0:0,0:0:0:0:
259,268,176102,2,0,L|189:268,1,70,10|0,0:1|3:0,0:0:0:0:
322,320,176416,2,0,P|342:254|301:198,1,140,4|10,3:1|0:1,0:0:0:0:
227,191,176887,1,0,3:0:0:0:
190,123,177044,2,0,P|186:85|219:42,1,70,0|0,3:0|0:0,0:0:0:0:
265,18,177358,6,0,B|319:9|319:9|362:29|362:29|411:-3|473:34,1,210,10|0,0:1|3:0,0:0:0:0:
509,97,177986,1,10,0:1:0:0:
509,97,178143,1,0,3:0:0:0:
467,162,178301,2,0,P|430:176|388:167,1,70,0|0,3:0|0:0,0:0:0:0:
335,131,178615,2,0,L|247:148,1,70,8|0,0:1|0:0,0:0:0:0:
196,177,178929,6,0,B|165:212|165:212|179:318,2,140,12|12|12,0:1|0:1|0:1,0:0:0:0:
254,239,179714,1,0,3:0:0:0:
254,239,179871,2,0,L|262:313,1,70,12|0,0:1|3:0,0:0:0:0:
319,359,180185,2,0,B|353:369|353:369|411:348,1,70,12|0,0:1|3:0,0:0:0:0:
430,295,180499,2,0,L|437:225,1,70,12|0,0:1|3:0,0:0:0:0:
339,193,180814,2,0,L|347:263,2,70,8|0|8,0:1|3:0|0:1,0:0:0:0:
410,56,181442,6,0,P|348:27|269:62,1,140,4|8,3:1|0:3,0:0:0:0:
244,196,182070,2,0,P|248:158|224:116,1,70,0|2,3:0|3:0,0:0:0:0:
189,67,182384,1,0,0:0:0:0:
189,67,182541,2,0,B|152:50|152:50|102:55|52:66,1,140,8|0,0:3|3:0,0:0:0:0:
6,126,183013,2,0,P|-2:161|28:213,1,70,10|0,0:3|3:0,0:0:0:0:
62,246,183327,1,0,3:0:0:0:
62,246,183484,1,0,3:0:0:0:
131,211,183641,2,0,P|166:202|215:225,1,70,10|0,0:3|3:0,0:0:0:0:
245,151,183955,6,0,P|278:197|232:281,1,140,4|10,3:2|0:3,0:0:0:0:
366,372,184583,2,0,P|359:340|383:279,1,70,0|2,3:2|3:3,0:0:0:0:
421,250,184897,1,0,0:0:0:0:
421,250,185054,2,0,B|421:203|421:203|440:179|440:179|439:103,1,140,8|0,0:3|3:3,0:0:0:0:
413,43,185526,2,0,P|375:23|330:41,1,70,10|0,0:3|3:0,0:0:0:0:
280,60,185840,1,0,3:0:0:0:
280,60,185997,1,0,3:0:0:0:
212,23,186154,1,10,0:3:0:0:
138,158,186468,6,0,B|120:201|120:201|135:318,1,140,4|8,3:1|0:3,0:0:0:0:
284,310,187096,2,0,L|270:219,1,70,0|2,3:0|3:0,0:0:0:0:
216,189,187410,1,0,0:0:0:0:
216,189,187568,2,0,P|289:162|340:205,1,140,8|0,0:3|3:0,0:0:0:0:
360,267,188039,2,0,L|370:336,1,70,10|0,0:3|3:0,0:0:0:0:
440,369,188353,1,0,3:0:0:0:
440,369,188510,1,0,3:0:0:0:
496,316,188667,1,10,0:3:0:0:
471,164,188981,5,8,0:3:0:0:
471,164,189138,2,0,L|381:122,1,70,8|0,3:0|3:0,0:0:0:0:
401,57,189452,1,8,0:3:0:0:
401,57,189609,2,0,L|311:99,1,70,8|0,3:0|3:0,0:0:0:0:
336,168,189924,1,8,0:3:0:0:
336,168,190081,2,0,L|246:126,1,70,8|0,3:0|3:0,0:0:0:0:
266,61,190395,1,8,0:3:0:0:
266,61,190552,1,8,0:3:0:0:
