osu file format v14

[General]
AudioFilename: Ashrount vs polysha - ZENITH.mp3
AudioLeadIn: 0
PreviewTime: 82156
Countdown: 0
SampleSet: Normal
StackLeniency: 0.7
Mode: 3
LetterboxInBreaks: 0
StoryFireInFront: 0
SpecialStyle: 0
WidescreenStoryboard: 0

[Editor]
Bookmarks: 0
DistanceSpacing: 1
BeatDivisor: 4
GridSize: 4
TimelineZoom: 1.7

[Metadata]
Title:ZENITH
TitleUnicode:ZEИITH
Artist:Ashrount vs. polysha
ArtistUnicode:Ashrount vs. polysha
Creator:baigu678
Version:MAXIMUM
Source:SOUND VOLTEX VIVID WAVE
Tags:electronic instrumental edm TEK-A-RHYTHM vs. 逆球レジェンド minoru The 9th KAC オリジナル楽曲コンテスト sdvx contest HEXA DIVER original song Alptraum konami bemani video game X-record beatmania IIDX 30 RESIDENT
BeatmapID:3853509
BeatmapSetID:1872740

[Difficulty]
HPDrainRate:8
CircleSize:4
OverallDifficulty:8.2
ApproachRate:5
SliderMultiplier:1.4
SliderTickRate:1

[Events]
//Background and Video events
0,0,"zenith.jpg",0,0
//Break Periods
//Storyboard Layer 0 (Background)
//Storyboard Layer 1 (Fail)
//Storyboard Layer 2 (Pass)
//Storyboard Layer 3 (Foreground)
//Storyboard Layer 4 (Overlay)
//Storyboard Sound Samples

[TimingPoints]
1314,315.789473684211,4,1,1,30,1,0
82156,-100,4,1,1,30,0,1
92103,-100,4,1,1,30,0,0
92577,-100,4,1,1,30,0,1
101103,-100,4,1,1,30,0,0

[HitObjects]
192,384,998,5,0,0:0:0:0:
320,384,1077,1,0,0:0:0:0:
448,384,1156,1,0,0:0:0:0:
192,384,1235,1,0,0:0:0:0:
64,384,1314,1,0,0:0:0:0:
320,384,1314,1,0,0:0:0:0:
448,384,1314,128,0,1629:0:0:0:0:
64,384,1629,1,0,0:0:0:0:
192,384,1708,1,0,0:0:0:0:
320,384,1787,1,0,0:0:0:0:
448,384,1866,1,0,0:0:0:0:
64,384,1945,1,0,0:0:0:0:
192,384,1945,1,0,0:0:0:0:
448,384,2103,1,0,0:0:0:0:
320,192,2103,1,0,0:0:0:0:
64,192,2103,1,0,0:0:0:0:
448,192,2261,1,0,0:0:0:0:
192,384,2419,128,0,2735:0:0:0:0:
64,384,2419,1,0,0:0:0:0:
320,192,2419,1,0,0:0:0:0:
448,192,2735,1,0,0:0:0:0:
320,192,2814,1,0,0:0:0:0:
448,384,2892,1,0,0:0:0:0:
192,192,2892,1,0,0:0:0:0:
192,384,3050,1,0,0:0:0:0:
64,192,3050,1,0,0:0:0:0:
320,192,3050,1,0,0:0:0:0:
448,384,3208,1,0,0:0:0:0:
64,384,3366,128,0,3603:0:0:0:0:
448,192,3603,1,0,0:0:0:0:
320,192,3603,1,0,0:0:0:0:
64,192,3682,1,0,0:0:0:0:
192,192,3682,1,0,0:0:0:0:
320,192,3761,1,0,0:0:0:0:
448,384,3840,128,0,4156:0:0:0:0:
64,192,3840,1,0,0:0:0:0:
192,192,3840,1,0,0:0:0:0:
64,384,4156,1,0,0:0:0:0:
320,384,4235,1,0,0:0:0:0:
192,384,4314,1,0,0:0:0:0:
448,384,4392,1,0,0:0:0:0:
64,384,4471,1,0,0:0:0:0:
320,384,4471,1,0,0:0:0:0:
192,384,4629,1,0,0:0:0:0:
320,384,4629,1,0,0:0:0:0:
448,192,4629,1,0,0:0:0:0:
64,192,4787,1,0,0:0:0:0:
448,192,4866,1,0,0:0:0:0:
320,384,4945,128,0,5261:0:0:0:0:
64,192,4945,1,0,0:0:0:0:
192,192,4945,1,0,0:0:0:0:
64,384,5261,1,0,0:0:0:0:
192,384,5261,1,0,0:0:0:0:
320,384,5340,1,0,0:0:0:0:
64,384,5419,1,0,0:0:0:0:
448,384,5419,1,0,0:0:0:0:
192,384,5498,1,0,0:0:0:0:
64,384,5577,1,0,0:0:0:0:
320,384,5577,1,0,0:0:0:0:
448,384,5577,1,0,0:0:0:0:
64,384,5892,1,0,0:0:0:0:
192,384,5945,1,0,0:0:0:0:
448,384,5998,1,0,0:0:0:0:
320,384,6050,1,0,0:0:0:0:
192,384,6103,1,0,0:0:0:0:
64,384,6156,1,0,0:0:0:0:
448,384,6208,1,0,0:0:0:0:
320,384,6261,1,0,0:0:0:0:
192,384,6314,1,0,0:0:0:0:
64,384,6366,1,0,0:0:0:0:
320,384,6366,1,0,0:0:0:0:
448,384,6366,128,0,6682:0:0:0:0:
192,384,6524,1,0,0:0:0:0:
64,384,6682,1,0,0:0:0:0:
320,384,6682,1,0,0:0:0:0:
192,384,6761,1,0,0:0:0:0:
320,384,6840,1,0,0:0:0:0:
448,384,6919,1,0,0:0:0:0:
64,384,6998,1,0,0:0:0:0:
192,384,6998,1,0,0:0:0:0:
64,384,7156,1,0,0:0:0:0:
320,192,7156,1,0,0:0:0:0:
64,384,7235,1,0,0:0:0:0:
320,384,7314,1,0,0:0:0:0:
448,384,7314,1,0,0:0:0:0:
64,384,7471,128,0,7787:0:0:0:0:
448,384,7471,1,0,0:0:0:0:
448,384,7550,1,0,0:0:0:0:
192,384,7629,1,0,0:0:0:0:
192,384,7787,1,0,0:0:0:0:
320,384,7787,1,0,0:0:0:0:
448,384,7866,1,0,0:0:0:0:
64,384,7945,1,0,0:0:0:0:
320,384,7945,1,0,0:0:0:0:
64,384,8103,1,0,0:0:0:0:
192,384,8103,1,0,0:0:0:0:
320,384,8182,1,0,0:0:0:0:
448,384,8261,1,0,0:0:0:0:
192,384,8261,1,0,0:0:0:0:
64,192,8340,1,0,0:0:0:0:
448,192,8419,1,0,0:0:0:0:
320,192,8419,1,0,0:0:0:0:
192,192,8498,1,0,0:0:0:0:
64,192,8498,1,0,0:0:0:0:
448,192,8577,1,0,0:0:0:0:
320,192,8616,1,0,0:0:0:0:
192,192,8656,1,0,0:0:0:0:
64,192,8695,1,0,0:0:0:0:
448,192,8735,1,0,0:0:0:0:
320,192,8735,1,0,0:0:0:0:
192,192,8814,1,0,0:0:0:0:
448,384,8892,1,0,0:0:0:0:
64,384,8892,128,0,9050:0:0:0:0:
320,192,8892,1,0,0:0:0:0:
192,384,9050,1,0,0:0:0:0:
448,384,9129,1,0,0:0:0:0:
192,384,9208,1,0,0:0:0:0:
448,384,9287,1,0,0:0:0:0:
320,384,9366,1,0,0:0:0:0:
192,384,9366,1,0,0:0:0:0:
64,384,9366,128,0,9524:0:0:0:0:
320,384,9524,1,0,0:0:0:0:
64,384,9603,1,0,0:0:0:0:
320,384,9682,1,0,0:0:0:0:
64,384,9761,1,0,0:0:0:0:
448,384,9840,1,0,0:0:0:0:
320,384,9879,1,0,0:0:0:0:
192,384,9919,1,0,0:0:0:0:
64,384,9958,1,0,0:0:0:0:
448,384,9998,1,0,0:0:0:0:
320,384,9998,1,0,0:0:0:0:
64,384,11419,1,0,0:0:0:0:
448,384,11419,1,0,0:0:0:0:
192,384,11577,1,0,0:0:0:0:
64,384,11656,1,0,0:0:0:0:
320,384,11735,1,0,0:0:0:0:
448,384,11814,1,0,0:0:0:0:
192,384,11892,1,0,0:0:0:0:
320,384,11971,1,0,0:0:0:0:
448,192,12050,1,0,0:0:0:0:
64,384,12129,1,0,0:0:0:0:
192,384,12208,1,0,0:0:0:0:
320,384,12287,1,0,0:0:0:0:
448,384,12366,1,0,0:0:0:0:
192,384,12445,1,0,0:0:0:0:
448,384,12524,1,0,0:0:0:0:
192,384,12603,1,0,0:0:0:0:
64,384,12682,1,0,0:0:0:0:
448,384,12761,1,0,0:0:0:0:
192,384,12840,1,0,0:0:0:0:
64,384,12919,1,0,0:0:0:0:
320,384,12998,1,0,0:0:0:0:
448,384,13077,1,0,0:0:0:0:
192,384,13156,1,0,0:0:0:0:
320,384,13235,1,0,0:0:0:0:
64,384,13314,1,0,0:0:0:0:
448,384,13392,1,0,0:0:0:0:
192,384,13471,1,0,0:0:0:0:
320,384,13550,1,0,0:0:0:0:
192,384,13629,1,0,0:0:0:0:
448,384,13708,1,0,0:0:0:0:
320,384,13787,1,0,0:0:0:0:
64,384,13866,1,0,0:0:0:0:
448,384,13945,1,0,0:0:0:0:
192,384,14024,1,0,0:0:0:0:
320,384,14103,1,0,0:0:0:0:
448,384,14182,1,0,0:0:0:0:
64,384,14261,1,0,0:0:0:0:
320,384,14340,1,0,0:0:0:0:
192,384,14419,1,0,0:0:0:0:
64,384,14498,1,0,0:0:0:0:
320,384,14577,1,0,0:0:0:0:
192,384,14656,1,0,0:0:0:0:
320,384,14735,1,0,0:0:0:0:
448,384,14814,1,0,0:0:0:0:
64,384,14892,1,0,0:0:0:0:
320,384,14971,1,0,0:0:0:0:
64,384,15050,1,0,0:0:0:0:
320,384,15129,1,0,0:0:0:0:
192,384,15208,1,0,0:0:0:0:
448,384,15287,1,0,0:0:0:0:
320,384,15366,1,0,0:0:0:0:
192,384,15445,1,0,0:0:0:0:
448,384,15524,1,0,0:0:0:0:
64,384,15603,1,0,0:0:0:0:
192,384,15682,1,0,0:0:0:0:
320,384,15761,1,0,0:0:0:0:
192,384,15840,1,0,0:0:0:0:
64,384,15919,1,0,0:0:0:0:
320,384,15998,1,0,0:0:0:0:
448,384,16077,1,0,0:0:0:0:
192,384,16156,1,0,0:0:0:0:
448,384,16235,1,0,0:0:0:0:
320,384,16314,1,0,0:0:0:0:
192,384,16392,1,0,0:0:0:0:
64,384,16471,1,0,0:0:0:0:
448,384,16471,1,0,0:0:0:0:
320,192,16471,1,0,0:0:0:0:
320,384,16629,1,0,0:0:0:0:
448,192,16629,1,0,0:0:0:0:
192,384,16787,1,0,0:0:0:0:
320,384,16787,1,0,0:0:0:0:
64,192,16787,1,0,0:0:0:0:
64,384,16945,1,0,0:0:0:0:
192,384,16945,1,0,0:0:0:0:
320,384,17024,1,0,0:0:0:0:
448,384,17024,1,0,0:0:0:0:
320,384,17182,1,0,0:0:0:0:
448,384,17182,1,0,0:0:0:0:
64,384,17261,1,0,0:0:0:0:
192,384,17261,1,0,0:0:0:0:
64,384,17419,1,0,0:0:0:0:
448,384,17419,1,0,0:0:0:0:
320,192,17419,1,0,0:0:0:0:
192,384,17577,1,0,0:0:0:0:
448,384,17577,1,0,0:0:0:0:
64,384,17656,1,0,0:0:0:0:
320,384,17656,1,0,0:0:0:0:
64,384,17814,1,0,0:0:0:0:
320,384,17814,1,0,0:0:0:0:
192,384,17892,1,0,0:0:0:0:
448,384,17892,1,0,0:0:0:0:
64,384,18050,1,0,0:0:0:0:
448,384,18050,1,0,0:0:0:0:
192,192,18050,1,0,0:0:0:0:
320,384,18208,1,0,0:0:0:0:
448,384,18208,1,0,0:0:0:0:
64,384,18287,1,0,0:0:0:0:
192,384,18287,1,0,0:0:0:0:
64,384,18445,1,0,0:0:0:0:
192,384,18445,1,0,0:0:0:0:
320,384,18524,1,0,0:0:0:0:
448,384,18524,1,0,0:0:0:0:
64,384,18682,1,0,0:0:0:0:
448,384,18682,1,0,0:0:0:0:
320,192,18682,1,0,0:0:0:0:
64,384,18840,1,0,0:0:0:0:
192,384,18840,1,0,0:0:0:0:
320,384,18919,1,0,0:0:0:0:
448,384,18919,1,0,0:0:0:0:
64,384,18998,1,0,0:0:0:0:
192,384,19037,1,0,0:0:0:0:
320,384,19077,1,0,0:0:0:0:
448,384,19116,1,0,0:0:0:0:
64,384,19156,1,0,0:0:0:0:
64,384,19235,1,0,0:0:0:0:
448,384,19314,1,0,0:0:0:0:
320,384,19353,1,0,0:0:0:0:
192,384,19392,1,0,0:0:0:0:
64,384,19432,1,0,0:0:0:0:
448,384,19471,1,0,0:0:0:0:
448,384,19550,1,0,0:0:0:0:
192,384,19629,128,0,19787:0:0:0:0:
320,384,19629,128,0,19787:0:0:0:0:
64,384,19787,1,0,0:0:0:0:
64,384,19866,1,0,0:0:0:0:
448,384,19945,128,0,20103:0:0:0:0:
320,384,19945,128,0,20103:0:0:0:0:
192,384,20103,1,0,0:0:0:0:
192,384,20182,1,0,0:0:0:0:
64,384,20261,1,0,0:0:0:0:
448,384,20261,1,0,0:0:0:0:
320,384,20340,1,0,0:0:0:0:
448,384,20419,1,0,0:0:0:0:
64,384,20498,1,0,0:0:0:0:
192,384,20577,1,0,0:0:0:0:
64,384,20656,1,0,0:0:0:0:
448,384,20735,1,0,0:0:0:0:
320,384,20787,1,0,0:0:0:0:
192,384,20840,1,0,0:0:0:0:
64,384,20892,1,0,0:0:0:0:
320,384,20892,128,0,21208:0:0:0:0:
448,384,20892,128,0,21208:0:0:0:0:
192,384,21208,1,0,0:0:0:0:
192,384,21287,1,0,0:0:0:0:
320,384,21366,1,0,0:0:0:0:
320,384,21445,1,0,0:0:0:0:
64,384,21524,128,0,21682:0:0:0:0:
192,384,21524,1,0,0:0:0:0:
448,384,21524,128,0,21682:0:0:0:0:
320,384,21603,128,0,21840:0:0:0:0:
192,384,21682,128,0,21840:0:0:0:0:
64,384,21840,1,0,0:0:0:0:
448,384,21840,1,0,0:0:0:0:
320,384,21919,1,0,0:0:0:0:
192,384,21998,1,0,0:0:0:0:
320,384,22077,1,0,0:0:0:0:
64,384,22156,1,0,0:0:0:0:
192,384,22156,128,0,22314:0:0:0:0:
448,384,22314,1,0,0:0:0:0:
448,384,22392,1,0,0:0:0:0:
64,384,22471,128,0,22629:0:0:0:0:
320,384,22471,1,0,0:0:0:0:
192,384,22629,1,0,0:0:0:0:
320,384,22708,1,0,0:0:0:0:
64,384,22787,1,0,0:0:0:0:
448,384,22787,128,0,23103:0:0:0:0:
192,384,22945,1,0,0:0:0:0:
192,384,23103,128,0,23261:0:0:0:0:
320,384,23103,1,0,0:0:0:0:
64,384,23182,128,0,23261:0:0:0:0:
448,384,23261,128,0,23419:0:0:0:0:
64,384,23419,1,0,0:0:0:0:
192,384,23419,128,0,23577:0:0:0:0:
320,384,23577,1,0,0:0:0:0:
64,384,23735,1,0,0:0:0:0:
448,384,23735,1,0,0:0:0:0:
320,384,23814,1,0,0:0:0:0:
448,384,23892,1,0,0:0:0:0:
320,384,23971,1,0,0:0:0:0:
64,384,24050,128,0,24208:0:0:0:0:
448,384,24050,128,0,24208:0:0:0:0:
192,192,24129,128,0,24366:0:0:0:0:
320,384,24208,128,0,24366:0:0:0:0:
64,384,24366,1,0,0:0:0:0:
448,384,24366,1,0,0:0:0:0:
192,384,24445,1,0,0:0:0:0:
320,384,24524,128,0,24682:0:0:0:0:
448,384,24603,128,0,24682:0:0:0:0:
64,384,24682,128,0,24998:0:0:0:0:
192,384,24682,128,0,24840:0:0:0:0:
320,192,24840,128,0,24919:0:0:0:0:
192,192,24919,128,0,24998:0:0:0:0:
320,384,24998,1,0,0:0:0:0:
448,384,24998,1,0,0:0:0:0:
64,192,25077,1,0,0:0:0:0:
448,192,25156,1,0,0:0:0:0:
64,384,25314,1,0,0:0:0:0:
192,384,25314,1,0,0:0:0:0:
448,384,25392,1,0,0:0:0:0:
192,384,25471,1,0,0:0:0:0:
192,384,25550,1,0,0:0:0:0:
320,384,25629,1,0,0:0:0:0:
448,384,25629,1,0,0:0:0:0:
64,384,25708,1,0,0:0:0:0:
320,384,25787,1,0,0:0:0:0:
320,384,25866,1,0,0:0:0:0:
64,384,25945,1,0,0:0:0:0:
192,384,25945,1,0,0:0:0:0:
448,384,25945,1,0,0:0:0:0:
64,384,26103,1,0,0:0:0:0:
192,384,26103,1,0,0:0:0:0:
320,384,26103,1,0,0:0:0:0:
192,384,26261,1,0,0:0:0:0:
320,384,26261,1,0,0:0:0:0:
448,384,26261,1,0,0:0:0:0:
64,384,26419,1,0,0:0:0:0:
192,384,26419,1,0,0:0:0:0:
448,384,26419,1,0,0:0:0:0:
64,384,26577,128,0,26735:0:0:0:0:
320,384,26577,1,0,0:0:0:0:
448,384,26577,128,0,26735:0:0:0:0:
192,384,26656,128,0,26892:0:0:0:0:
320,384,26735,128,0,26892:0:0:0:0:
64,384,26892,1,0,0:0:0:0:
448,384,26892,1,0,0:0:0:0:
192,384,26971,1,0,0:0:0:0:
320,384,27050,1,0,0:0:0:0:
192,384,27129,1,0,0:0:0:0:
320,384,27208,1,0,0:0:0:0:
448,384,27208,128,0,27366:0:0:0:0:
192,384,27366,1,0,0:0:0:0:
192,384,27445,1,0,0:0:0:0:
64,384,27524,128,0,27682:0:0:0:0:
448,384,27524,1,0,0:0:0:0:
320,384,27682,1,0,0:0:0:0:
448,384,27761,1,0,0:0:0:0:
64,384,27840,1,0,0:0:0:0:
192,384,27840,128,0,28156:0:0:0:0:
448,384,27998,1,0,0:0:0:0:
448,384,28077,1,0,0:0:0:0:
64,384,28156,1,0,0:0:0:0:
320,384,28156,128,0,28314:0:0:0:0:
192,384,28235,128,0,28314:0:0:0:0:
448,384,28314,128,0,28471:0:0:0:0:
64,384,28314,1,0,0:0:0:0:
192,192,28392,1,0,0:0:0:0:
64,384,28471,1,0,0:0:0:0:
320,384,28471,128,0,28629:0:0:0:0:
192,384,28629,1,0,0:0:0:0:
192,384,28708,1,0,0:0:0:0:
64,384,28787,1,0,0:0:0:0:
448,384,28787,1,0,0:0:0:0:
320,384,28866,1,0,0:0:0:0:
448,384,28945,1,0,0:0:0:0:
320,384,29024,1,0,0:0:0:0:
448,384,29103,128,0,29261:0:0:0:0:
64,384,29103,128,0,29261:0:0:0:0:
192,384,29182,128,0,29419:0:0:0:0:
320,384,29261,128,0,29419:0:0:0:0:
64,384,29419,1,0,0:0:0:0:
448,384,29419,1,0,0:0:0:0:
192,384,29498,1,0,0:0:0:0:
320,384,29577,1,0,0:0:0:0:
192,384,29656,1,0,0:0:0:0:
64,384,29735,1,0,0:0:0:0:
448,384,29735,128,0,29892:0:0:0:0:
192,384,29814,1,0,0:0:0:0:
320,384,29892,1,0,0:0:0:0:
448,384,29971,1,0,0:0:0:0:
64,384,30050,1,0,0:0:0:0:
192,384,30050,1,0,0:0:0:0:
320,384,30129,1,0,0:0:0:0:
64,384,30208,1,0,0:0:0:0:
448,384,30208,1,0,0:0:0:0:
192,384,30287,1,0,0:0:0:0:
320,384,30366,1,0,0:0:0:0:
448,384,30366,1,0,0:0:0:0:
64,384,30445,1,0,0:0:0:0:
192,384,30445,1,0,0:0:0:0:
320,384,30524,1,0,0:0:0:0:
448,384,30524,1,0,0:0:0:0:
192,384,30603,1,0,0:0:0:0:
64,384,30682,1,0,0:0:0:0:
320,384,30682,1,0,0:0:0:0:
448,384,30682,1,0,0:0:0:0:
320,384,30840,1,0,0:0:0:0:
64,384,30919,1,0,0:0:0:0:
192,384,30919,1,0,0:0:0:0:
448,384,30919,1,0,0:0:0:0:
64,384,31077,1,0,0:0:0:0:
192,384,31156,1,0,0:0:0:0:
320,384,31156,1,0,0:0:0:0:
448,384,31156,1,0,0:0:0:0:
64,384,31314,1,0,0:0:0:0:
320,384,31314,1,0,0:0:0:0:
448,384,31314,1,0,0:0:0:0:
64,384,31471,1,0,0:0:0:0:
192,384,31471,1,0,0:0:0:0:
320,384,31471,1,0,0:0:0:0:
64,384,31629,128,0,32103:0:0:0:0:
192,384,31629,1,0,0:0:0:0:
448,384,31629,1,0,0:0:0:0:
320,384,31787,1,0,0:0:0:0:
192,384,31945,1,0,0:0:0:0:
448,384,31945,1,0,0:0:0:0:
320,384,32103,1,0,0:0:0:0:
192,384,32182,1,0,0:0:0:0:
64,384,32261,128,0,32419:0:0:0:0:
448,384,32261,1,0,0:0:0:0:
320,384,32419,128,0,32577:0:0:0:0:
64,384,32577,1,0,0:0:0:0:
448,384,32577,1,0,0:0:0:0:
192,384,32735,128,0,33050:0:0:0:0:
320,384,32735,1,0,0:0:0:0:
448,192,32735,1,0,0:0:0:0:
64,384,33050,1,0,0:0:0:0:
320,384,33050,1,0,0:0:0:0:
448,384,33050,128,0,33208:0:0:0:0:
64,384,33208,1,0,0:0:0:0:
192,384,33208,1,0,0:0:0:0:
192,384,33366,128,0,33682:0:0:0:0:
64,384,33524,1,0,0:0:0:0:
448,384,33524,1,0,0:0:0:0:
320,384,33682,128,0,33840:0:0:0:0:
64,384,33840,1,0,0:0:0:0:
192,384,33840,1,0,0:0:0:0:
448,384,33840,128,0,33998:0:0:0:0:
64,192,33998,1,0,0:0:0:0:
192,384,34156,1,0,0:0:0:0:
320,384,34156,1,0,0:0:0:0:
448,384,34156,128,0,34629:0:0:0:0:
64,384,34314,1,0,0:0:0:0:
192,384,34471,1,0,0:0:0:0:
320,384,34471,1,0,0:0:0:0:
64,384,34629,128,0,34708:0:0:0:0:
192,384,34708,128,0,34787:0:0:0:0:
64,384,34787,128,0,34945:0:0:0:0:
448,384,34787,1,0,0:0:0:0:
320,384,34945,128,0,35103:0:0:0:0:
64,384,35103,1,0,0:0:0:0:
448,384,35103,1,0,0:0:0:0:
192,384,35261,1,0,0:0:0:0:
320,384,35261,1,0,0:0:0:0:
448,384,35261,128,0,35419:0:0:0:0:
64,384,35577,1,0,0:0:0:0:
192,384,35577,128,0,35735:0:0:0:0:
320,384,35577,1,0,0:0:0:0:
448,384,35735,1,0,0:0:0:0:
320,384,35814,1,0,0:0:0:0:
64,384,35892,1,0,0:0:0:0:
192,384,35892,1,0,0:0:0:0:
448,384,35892,128,0,36208:0:0:0:0:
320,384,36050,1,0,0:0:0:0:
64,384,36208,128,0,36524:0:0:0:0:
192,384,36208,1,0,0:0:0:0:
320,384,36208,1,0,0:0:0:0:
448,384,36366,1,0,0:0:0:0:
192,384,36445,1,0,0:0:0:0:
448,384,36524,1,0,0:0:0:0:
192,384,36603,1,0,0:0:0:0:
64,384,36682,1,0,0:0:0:0:
320,384,36682,1,0,0:0:0:0:
448,384,36682,1,0,0:0:0:0:
192,384,36840,1,0,0:0:0:0:
320,384,36840,1,0,0:0:0:0:
64,384,36998,1,0,0:0:0:0:
448,384,36998,1,0,0:0:0:0:
64,384,37156,1,0,0:0:0:0:
192,384,37156,1,0,0:0:0:0:
320,384,37314,1,0,0:0:0:0:
448,384,37314,1,0,0:0:0:0:
192,384,37471,1,0,0:0:0:0:
320,192,37471,1,0,0:0:0:0:
64,384,37629,1,0,0:0:0:0:
192,384,37629,1,0,0:0:0:0:
448,192,37629,1,0,0:0:0:0:
64,384,37787,1,0,0:0:0:0:
320,384,37787,1,0,0:0:0:0:
448,384,37787,1,0,0:0:0:0:
192,384,37866,1,0,0:0:0:0:
448,384,37945,1,0,0:0:0:0:
320,192,37945,1,0,0:0:0:0:
64,384,38024,1,0,0:0:0:0:
192,192,38103,1,0,0:0:0:0:
320,192,38103,1,0,0:0:0:0:
448,192,38182,1,0,0:0:0:0:
64,192,38261,1,0,0:0:0:0:
192,192,38261,1,0,0:0:0:0:
320,192,38340,1,0,0:0:0:0:
448,384,38419,1,0,0:0:0:0:
64,192,38419,1,0,0:0:0:0:
192,384,38498,1,0,0:0:0:0:
320,192,38577,1,0,0:0:0:0:
448,192,38616,1,0,0:0:0:0:
64,192,38656,1,0,0:0:0:0:
192,192,38695,1,0,0:0:0:0:
320,192,38735,1,0,0:0:0:0:
448,192,38774,1,0,0:0:0:0:
64,192,38814,1,0,0:0:0:0:
192,192,38853,1,0,0:0:0:0:
320,192,38892,1,0,0:0:0:0:
448,192,38932,1,0,0:0:0:0:
64,192,38971,1,0,0:0:0:0:
192,192,39011,1,0,0:0:0:0:
320,192,39050,1,0,0:0:0:0:
448,192,39090,1,0,0:0:0:0:
64,192,39129,1,0,0:0:0:0:
192,192,39169,1,0,0:0:0:0:
320,384,39208,1,0,0:0:0:0:
448,384,39208,1,0,0:0:0:0:
320,384,39366,1,0,0:0:0:0:
64,384,39445,1,0,0:0:0:0:
192,384,39445,1,0,0:0:0:0:
448,384,39445,1,0,0:0:0:0:
192,384,39603,1,0,0:0:0:0:
64,384,39682,1,0,0:0:0:0:
320,384,39682,1,0,0:0:0:0:
448,384,39682,1,0,0:0:0:0:
64,384,39840,1,0,0:0:0:0:
192,384,39840,1,0,0:0:0:0:
448,384,39840,1,0,0:0:0:0:
448,384,39998,1,0,0:0:0:0:
192,384,40077,1,0,0:0:0:0:
320,384,40077,1,0,0:0:0:0:
64,384,40077,1,0,0:0:0:0:
64,384,40235,1,0,0:0:0:0:
448,384,40314,1,0,0:0:0:0:
192,384,40314,1,0,0:0:0:0:
320,384,40314,1,0,0:0:0:0:
64,384,40471,1,0,0:0:0:0:
320,384,40471,128,0,40629:0:0:0:0:
448,384,40471,128,0,40787:0:0:0:0:
192,384,40787,1,0,0:0:0:0:
320,384,40866,1,0,0:0:0:0:
192,384,40945,1,0,0:0:0:0:
320,384,41024,1,0,0:0:0:0:
64,384,41103,128,0,41182:0:0:0:0:
192,384,41103,128,0,41182:0:0:0:0:
448,384,41103,128,0,41182:0:0:0:0:
192,384,41261,1,0,0:0:0:0:
64,384,41340,128,0,41419:0:0:0:0:
320,384,41340,128,0,41419:0:0:0:0:
448,384,41340,128,0,41419:0:0:0:0:
448,384,41498,1,0,0:0:0:0:
64,384,41577,128,0,41656:0:0:0:0:
192,384,41577,128,0,41656:0:0:0:0:
320,384,41577,128,0,41656:0:0:0:0:
448,384,41735,128,0,42208:0:0:0:0:
320,384,41814,128,0,41971:0:0:0:0:
192,384,41892,128,0,41971:0:0:0:0:
64,384,42050,1,0,0:0:0:0:
192,384,42050,1,0,0:0:0:0:
320,384,42050,1,0,0:0:0:0:
64,384,42208,128,0,42366:0:0:0:0:
320,384,42366,128,0,42524:0:0:0:0:
448,384,42366,1,0,0:0:0:0:
64,384,42445,1,0,0:0:0:0:
192,384,42524,1,0,0:0:0:0:
448,384,42603,128,0,42761:0:0:0:0:
64,384,42682,1,0,0:0:0:0:
320,384,42682,1,0,0:0:0:0:
192,384,42761,1,0,0:0:0:0:
64,384,42840,128,0,43314:0:0:0:0:
320,384,42998,1,0,0:0:0:0:
448,384,42998,1,0,0:0:0:0:
192,384,43156,1,0,0:0:0:0:
320,384,43314,1,0,0:0:0:0:
448,384,43314,1,0,0:0:0:0:
64,384,43471,1,0,0:0:0:0:
320,384,43550,1,0,0:0:0:0:
448,384,43550,1,0,0:0:0:0:
64,384,43629,1,0,0:0:0:0:
192,384,43629,1,0,0:0:0:0:
320,384,43708,1,0,0:0:0:0:
448,384,43708,1,0,0:0:0:0:
192,384,43787,128,0,43945:0:0:0:0:
64,384,43945,1,0,0:0:0:0:
320,384,43945,128,0,44103:0:0:0:0:
448,384,43945,1,0,0:0:0:0:
192,384,44103,1,0,0:0:0:0:
64,384,44182,1,0,0:0:0:0:
320,384,44261,1,0,0:0:0:0:
448,384,44261,128,0,44735:0:0:0:0:
64,384,44419,1,0,0:0:0:0:
192,384,44577,1,0,0:0:0:0:
320,384,44577,1,0,0:0:0:0:
192,384,44735,128,0,44892:0:0:0:0:
64,384,44892,128,0,45050:0:0:0:0:
448,384,44892,1,0,0:0:0:0:
320,384,44971,1,0,0:0:0:0:
192,384,45050,1,0,0:0:0:0:
448,384,45129,128,0,45287:0:0:0:0:
64,384,45208,1,0,0:0:0:0:
192,384,45208,1,0,0:0:0:0:
320,384,45287,1,0,0:0:0:0:
64,384,45366,128,0,45840:0:0:0:0:
192,384,45524,1,0,0:0:0:0:
448,384,45524,1,0,0:0:0:0:
320,384,45682,1,0,0:0:0:0:
192,384,45840,1,0,0:0:0:0:
448,384,45840,1,0,0:0:0:0:
320,384,45998,1,0,0:0:0:0:
64,384,46077,1,0,0:0:0:0:
192,384,46077,1,0,0:0:0:0:
320,384,46156,1,0,0:0:0:0:
448,384,46156,1,0,0:0:0:0:
64,384,46235,1,0,0:0:0:0:
192,384,46235,1,0,0:0:0:0:
448,384,46314,1,0,0:0:0:0:
320,384,46392,1,0,0:0:0:0:
64,384,46471,1,0,0:0:0:0:
192,384,46471,1,0,0:0:0:0:
320,384,46550,1,0,0:0:0:0:
448,384,46550,1,0,0:0:0:0:
64,384,46629,1,0,0:0:0:0:
192,384,46629,1,0,0:0:0:0:
320,384,46708,1,0,0:0:0:0:
64,384,46787,1,0,0:0:0:0:
192,384,46787,1,0,0:0:0:0:
448,384,46787,128,0,46945:0:0:0:0:
320,192,46945,1,0,0:0:0:0:
192,192,47024,1,0,0:0:0:0:
320,384,47103,1,0,0:0:0:0:
448,384,47103,1,0,0:0:0:0:
64,192,47103,1,0,0:0:0:0:
192,192,47182,1,0,0:0:0:0:
64,192,47261,128,0,47419:0:0:0:0:
192,384,47419,1,0,0:0:0:0:
448,192,47419,1,0,0:0:0:0:
320,192,47498,1,0,0:0:0:0:
64,192,47577,1,0,0:0:0:0:
192,192,47656,1,0,0:0:0:0:
448,384,47735,128,0,47892:0:0:0:0:
64,384,47735,1,0,0:0:0:0:
320,384,47735,1,0,0:0:0:0:
192,192,47892,1,0,0:0:0:0:
320,192,47971,1,0,0:0:0:0:
64,384,48050,1,0,0:0:0:0:
448,192,48050,1,0,0:0:0:0:
192,192,48129,1,0,0:0:0:0:
320,192,48208,128,0,48366:0:0:0:0:
64,384,48366,1,0,0:0:0:0:
448,384,48366,1,0,0:0:0:0:
192,192,48366,1,0,0:0:0:0:
320,192,48445,1,0,0:0:0:0:
64,192,48524,1,0,0:0:0:0:
448,192,48603,1,0,0:0:0:0:
320,192,48603,1,0,0:0:0:0:
64,192,48682,1,0,0:0:0:0:
192,192,48682,1,0,0:0:0:0:
448,384,48761,1,0,0:0:0:0:
320,192,48761,1,0,0:0:0:0:
192,192,48840,1,0,0:0:0:0:
448,192,48919,1,0,0:0:0:0:
192,384,48998,1,0,0:0:0:0:
64,192,48998,128,0,49156:0:0:0:0:
320,192,48998,1,0,0:0:0:0:
320,192,49156,1,0,0:0:0:0:
192,192,49235,1,0,0:0:0:0:
64,384,49314,1,0,0:0:0:0:
448,384,49314,128,0,49787:0:0:0:0:
320,384,49471,1,0,0:0:0:0:
64,384,49629,1,0,0:0:0:0:
192,384,49629,1,0,0:0:0:0:
192,384,49787,1,0,0:0:0:0:
320,384,49866,1,0,0:0:0:0:
64,384,49945,128,0,50103:0:0:0:0:
448,384,49945,1,0,0:0:0:0:
192,384,50024,1,0,0:0:0:0:
320,192,50103,128,0,50261:0:0:0:0:
448,384,50182,128,0,50340:0:0:0:0:
64,384,50261,1,0,0:0:0:0:
192,384,50261,1,0,0:0:0:0:
320,384,50340,1,0,0:0:0:0:
448,192,50419,128,0,50735:0:0:0:0:
192,192,50419,128,0,50656:0:0:0:0:
64,192,50419,128,0,50577:0:0:0:0:
320,384,50735,1,0,0:0:0:0:
192,384,50814,1,0,0:0:0:0:
64,384,50892,1,0,0:0:0:0:
448,384,50892,1,0,0:0:0:0:
320,192,50892,1,0,0:0:0:0:
64,384,51050,128,0,51366:0:0:0:0:
192,192,51050,128,0,51287:0:0:0:0:
320,192,51050,128,0,51208:0:0:0:0:
448,384,51208,128,0,51366:0:0:0:0:
320,384,51287,128,0,51445:0:0:0:0:
192,192,51366,128,0,51524:0:0:0:0:
64,384,51524,1,0,0:0:0:0:
448,384,51603,1,0,0:0:0:0:
192,384,51682,1,0,0:0:0:0:
320,384,51761,1,0,0:0:0:0:
64,384,51840,128,0,52156:0:0:0:0:
448,384,51840,1,0,0:0:0:0:
448,384,52156,1,0,0:0:0:0:
320,384,52195,1,0,0:0:0:0:
192,384,52235,1,0,0:0:0:0:
448,384,52274,1,0,0:0:0:0:
64,384,52314,1,0,0:0:0:0:
320,384,52392,1,0,0:0:0:0:
64,384,52471,128,0,52550:0:0:0:0:
192,384,52471,128,0,52550:0:0:0:0:
448,384,52471,128,0,52550:0:0:0:0:
64,384,52629,1,0,0:0:0:0:
192,384,52708,128,0,52787:0:0:0:0:
320,384,52708,128,0,52787:0:0:0:0:
448,384,52708,128,0,52787:0:0:0:0:
448,384,52866,1,0,0:0:0:0:
64,192,52945,128,0,53024:0:0:0:0:
192,192,52945,128,0,53024:0:0:0:0:
320,192,52945,128,0,53024:0:0:0:0:
448,384,53024,1,0,0:0:0:0:
64,384,53103,1,0,0:0:0:0:
192,384,53182,1,0,0:0:0:0:
64,384,53261,1,0,0:0:0:0:
320,384,53261,1,0,0:0:0:0:
448,384,53261,1,0,0:0:0:0:
192,384,53340,1,0,0:0:0:0:
320,384,53419,1,0,0:0:0:0:
448,384,53471,1,0,0:0:0:0:
64,384,53524,1,0,0:0:0:0:
320,384,53577,1,0,0:0:0:0:
192,384,53577,1,0,0:0:0:0:
64,384,53735,1,0,0:0:0:0:
192,384,53774,1,0,0:0:0:0:
320,384,53814,1,0,0:0:0:0:
448,384,53853,1,0,0:0:0:0:
64,384,53892,1,0,0:0:0:0:
192,384,53892,1,0,0:0:0:0:
320,384,53971,1,0,0:0:0:0:
448,384,54050,128,0,54208:0:0:0:0:
64,192,54050,1,0,0:0:0:0:
320,384,54208,128,0,54287:0:0:0:0:
192,384,54287,128,0,54366:0:0:0:0:
64,384,54366,128,0,54840:0:0:0:0:
320,384,54366,1,0,0:0:0:0:
448,384,54366,1,0,0:0:0:0:
192,384,54524,1,0,0:0:0:0:
320,384,54682,1,0,0:0:0:0:
448,384,54682,1,0,0:0:0:0:
320,384,54840,128,0,54998:0:0:0:0:
64,384,54998,1,0,0:0:0:0:
448,384,54998,128,0,55156:0:0:0:0:
192,384,55077,1,0,0:0:0:0:
320,384,55156,1,0,0:0:0:0:
64,384,55235,128,0,55392:0:0:0:0:
192,384,55314,1,0,0:0:0:0:
448,384,55314,1,0,0:0:0:0:
320,384,55392,1,0,0:0:0:0:
192,384,55471,128,0,55945:0:0:0:0:
64,384,55629,1,0,0:0:0:0:
448,384,55629,1,0,0:0:0:0:
320,384,55787,1,0,0:0:0:0:
64,384,55945,1,0,0:0:0:0:
448,384,55945,1,0,0:0:0:0:
320,384,56103,1,0,0:0:0:0:
64,384,56182,1,0,0:0:0:0:
192,384,56182,1,0,0:0:0:0:
320,384,56261,1,0,0:0:0:0:
448,384,56261,1,0,0:0:0:0:
64,384,56340,1,0,0:0:0:0:
192,384,56340,1,0,0:0:0:0:
448,384,56419,1,0,0:0:0:0:
320,384,56498,1,0,0:0:0:0:
64,384,56577,1,0,0:0:0:0:
192,384,56577,1,0,0:0:0:0:
320,384,56656,1,0,0:0:0:0:
448,384,56656,1,0,0:0:0:0:
64,384,56735,1,0,0:0:0:0:
320,384,56814,1,0,0:0:0:0:
64,384,56892,128,0,57050:0:0:0:0:
192,384,56892,1,0,0:0:0:0:
448,384,56892,1,0,0:0:0:0:
320,384,57050,128,0,57129:0:0:0:0:
192,384,57129,128,0,57208:0:0:0:0:
64,384,57208,128,0,57287:0:0:0:0:
448,384,57208,1,0,0:0:0:0:
320,192,57287,128,0,57366:0:0:0:0:
64,384,57366,1,0,0:0:0:0:
192,192,57366,1,0,0:0:0:0:
448,192,57366,128,0,57524:0:0:0:0:
192,384,57524,128,0,57603:0:0:0:0:
320,384,57603,128,0,57682:0:0:0:0:
64,384,57682,1,0,0:0:0:0:
448,384,57682,128,0,57761:0:0:0:0:
192,192,57761,128,0,57840:0:0:0:0:
64,384,57840,128,0,57998:0:0:0:0:
448,384,57840,1,0,0:0:0:0:
320,192,57840,1,0,0:0:0:0:
320,384,57998,128,0,58077:0:0:0:0:
64,384,58077,128,0,58156:0:0:0:0:
192,384,58156,128,0,58235:0:0:0:0:
448,384,58156,1,0,0:0:0:0:
320,384,58235,128,0,58314:0:0:0:0:
64,384,58314,1,0,0:0:0:0:
192,384,58314,1,0,0:0:0:0:
448,384,58314,128,0,58471:0:0:0:0:
64,384,58471,128,0,58550:0:0:0:0:
320,384,58550,128,0,58629:0:0:0:0:
192,384,58629,128,0,58708:0:0:0:0:
448,384,58629,1,0,0:0:0:0:
64,384,58708,128,0,58787:0:0:0:0:
320,384,58787,1,0,0:0:0:0:
448,384,58787,1,0,0:0:0:0:
192,384,58866,1,0,0:0:0:0:
64,384,58866,1,0,0:0:0:0:
320,384,58945,1,0,0:0:0:0:
448,384,58945,1,0,0:0:0:0:
192,384,59024,1,0,0:0:0:0:
64,384,59103,1,0,0:0:0:0:
320,384,59103,128,0,59261:0:0:0:0:
448,384,59103,1,0,0:0:0:0:
192,384,59261,128,0,59340:0:0:0:0:
64,192,59261,1,0,0:0:0:0:
320,384,59340,128,0,59419:0:0:0:0:
64,384,59419,1,0,0:0:0:0:
192,384,59419,1,0,0:0:0:0:
448,384,59419,128,0,60050:0:0:0:0:
320,384,59577,1,0,0:0:0:0:
192,192,59577,1,0,0:0:0:0:
320,384,59735,1,0,0:0:0:0:
64,192,59735,1,0,0:0:0:0:
64,384,59892,1,0,0:0:0:0:
192,384,59892,1,0,0:0:0:0:
320,384,59971,1,0,0:0:0:0:
64,384,60050,1,0,0:0:0:0:
192,384,60090,1,0,0:0:0:0:
320,384,60129,1,0,0:0:0:0:
448,384,60169,1,0,0:0:0:0:
64,384,60208,1,0,0:0:0:0:
448,384,60287,1,0,0:0:0:0:
320,384,60327,1,0,0:0:0:0:
192,384,60366,1,0,0:0:0:0:
64,384,60406,1,0,0:0:0:0:
448,384,60445,1,0,0:0:0:0:
192,384,60524,1,0,0:0:0:0:
320,384,60524,1,0,0:0:0:0:
64,384,60840,1,0,0:0:0:0:
448,384,60840,1,0,0:0:0:0:
192,384,60919,1,0,0:0:0:0:
448,384,60998,1,0,0:0:0:0:
64,384,61077,1,0,0:0:0:0:
320,384,61156,1,0,0:0:0:0:
64,384,61235,1,0,0:0:0:0:
448,384,61314,1,0,0:0:0:0:
320,384,61366,1,0,0:0:0:0:
192,384,61419,1,0,0:0:0:0:
448,384,61471,1,0,0:0:0:0:
192,384,61550,1,0,0:0:0:0:
320,384,61629,1,0,0:0:0:0:
64,384,61708,1,0,0:0:0:0:
320,384,61787,1,0,0:0:0:0:
192,384,61866,1,0,0:0:0:0:
64,384,61945,1,0,0:0:0:0:
320,384,61945,128,0,62182:0:0:0:0:
448,384,61945,128,0,62182:0:0:0:0:
64,384,62261,1,0,0:0:0:0:
192,384,62261,1,0,0:0:0:0:
448,384,62261,1,0,0:0:0:0:
64,384,62419,1,0,0:0:0:0:
320,384,62498,1,0,0:0:0:0:
448,384,62498,1,0,0:0:0:0:
192,384,62577,1,0,0:0:0:0:
448,384,62656,1,0,0:0:0:0:
64,384,62735,1,0,0:0:0:0:
320,384,62735,1,0,0:0:0:0:
192,384,62892,1,0,0:0:0:0:
320,384,62892,1,0,0:0:0:0:
448,384,62892,1,0,0:0:0:0:
64,384,63050,128,0,63287:0:0:0:0:
192,384,63050,128,0,63287:0:0:0:0:
448,384,63050,1,0,0:0:0:0:
320,384,63129,1,0,0:0:0:0:
448,384,63208,1,0,0:0:0:0:
64,384,63366,1,0,0:0:0:0:
320,384,63366,1,0,0:0:0:0:
64,384,63524,1,0,0:0:0:0:
192,384,63524,1,0,0:0:0:0:
448,384,63524,128,0,63840:0:0:0:0:
320,384,63682,1,0,0:0:0:0:
64,384,63761,1,0,0:0:0:0:
192,384,63761,1,0,0:0:0:0:
320,384,63840,1,0,0:0:0:0:
64,384,63919,1,0,0:0:0:0:
192,384,63998,1,0,0:0:0:0:
448,384,63998,1,0,0:0:0:0:
64,384,64156,1,0,0:0:0:0:
320,384,64156,1,0,0:0:0:0:
448,384,64156,1,0,0:0:0:0:
192,384,64235,1,0,0:0:0:0:
320,384,64314,1,0,0:0:0:0:
64,384,64392,1,0,0:0:0:0:
192,384,64471,128,0,64787:0:0:0:0:
320,384,64471,128,0,64629:0:0:0:0:
448,384,64471,1,0,0:0:0:0:
64,384,64787,1,0,0:0:0:0:
320,384,64787,1,0,0:0:0:0:
448,384,64787,128,0,65103:0:0:0:0:
64,384,64945,1,0,0:0:0:0:
192,384,65024,1,0,0:0:0:0:
320,384,65024,1,0,0:0:0:0:
64,384,65103,1,0,0:0:0:0:
448,384,65182,1,0,0:0:0:0:
192,384,65261,1,0,0:0:0:0:
320,384,65261,1,0,0:0:0:0:
448,384,65419,1,0,0:0:0:0:
320,384,65419,1,0,0:0:0:0:
64,384,65419,1,0,0:0:0:0:
64,384,65577,128,0,65892:0:0:0:0:
448,384,65577,1,0,0:0:0:0:
192,192,65577,128,0,65735:0:0:0:0:
320,384,65656,1,0,0:0:0:0:
448,192,65735,1,0,0:0:0:0:
320,192,65892,128,0,66050:0:0:0:0:
192,192,65892,1,0,0:0:0:0:
64,384,66050,1,0,0:0:0:0:
192,384,66050,1,0,0:0:0:0:
448,384,66050,128,0,66366:0:0:0:0:
192,384,66208,1,0,0:0:0:0:
320,384,66208,1,0,0:0:0:0:
64,384,66366,1,0,0:0:0:0:
192,384,66445,1,0,0:0:0:0:
320,384,66524,1,0,0:0:0:0:
448,384,66524,1,0,0:0:0:0:
64,384,66682,1,0,0:0:0:0:
192,384,66682,1,0,0:0:0:0:
448,384,66682,1,0,0:0:0:0:
320,384,66761,1,0,0:0:0:0:
192,384,66840,1,0,0:0:0:0:
320,384,66919,1,0,0:0:0:0:
64,384,66998,1,0,0:0:0:0:
192,384,66998,1,0,0:0:0:0:
448,384,66998,1,0,0:0:0:0:
64,384,67156,1,0,0:0:0:0:
320,384,67156,1,0,0:0:0:0:
192,384,67314,1,0,0:0:0:0:
320,384,67314,1,0,0:0:0:0:
192,384,67471,1,0,0:0:0:0:
448,384,67471,1,0,0:0:0:0:
64,384,67629,1,0,0:0:0:0:
448,384,67629,1,0,0:0:0:0:
192,384,67787,1,0,0:0:0:0:
320,192,67787,1,0,0:0:0:0:
448,384,67945,1,0,0:0:0:0:
64,192,67945,1,0,0:0:0:0:
320,192,67945,1,0,0:0:0:0:
64,384,68103,1,0,0:0:0:0:
192,384,68103,1,0,0:0:0:0:
448,384,68103,1,0,0:0:0:0:
320,384,68182,1,0,0:0:0:0:
64,384,68261,1,0,0:0:0:0:
192,384,68261,1,0,0:0:0:0:
448,192,68340,1,0,0:0:0:0:
192,384,68419,1,0,0:0:0:0:
320,192,68419,1,0,0:0:0:0:
64,192,68498,1,0,0:0:0:0:
448,192,68577,1,0,0:0:0:0:
320,192,68577,1,0,0:0:0:0:
192,192,68656,1,0,0:0:0:0:
64,384,68735,1,0,0:0:0:0:
448,192,68735,1,0,0:0:0:0:
320,384,68814,1,0,0:0:0:0:
192,384,68892,1,0,0:0:0:0:
64,384,68932,1,0,0:0:0:0:
448,384,68971,1,0,0:0:0:0:
320,384,69011,1,0,0:0:0:0:
192,384,69050,1,0,0:0:0:0:
64,384,69090,1,0,0:0:0:0:
448,384,69129,1,0,0:0:0:0:
320,384,69169,1,0,0:0:0:0:
192,384,69208,1,0,0:0:0:0:
64,384,69248,1,0,0:0:0:0:
448,384,69287,1,0,0:0:0:0:
320,384,69327,1,0,0:0:0:0:
192,384,69366,1,0,0:0:0:0:
64,384,69406,1,0,0:0:0:0:
448,384,69445,1,0,0:0:0:0:
320,384,69485,1,0,0:0:0:0:
64,384,69524,1,0,0:0:0:0:
192,384,69524,1,0,0:0:0:0:
64,384,69682,1,0,0:0:0:0:
192,384,69761,1,0,0:0:0:0:
320,384,69761,1,0,0:0:0:0:
448,384,69761,1,0,0:0:0:0:
448,384,69919,1,0,0:0:0:0:
64,384,69998,1,0,0:0:0:0:
192,384,69998,1,0,0:0:0:0:
320,384,69998,1,0,0:0:0:0:
192,384,70156,1,0,0:0:0:0:
320,384,70156,1,0,0:0:0:0:
448,384,70156,1,0,0:0:0:0:
192,384,70314,1,0,0:0:0:0:
448,384,70392,1,0,0:0:0:0:
64,384,70392,1,0,0:0:0:0:
320,384,70392,1,0,0:0:0:0:
320,384,70550,1,0,0:0:0:0:
192,384,70629,1,0,0:0:0:0:
448,384,70629,1,0,0:0:0:0:
64,384,70629,1,0,0:0:0:0:
64,384,70787,128,0,71103:0:0:0:0:
320,384,70787,128,0,71103:0:0:0:0:
448,384,70787,128,0,71103:0:0:0:0:
64,384,71577,1,0,0:0:0:0:
192,384,71735,1,0,0:0:0:0:
320,384,71892,1,0,0:0:0:0:
64,384,72050,1,0,0:0:0:0:
448,384,72050,1,0,0:0:0:0:
320,384,72287,1,0,0:0:0:0:
448,384,72327,1,0,0:0:0:0:
192,384,72524,1,0,0:0:0:0:
320,384,72564,1,0,0:0:0:0:
64,384,72840,1,0,0:0:0:0:
192,384,72919,1,0,0:0:0:0:
320,384,72998,1,0,0:0:0:0:
192,384,73077,1,0,0:0:0:0:
448,384,73156,1,0,0:0:0:0:
320,384,73235,1,0,0:0:0:0:
448,384,73314,1,0,0:0:0:0:
64,384,73314,1,0,0:0:0:0:
320,384,73550,1,0,0:0:0:0:
192,384,73550,1,0,0:0:0:0:
64,384,73787,1,0,0:0:0:0:
192,192,73787,1,0,0:0:0:0:
64,384,74577,1,0,0:0:0:0:
320,384,74577,1,0,0:0:0:0:
192,384,74814,1,0,0:0:0:0:
448,384,74814,1,0,0:0:0:0:
192,384,75050,1,0,0:0:0:0:
320,384,75050,1,0,0:0:0:0:
64,384,75366,1,0,0:0:0:0:
192,384,75445,1,0,0:0:0:0:
320,384,75524,1,0,0:0:0:0:
192,384,75603,1,0,0:0:0:0:
64,384,75682,128,0,76471:0:0:0:0:
320,384,75682,1,0,0:0:0:0:
448,384,75682,1,0,0:0:0:0:
448,192,75840,128,0,76156:0:0:0:0:
192,192,76077,128,0,76629:0:0:0:0:
320,192,76314,128,0,76787:0:0:0:0:
448,192,76314,128,0,76945:0:0:0:0:
64,384,76629,128,0,77024:0:0:0:0:
192,384,76787,128,0,77024:0:0:0:0:
320,384,76945,128,0,77024:0:0:0:0:
64,384,77103,1,0,0:0:0:0:
192,384,77103,1,0,0:0:0:0:
448,384,77103,1,0,0:0:0:0:
320,192,77103,1,0,0:0:0:0:
64,384,77261,1,0,0:0:0:0:
448,192,77261,1,0,0:0:0:0:
192,384,77419,1,0,0:0:0:0:
320,384,77419,1,0,0:0:0:0:
64,192,77419,1,0,0:0:0:0:
64,384,77577,1,0,0:0:0:0:
192,384,77577,1,0,0:0:0:0:
320,384,77656,1,0,0:0:0:0:
448,384,77656,1,0,0:0:0:0:
320,384,77814,1,0,0:0:0:0:
448,384,77814,1,0,0:0:0:0:
64,384,77892,1,0,0:0:0:0:
192,384,77892,1,0,0:0:0:0:
64,384,78050,1,0,0:0:0:0:
448,384,78050,1,0,0:0:0:0:
320,192,78050,1,0,0:0:0:0:
192,384,78208,1,0,0:0:0:0:
448,384,78208,1,0,0:0:0:0:
64,384,78287,1,0,0:0:0:0:
320,384,78287,1,0,0:0:0:0:
64,384,78445,1,0,0:0:0:0:
320,384,78445,1,0,0:0:0:0:
192,384,78524,1,0,0:0:0:0:
448,384,78524,1,0,0:0:0:0:
64,384,78682,1,0,0:0:0:0:
448,384,78682,1,0,0:0:0:0:
192,192,78682,1,0,0:0:0:0:
320,384,78840,1,0,0:0:0:0:
448,384,78840,1,0,0:0:0:0:
64,384,78919,1,0,0:0:0:0:
192,384,78919,1,0,0:0:0:0:
64,384,79077,1,0,0:0:0:0:
192,384,79077,1,0,0:0:0:0:
320,384,79156,1,0,0:0:0:0:
448,384,79156,1,0,0:0:0:0:
64,384,79314,1,0,0:0:0:0:
448,384,79314,1,0,0:0:0:0:
320,192,79314,1,0,0:0:0:0:
64,384,79471,1,0,0:0:0:0:
192,384,79471,1,0,0:0:0:0:
320,384,79550,1,0,0:0:0:0:
448,384,79550,1,0,0:0:0:0:
64,384,79629,1,0,0:0:0:0:
192,384,79669,1,0,0:0:0:0:
320,384,79708,1,0,0:0:0:0:
448,384,79748,1,0,0:0:0:0:
64,384,79787,1,0,0:0:0:0:
64,384,79866,1,0,0:0:0:0:
448,384,79945,1,0,0:0:0:0:
320,384,79985,1,0,0:0:0:0:
192,384,80024,1,0,0:0:0:0:
64,384,80064,1,0,0:0:0:0:
448,384,80103,1,0,0:0:0:0:
448,384,80182,1,0,0:0:0:0:
320,384,80261,128,0,80419:0:0:0:0:
192,384,80261,128,0,80419:0:0:0:0:
64,384,80419,1,0,0:0:0:0:
64,384,80498,1,0,0:0:0:0:
448,384,80577,128,0,80735:0:0:0:0:
320,384,80577,128,0,80735:0:0:0:0:
192,384,80735,1,0,0:0:0:0:
192,384,80814,1,0,0:0:0:0:
64,384,80892,1,0,0:0:0:0:
448,384,80892,1,0,0:0:0:0:
320,384,80971,1,0,0:0:0:0:
448,384,81050,1,0,0:0:0:0:
64,384,81129,1,0,0:0:0:0:
192,384,81208,1,0,0:0:0:0:
64,384,81287,1,0,0:0:0:0:
448,384,81366,1,0,0:0:0:0:
320,384,81419,1,0,0:0:0:0:
192,384,81471,1,0,0:0:0:0:
64,384,81524,1,0,0:0:0:0:
320,384,81577,1,0,0:0:0:0:
448,384,81629,1,0,0:0:0:0:
192,384,81682,1,0,0:0:0:0:
192,384,81761,1,0,0:0:0:0:
64,384,81840,1,0,0:0:0:0:
448,384,81840,1,0,0:0:0:0:
192,384,81998,1,0,0:0:0:0:
320,384,81998,1,0,0:0:0:0:
64,384,82156,1,0,0:0:0:0:
320,384,82156,1,0,0:0:0:0:
448,384,82156,128,0,82314:0:0:0:0:
64,192,82314,128,0,82471:0:0:0:0:
192,192,82392,128,0,82471:0:0:0:0:
320,384,82471,1,0,0:0:0:0:
448,384,82471,1,0,0:0:0:0:
192,192,82550,128,0,82787:0:0:0:0:
320,384,82629,128,0,82945:0:0:0:0:
64,384,82787,1,0,0:0:0:0:
448,384,82787,1,0,0:0:0:0:
192,192,82945,128,0,83024:0:0:0:0:
320,192,83024,128,0,83103:0:0:0:0:
448,384,83103,1,0,0:0:0:0:
64,192,83103,128,0,83182:0:0:0:0:
192,192,83182,128,0,83261:0:0:0:0:
448,384,83261,128,0,83577:0:0:0:0:
64,384,83419,1,0,0:0:0:0:
192,384,83419,1,0,0:0:0:0:
320,384,83577,1,0,0:0:0:0:
64,384,83629,1,0,0:0:0:0:
192,384,83682,1,0,0:0:0:0:
320,192,83735,1,0,0:0:0:0:
448,192,83735,128,0,83892:0:0:0:0:
192,192,83892,128,0,84050:0:0:0:0:
320,192,83971,1,0,0:0:0:0:
448,192,84050,128,0,84208:0:0:0:0:
64,192,84050,1,0,0:0:0:0:
192,192,84129,1,0,0:0:0:0:
448,384,84287,128,0,84445:0:0:0:0:
320,192,84287,128,0,84445:0:0:0:0:
64,384,84366,1,0,0:0:0:0:
192,384,84366,1,0,0:0:0:0:
192,192,84524,128,0,84682:0:0:0:0:
320,192,84524,128,0,84603:0:0:0:0:
448,192,84524,128,0,84603:0:0:0:0:
64,192,84682,128,0,84998:0:0:0:0:
320,192,84682,1,0,0:0:0:0:
448,192,84682,1,0,0:0:0:0:
192,192,84840,1,0,0:0:0:0:
192,192,84998,128,0,85077:0:0:0:0:
448,192,84998,1,0,0:0:0:0:
320,192,84998,1,0,0:0:0:0:
64,192,85077,128,0,85156:0:0:0:0:
320,192,85156,128,0,85235:0:0:0:0:
448,192,85235,128,0,85314:0:0:0:0:
320,192,85314,128,0,85392:0:0:0:0:
64,192,85314,128,0,85392:0:0:0:0:
192,192,85314,128,0,85392:0:0:0:0:
64,384,85471,1,0,0:0:0:0:
192,192,85550,128,0,85629:0:0:0:0:
320,192,85550,128,0,85629:0:0:0:0:
448,192,85550,128,0,85629:0:0:0:0:
448,192,85708,128,0,85787:0:0:0:0:
320,192,85787,128,0,85866:0:0:0:0:
192,192,85787,128,0,85945:0:0:0:0:
64,192,85787,128,0,86024:0:0:0:0:
448,192,85945,128,0,86103:0:0:0:0:
320,192,86024,128,0,86103:0:0:0:0:
192,192,86103,128,0,86182:0:0:0:0:
320,192,86182,128,0,86261:0:0:0:0:
64,384,86261,1,0,0:0:0:0:
192,384,86261,1,0,0:0:0:0:
448,192,86261,128,0,86419:0:0:0:0:
64,192,86419,128,0,86498:0:0:0:0:
192,192,86498,128,0,86577:0:0:0:0:
448,384,86577,1,0,0:0:0:0:
320,192,86577,1,0,0:0:0:0:
64,192,86577,128,0,86735:0:0:0:0:
320,192,86735,128,0,86814:0:0:0:0:
448,192,86814,1,0,0:0:0:0:
64,192,86814,1,0,0:0:0:0:
192,192,86892,128,0,86971:0:0:0:0:
64,192,86971,128,0,87050:0:0:0:0:
448,384,87050,1,0,0:0:0:0:
320,192,87050,128,0,87129:0:0:0:0:
192,192,87129,128,0,87208:0:0:0:0:
64,384,87208,1,0,0:0:0:0:
448,384,87208,128,0,87366:0:0:0:0:
320,192,87208,1,0,0:0:0:0:
192,192,87366,128,0,87524:0:0:0:0:
320,192,87445,128,0,87524:0:0:0:0:
64,384,87524,1,0,0:0:0:0:
448,192,87524,1,0,0:0:0:0:
192,192,87603,128,0,87840:0:0:0:0:
64,384,87682,128,0,87840:0:0:0:0:
448,384,87840,1,0,0:0:0:0:
320,192,87840,128,0,87998:0:0:0:0:
64,192,87998,128,0,88156:0:0:0:0:
448,384,88156,1,0,0:0:0:0:
320,384,88156,1,0,0:0:0:0:
192,192,88156,128,0,88314:0:0:0:0:
448,384,88314,128,0,88629:0:0:0:0:
320,192,88314,128,0,88629:0:0:0:0:
64,192,88314,1,0,0:0:0:0:
192,384,88629,1,0,0:0:0:0:
64,192,88629,128,0,88708:0:0:0:0:
320,192,88708,128,0,88787:0:0:0:0:
192,384,88787,1,0,0:0:0:0:
448,192,88787,128,0,88945:0:0:0:0:
64,192,88787,1,0,0:0:0:0:
192,192,88945,128,0,89103:0:0:0:0:
448,384,89024,1,0,0:0:0:0:
320,192,89103,128,0,89261:0:0:0:0:
64,192,89103,1,0,0:0:0:0:
448,192,89182,1,0,0:0:0:0:
192,384,89261,128,0,89419:0:0:0:0:
64,384,89419,1,0,0:0:0:0:
448,384,89419,1,0,0:0:0:0:
320,192,89498,1,0,0:0:0:0:
192,192,89577,128,0,89735:0:0:0:0:
320,192,89656,128,0,89735:0:0:0:0:
64,384,89735,1,0,0:0:0:0:
448,384,89735,128,0,89892:0:0:0:0:
192,384,89892,1,0,0:0:0:0:
64,192,89892,128,0,89971:0:0:0:0:
320,192,89971,128,0,90050:0:0:0:0:
64,384,90050,1,0,0:0:0:0:
192,384,90050,128,0,90208:0:0:0:0:
448,384,90050,1,0,0:0:0:0:
320,384,90208,128,0,90366:0:0:0:0:
448,384,90366,1,0,0:0:0:0:
64,192,90366,128,0,90445:0:0:0:0:
192,192,90445,128,0,90524:0:0:0:0:
448,384,90524,1,0,0:0:0:0:
320,192,90524,128,0,90603:0:0:0:0:
64,384,90603,1,0,0:0:0:0:
192,192,90603,128,0,90682:0:0:0:0:
448,384,90682,1,0,0:0:0:0:
320,192,90682,128,0,90761:0:0:0:0:
64,192,90761,128,0,90840:0:0:0:0:
192,384,90840,128,0,90919:0:0:0:0:
320,384,90840,128,0,90919:0:0:0:0:
448,384,90840,128,0,90919:0:0:0:0:
320,384,90998,1,0,0:0:0:0:
320,384,91077,1,0,0:0:0:0:
64,384,91156,128,0,91235:0:0:0:0:
192,384,91156,128,0,91235:0:0:0:0:
448,384,91156,128,0,91235:0:0:0:0:
192,384,91314,1,0,0:0:0:0:
192,384,91392,1,0,0:0:0:0:
64,384,91471,128,0,91550:0:0:0:0:
320,384,91471,128,0,91550:0:0:0:0:
448,384,91471,128,0,91550:0:0:0:0:
448,384,91629,1,0,0:0:0:0:
448,384,91708,1,0,0:0:0:0:
192,384,91787,128,0,92103:0:0:0:0:
64,384,91787,128,0,92024:0:0:0:0:
320,384,91787,128,0,91945:0:0:0:0:
320,384,92103,1,0,0:0:0:0:
448,384,92103,1,0,0:0:0:0:
64,384,92156,1,0,0:0:0:0:
192,384,92208,1,0,0:0:0:0:
448,384,92261,1,0,0:0:0:0:
320,384,92314,1,0,0:0:0:0:
192,384,92366,1,0,0:0:0:0:
64,384,92419,1,0,0:0:0:0:
448,384,92471,1,0,0:0:0:0:
320,384,92524,1,0,0:0:0:0:
64,384,92577,128,0,92735:0:0:0:0:
192,384,92577,1,0,0:0:0:0:
448,384,92577,1,0,0:0:0:0:
448,384,92735,128,0,92892:0:0:0:0:
64,384,92892,1,0,0:0:0:0:
192,192,92892,128,0,92971:0:0:0:0:
320,192,92971,128,0,93050:0:0:0:0:
448,192,93050,128,0,93129:0:0:0:0:
192,192,93129,128,0,93208:0:0:0:0:
64,384,93208,1,0,0:0:0:0:
448,384,93208,1,0,0:0:0:0:
320,192,93208,128,0,93287:0:0:0:0:
192,192,93287,128,0,93366:0:0:0:0:
64,384,93366,128,0,93682:0:0:0:0:
320,384,93524,1,0,0:0:0:0:
448,384,93524,1,0,0:0:0:0:
192,384,93682,1,0,0:0:0:0:
448,384,93735,1,0,0:0:0:0:
320,384,93787,1,0,0:0:0:0:
192,192,93840,1,0,0:0:0:0:
64,192,93840,128,0,93998:0:0:0:0:
320,192,93998,128,0,94156:0:0:0:0:
192,192,94077,1,0,0:0:0:0:
64,192,94156,128,0,94314:0:0:0:0:
448,192,94156,1,0,0:0:0:0:
320,192,94235,1,0,0:0:0:0:
192,192,94392,128,0,94550:0:0:0:0:
64,192,94392,128,0,94550:0:0:0:0:
448,384,94471,1,0,0:0:0:0:
320,192,94471,1,0,0:0:0:0:
320,192,94629,128,0,94787:0:0:0:0:
64,192,94629,128,0,94708:0:0:0:0:
192,192,94629,128,0,94708:0:0:0:0:
448,384,94787,128,0,95103:0:0:0:0:
64,192,94787,1,0,0:0:0:0:
192,192,94787,1,0,0:0:0:0:
320,192,94945,1,0,0:0:0:0:
192,384,95103,1,0,0:0:0:0:
64,192,95103,128,0,95182:0:0:0:0:
320,192,95182,128,0,95261:0:0:0:0:
192,192,95261,128,0,95340:0:0:0:0:
448,192,95340,128,0,95419:0:0:0:0:
64,384,95419,128,0,95577:0:0:0:0:
320,384,95419,1,0,0:0:0:0:
192,192,95577,128,0,95735:0:0:0:0:
320,192,95656,128,0,95735:0:0:0:0:
64,384,95735,1,0,0:0:0:0:
448,384,95735,1,0,0:0:0:0:
320,192,95814,128,0,96050:0:0:0:0:
448,384,95892,128,0,96208:0:0:0:0:
64,384,96050,1,0,0:0:0:0:
192,384,96050,1,0,0:0:0:0:
320,192,96208,128,0,96287:0:0:0:0:
448,192,96287,128,0,96366:0:0:0:0:
64,384,96366,1,0,0:0:0:0:
192,192,96366,128,0,96445:0:0:0:0:
320,192,96445,128,0,96524:0:0:0:0:
64,192,96524,128,0,96603:0:0:0:0:
320,384,96603,1,0,0:0:0:0:
192,192,96603,128,0,96682:0:0:0:0:
64,384,96682,1,0,0:0:0:0:
448,192,96682,128,0,96761:0:0:0:0:
192,384,96761,1,0,0:0:0:0:
320,192,96761,128,0,96840:0:0:0:0:
64,384,96919,1,0,0:0:0:0:
320,384,96919,128,0,97077:0:0:0:0:
448,384,96919,128,0,97077:0:0:0:0:
192,384,97077,1,0,0:0:0:0:
320,384,97156,128,0,97314:0:0:0:0:
448,384,97156,128,0,97471:0:0:0:0:
64,192,97156,1,0,0:0:0:0:
64,192,97471,1,0,0:0:0:0:
192,192,97471,1,0,0:0:0:0:
320,192,97550,1,0,0:0:0:0:
448,192,97629,1,0,0:0:0:0:
64,192,97629,1,0,0:0:0:0:
192,192,97708,1,0,0:0:0:0:
320,192,97787,1,0,0:0:0:0:
448,192,97787,1,0,0:0:0:0:
64,192,97866,1,0,0:0:0:0:
192,192,97945,1,0,0:0:0:0:
320,192,97945,1,0,0:0:0:0:
448,192,97945,1,0,0:0:0:0:
64,192,98024,1,0,0:0:0:0:
320,192,98103,1,0,0:0:0:0:
448,192,98103,1,0,0:0:0:0:
192,192,98182,1,0,0:0:0:0:
64,192,98182,1,0,0:0:0:0:
320,192,98261,1,0,0:0:0:0:
64,192,98340,1,0,0:0:0:0:
448,192,98340,1,0,0:0:0:0:
192,192,98419,128,0,98735:0:0:0:0:
320,192,98419,128,0,98577:0:0:0:0:
64,192,98735,1,0,0:0:0:0:
448,192,98735,1,0,0:0:0:0:
320,192,98814,1,0,0:0:0:0:
192,192,98892,1,0,0:0:0:0:
64,192,98892,1,0,0:0:0:0:
448,192,98971,1,0,0:0:0:0:
320,192,99050,1,0,0:0:0:0:
192,192,99050,1,0,0:0:0:0:
64,192,99129,1,0,0:0:0:0:
192,192,99208,1,0,0:0:0:0:
320,192,99208,1,0,0:0:0:0:
448,192,99208,1,0,0:0:0:0:
64,192,99287,1,0,0:0:0:0:
320,192,99366,1,0,0:0:0:0:
448,192,99366,1,0,0:0:0:0:
192,192,99445,1,0,0:0:0:0:
64,192,99445,1,0,0:0:0:0:
448,192,99524,1,0,0:0:0:0:
192,192,99603,1,0,0:0:0:0:
320,192,99603,1,0,0:0:0:0:
64,384,99682,128,0,99998:0:0:0:0:
448,192,99682,128,0,99840:0:0:0:0:
320,384,100077,128,0,100156:0:0:0:0:
448,384,100077,128,0,100156:0:0:0:0:
64,192,100077,128,0,100156:0:0:0:0:
448,384,100235,1,0,0:0:0:0:
192,384,100314,128,0,100392:0:0:0:0:
320,384,100314,128,0,100392:0:0:0:0:
64,192,100314,128,0,100392:0:0:0:0:
64,384,100471,128,0,100550:0:0:0:0:
192,384,100471,128,0,100550:0:0:0:0:
448,192,100471,128,0,100550:0:0:0:0:
64,384,100629,1,0,0:0:0:0:
320,384,100708,128,0,100787:0:0:0:0:
448,384,100708,128,0,100787:0:0:0:0:
192,192,100708,128,0,100787:0:0:0:0:
320,384,100866,1,0,0:0:0:0:
192,384,100945,128,0,101024:0:0:0:0:
448,384,100945,128,0,101024:0:0:0:0:
64,192,100945,128,0,101024:0:0:0:0:
64,384,101103,128,0,101419:0:0:0:0:
320,384,101103,128,0,101419:0:0:0:0:
448,384,101103,128,0,101419:0:0:0:0:
64,384,101735,1,0,0:0:0:0:
320,384,101735,128,0,101971:0:0:0:0:
448,384,101735,128,0,101971:0:0:0:0:
192,192,101814,1,0,0:0:0:0:
64,192,101892,1,0,0:0:0:0:
192,192,101971,1,0,0:0:0:0:
320,384,102050,1,0,0:0:0:0:
448,384,102050,1,0,0:0:0:0:
64,192,102129,1,0,0:0:0:0:
192,192,102129,1,0,0:0:0:0:
320,192,102208,1,0,0:0:0:0:
448,192,102208,1,0,0:0:0:0:
192,192,102287,1,0,0:0:0:0:
448,384,102366,1,0,0:0:0:0:
320,192,102366,1,0,0:0:0:0:
64,192,102366,128,0,102879:0:0:0:0:
192,192,102445,128,0,102682:0:0:0:0:
320,192,102485,128,0,102642:0:0:0:0:
448,192,102682,128,0,102761:0:0:0:0:
320,192,102721,128,0,102800:0:0:0:0:
192,192,102761,128,0,102840:0:0:0:0:
448,192,102840,1,0,0:0:0:0:
320,192,102879,1,0,0:0:0:0:
192,192,102919,1,0,0:0:0:0:
64,384,102998,1,0,0:0:0:0:
448,192,102998,1,0,0:0:0:0:
320,192,102998,1,0,0:0:0:0:
64,384,103156,1,0,0:0:0:0:
448,384,103156,1,0,0:0:0:0:
192,384,103235,1,0,0:0:0:0:
320,384,103314,1,0,0:0:0:0:
320,384,103392,1,0,0:0:0:0:
64,384,103471,1,0,0:0:0:0:
192,384,103471,1,0,0:0:0:0:
320,384,103550,1,0,0:0:0:0:
448,384,103629,128,0,103787:0:0:0:0:
64,384,103629,128,0,103708:0:0:0:0:
320,384,103787,1,0,0:0:0:0:
192,192,103840,1,0,0:0:0:0:
64,384,103892,1,0,0:0:0:0:
320,384,103945,128,0,104103:0:0:0:0:
448,384,103945,1,0,0:0:0:0:
192,192,104024,128,0,104103:0:0:0:0:
448,384,104103,128,0,104261:0:0:0:0:
64,192,104103,1,0,0:0:0:0:
320,384,104261,1,0,0:0:0:0:
192,384,104261,1,0,0:0:0:0:
64,384,104419,1,0,0:0:0:0:
448,192,104419,1,0,0:0:0:0:
192,192,104498,1,0,0:0:0:0:
320,192,104577,1,0,0:0:0:0:
320,384,104656,1,0,0:0:0:0:
192,192,104735,1,0,0:0:0:0:
192,192,104814,1,0,0:0:0:0:
64,384,104892,128,0,105208:0:0:0:0:
448,384,104892,128,0,105208:0:0:0:0:
192,384,105208,1,0,0:0:0:0:
192,384,105287,1,0,0:0:0:0:
448,384,105366,1,0,0:0:0:0:
320,192,105419,1,0,0:0:0:0:
192,192,105471,1,0,0:0:0:0:
64,384,105524,128,0,105840:0:0:0:0:
448,192,105524,1,0,0:0:0:0:
320,192,105524,1,0,0:0:0:0:
320,384,105682,128,0,105840:0:0:0:0:
192,384,105682,1,0,0:0:0:0:
448,384,105840,1,0,0:0:0:0:
192,384,105919,1,0,0:0:0:0:
64,384,105919,1,0,0:0:0:0:
320,384,106077,1,0,0:0:0:0:
192,192,106077,1,0,0:0:0:0:
64,384,106156,1,0,0:0:0:0:
448,384,106156,1,0,0:0:0:0:
64,384,106261,1,0,0:0:0:0:
192,384,106261,1,0,0:0:0:0:
192,384,106366,1,0,0:0:0:0:
320,384,106366,1,0,0:0:0:0:
64,384,106471,1,0,0:0:0:0:
448,384,106471,1,0,0:0:0:0:
192,384,106577,1,0,0:0:0:0:
320,384,106577,1,0,0:0:0:0:
320,384,106682,1,0,0:0:0:0:
448,384,106682,1,0,0:0:0:0:
64,384,106787,128,0,107340:0:0:0:0:
192,384,106945,128,0,107340:0:0:0:0:
320,384,107103,128,0,107340:0:0:0:0:
448,384,107261,128,0,107419:0:0:0:0:
64,384,107419,128,0,107498:0:0:0:0:
192,384,107419,128,0,107498:0:0:0:0:
320,192,107419,128,0,107498:0:0:0:0:
64,384,107577,128,0,107656:0:0:0:0:
192,384,107577,128,0,107656:0:0:0:0:
320,192,107577,128,0,107656:0:0:0:0:
64,384,107735,128,0,107814:0:0:0:0:
192,384,107735,128,0,107814:0:0:0:0:
320,192,107735,128,0,107814:0:0:0:0:
448,384,107892,1,0,0:0:0:0:
64,384,107971,128,0,108050:0:0:0:0:
192,384,107971,128,0,108050:0:0:0:0:
320,192,107971,128,0,108050:0:0:0:0:
192,384,108208,128,0,108287:0:0:0:0:
64,384,108208,128,0,108287:0:0:0:0:
320,192,108208,128,0,108287:0:0:0:0:
192,384,108366,128,0,108445:0:0:0:0:
64,384,108366,128,0,108445:0:0:0:0:
320,192,108366,128,0,108445:0:0:0:0:
192,384,108524,1,0,0:0:0:0:
64,384,108603,128,0,108682:0:0:0:0:
448,384,108603,128,0,108682:0:0:0:0:
320,192,108603,128,0,108682:0:0:0:0:
64,384,108840,128,0,108919:0:0:0:0:
448,384,108840,128,0,108919:0:0:0:0:
320,192,108840,128,0,108919:0:0:0:0:
64,384,108998,128,0,109077:0:0:0:0:
448,384,108998,128,0,109077:0:0:0:0:
320,192,108998,128,0,109077:0:0:0:0:
192,192,109156,1,0,0:0:0:0:
64,384,109235,128,0,109314:0:0:0:0:
448,384,109235,128,0,109314:0:0:0:0:
320,192,109235,128,0,109314:0:0:0:0:
64,384,109471,128,0,109550:0:0:0:0:
448,384,109471,128,0,109550:0:0:0:0:
320,192,109471,128,0,109550:0:0:0:0:
64,384,109629,128,0,109708:0:0:0:0:
448,384,109629,128,0,109708:0:0:0:0:
192,192,109629,128,0,109708:0:0:0:0:
192,384,109787,128,0,109866:0:0:0:0:
64,384,109787,128,0,109866:0:0:0:0:
320,192,109787,128,0,109866:0:0:0:0:
192,384,109945,128,0,110024:0:0:0:0:
320,384,109945,128,0,110024:0:0:0:0:
448,192,109945,128,0,110024:0:0:0:0:
64,384,110103,1,0,0:0:0:0:
192,384,110261,128,0,110340:0:0:0:0:
320,384,110261,128,0,110340:0:0:0:0:
448,192,110261,128,0,110340:0:0:0:0:
64,384,110419,1,0,0:0:0:0:
192,384,110498,128,0,110577:0:0:0:0:
320,384,110498,128,0,110577:0:0:0:0:
448,192,110498,128,0,110577:0:0:0:0:
192,384,110735,128,0,110814:0:0:0:0:
320,384,110735,128,0,110814:0:0:0:0:
448,192,110735,128,0,110814:0:0:0:0:
192,384,110892,128,0,110971:0:0:0:0:
320,384,110892,128,0,110971:0:0:0:0:
448,192,110892,128,0,110971:0:0:0:0:
320,384,111050,1,0,0:0:0:0:
192,384,111129,128,0,111208:0:0:0:0:
448,384,111129,128,0,111208:0:0:0:0:
64,192,111129,128,0,111208:0:0:0:0:
192,384,111366,128,0,111445:0:0:0:0:
448,384,111366,128,0,111445:0:0:0:0:
64,192,111366,128,0,111445:0:0:0:0:
192,384,111524,128,0,111603:0:0:0:0:
448,384,111524,128,0,111603:0:0:0:0:
64,192,111524,128,0,111603:0:0:0:0:
64,192,111682,1,0,0:0:0:0:
192,192,111721,1,0,0:0:0:0:
320,192,111761,1,0,0:0:0:0:
448,192,111840,128,0,111919:0:0:0:0:
192,192,111879,1,0,0:0:0:0:
64,192,111919,1,0,0:0:0:0:
448,192,111998,128,0,112077:0:0:0:0:
320,192,111998,128,0,112077:0:0:0:0:
192,192,112156,128,0,112235:0:0:0:0:
320,192,112156,128,0,112235:0:0:0:0:
448,192,112156,128,0,112235:0:0:0:0:
64,192,112314,128,0,112471:0:0:0:0:
192,192,112314,128,0,112471:0:0:0:0:
320,192,112314,128,0,112471:0:0:0:0:
448,192,112314,128,0,112471:0:0:0:0:
