osu file format v14

[General]
AudioFilename: Ashrount vs polysha - ZENITH.mp3
AudioLeadIn: 0
PreviewTime: 82156
Countdown: 0
SampleSet: Normal
StackLeniency: 0.7
Mode: 3
LetterboxInBreaks: 0
StoryFireInFront: 0
SpecialStyle: 0
WidescreenStoryboard: 1

[Editor]
Bookmarks: 0
DistanceSpacing: 1
BeatDivisor: 4
GridSize: 4
TimelineZoom: 1.8

[Metadata]
Title:ZENITH
TitleUnicode:ZEИITH
Artist:Ashrount vs. polysha
ArtistUnicode:Ashrount vs. polysha
Creator:baigu678
Version:ADVANCED
Source:SOUND VOLTEX VIVID WAVE
Tags:electronic instrumental edm TEK-A-RHYTHM vs. 逆球レジェンド minoru The 9th KAC オリジナル楽曲コンテスト sdvx contest HEXA DIVER original song Alptraum konami bemani video game X-record beatmania IIDX 30 RESIDENT
BeatmapID:3865090
BeatmapSetID:1872740

[Difficulty]
HPDrainRate:7.2
CircleSize:4
OverallDifficulty:7.2
ApproachRate:5
SliderMultiplier:1.4
SliderTickRate:1

[Events]
//Background and Video events
0,0,"zenith.jpg",0,0
//Break Periods
//Storyboard Layer 0 (Background)
//Storyboard Layer 1 (Fail)
//Storyboard Layer 2 (Pass)
//Storyboard Layer 3 (Foreground)
//Storyboard Layer 4 (Overlay)
//Storyboard Sound Samples

[TimingPoints]
1314,315.789473684211,4,1,1,30,1,0
82156,-100,4,1,1,30,0,1
92103,-100,4,1,1,30,0,0
92577,-100,4,1,1,30,0,1
101103,-100,4,1,1,30,0,0

[HitObjects]
448,192,998,5,0,0:0:0:0:
64,192,1077,1,0,0:0:0:0:
192,192,1156,1,0,0:0:0:0:
320,192,1235,1,0,0:0:0:0:
448,192,1314,128,0,1629:0:0:0:0:
64,192,1314,1,0,0:0:0:0:
192,192,1629,1,0,0:0:0:0:
64,192,1708,1,0,0:0:0:0:
320,192,1787,1,0,0:0:0:0:
448,192,1866,1,0,0:0:0:0:
64,192,1945,1,0,0:0:0:0:
192,192,1945,1,0,0:0:0:0:
320,192,2103,1,0,0:0:0:0:
192,192,2103,1,0,0:0:0:0:
448,192,2261,1,0,0:0:0:0:
192,192,2419,128,0,2735:0:0:0:0:
64,192,2419,1,0,0:0:0:0:
448,192,2735,1,0,0:0:0:0:
320,192,2814,1,0,0:0:0:0:
64,192,2892,1,0,0:0:0:0:
192,192,2892,1,0,0:0:0:0:
320,192,3050,1,0,0:0:0:0:
192,192,3050,1,0,0:0:0:0:
448,192,3208,1,0,0:0:0:0:
64,192,3366,128,0,3603:0:0:0:0:
320,192,3603,1,0,0:0:0:0:
192,192,3682,1,0,0:0:0:0:
64,192,3761,1,0,0:0:0:0:
320,192,3840,1,0,0:0:0:0:
448,192,3840,128,0,4156:0:0:0:0:
64,192,4156,1,0,0:0:0:0:
192,192,4235,1,0,0:0:0:0:
320,192,4314,1,0,0:0:0:0:
448,192,4392,1,0,0:0:0:0:
64,192,4471,1,0,0:0:0:0:
192,192,4471,1,0,0:0:0:0:
192,192,4629,1,0,0:0:0:0:
448,192,4629,1,0,0:0:0:0:
320,192,4787,1,0,0:0:0:0:
64,192,4866,1,0,0:0:0:0:
192,192,4945,128,0,5261:0:0:0:0:
448,192,4945,1,0,0:0:0:0:
448,192,5261,1,0,0:0:0:0:
320,192,5340,1,0,0:0:0:0:
192,192,5419,1,0,0:0:0:0:
64,192,5419,1,0,0:0:0:0:
320,192,5498,1,0,0:0:0:0:
448,192,5577,1,0,0:0:0:0:
64,192,5577,1,0,0:0:0:0:
320,192,5892,128,0,6366:0:0:0:0:
448,192,6366,1,0,0:0:0:0:
64,192,6366,128,0,6682:0:0:0:0:
192,192,6366,1,0,0:0:0:0:
320,192,6682,1,0,0:0:0:0:
448,192,6682,1,0,0:0:0:0:
192,192,6761,1,0,0:0:0:0:
64,192,6840,1,0,0:0:0:0:
320,192,6919,1,0,0:0:0:0:
64,192,6998,1,0,0:0:0:0:
448,192,6998,1,0,0:0:0:0:
320,192,7156,1,0,0:0:0:0:
192,192,7235,1,0,0:0:0:0:
320,192,7314,1,0,0:0:0:0:
192,192,7471,1,0,0:0:0:0:
320,192,7550,1,0,0:0:0:0:
64,192,7629,1,0,0:0:0:0:
448,192,7629,1,0,0:0:0:0:
320,192,7787,1,0,0:0:0:0:
192,192,7945,1,0,0:0:0:0:
64,192,8103,1,0,0:0:0:0:
192,192,8182,1,0,0:0:0:0:
448,192,8261,1,0,0:0:0:0:
64,192,8340,1,0,0:0:0:0:
448,192,8419,1,0,0:0:0:0:
64,192,8498,1,0,0:0:0:0:
320,192,8577,128,0,8735:0:0:0:0:
192,192,8735,1,0,0:0:0:0:
320,192,8814,1,0,0:0:0:0:
448,192,8892,1,0,0:0:0:0:
64,192,8892,1,0,0:0:0:0:
192,192,9050,1,0,0:0:0:0:
192,192,9208,1,0,0:0:0:0:
448,192,9366,1,0,0:0:0:0:
64,192,9366,1,0,0:0:0:0:
320,192,9524,1,0,0:0:0:0:
320,192,9682,1,0,0:0:0:0:
64,192,9840,1,0,0:0:0:0:
192,192,9840,1,0,0:0:0:0:
320,192,9998,1,0,0:0:0:0:
448,192,9998,1,0,0:0:0:0:
64,192,11419,1,0,0:0:0:0:
448,192,11419,128,0,12682:0:0:0:0:
64,192,11735,1,0,0:0:0:0:
192,192,12050,1,0,0:0:0:0:
192,192,12366,1,0,0:0:0:0:
64,192,12682,128,0,13945:0:0:0:0:
320,192,12682,1,0,0:0:0:0:
320,192,12998,1,0,0:0:0:0:
448,192,13314,1,0,0:0:0:0:
448,192,13629,1,0,0:0:0:0:
320,192,13945,1,0,0:0:0:0:
448,192,14103,1,0,0:0:0:0:
192,192,14261,1,0,0:0:0:0:
320,192,14419,1,0,0:0:0:0:
64,192,14577,1,0,0:0:0:0:
64,192,14735,1,0,0:0:0:0:
448,192,14892,1,0,0:0:0:0:
448,192,15050,1,0,0:0:0:0:
192,192,15208,1,0,0:0:0:0:
64,192,15366,1,0,0:0:0:0:
320,192,15524,1,0,0:0:0:0:
192,192,15682,1,0,0:0:0:0:
448,192,15840,1,0,0:0:0:0:
320,192,15998,1,0,0:0:0:0:
192,192,16156,1,0,0:0:0:0:
320,192,16314,1,0,0:0:0:0:
64,192,16471,1,0,0:0:0:0:
448,192,16471,1,0,0:0:0:0:
448,192,16629,1,0,0:0:0:0:
192,192,16629,1,0,0:0:0:0:
320,192,16787,1,0,0:0:0:0:
64,192,16787,1,0,0:0:0:0:
192,192,16945,1,0,0:0:0:0:
448,192,17024,1,0,0:0:0:0:
320,192,17024,1,0,0:0:0:0:
64,192,17182,1,0,0:0:0:0:
192,192,17261,1,0,0:0:0:0:
320,192,17261,1,0,0:0:0:0:
64,192,17419,1,0,0:0:0:0:
448,192,17419,1,0,0:0:0:0:
320,192,17577,1,0,0:0:0:0:
64,192,17656,1,0,0:0:0:0:
192,192,17656,1,0,0:0:0:0:
448,192,17814,1,0,0:0:0:0:
192,192,17892,1,0,0:0:0:0:
320,192,17892,1,0,0:0:0:0:
64,192,18050,1,0,0:0:0:0:
448,192,18050,1,0,0:0:0:0:
192,192,18208,1,0,0:0:0:0:
320,192,18287,1,0,0:0:0:0:
448,192,18287,1,0,0:0:0:0:
64,192,18445,1,0,0:0:0:0:
320,192,18524,1,0,0:0:0:0:
192,192,18524,1,0,0:0:0:0:
64,192,18682,1,0,0:0:0:0:
448,192,18682,1,0,0:0:0:0:
192,192,18840,1,0,0:0:0:0:
320,192,18840,1,0,0:0:0:0:
448,192,18919,1,0,0:0:0:0:
64,192,18998,128,0,19156:0:0:0:0:
320,192,19156,1,0,0:0:0:0:
448,192,19235,1,0,0:0:0:0:
192,192,19314,128,0,19471:0:0:0:0:
448,192,19471,1,0,0:0:0:0:
64,192,19550,1,0,0:0:0:0:
320,192,19629,128,0,19787:0:0:0:0:
64,192,19787,1,0,0:0:0:0:
192,192,19866,1,0,0:0:0:0:
448,192,19945,128,0,20103:0:0:0:0:
192,192,20103,1,0,0:0:0:0:
320,192,20182,1,0,0:0:0:0:
64,192,20261,1,0,0:0:0:0:
448,192,20892,128,0,21208:0:0:0:0:
320,192,20892,128,0,21208:0:0:0:0:
64,192,21208,1,0,0:0:0:0:
192,192,21287,1,0,0:0:0:0:
448,192,21366,1,0,0:0:0:0:
320,192,21445,1,0,0:0:0:0:
64,192,21524,128,0,21840:0:0:0:0:
192,192,21524,128,0,21840:0:0:0:0:
448,192,21524,1,0,0:0:0:0:
448,192,21840,1,0,0:0:0:0:
192,192,21919,1,0,0:0:0:0:
448,192,21998,1,0,0:0:0:0:
192,192,22077,1,0,0:0:0:0:
320,192,22156,128,0,22314:0:0:0:0:
64,192,22314,1,0,0:0:0:0:
192,192,22392,1,0,0:0:0:0:
448,192,22471,128,0,22629:0:0:0:0:
64,192,22629,128,0,22787:0:0:0:0:
320,192,22787,128,0,23103:0:0:0:0:
448,192,22787,1,0,0:0:0:0:
192,192,23103,128,0,23261:0:0:0:0:
64,192,23103,1,0,0:0:0:0:
448,192,23261,128,0,23419:0:0:0:0:
320,192,23419,128,0,23577:0:0:0:0:
192,192,23419,1,0,0:0:0:0:
64,192,23577,1,0,0:0:0:0:
192,192,23735,1,0,0:0:0:0:
320,192,23814,1,0,0:0:0:0:
192,192,23892,1,0,0:0:0:0:
320,192,23971,1,0,0:0:0:0:
64,192,24050,128,0,24208:0:0:0:0:
448,192,24050,128,0,24208:0:0:0:0:
64,192,24366,1,0,0:0:0:0:
192,192,24445,1,0,0:0:0:0:
320,192,24524,1,0,0:0:0:0:
448,192,24682,128,0,24998:0:0:0:0:
192,192,24682,1,0,0:0:0:0:
64,192,24998,1,0,0:0:0:0:
320,192,25077,1,0,0:0:0:0:
192,192,25156,1,0,0:0:0:0:
448,192,25314,1,0,0:0:0:0:
64,192,25392,1,0,0:0:0:0:
448,192,25471,1,0,0:0:0:0:
64,192,25550,1,0,0:0:0:0:
320,192,25629,1,0,0:0:0:0:
192,192,25708,1,0,0:0:0:0:
320,192,25787,1,0,0:0:0:0:
192,192,25866,1,0,0:0:0:0:
64,192,25945,1,0,0:0:0:0:
448,192,25945,1,0,0:0:0:0:
320,192,26103,1,0,0:0:0:0:
64,192,26103,1,0,0:0:0:0:
192,192,26261,1,0,0:0:0:0:
448,192,26261,1,0,0:0:0:0:
64,192,26419,1,0,0:0:0:0:
448,192,26419,1,0,0:0:0:0:
192,192,26577,128,0,26892:0:0:0:0:
320,192,26577,128,0,26892:0:0:0:0:
64,192,26577,1,0,0:0:0:0:
64,192,26892,1,0,0:0:0:0:
320,192,26971,1,0,0:0:0:0:
64,192,27050,1,0,0:0:0:0:
320,192,27129,1,0,0:0:0:0:
448,192,27208,128,0,27366:0:0:0:0:
64,192,27366,1,0,0:0:0:0:
192,192,27445,1,0,0:0:0:0:
320,192,27524,128,0,27682:0:0:0:0:
64,192,27682,128,0,27840:0:0:0:0:
448,192,27840,128,0,28156:0:0:0:0:
192,192,27840,1,0,0:0:0:0:
320,192,27998,1,0,0:0:0:0:
192,192,28156,128,0,28314:0:0:0:0:
64,192,28156,1,0,0:0:0:0:
448,192,28314,128,0,28471:0:0:0:0:
320,192,28471,128,0,28629:0:0:0:0:
192,192,28471,1,0,0:0:0:0:
64,192,28629,1,0,0:0:0:0:
192,192,28787,1,0,0:0:0:0:
320,192,28866,1,0,0:0:0:0:
192,192,28945,1,0,0:0:0:0:
320,192,29024,1,0,0:0:0:0:
64,192,29103,128,0,29261:0:0:0:0:
448,192,29103,128,0,29261:0:0:0:0:
192,192,29261,1,0,0:0:0:0:
448,192,29419,1,0,0:0:0:0:
64,192,29498,1,0,0:0:0:0:
448,192,29577,1,0,0:0:0:0:
64,192,29656,1,0,0:0:0:0:
192,192,29735,128,0,29892:0:0:0:0:
320,192,30050,1,0,0:0:0:0:
448,192,30050,1,0,0:0:0:0:
320,192,30208,1,0,0:0:0:0:
192,192,30208,1,0,0:0:0:0:
64,192,30366,1,0,0:0:0:0:
448,192,30366,1,0,0:0:0:0:
192,192,30445,1,0,0:0:0:0:
320,192,30524,1,0,0:0:0:0:
64,192,30682,1,0,0:0:0:0:
448,192,30682,1,0,0:0:0:0:
64,192,30919,1,0,0:0:0:0:
320,192,30919,1,0,0:0:0:0:
192,192,31156,1,0,0:0:0:0:
320,192,31156,1,0,0:0:0:0:
64,192,31314,1,0,0:0:0:0:
448,192,31314,1,0,0:0:0:0:
320,192,31471,1,0,0:0:0:0:
192,192,31471,1,0,0:0:0:0:
448,192,31629,128,0,31945:0:0:0:0:
64,192,31629,1,0,0:0:0:0:
192,192,31629,1,0,0:0:0:0:
320,192,31945,1,0,0:0:0:0:
192,192,31945,1,0,0:0:0:0:
64,192,32261,128,0,32419:0:0:0:0:
448,192,32261,1,0,0:0:0:0:
320,192,32419,128,0,32577:0:0:0:0:
192,192,32577,1,0,0:0:0:0:
64,192,32577,1,0,0:0:0:0:
448,192,32735,128,0,33050:0:0:0:0:
64,192,32735,1,0,0:0:0:0:
192,192,33050,128,0,33208:0:0:0:0:
64,192,33050,1,0,0:0:0:0:
320,192,33208,1,0,0:0:0:0:
448,192,33208,1,0,0:0:0:0:
64,192,33366,128,0,33682:0:0:0:0:
448,192,33524,1,0,0:0:0:0:
320,192,33682,128,0,33840:0:0:0:0:
448,192,33840,128,0,33998:0:0:0:0:
64,192,33840,1,0,0:0:0:0:
192,192,33998,128,0,34156:0:0:0:0:
320,192,34156,128,0,34471:0:0:0:0:
448,192,34156,1,0,0:0:0:0:
192,192,34471,1,0,0:0:0:0:
64,192,34471,1,0,0:0:0:0:
64,192,34629,128,0,34787:0:0:0:0:
448,192,34787,1,0,0:0:0:0:
320,192,34787,1,0,0:0:0:0:
192,192,34945,128,0,35103:0:0:0:0:
64,192,35103,1,0,0:0:0:0:
320,192,35103,128,0,35261:0:0:0:0:
448,192,35261,1,0,0:0:0:0:
64,192,35261,1,0,0:0:0:0:
64,192,35577,1,0,0:0:0:0:
320,192,35577,1,0,0:0:0:0:
192,192,35892,128,0,36208:0:0:0:0:
448,192,35892,1,0,0:0:0:0:
320,192,36050,1,0,0:0:0:0:
64,192,36208,128,0,36524:0:0:0:0:
448,192,36208,1,0,0:0:0:0:
192,192,36682,1,0,0:0:0:0:
64,192,36682,1,0,0:0:0:0:
448,192,36682,1,0,0:0:0:0:
192,192,36840,1,0,0:0:0:0:
320,192,36998,1,0,0:0:0:0:
320,192,37156,1,0,0:0:0:0:
64,192,37314,1,0,0:0:0:0:
64,192,37471,1,0,0:0:0:0:
448,192,37629,1,0,0:0:0:0:
64,192,37787,1,0,0:0:0:0:
448,192,37787,1,0,0:0:0:0:
192,192,37866,1,0,0:0:0:0:
320,192,37945,1,0,0:0:0:0:
448,192,38024,1,0,0:0:0:0:
64,192,38103,1,0,0:0:0:0:
192,192,38182,1,0,0:0:0:0:
320,192,38261,1,0,0:0:0:0:
448,192,38340,1,0,0:0:0:0:
64,192,38419,1,0,0:0:0:0:
192,192,38498,1,0,0:0:0:0:
320,192,38577,1,0,0:0:0:0:
448,192,38656,1,0,0:0:0:0:
64,192,38735,1,0,0:0:0:0:
192,192,38814,1,0,0:0:0:0:
320,192,38892,1,0,0:0:0:0:
448,192,38971,1,0,0:0:0:0:
64,192,39050,1,0,0:0:0:0:
192,192,39129,1,0,0:0:0:0:
448,192,39208,1,0,0:0:0:0:
320,192,39208,1,0,0:0:0:0:
192,192,39445,1,0,0:0:0:0:
320,192,39445,1,0,0:0:0:0:
192,192,39682,1,0,0:0:0:0:
64,192,39682,1,0,0:0:0:0:
64,192,39840,1,0,0:0:0:0:
320,192,39840,1,0,0:0:0:0:
448,192,40077,1,0,0:0:0:0:
192,192,40077,1,0,0:0:0:0:
320,192,40314,1,0,0:0:0:0:
192,192,40314,1,0,0:0:0:0:
64,192,40471,1,0,0:0:0:0:
448,192,40471,1,0,0:0:0:0:
64,192,40945,1,0,0:0:0:0:
192,192,41024,1,0,0:0:0:0:
320,192,41103,1,0,0:0:0:0:
448,192,41103,1,0,0:0:0:0:
320,192,41340,1,0,0:0:0:0:
192,192,41340,1,0,0:0:0:0:
192,192,41577,1,0,0:0:0:0:
64,192,41577,1,0,0:0:0:0:
448,192,41735,128,0,42050:0:0:0:0:
64,192,42050,1,0,0:0:0:0:
192,192,42050,1,0,0:0:0:0:
64,192,42208,128,0,42366:0:0:0:0:
448,192,42366,1,0,0:0:0:0:
320,192,42366,1,0,0:0:0:0:
192,192,42603,1,0,0:0:0:0:
64,192,42682,1,0,0:0:0:0:
448,192,42682,1,0,0:0:0:0:
320,192,42840,128,0,43314:0:0:0:0:
192,192,42998,1,0,0:0:0:0:
64,192,43314,1,0,0:0:0:0:
448,192,43314,1,0,0:0:0:0:
64,192,43471,1,0,0:0:0:0:
192,192,43550,1,0,0:0:0:0:
320,192,43629,1,0,0:0:0:0:
448,192,43629,1,0,0:0:0:0:
64,192,43787,1,0,0:0:0:0:
192,192,43945,1,0,0:0:0:0:
320,192,43945,1,0,0:0:0:0:
448,192,44103,1,0,0:0:0:0:
320,192,44182,1,0,0:0:0:0:
64,192,44261,128,0,44577:0:0:0:0:
192,192,44261,1,0,0:0:0:0:
320,192,44577,1,0,0:0:0:0:
448,192,44577,1,0,0:0:0:0:
320,192,44735,128,0,44892:0:0:0:0:
64,192,44892,1,0,0:0:0:0:
192,192,44892,1,0,0:0:0:0:
448,192,45129,1,0,0:0:0:0:
320,192,45208,1,0,0:0:0:0:
192,192,45208,1,0,0:0:0:0:
64,192,45366,128,0,45840:0:0:0:0:
448,192,45524,1,0,0:0:0:0:
320,192,45840,1,0,0:0:0:0:
192,192,45840,1,0,0:0:0:0:
448,192,45998,128,0,46156:0:0:0:0:
64,192,46156,1,0,0:0:0:0:
192,192,46156,128,0,46314:0:0:0:0:
320,192,46314,128,0,46471:0:0:0:0:
448,192,46471,1,0,0:0:0:0:
64,192,46471,128,0,46629:0:0:0:0:
192,192,46629,128,0,46787:0:0:0:0:
64,192,46787,1,0,0:0:0:0:
448,192,46787,128,0,46945:0:0:0:0:
320,192,46945,1,0,0:0:0:0:
448,192,47103,1,0,0:0:0:0:
192,192,47103,1,0,0:0:0:0:
320,192,47261,128,0,47419:0:0:0:0:
64,192,47419,1,0,0:0:0:0:
448,192,47419,1,0,0:0:0:0:
192,192,47577,1,0,0:0:0:0:
64,192,47735,128,0,47892:0:0:0:0:
320,192,47735,1,0,0:0:0:0:
192,192,47892,1,0,0:0:0:0:
448,192,48050,1,0,0:0:0:0:
64,192,48050,1,0,0:0:0:0:
320,192,48208,128,0,48366:0:0:0:0:
64,192,48366,1,0,0:0:0:0:
192,192,48366,1,0,0:0:0:0:
320,192,48524,1,0,0:0:0:0:
448,192,48682,1,0,0:0:0:0:
64,192,48682,128,0,48840:0:0:0:0:
192,192,48840,1,0,0:0:0:0:
320,192,48998,128,0,49156:0:0:0:0:
448,192,48998,1,0,0:0:0:0:
192,192,49156,1,0,0:0:0:0:
448,192,49314,128,0,49629:0:0:0:0:
64,192,49314,1,0,0:0:0:0:
192,192,49629,1,0,0:0:0:0:
320,192,49629,1,0,0:0:0:0:
64,192,49787,1,0,0:0:0:0:
192,192,49866,1,0,0:0:0:0:
448,192,49945,1,0,0:0:0:0:
320,192,49945,1,0,0:0:0:0:
64,192,50182,1,0,0:0:0:0:
320,192,50261,1,0,0:0:0:0:
192,192,50261,1,0,0:0:0:0:
64,192,50419,1,0,0:0:0:0:
448,192,50419,128,0,50735:0:0:0:0:
192,192,50735,1,0,0:0:0:0:
320,192,50814,1,0,0:0:0:0:
64,192,50892,1,0,0:0:0:0:
448,192,50892,1,0,0:0:0:0:
192,192,51050,1,0,0:0:0:0:
64,192,51050,1,0,0:0:0:0:
448,192,51208,1,0,0:0:0:0:
320,192,51287,1,0,0:0:0:0:
192,192,51366,1,0,0:0:0:0:
448,192,51524,1,0,0:0:0:0:
64,192,51603,1,0,0:0:0:0:
192,192,51682,1,0,0:0:0:0:
320,192,51761,1,0,0:0:0:0:
448,192,51840,128,0,52156:0:0:0:0:
64,192,51840,1,0,0:0:0:0:
64,192,52156,128,0,52314:0:0:0:0:
448,192,52314,1,0,0:0:0:0:
192,192,52392,1,0,0:0:0:0:
64,192,52471,1,0,0:0:0:0:
320,192,52471,1,0,0:0:0:0:
192,192,52708,1,0,0:0:0:0:
448,192,52708,1,0,0:0:0:0:
320,192,52945,128,0,53261:0:0:0:0:
192,192,52945,128,0,53261:0:0:0:0:
64,192,53261,1,0,0:0:0:0:
448,192,53261,1,0,0:0:0:0:
448,192,53577,1,0,0:0:0:0:
64,192,53577,1,0,0:0:0:0:
192,192,53656,1,0,0:0:0:0:
320,192,53735,1,0,0:0:0:0:
192,192,53892,1,0,0:0:0:0:
64,192,53892,1,0,0:0:0:0:
448,192,54050,1,0,0:0:0:0:
320,192,54208,1,0,0:0:0:0:
192,192,54287,1,0,0:0:0:0:
320,192,54366,1,0,0:0:0:0:
448,192,54366,1,0,0:0:0:0:
64,192,54366,128,0,54682:0:0:0:0:
192,192,54682,1,0,0:0:0:0:
448,192,54682,1,0,0:0:0:0:
448,192,54840,128,0,54998:0:0:0:0:
64,192,54998,1,0,0:0:0:0:
192,192,54998,1,0,0:0:0:0:
448,192,55235,1,0,0:0:0:0:
320,192,55314,1,0,0:0:0:0:
64,192,55314,1,0,0:0:0:0:
192,192,55471,128,0,55945:0:0:0:0:
448,192,55629,1,0,0:0:0:0:
64,192,55945,1,0,0:0:0:0:
320,192,55945,1,0,0:0:0:0:
192,192,56103,128,0,56261:0:0:0:0:
64,192,56261,1,0,0:0:0:0:
448,192,56261,128,0,56419:0:0:0:0:
320,192,56419,128,0,56577:0:0:0:0:
64,192,56577,1,0,0:0:0:0:
192,192,56577,128,0,56735:0:0:0:0:
320,192,56735,128,0,56892:0:0:0:0:
64,192,56892,128,0,57050:0:0:0:0:
192,192,56892,128,0,57050:0:0:0:0:
448,192,56892,1,0,0:0:0:0:
64,192,57208,1,0,0:0:0:0:
448,192,57208,1,0,0:0:0:0:
448,192,57366,128,0,57524:0:0:0:0:
320,192,57366,128,0,57524:0:0:0:0:
192,192,57366,1,0,0:0:0:0:
64,192,57682,1,0,0:0:0:0:
192,192,57682,1,0,0:0:0:0:
64,192,57840,128,0,57998:0:0:0:0:
448,192,57840,128,0,57998:0:0:0:0:
320,192,57840,1,0,0:0:0:0:
320,192,58156,1,0,0:0:0:0:
448,192,58156,1,0,0:0:0:0:
192,192,58314,128,0,58471:0:0:0:0:
320,192,58314,128,0,58471:0:0:0:0:
64,192,58314,1,0,0:0:0:0:
320,192,58629,1,0,0:0:0:0:
64,192,58629,1,0,0:0:0:0:
64,192,58787,128,0,58945:0:0:0:0:
192,192,58787,128,0,58945:0:0:0:0:
448,192,58787,1,0,0:0:0:0:
448,192,59103,128,0,59261:0:0:0:0:
320,192,59103,128,0,59261:0:0:0:0:
64,192,59103,1,0,0:0:0:0:
64,192,59419,1,0,0:0:0:0:
320,192,59419,1,0,0:0:0:0:
448,192,59419,1,0,0:0:0:0:
64,192,59577,1,0,0:0:0:0:
320,192,59735,1,0,0:0:0:0:
448,192,59735,1,0,0:0:0:0:
192,192,59892,1,0,0:0:0:0:
448,192,59971,1,0,0:0:0:0:
64,192,60050,128,0,60287:0:0:0:0:
448,192,60287,128,0,60524:0:0:0:0:
64,192,60524,1,0,0:0:0:0:
192,192,60524,1,0,0:0:0:0:
448,192,60840,1,0,0:0:0:0:
320,192,60998,1,0,0:0:0:0:
192,192,61156,1,0,0:0:0:0:
448,192,61314,128,0,61471:0:0:0:0:
64,192,61471,128,0,61629:0:0:0:0:
320,192,61629,128,0,61787:0:0:0:0:
192,192,61787,128,0,61945:0:0:0:0:
64,192,61945,1,0,0:0:0:0:
448,192,61945,128,0,62261:0:0:0:0:
320,192,61945,128,0,62261:0:0:0:0:
192,192,62261,1,0,0:0:0:0:
64,192,62261,1,0,0:0:0:0:
448,192,62498,1,0,0:0:0:0:
192,192,62498,1,0,0:0:0:0:
320,192,62735,1,0,0:0:0:0:
64,192,62735,1,0,0:0:0:0:
320,192,62892,1,0,0:0:0:0:
448,192,62892,1,0,0:0:0:0:
448,192,63050,1,0,0:0:0:0:
192,192,63050,128,0,63366:0:0:0:0:
64,192,63050,128,0,63366:0:0:0:0:
320,192,63366,1,0,0:0:0:0:
448,192,63366,1,0,0:0:0:0:
448,192,63524,128,0,63761:0:0:0:0:
64,192,63524,1,0,0:0:0:0:
192,192,63524,1,0,0:0:0:0:
64,192,63761,1,0,0:0:0:0:
320,192,63761,1,0,0:0:0:0:
192,192,63998,1,0,0:0:0:0:
448,192,63998,1,0,0:0:0:0:
64,192,64156,1,0,0:0:0:0:
192,192,64156,1,0,0:0:0:0:
192,192,64471,128,0,64787:0:0:0:0:
64,192,64471,1,0,0:0:0:0:
448,192,64471,1,0,0:0:0:0:
448,192,64787,128,0,65024:0:0:0:0:
320,192,64787,1,0,0:0:0:0:
64,192,65024,1,0,0:0:0:0:
192,192,65024,1,0,0:0:0:0:
192,192,65261,1,0,0:0:0:0:
448,192,65261,1,0,0:0:0:0:
448,192,65419,1,0,0:0:0:0:
64,192,65419,1,0,0:0:0:0:
192,192,65577,128,0,65892:0:0:0:0:
64,192,65577,128,0,65892:0:0:0:0:
320,192,65577,1,0,0:0:0:0:
320,192,65892,1,0,0:0:0:0:
448,192,65892,1,0,0:0:0:0:
64,192,66050,1,0,0:0:0:0:
448,192,66050,1,0,0:0:0:0:
192,192,66208,1,0,0:0:0:0:
64,192,66208,1,0,0:0:0:0:
320,192,66524,1,0,0:0:0:0:
448,192,66524,1,0,0:0:0:0:
64,192,66682,1,0,0:0:0:0:
448,192,66682,1,0,0:0:0:0:
64,192,66998,1,0,0:0:0:0:
192,192,66998,1,0,0:0:0:0:
448,192,66998,1,0,0:0:0:0:
64,192,67156,1,0,0:0:0:0:
448,192,67314,1,0,0:0:0:0:
448,192,67471,1,0,0:0:0:0:
192,192,67629,1,0,0:0:0:0:
192,192,67787,1,0,0:0:0:0:
448,192,67945,1,0,0:0:0:0:
64,192,68103,1,0,0:0:0:0:
448,192,68103,1,0,0:0:0:0:
192,192,68182,1,0,0:0:0:0:
320,192,68261,1,0,0:0:0:0:
448,192,68340,1,0,0:0:0:0:
64,192,68419,1,0,0:0:0:0:
192,192,68498,1,0,0:0:0:0:
320,192,68577,1,0,0:0:0:0:
448,192,68656,1,0,0:0:0:0:
64,192,68735,1,0,0:0:0:0:
192,192,68814,1,0,0:0:0:0:
320,192,68892,1,0,0:0:0:0:
448,192,68971,1,0,0:0:0:0:
64,192,69050,1,0,0:0:0:0:
192,192,69129,1,0,0:0:0:0:
320,192,69208,1,0,0:0:0:0:
448,192,69287,1,0,0:0:0:0:
64,192,69366,1,0,0:0:0:0:
192,192,69445,1,0,0:0:0:0:
448,192,69524,1,0,0:0:0:0:
320,192,69524,1,0,0:0:0:0:
320,192,69761,1,0,0:0:0:0:
192,192,69761,1,0,0:0:0:0:
192,192,69998,1,0,0:0:0:0:
64,192,69998,1,0,0:0:0:0:
64,192,70156,1,0,0:0:0:0:
448,192,70156,1,0,0:0:0:0:
192,192,70392,1,0,0:0:0:0:
320,192,70392,1,0,0:0:0:0:
320,192,70629,1,0,0:0:0:0:
448,192,70629,1,0,0:0:0:0:
448,192,70787,128,0,71103:0:0:0:0:
64,192,70787,128,0,71103:0:0:0:0:
64,192,71577,1,0,0:0:0:0:
192,192,71735,1,0,0:0:0:0:
320,192,71892,1,0,0:0:0:0:
448,192,72050,1,0,0:0:0:0:
64,192,72050,1,0,0:0:0:0:
320,192,72287,1,0,0:0:0:0:
192,192,72524,1,0,0:0:0:0:
64,192,72840,1,0,0:0:0:0:
192,192,72919,1,0,0:0:0:0:
320,192,72998,1,0,0:0:0:0:
64,192,73077,1,0,0:0:0:0:
192,192,73156,1,0,0:0:0:0:
448,192,73235,1,0,0:0:0:0:
320,192,73314,1,0,0:0:0:0:
64,192,73550,1,0,0:0:0:0:
64,192,73787,1,0,0:0:0:0:
320,192,74577,1,0,0:0:0:0:
448,192,74814,1,0,0:0:0:0:
192,192,75050,1,0,0:0:0:0:
64,192,75366,1,0,0:0:0:0:
192,192,75445,1,0,0:0:0:0:
320,192,75524,1,0,0:0:0:0:
192,192,75603,1,0,0:0:0:0:
64,192,75682,1,0,0:0:0:0:
448,192,75682,1,0,0:0:0:0:
320,192,75840,1,0,0:0:0:0:
64,192,76077,1,0,0:0:0:0:
448,192,76314,128,0,76629:0:0:0:0:
64,192,76629,128,0,76787:0:0:0:0:
192,192,76787,128,0,76945:0:0:0:0:
320,192,76945,128,0,77103:0:0:0:0:
64,192,77103,1,0,0:0:0:0:
448,192,77103,1,0,0:0:0:0:
320,192,77261,1,0,0:0:0:0:
64,192,77261,1,0,0:0:0:0:
448,192,77419,1,0,0:0:0:0:
192,192,77419,1,0,0:0:0:0:
320,192,77577,1,0,0:0:0:0:
192,192,77656,1,0,0:0:0:0:
64,192,77656,1,0,0:0:0:0:
448,192,77814,1,0,0:0:0:0:
192,192,77892,1,0,0:0:0:0:
320,192,77892,1,0,0:0:0:0:
64,192,78050,1,0,0:0:0:0:
448,192,78050,1,0,0:0:0:0:
192,192,78208,1,0,0:0:0:0:
320,192,78287,1,0,0:0:0:0:
448,192,78287,1,0,0:0:0:0:
64,192,78445,1,0,0:0:0:0:
192,192,78524,1,0,0:0:0:0:
320,192,78524,1,0,0:0:0:0:
64,192,78682,1,0,0:0:0:0:
448,192,78682,1,0,0:0:0:0:
320,192,78840,1,0,0:0:0:0:
64,192,78919,1,0,0:0:0:0:
192,192,78919,1,0,0:0:0:0:
448,192,79077,1,0,0:0:0:0:
320,192,79156,1,0,0:0:0:0:
192,192,79156,1,0,0:0:0:0:
64,192,79314,1,0,0:0:0:0:
448,192,79314,1,0,0:0:0:0:
192,192,79471,1,0,0:0:0:0:
320,192,79471,1,0,0:0:0:0:
64,192,79550,1,0,0:0:0:0:
448,192,79629,128,0,79787:0:0:0:0:
192,192,79787,1,0,0:0:0:0:
64,192,79866,1,0,0:0:0:0:
320,192,79945,128,0,80103:0:0:0:0:
64,192,80103,1,0,0:0:0:0:
448,192,80182,1,0,0:0:0:0:
192,192,80261,128,0,80419:0:0:0:0:
448,192,80419,1,0,0:0:0:0:
320,192,80498,1,0,0:0:0:0:
64,192,80577,128,0,80735:0:0:0:0:
320,192,80735,1,0,0:0:0:0:
192,192,80814,1,0,0:0:0:0:
448,192,80892,1,0,0:0:0:0:
320,192,81682,1,0,0:0:0:0:
192,192,81761,1,0,0:0:0:0:
320,192,81840,1,0,0:0:0:0:
192,192,81998,1,0,0:0:0:0:
64,192,82156,1,0,0:0:0:0:
320,192,82156,1,0,0:0:0:0:
448,192,82156,1,0,0:0:0:0:
64,192,82392,1,0,0:0:0:0:
448,192,82471,1,0,0:0:0:0:
192,192,82471,1,0,0:0:0:0:
320,192,82629,128,0,82787:0:0:0:0:
64,192,82787,1,0,0:0:0:0:
448,192,82787,1,0,0:0:0:0:
192,192,82945,128,0,83103:0:0:0:0:
64,192,83103,1,0,0:0:0:0:
320,192,83103,128,0,83261:0:0:0:0:
448,192,83261,128,0,83419:0:0:0:0:
192,192,83419,1,0,0:0:0:0:
320,192,83419,1,0,0:0:0:0:
64,192,83577,128,0,83735:0:0:0:0:
448,192,83735,1,0,0:0:0:0:
320,192,83735,1,0,0:0:0:0:
192,192,83892,1,0,0:0:0:0:
64,192,84050,1,0,0:0:0:0:
320,192,84050,1,0,0:0:0:0:
448,192,84287,1,0,0:0:0:0:
192,192,84366,1,0,0:0:0:0:
320,192,84366,1,0,0:0:0:0:
64,192,84524,128,0,84682:0:0:0:0:
320,192,84682,1,0,0:0:0:0:
448,192,84682,128,0,84998:0:0:0:0:
64,192,84998,1,0,0:0:0:0:
192,192,84998,128,0,85156:0:0:0:0:
320,192,85156,128,0,85314:0:0:0:0:
192,192,85314,1,0,0:0:0:0:
448,192,85314,1,0,0:0:0:0:
64,192,85314,1,0,0:0:0:0:
320,192,85550,1,0,0:0:0:0:
192,192,85550,1,0,0:0:0:0:
64,192,85550,1,0,0:0:0:0:
192,192,85787,1,0,0:0:0:0:
448,192,85787,128,0,86103:0:0:0:0:
320,192,85787,1,0,0:0:0:0:
192,192,86103,128,0,86261:0:0:0:0:
64,192,86261,1,0,0:0:0:0:
448,192,86261,1,0,0:0:0:0:
320,192,86419,128,0,86577:0:0:0:0:
64,192,86577,1,0,0:0:0:0:
448,192,86577,128,0,86735:0:0:0:0:
192,192,86735,128,0,86892:0:0:0:0:
64,192,86892,128,0,87050:0:0:0:0:
448,192,86892,1,0,0:0:0:0:
320,192,87050,128,0,87208:0:0:0:0:
64,192,87208,1,0,0:0:0:0:
448,192,87208,1,0,0:0:0:0:
192,192,87208,1,0,0:0:0:0:
448,192,87445,1,0,0:0:0:0:
192,192,87524,1,0,0:0:0:0:
320,192,87524,1,0,0:0:0:0:
64,192,87682,1,0,0:0:0:0:
448,192,87840,128,0,87998:0:0:0:0:
320,192,87840,1,0,0:0:0:0:
64,192,87998,128,0,88156:0:0:0:0:
320,192,88156,1,0,0:0:0:0:
192,192,88156,1,0,0:0:0:0:
64,192,88314,1,0,0:0:0:0:
192,192,88314,1,0,0:0:0:0:
448,192,88314,128,0,88629:0:0:0:0:
192,192,88629,128,0,88787:0:0:0:0:
448,192,88787,1,0,0:0:0:0:
64,192,88787,128,0,88945:0:0:0:0:
192,192,88945,128,0,89103:0:0:0:0:
320,192,89103,128,0,89261:0:0:0:0:
448,192,89103,1,0,0:0:0:0:
192,192,89261,128,0,89419:0:0:0:0:
64,192,89419,1,0,0:0:0:0:
448,192,89419,1,0,0:0:0:0:
320,192,89577,128,0,89735:0:0:0:0:
64,192,89735,1,0,0:0:0:0:
192,192,89735,1,0,0:0:0:0:
448,192,89735,1,0,0:0:0:0:
320,192,89892,1,0,0:0:0:0:
192,192,90050,1,0,0:0:0:0:
64,192,90050,1,0,0:0:0:0:
320,192,90208,1,0,0:0:0:0:
448,192,90366,1,0,0:0:0:0:
64,192,90366,128,0,90524:0:0:0:0:
192,192,90524,128,0,90682:0:0:0:0:
320,192,90682,1,0,0:0:0:0:
448,192,90682,1,0,0:0:0:0:
64,192,90840,1,0,0:0:0:0:
192,192,90840,1,0,0:0:0:0:
320,192,90840,1,0,0:0:0:0:
192,192,91156,1,0,0:0:0:0:
320,192,91156,1,0,0:0:0:0:
448,192,91156,1,0,0:0:0:0:
192,192,91471,1,0,0:0:0:0:
64,192,91471,1,0,0:0:0:0:
448,192,91471,1,0,0:0:0:0:
64,192,91787,1,0,0:0:0:0:
448,192,91787,1,0,0:0:0:0:
320,192,91787,128,0,92103:0:0:0:0:
192,192,92103,128,0,92577:0:0:0:0:
64,192,92103,1,0,0:0:0:0:
64,192,92577,1,0,0:0:0:0:
448,192,92577,128,0,92735:0:0:0:0:
320,192,92735,128,0,92892:0:0:0:0:
448,192,92892,1,0,0:0:0:0:
64,192,92892,128,0,93050:0:0:0:0:
192,192,93050,128,0,93208:0:0:0:0:
320,192,93208,128,0,93366:0:0:0:0:
64,192,93208,1,0,0:0:0:0:
448,192,93366,128,0,93524:0:0:0:0:
64,192,93524,1,0,0:0:0:0:
192,192,93524,1,0,0:0:0:0:
320,192,93682,128,0,93840:0:0:0:0:
64,192,93840,1,0,0:0:0:0:
448,192,93840,1,0,0:0:0:0:
192,192,93998,1,0,0:0:0:0:
448,192,94156,1,0,0:0:0:0:
320,192,94156,1,0,0:0:0:0:
192,192,94392,1,0,0:0:0:0:
448,192,94471,1,0,0:0:0:0:
64,192,94471,1,0,0:0:0:0:
192,192,94629,128,0,94787:0:0:0:0:
64,192,94787,1,0,0:0:0:0:
448,192,94787,1,0,0:0:0:0:
320,192,94787,128,0,95103:0:0:0:0:
192,192,95103,128,0,95261:0:0:0:0:
64,192,95103,1,0,0:0:0:0:
320,192,95261,128,0,95419:0:0:0:0:
64,192,95419,1,0,0:0:0:0:
448,192,95419,1,0,0:0:0:0:
320,192,95656,1,0,0:0:0:0:
448,192,95735,1,0,0:0:0:0:
192,192,95735,1,0,0:0:0:0:
320,192,95892,128,0,96050:0:0:0:0:
64,192,96050,1,0,0:0:0:0:
192,192,96050,1,0,0:0:0:0:
448,192,96208,128,0,96366:0:0:0:0:
64,192,96366,1,0,0:0:0:0:
320,192,96366,128,0,96524:0:0:0:0:
192,192,96524,128,0,96682:0:0:0:0:
448,192,96682,1,0,0:0:0:0:
64,192,96682,1,0,0:0:0:0:
192,192,96761,1,0,0:0:0:0:
320,192,96919,1,0,0:0:0:0:
448,192,96919,1,0,0:0:0:0:
64,192,97077,1,0,0:0:0:0:
448,192,97156,128,0,97471:0:0:0:0:
320,192,97156,128,0,97471:0:0:0:0:
64,192,97471,1,0,0:0:0:0:
192,192,97550,1,0,0:0:0:0:
320,192,97629,1,0,0:0:0:0:
448,192,97708,1,0,0:0:0:0:
64,192,97787,1,0,0:0:0:0:
192,192,97866,1,0,0:0:0:0:
320,192,97945,1,0,0:0:0:0:
448,192,97945,1,0,0:0:0:0:
64,192,98103,1,0,0:0:0:0:
320,192,98182,1,0,0:0:0:0:
448,192,98182,1,0,0:0:0:0:
448,192,98340,1,0,0:0:0:0:
192,192,98419,128,0,98735:0:0:0:0:
64,192,98419,128,0,98735:0:0:0:0:
448,192,98735,1,0,0:0:0:0:
320,192,98814,1,0,0:0:0:0:
192,192,98892,1,0,0:0:0:0:
64,192,98971,1,0,0:0:0:0:
448,192,99050,1,0,0:0:0:0:
320,192,99129,1,0,0:0:0:0:
64,192,99208,1,0,0:0:0:0:
192,192,99208,1,0,0:0:0:0:
448,192,99366,1,0,0:0:0:0:
192,192,99445,1,0,0:0:0:0:
64,192,99445,1,0,0:0:0:0:
64,192,99603,1,0,0:0:0:0:
320,192,99682,128,0,100077:0:0:0:0:
448,192,99682,128,0,100077:0:0:0:0:
64,192,100077,1,0,0:0:0:0:
192,192,100077,1,0,0:0:0:0:
192,192,100314,1,0,0:0:0:0:
320,192,100314,1,0,0:0:0:0:
320,192,100471,1,0,0:0:0:0:
448,192,100471,1,0,0:0:0:0:
64,192,100708,1,0,0:0:0:0:
192,192,100708,1,0,0:0:0:0:
192,192,100945,1,0,0:0:0:0:
320,192,100945,1,0,0:0:0:0:
64,192,101103,128,0,101419:0:0:0:0:
448,192,101103,128,0,101419:0:0:0:0:
64,192,101735,1,0,0:0:0:0:
448,192,101735,1,0,0:0:0:0:
192,192,101735,128,0,102050:0:0:0:0:
320,192,102050,1,0,0:0:0:0:
192,192,102129,1,0,0:0:0:0:
320,192,102208,1,0,0:0:0:0:
192,192,102287,1,0,0:0:0:0:
448,192,102366,128,0,102682:0:0:0:0:
64,192,102366,1,0,0:0:0:0:
320,192,102682,128,0,102998:0:0:0:0:
192,192,102840,128,0,102998:0:0:0:0:
64,192,102998,1,0,0:0:0:0:
448,192,102998,1,0,0:0:0:0:
448,192,103156,1,0,0:0:0:0:
192,192,103156,128,0,103314:0:0:0:0:
64,192,103314,128,0,103471:0:0:0:0:
448,192,103471,1,0,0:0:0:0:
320,192,103550,1,0,0:0:0:0:
192,192,103629,128,0,103945:0:0:0:0:
448,192,103787,1,0,0:0:0:0:
64,192,103945,128,0,104103:0:0:0:0:
320,192,103945,1,0,0:0:0:0:
448,192,104103,128,0,104261:0:0:0:0:
192,192,104261,1,0,0:0:0:0:
320,192,104261,1,0,0:0:0:0:
192,192,104419,1,0,0:0:0:0:
448,192,104577,1,0,0:0:0:0:
64,192,104656,1,0,0:0:0:0:
448,192,104735,1,0,0:0:0:0:
64,192,104814,1,0,0:0:0:0:
320,192,104892,128,0,105208:0:0:0:0:
192,192,104892,128,0,105208:0:0:0:0:
64,192,105208,1,0,0:0:0:0:
320,192,105287,1,0,0:0:0:0:
192,192,105366,128,0,105524:0:0:0:0:
448,192,105524,128,0,105682:0:0:0:0:
64,192,105524,1,0,0:0:0:0:
320,192,105682,128,0,105840:0:0:0:0:
64,192,105840,1,0,0:0:0:0:
320,192,105919,1,0,0:0:0:0:
192,192,106077,1,0,0:0:0:0:
448,192,106156,1,0,0:0:0:0:
448,192,106261,1,0,0:0:0:0:
64,192,106366,1,0,0:0:0:0:
64,192,106471,1,0,0:0:0:0:
320,192,106577,1,0,0:0:0:0:
320,192,106682,1,0,0:0:0:0:
64,192,106787,1,0,0:0:0:0:
192,192,106945,1,0,0:0:0:0:
320,192,107103,1,0,0:0:0:0:
448,192,107261,1,0,0:0:0:0:
64,192,107419,1,0,0:0:0:0:
192,192,107419,1,0,0:0:0:0:
448,192,107577,1,0,0:0:0:0:
192,192,107735,1,0,0:0:0:0:
64,192,107735,1,0,0:0:0:0:
448,192,107892,1,0,0:0:0:0:
192,192,107971,1,0,0:0:0:0:
64,192,107971,1,0,0:0:0:0:
192,192,108208,1,0,0:0:0:0:
64,192,108208,1,0,0:0:0:0:
64,192,108366,1,0,0:0:0:0:
192,192,108366,1,0,0:0:0:0:
192,192,108524,1,0,0:0:0:0:
448,192,108603,1,0,0:0:0:0:
320,192,108603,1,0,0:0:0:0:
320,192,108840,1,0,0:0:0:0:
448,192,108840,1,0,0:0:0:0:
320,192,108998,1,0,0:0:0:0:
448,192,108998,1,0,0:0:0:0:
64,192,109156,1,0,0:0:0:0:
448,192,109235,1,0,0:0:0:0:
320,192,109235,1,0,0:0:0:0:
448,192,109471,1,0,0:0:0:0:
320,192,109471,1,0,0:0:0:0:
64,192,109629,1,0,0:0:0:0:
192,192,109629,1,0,0:0:0:0:
448,192,109787,1,0,0:0:0:0:
320,192,109787,1,0,0:0:0:0:
64,192,109945,1,0,0:0:0:0:
448,192,109945,1,0,0:0:0:0:
192,192,110103,1,0,0:0:0:0:
64,192,110261,1,0,0:0:0:0:
448,192,110261,1,0,0:0:0:0:
320,192,110419,1,0,0:0:0:0:
64,192,110498,1,0,0:0:0:0:
448,192,110498,1,0,0:0:0:0:
64,192,110735,1,0,0:0:0:0:
448,192,110735,1,0,0:0:0:0:
64,192,110892,1,0,0:0:0:0:
448,192,110892,1,0,0:0:0:0:
320,192,111050,1,0,0:0:0:0:
448,192,111129,1,0,0:0:0:0:
192,192,111129,1,0,0:0:0:0:
192,192,111366,1,0,0:0:0:0:
448,192,111366,1,0,0:0:0:0:
192,192,111524,1,0,0:0:0:0:
448,192,111524,1,0,0:0:0:0:
320,192,111682,1,0,0:0:0:0:
192,192,111761,1,0,0:0:0:0:
64,192,111840,1,0,0:0:0:0:
448,192,111840,1,0,0:0:0:0:
192,192,111998,1,0,0:0:0:0:
320,192,111998,1,0,0:0:0:0:
64,192,112156,1,0,0:0:0:0:
448,192,112156,1,0,0:0:0:0:
320,192,112314,1,0,0:0:0:0:
192,192,112314,1,0,0:0:0:0:
