osu file format v14

[General]
AudioFilename: audio.ogg
AudioLeadIn: 0
PreviewTime: 95484
Countdown: 0
SampleSet: Normal
StackLeniency: 0.7
Mode: 1
LetterboxInBreaks: 0
WidescreenStoryboard: 1

[Editor]
DistanceSpacing: 2
BeatDivisor: 4
GridSize: 32
TimelineZoom: 1.899999

[Metadata]
Title:LaureLs ~the Angelus~
TitleUnicode:LaμreLs ~the Angelus~
Artist:Ashrount
ArtistUnicode:Ashrount
Creator:Dusk-
Version:NOVICE
Source:SOUND VOLTEX EXCEED GEAR
Tags:sdvx hexadiver electronic instrumental friggy-chan hivie video rhythm game speedcore
BeatmapID:4229416
BeatmapSetID:2028207

[Difficulty]
HPDrainRate:7
CircleSize:5
OverallDifficulty:4
ApproachRate:9
SliderMultiplier:0.8
SliderTickRate:1

[Events]
//Background and Video events
0,0,"bg.jpg",0,-10
//Break Periods
2,28588,30405
//Storyboard Layer 0 (Background)
//Storyboard Layer 1 (Fail)
//Storyboard Layer 2 (Pass)
//Storyboard Layer 3 (Foreground)
//Storyboard Layer 4 (Overlay)
//Storyboard Sound Samples

[TimingPoints]
1473,186.915887850467,4,1,0,100,1,0
2968,-100,4,1,0,100,0,1
4089,-100,4,1,0,100,0,0
38856,-100,4,1,0,100,0,1
39603,-100,4,1,0,100,0,0
95678,-100,4,1,0,100,0,1
107267,-100,4,1,0,100,0,0
107641,-100,4,1,0,100,0,1
118856,-100,4,1,0,100,0,0
119600,-100,4,1,0,100,0,0
119603,-100,4,1,0,100,0,1
122407,-100,4,1,0,100,0,0
125398,-100,4,1,0,100,0,0
125585,-100,4,1,0,100,0,1
128388,-100,4,1,0,100,0,0
128666,-100,4,1,0,100,0,0
128996,-100,4,1,0,40,0,0

[HitObjects]
256,192,1472,5,4,0:0:0:0:
256,192,2968,1,8,0:0:0:0:
256,192,3342,1,8,0:0:0:0:
256,192,3529,1,0,0:0:0:0:
256,192,3715,1,8,0:0:0:0:
256,192,4089,1,8,0:0:0:0:
256,192,4463,5,4,0:0:0:0:
256,192,5958,1,12,0:0:0:0:
256,192,7454,1,4,0:0:0:0:
256,192,8201,1,4,0:0:0:0:
256,192,8949,1,12,0:0:0:0:
256,192,10444,1,0,0:0:0:0:
256,192,10818,1,8,0:0:0:0:
256,192,11192,1,0,0:0:0:0:
256,192,11379,1,0,0:0:0:0:
256,192,11566,1,8,0:0:0:0:
256,192,11940,1,0,0:0:0:0:
256,192,12314,1,8,0:0:0:0:
256,192,12501,1,8,0:0:0:0:
256,192,12687,1,0,0:0:0:0:
256,192,13435,1,8,0:0:0:0:
256,192,13809,1,0,0:0:0:0:
256,192,14183,1,8,0:0:0:0:
256,192,14370,1,8,0:0:0:0:
256,192,14557,1,0,0:0:0:0:
256,192,14744,1,0,0:0:0:0:
256,192,14930,1,8,0:0:0:0:
256,192,16613,1,0,0:0:0:0:
256,192,16800,1,0,0:0:0:0:
256,192,17173,1,8,0:0:0:0:
256,192,17360,1,0,0:0:0:0:
256,192,17547,1,8,0:0:0:0:
256,192,18108,1,0,0:0:0:0:
256,192,18295,1,0,0:0:0:0:
256,192,18669,1,8,0:0:0:0:
256,192,18856,1,0,0:0:0:0:
256,192,19043,1,8,0:0:0:0:
256,192,19230,1,8,0:0:0:0:
256,192,19416,1,0,0:0:0:0:
256,192,20164,1,8,0:0:0:0:
256,192,20912,1,0,0:0:0:0:
256,192,21099,1,8,0:0:0:0:
256,192,21286,1,0,0:0:0:0:
256,192,21659,1,8,0:0:0:0:
256,192,21940,1,8,0:0:0:0:
256,192,22220,1,8,0:0:0:0:
256,192,22594,1,0,0:0:0:0:
256,192,22781,1,0,0:0:0:0:
256,192,23155,1,8,0:0:0:0:
256,192,23342,1,8,0:0:0:0:
256,192,23529,1,0,0:0:0:0:
256,192,24089,1,0,0:0:0:0:
256,192,24276,1,0,0:0:0:0:
256,192,24650,1,8,0:0:0:0:
256,192,24837,1,8,0:0:0:0:
256,192,25024,1,0,0:0:0:0:
256,192,25211,1,0,0:0:0:0:
256,192,25398,1,8,0:0:0:0:
256,192,26145,1,0,0:0:0:0:
256,192,26519,1,8,0:0:0:0:
256,192,26706,1,8,0:0:0:0:
256,192,26893,1,0,0:0:0:0:
256,192,27267,1,0,0:0:0:0:
256,192,27547,1,8,0:0:0:0:
256,192,27921,1,0,0:0:0:0:
256,192,28388,1,8,0:0:0:0:
256,192,31005,5,8,0:0:0:0:
256,192,31566,5,0,0:0:0:0:
256,192,31753,1,0,0:0:0:0:
256,192,32033,1,8,0:0:0:0:
256,192,32501,1,8,0:0:0:0:
256,192,32687,1,0,0:0:0:0:
256,192,32874,1,8,0:0:0:0:
256,192,33248,1,8,0:0:0:0:
256,192,33622,1,0,0:0:0:0:
256,192,33902,1,0,0:0:0:0:
256,192,34370,5,0,0:0:0:0:
256,192,35117,1,8,0:0:0:0:
256,192,35491,1,8,0:0:0:0:
256,192,35772,1,8,0:0:0:0:
256,192,36052,1,8,0:0:0:0:
256,192,36332,1,8,0:0:0:0:
256,192,36613,1,8,0:0:0:0:
256,192,37360,1,0,0:0:0:0:
256,192,37734,1,0,0:0:0:0:
256,192,37921,1,0,0:0:0:0:
256,192,38108,1,8,0:0:0:0:
256,192,38482,1,0,0:0:0:0:
256,192,38856,1,8,0:0:0:0:
256,192,39043,1,0,0:0:0:0:
256,192,39230,1,8,0:0:0:0:
256,192,39416,1,0,0:0:0:0:
256,192,39603,1,8,0:0:0:0:
256,192,40351,1,0,0:0:0:0:
256,192,40725,1,8,0:0:0:0:
256,192,41005,1,0,0:0:0:0:
256,192,41472,1,8,0:0:0:0:
256,192,41846,1,0,0:0:0:0:
256,192,42033,1,0,0:0:0:0:
256,192,42220,1,8,0:0:0:0:
256,192,42501,1,0,0:0:0:0:
256,192,43342,1,8,0:0:0:0:
256,192,43902,1,8,0:0:0:0:
256,192,44463,1,8,0:0:0:0:
256,192,44650,1,8,0:0:0:0:
256,192,44837,1,0,0:0:0:0:
256,192,45585,1,0,0:0:0:0:
256,192,45865,1,0,0:0:0:0:
256,192,46145,1,0,0:0:0:0:
256,192,46332,1,8,0:0:0:0:
256,192,46706,1,0,0:0:0:0:
256,192,46987,1,8,0:0:0:0:
256,192,47454,1,8,0:0:0:0:
256,192,47828,1,0,0:0:0:0:
256,192,48015,1,8,0:0:0:0:
256,192,48201,1,8,0:0:0:0:
256,192,48482,1,0,0:0:0:0:
256,192,49136,1,0,0:0:0:0:
256,192,49323,1,8,0:0:0:0:
256,192,49603,1,0,0:0:0:0:
256,192,49884,1,8,0:0:0:0:
256,192,50444,1,8,0:0:0:0:
256,192,50631,1,8,0:0:0:0:
256,192,50818,1,0,0:0:0:0:
256,192,51192,1,8,0:0:0:0:
256,192,51566,1,0,0:0:0:0:
256,192,51753,1,0,0:0:0:0:
256,192,51940,1,8,0:0:0:0:
256,192,52127,1,8,0:0:0:0:
256,192,52314,1,0,0:0:0:0:
256,192,55304,1,0,0:0:0:0:
256,192,55678,1,8,0:0:0:0:
256,192,55865,1,0,0:0:0:0:
256,192,56052,1,0,0:0:0:0:
256,192,56426,1,8,0:0:0:0:
256,192,56800,1,0,0:0:0:0:
256,192,57173,1,8,0:0:0:0:
256,192,57360,1,8,0:0:0:0:
256,192,57547,1,0,0:0:0:0:
256,192,58295,1,0,0:0:0:0:
256,192,58669,1,8,0:0:0:0:
256,192,59043,1,0,0:0:0:0:
256,192,59230,1,0,0:0:0:0:
256,192,59416,1,8,0:0:0:0:
256,192,59790,1,0,0:0:0:0:
256,192,59977,1,8,0:0:0:0:
256,192,60164,1,8,0:0:0:0:
256,192,60538,1,0,0:0:0:0:
256,192,60818,1,0,0:0:0:0:
256,192,61099,1,0,0:0:0:0:
256,192,61659,1,8,0:0:0:0:
256,192,62033,1,0,0:0:0:0:
256,192,62407,1,8,0:0:0:0:
256,192,62594,1,8,0:0:0:0:
256,192,62781,1,0,0:0:0:0:
256,192,63155,1,8,0:0:0:0:
256,192,63529,1,0,0:0:0:0:
256,192,64276,1,0,0:0:0:0:
256,192,64650,1,8,0:0:0:0:
256,192,65024,1,0,0:0:0:0:
256,192,65211,1,0,0:0:0:0:
256,192,65398,1,8,0:0:0:0:
256,192,65772,1,0,0:0:0:0:
256,192,66145,1,8,0:0:0:0:
256,192,66519,1,8,0:0:0:0:
256,192,66706,1,8,0:0:0:0:
256,192,66893,1,8,0:0:0:0:
256,192,67080,1,8,0:0:0:0:
256,192,67267,1,0,0:0:0:0:
256,192,68015,1,8,0:0:0:0:
256,192,68388,1,0,0:0:0:0:
256,192,68575,1,8,0:0:0:0:
256,192,68762,1,0,0:0:0:0:
256,192,69043,1,0,0:0:0:0:
256,192,69323,1,0,0:0:0:0:
256,192,69510,1,8,0:0:0:0:
256,192,69884,1,8,0:0:0:0:
256,192,70071,1,8,0:0:0:0:
256,192,70258,1,0,0:0:0:0:
256,192,70444,1,0,0:0:0:0:
256,192,70631,1,8,0:0:0:0:
256,192,71005,1,0,0:0:0:0:
256,192,71379,1,8,0:0:0:0:
256,192,71566,1,0,0:0:0:0:
256,192,71753,1,8,0:0:0:0:
256,192,72033,1,8,0:0:0:0:
256,192,72314,1,8,0:0:0:0:
256,192,72501,1,0,0:0:0:0:
256,192,73248,1,0,0:0:0:0:
256,192,73996,1,8,0:0:0:0:
256,192,74276,1,8,0:0:0:0:
256,192,74744,1,0,0:0:0:0:
256,192,75024,1,8,0:0:0:0:
256,192,75491,1,0,0:0:0:0:
256,192,75772,1,0,0:0:0:0:
256,192,76239,1,8,0:0:0:0:
256,192,76613,1,0,0:0:0:0:
256,192,76987,1,0,0:0:0:0:
256,192,77173,1,0,0:0:0:0:
256,192,77360,1,8,0:0:0:0:
256,192,77547,1,8,0:0:0:0:
256,192,77734,1,0,0:0:0:0:
256,192,79230,1,4,0:0:0:0:
256,192,79790,1,0,0:0:0:0:
256,192,79977,1,8,0:0:0:0:
256,192,80725,1,8,0:0:0:0:
256,192,81286,1,8,0:0:0:0:
256,192,81472,1,0,0:0:0:0:
256,192,82220,1,8,0:0:0:0:
256,192,82407,1,0,0:0:0:0:
256,192,82594,1,8,0:0:0:0:
256,192,82968,1,0,0:0:0:0:
256,192,83342,1,0,0:0:0:0:
256,192,83715,1,8,0:0:0:0:
256,192,83902,1,8,0:0:0:0:
256,192,84089,1,0,0:0:0:0:
256,192,84463,1,0,0:0:0:0:
256,192,84650,1,8,0:0:0:0:
256,192,84837,1,0,0:0:0:0:
256,192,85211,1,12,0:0:0:0:
256,192,85772,1,0,0:0:0:0:
256,192,85958,1,12,0:0:0:0:
256,192,86706,1,12,0:0:0:0:
256,192,87267,1,0,0:0:0:0:
256,192,87454,1,12,0:0:0:0:
256,192,87828,1,8,0:0:0:0:
256,192,88015,1,8,0:0:0:0:
256,192,88201,1,0,0:0:0:0:
256,192,88575,1,8,0:0:0:0:
256,192,88949,1,0,0:0:0:0:
256,192,89136,1,0,0:0:0:0:
256,192,89323,1,8,0:0:0:0:
256,192,89510,1,8,0:0:0:0:
256,192,89697,1,0,0:0:0:0:
256,192,91940,1,8,0:0:0:0:
256,192,92314,1,8,0:0:0:0:
256,192,92687,1,0,0:0:0:0:
256,192,92968,1,8,0:0:0:0:
256,192,93248,1,0,0:0:0:0:
256,192,93529,1,8,0:0:0:0:
256,192,93809,1,8,0:0:0:0:
256,192,93996,1,8,0:0:0:0:
256,192,94183,1,0,0:0:0:0:
256,192,95678,1,4,0:0:0:0:
256,192,96052,1,8,0:0:0:0:
256,192,96426,1,0,0:0:0:0:
256,192,96613,1,0,0:0:0:0:
256,192,96800,1,8,0:0:0:0:
256,192,96987,1,8,0:0:0:0:
256,192,97173,1,0,0:0:0:0:
256,192,97547,1,8,0:0:0:0:
256,192,97734,1,8,0:0:0:0:
256,192,97921,1,0,0:0:0:0:
256,192,98108,1,0,0:0:0:0:
256,192,98295,1,8,0:0:0:0:
256,192,98669,1,0,0:0:0:0:
256,192,99416,1,8,0:0:0:0:
256,192,99603,1,0,0:0:0:0:
256,192,99790,1,0,0:0:0:0:
256,192,100164,1,8,0:0:0:0:
256,192,100538,1,0,0:0:0:0:
256,192,100912,1,8,0:0:0:0:
256,192,101099,1,0,0:0:0:0:
256,192,101286,1,8,0:0:0:0:
256,192,101659,1,0,0:0:0:0:
256,192,101940,1,0,0:0:0:0:
256,192,102407,1,8,0:0:0:0:
256,192,102687,1,8,0:0:0:0:
256,192,103155,1,0,0:0:0:0:
256,192,103902,1,0,0:0:0:0:
256,192,104183,1,8,0:0:0:0:
256,192,104463,1,8,0:0:0:0:
256,192,104650,1,0,0:0:0:0:
256,192,105024,1,8,0:0:0:0:
256,192,105398,1,0,0:0:0:0:
256,192,105585,1,0,0:0:0:0:
256,192,105772,1,8,0:0:0:0:
256,192,106145,1,0,0:0:0:0:
256,192,106332,1,8,0:0:0:0:
256,192,106519,1,0,0:0:0:0:
256,192,106706,1,8,0:0:0:0:
256,192,106893,1,0,0:0:0:0:
256,192,107641,1,12,0:0:0:0:
256,192,108015,1,0,0:0:0:0:
256,192,108388,1,0,0:0:0:0:
256,192,108575,1,8,0:0:0:0:
256,192,108762,1,0,0:0:0:0:
256,192,108949,1,0,0:0:0:0:
256,192,109136,1,8,0:0:0:0:
256,192,109510,1,8,0:0:0:0:
256,192,109697,1,0,0:0:0:0:
256,192,109884,1,8,0:0:0:0:
256,192,110071,1,8,0:0:0:0:
256,192,110258,1,0,0:0:0:0:
256,192,110631,1,8,0:0:0:0:
256,192,111379,1,8,0:0:0:0:
256,192,111753,1,8,0:0:0:0:
256,192,111940,1,0,0:0:0:0:
256,192,112127,1,0,0:0:0:0:
256,192,112501,1,8,0:0:0:0:
256,192,112874,1,0,0:0:0:0:
256,192,113061,1,0,0:0:0:0:
256,192,113248,1,8,0:0:0:0:
256,192,113622,1,0,0:0:0:0:
256,192,113902,1,0,0:0:0:0:
256,192,114370,1,8,0:0:0:0:
256,192,114650,1,8,0:0:0:0:
256,192,115117,1,8,0:0:0:0:
256,192,115398,1,0,0:0:0:0:
256,192,115678,1,0,0:0:0:0:
256,192,115958,1,8,0:0:0:0:
256,192,116613,1,8,0:0:0:0:
256,192,116987,1,8,0:0:0:0:
256,192,117173,1,8,0:0:0:0:
256,192,117360,1,0,0:0:0:0:
256,192,117547,1,0,0:0:0:0:
256,192,117734,1,8,0:0:0:0:
256,192,118108,1,0,0:0:0:0:
256,192,118295,1,0,0:0:0:0:
256,192,118482,1,8,0:0:0:0:
256,192,118669,1,8,0:0:0:0:
256,192,119603,1,0,0:0:0:0:
256,192,119884,1,0,0:0:0:0:
256,192,120351,1,8,0:0:0:0:
256,192,120631,1,0,0:0:0:0:
256,192,121099,1,0,0:0:0:0:
256,192,121379,1,8,0:0:0:0:
256,192,121846,1,8,0:0:0:0:
256,192,122594,1,8,0:0:0:0:
256,192,122968,1,0,0:0:0:0:
256,192,123342,1,8,0:0:0:0:
256,192,123529,1,0,0:0:0:0:
256,192,123715,1,8,0:0:0:0:
256,192,124089,1,0,0:0:0:0:
256,192,124463,1,8,0:0:0:0:
256,192,124650,1,8,0:0:0:0:
256,192,124837,1,0,0:0:0:0:
256,192,125211,1,0,0:0:0:0:
256,192,125585,1,8,0:0:0:0:
256,192,125958,1,0,0:0:0:0:
256,192,126145,1,0,0:0:0:0:
256,192,126332,1,8,0:0:0:0:
256,192,126519,1,8,0:0:0:0:
256,192,126706,1,0,0:0:0:0:
256,192,127080,1,8,0:0:0:0:
256,192,127454,1,0,0:0:0:0:
256,192,127641,1,8,0:0:0:0:
256,192,127828,1,0,0:0:0:0:
256,192,128015,1,0,0:0:0:0:
256,192,128201,1,8,0:0:0:0:
256,192,128949,1,4,0:0:0:0:
256,192,129136,12,0,131940,0:0:0:0:
