osu file format v14

[General]
AudioFilename: audio.ogg
AudioLeadIn: 0
PreviewTime: 95484
Countdown: 0
SampleSet: Normal
StackLeniency: 0.7
Mode: 1
LetterboxInBreaks: 0
WidescreenStoryboard: 1

[Editor]
DistanceSpacing: 2
BeatDivisor: 4
GridSize: 32
TimelineZoom: 1.999999

[Metadata]
Title:LaureLs ~the Angelus~
TitleUnicode:LaμreLs ~the Angelus~
Artist:Ashrount
ArtistUnicode:Ashrount
Creator:Dusk-
Version:Hivie's EXHAUST
Source:SOUND VOLTEX EXCEED GEAR
Tags:sdvx hexadiver electronic instrumental friggy-chan hivie video rhythm game speedcore
BeatmapID:4229415
BeatmapSetID:2028207

[Difficulty]
HPDrainRate:5.5
CircleSize:2
OverallDifficulty:5.5
ApproachRate:10
SliderMultiplier:0.9
SliderTickRate:1

[Events]
//Background and Video events
0,0,"bg.jpg",0,-10
//Break Periods
2,28588,30555
//Storyboard Layer 0 (Background)
//Storyboard Layer 1 (Fail)
//Storyboard Layer 2 (Pass)
//Storyboard Layer 3 (Foreground)
//Storyboard Layer 4 (Overlay)
//Storyboard Sound Samples

[TimingPoints]
1473,186.915887850467,4,1,0,100,1,0
2968,-100,4,1,0,100,0,1
4089,-100,4,1,0,100,0,0
38856,-100,4,1,0,100,0,1
39603,-100,4,1,0,100,0,0
95678,-100,4,1,0,100,0,1
107267,-100,4,1,0,100,0,0
107641,-100,4,1,0,100,0,1
118856,-100,4,1,0,100,0,0
119600,-100,4,1,0,100,0,0
119603,-100,4,1,0,100,0,1
122407,-100,4,1,0,100,0,0
122594,-100,4,1,0,100,0,1
125398,-100,4,1,0,100,0,0
125585,-100,4,1,0,100,0,1
128388,-100,4,1,0,100,0,0
128666,-100,4,1,0,100,0,0
128996,-100,4,1,0,40,0,0

[HitObjects]
256,192,1472,5,4,0:0:0:0:
256,192,2968,1,8,0:0:0:0:
256,192,3061,1,8,0:0:0:0:
256,192,3155,1,8,0:0:0:0:
256,192,3248,1,8,0:0:0:0:
256,192,3342,1,8,0:0:0:0:
256,192,3529,1,8,0:0:0:0:
256,192,3715,1,0,0:0:0:0:
256,192,3809,1,0,0:0:0:0:
256,192,3902,1,0,0:0:0:0:
256,192,3996,1,0,0:0:0:0:
256,192,4089,1,8,0:0:0:0:
256,192,4463,1,4,0:0:0:0:
256,192,4744,1,4,0:0:0:0:
256,192,5958,1,12,0:0:0:0:
256,192,6239,1,12,0:0:0:0:
256,192,7454,1,4,0:0:0:0:
256,192,7734,1,4,0:0:0:0:
256,192,8201,1,4,0:0:0:0:
256,192,8482,1,4,0:0:0:0:
256,192,8949,1,12,0:0:0:0:
256,192,9230,1,12,0:0:0:0:
256,192,9510,1,12,0:0:0:0:
256,192,9697,1,4,0:0:0:0:
256,192,10444,1,4,0:0:0:0:
256,192,10631,1,8,0:0:0:0:
256,192,10725,1,0,0:0:0:0:
256,192,10818,1,8,0:0:0:0:
256,192,10912,1,8,0:0:0:0:
256,192,11005,1,0,0:0:0:0:
256,192,11192,1,8,0:0:0:0:
256,192,11379,1,0,0:0:0:0:
256,192,11472,1,0,0:0:0:0:
256,192,11566,1,8,0:0:0:0:
256,192,11753,1,8,0:0:0:0:
256,192,11846,1,8,0:0:0:0:
256,192,11940,1,0,0:0:0:0:
256,192,12127,1,8,0:0:0:0:
256,192,12220,1,8,0:0:0:0:
256,192,12314,1,0,0:0:0:0:
256,192,12407,1,0,0:0:0:0:
256,192,12501,1,8,0:0:0:0:
256,192,12687,1,4,0:0:0:0:
256,192,12968,1,4,0:0:0:0:
256,192,13248,1,0,0:0:0:0:
256,192,13435,1,12,0:0:0:0:
256,192,13715,1,4,0:0:0:0:
256,192,13996,1,12,0:0:0:0:
256,192,14183,1,0,0:0:0:0:
256,192,14276,1,0,0:0:0:0:
256,192,14370,1,0,0:0:0:0:
256,192,14463,1,0,0:0:0:0:
256,192,14557,1,8,0:0:0:0:
256,192,14744,1,8,0:0:0:0:
256,192,14837,1,8,0:0:0:0:
256,192,14930,1,0,0:0:0:0:
256,192,15491,1,4,0:0:0:0:
256,192,15865,1,12,0:0:0:0:
256,192,16145,1,12,0:0:0:0:
256,192,16613,1,0,0:0:0:0:
256,192,16800,1,8,0:0:0:0:
256,192,16893,1,0,0:0:0:0:
256,192,16987,1,8,0:0:0:0:
256,192,17173,1,8,0:0:0:0:
256,192,17360,1,0,0:0:0:0:
256,192,17454,1,8,0:0:0:0:
256,192,17547,1,0,0:0:0:0:
256,192,17641,1,0,0:0:0:0:
256,192,17734,1,8,0:0:0:0:
256,192,17921,1,0,0:0:0:0:
256,192,18108,1,8,0:0:0:0:
256,192,18295,1,8,0:0:0:0:
256,192,18388,1,8,0:0:0:0:
256,192,18482,1,0,0:0:0:0:
256,192,18575,1,0,0:0:0:0:
256,192,18669,1,8,0:0:0:0:
256,192,18856,1,0,0:0:0:0:
256,192,19043,1,8,0:0:0:0:
256,192,19136,1,0,0:0:0:0:
256,192,19230,1,8,0:0:0:0:
256,192,19416,1,4,0:0:0:0:
256,192,20164,1,8,0:0:0:0:
256,192,20444,1,0,0:0:0:0:
256,192,20912,1,8,0:0:0:0:
256,192,21099,1,0,0:0:0:0:
256,192,21192,1,0,0:0:0:0:
256,192,21286,1,8,0:0:0:0:
256,192,21379,1,8,0:0:0:0:
256,192,21472,1,0,0:0:0:0:
256,192,21659,1,12,0:0:0:0:
256,192,21940,1,12,0:0:0:0:
256,192,22220,1,12,0:0:0:0:
256,192,22594,1,0,0:0:0:0:
256,192,22781,1,8,0:0:0:0:
256,192,22874,1,0,0:0:0:0:
256,192,22968,1,8,0:0:0:0:
256,192,23061,1,8,0:0:0:0:
256,192,23155,1,0,0:0:0:0:
256,192,23342,1,8,0:0:0:0:
256,192,23529,1,0,0:0:0:0:
256,192,23622,1,8,0:0:0:0:
256,192,23715,1,0,0:0:0:0:
256,192,23902,1,12,0:0:0:0:
256,192,24089,1,0,0:0:0:0:
256,192,24276,1,8,0:0:0:0:
256,192,24370,1,8,0:0:0:0:
256,192,24463,1,8,0:0:0:0:
256,192,24557,1,8,0:0:0:0:
256,192,24650,1,0,0:0:0:0:
256,192,24837,1,8,0:0:0:0:
256,192,25024,1,0,0:0:0:0:
253,184,25117,1,0,0:0:0:0:
256,192,25211,1,8,0:0:0:0:
256,192,25398,1,4,0:0:0:0:
256,192,25678,1,12,0:0:0:0:
256,192,25958,1,12,0:0:0:0:
256,192,26145,1,0,0:0:0:0:
256,192,26239,1,0,0:0:0:0:
256,192,26426,1,8,0:0:0:0:
256,192,26613,1,0,0:0:0:0:
256,192,26706,1,8,0:0:0:0:
256,192,26893,1,0,0:0:0:0:
256,192,27080,1,8,0:0:0:0:
256,192,27173,1,0,0:0:0:0:
256,192,27360,1,8,0:0:0:0:
256,192,27454,1,0,0:0:0:0:
256,192,27547,1,8,0:0:0:0:
256,192,27734,1,0,0:0:0:0:
256,192,27921,1,8,0:0:0:0:
256,192,28015,1,0,0:0:0:0:
256,192,28108,1,0,0:0:0:0:
256,192,28201,1,8,0:0:0:0:
256,192,28388,1,4,0:0:0:0:
256,192,31005,5,8,0:0:0:0:
256,192,31099,1,8,0:0:0:0:
256,192,31192,1,8,0:0:0:0:
256,192,31566,1,4,0:0:0:0:
256,192,31753,1,8,0:0:0:0:
256,192,31940,1,0,0:0:0:0:
256,192,32033,1,8,0:0:0:0:
256,192,32220,1,0,0:0:0:0:
256,192,32407,1,8,0:0:0:0:
256,192,32501,1,0,0:0:0:0:
256,192,32594,1,8,0:0:0:0:
256,192,32687,1,8,0:0:0:0:
256,192,32874,1,0,0:0:0:0:
256,192,33061,1,8,0:0:0:0:
256,192,33155,1,8,0:0:0:0:
256,192,33342,1,0,0:0:0:0:
256,192,33435,1,8,0:0:0:0:
256,192,33622,1,4,0:0:0:0:
256,192,33902,1,4,0:0:0:0:
256,192,34183,1,4,0:0:0:0:
256,192,34370,1,12,0:0:0:0:
256,192,34930,1,0,0:0:0:0:
256,192,35117,1,8,0:0:0:0:
256,192,35211,1,8,0:0:0:0:
256,192,35491,1,8,0:0:0:0:
256,192,35772,1,8,0:0:0:0:
256,192,36052,1,8,0:0:0:0:
256,192,36332,1,8,0:0:0:0:
256,192,36613,1,8,0:0:0:0:
256,192,36800,1,0,0:0:0:0:
256,192,36893,1,0,0:0:0:0:
256,192,36987,1,8,0:0:0:0:
256,192,37080,1,0,0:0:0:0:
256,192,37173,1,8,0:0:0:0:
256,192,37360,1,0,0:0:0:0:
256,192,37547,2,0,L|256:238,10,45
256,192,38856,1,8,0:0:0:0:
256,192,38949,1,8,0:0:0:0:
256,192,39043,1,8,0:0:0:0:
256,192,39136,1,8,0:0:0:0:
256,192,39230,1,0,0:0:0:0:
256,192,39323,1,0,0:0:0:0:
256,192,39416,1,0,0:0:0:0:
256,192,39510,1,0,0:0:0:0:
256,192,39603,1,8,0:0:0:0:
256,192,40351,1,4,0:0:0:0:
256,192,40538,1,8,0:0:0:0:
256,192,40725,1,0,0:0:0:0:
256,192,40912,1,8,0:0:0:0:
256,192,41005,1,0,0:0:0:0:
256,192,41192,1,0,0:0:0:0:
256,192,41286,1,8,0:0:0:0:
256,192,41472,1,0,0:0:0:0:
256,192,41659,1,8,0:0:0:0:
256,192,41753,1,8,0:0:0:0:
256,192,41846,1,0,0:0:0:0:
256,192,42033,1,0,0:0:0:0:
256,192,42220,1,8,0:0:0:0:
256,192,42407,1,8,0:0:0:0:
256,192,42501,1,8,0:0:0:0:
256,192,42687,1,0,0:0:0:0:
256,192,42781,1,0,0:0:0:0:
256,192,42968,1,8,0:0:0:0:
256,192,43061,1,0,0:0:0:0:
256,192,43155,1,8,0:0:0:0:
256,192,43342,1,4,0:0:0:0:
256,192,43902,1,4,0:0:0:0:
256,192,44463,1,8,0:0:0:0:
256,192,44650,1,0,0:0:0:0:
256,192,44744,1,0,0:0:0:0:
256,192,44837,1,8,0:0:0:0:
256,192,45024,1,0,0:0:0:0:
256,192,45211,1,8,0:0:0:0:
256,192,45304,1,0,0:0:0:0:
256,192,45398,1,0,0:0:0:0:
256,192,45491,1,0,0:0:0:0:
256,192,45585,1,8,0:0:0:0:
256,192,45772,1,0,0:0:0:0:
256,192,46332,1,4,0:0:0:0:
256,192,46519,1,8,0:0:0:0:
256,192,46706,1,0,0:0:0:0:
256,192,46893,1,8,0:0:0:0:
256,192,46987,1,0,0:0:0:0:
256,192,47173,1,0,0:0:0:0:
256,192,47267,1,8,0:0:0:0:
256,192,47454,1,0,0:0:0:0:
256,192,47547,1,0,0:0:0:0:
256,192,47641,1,8,0:0:0:0:
256,192,47734,1,8,0:0:0:0:
256,192,47828,1,0,0:0:0:0:
256,192,48015,1,0,0:0:0:0:
256,192,48201,1,8,0:0:0:0:
256,192,48388,1,8,0:0:0:0:
256,192,48482,1,8,0:0:0:0:
256,192,48669,1,0,0:0:0:0:
256,192,48762,1,0,0:0:0:0:
256,192,48949,1,8,0:0:0:0:
256,192,49043,1,0,0:0:0:0:
256,192,49136,1,8,0:0:0:0:
256,192,49323,1,4,0:0:0:0:
256,192,49603,1,4,0:0:0:0:
256,192,49884,1,12,0:0:0:0:
256,192,50164,1,4,0:0:0:0:
256,192,50444,1,8,0:0:0:0:
256,192,50818,1,8,0:0:0:0:
256,192,51005,1,0,0:0:0:0:
256,192,51099,1,8,0:0:0:0:
256,192,51286,1,0,0:0:0:0:
256,192,51379,1,8,0:0:0:0:
256,192,51566,1,0,0:0:0:0:
256,192,51659,1,0,0:0:0:0:
256,192,51753,1,0,0:0:0:0:
256,192,51940,1,8,0:0:0:0:
256,192,52033,1,8,0:0:0:0:
256,192,52127,1,8,0:0:0:0:
256,192,52314,1,4,0:0:0:0:
256,192,52501,8,0,54930,0:0:0:0:
256,192,55304,5,0,0:0:0:0:
256,192,55678,1,12,0:0:0:0:
256,192,56052,1,0,0:0:0:0:
256,192,56239,1,8,0:0:0:0:
256,192,56426,1,0,0:0:0:0:
256,192,56519,1,8,0:0:0:0:
256,192,56613,1,8,0:0:0:0:
256,192,56706,1,8,0:0:0:0:
256,192,56800,1,0,0:0:0:0:
256,192,56987,1,0,0:0:0:0:
256,192,57173,1,8,0:0:0:0:
256,192,57267,1,8,0:0:0:0:
256,192,57360,1,8,0:0:0:0:
256,192,57454,1,8,0:0:0:0:
256,192,57547,1,0,0:0:0:0:
256,192,57734,1,8,0:0:0:0:
256,192,57921,1,4,0:0:0:0:
256,192,58295,1,12,0:0:0:0:
256,192,58669,1,8,0:0:0:0:
256,192,58856,1,0,0:0:0:0:
256,192,58949,1,8,0:0:0:0:
256,192,59043,1,0,0:0:0:0:
256,192,59136,1,0,0:0:0:0:
256,192,59230,1,8,0:0:0:0:
256,192,59416,1,0,0:0:0:0:
256,192,59603,1,0,0:0:0:0:
256,192,59790,1,8,0:0:0:0:
256,192,59884,1,8,0:0:0:0:
256,192,59977,1,0,0:0:0:0:
256,192,60071,1,0,0:0:0:0:
256,192,60164,1,8,0:0:0:0:
256,192,60538,1,12,0:0:0:0:
256,192,60818,1,12,0:0:0:0:
256,192,61099,1,12,0:0:0:0:
256,192,61659,1,12,0:0:0:0:
256,192,62033,1,0,0:0:0:0:
256,192,62220,1,0,0:0:0:0:
256,192,62314,1,0,0:0:0:0:
256,192,62407,1,8,0:0:0:0:
256,192,62594,1,0,0:0:0:0:
256,192,62781,1,8,0:0:0:0:
256,192,62968,1,0,0:0:0:0:
256,192,63155,1,8,0:0:0:0:
256,192,63248,1,8,0:0:0:0:
256,192,63342,1,8,0:0:0:0:
256,192,63435,1,8,0:0:0:0:
256,192,63529,1,0,0:0:0:0:
256,192,63715,1,0,0:0:0:0:
256,192,63902,1,12,0:0:0:0:
256,192,64276,1,4,0:0:0:0:
256,192,64650,1,8,0:0:0:0:
256,192,64837,1,0,0:0:0:0:
256,192,64930,1,0,0:0:0:0:
256,192,65024,1,8,0:0:0:0:
256,192,65117,1,8,0:0:0:0:
256,192,65211,1,0,0:0:0:0:
256,192,65398,1,8,0:0:0:0:
256,192,65585,1,8,0:0:0:0:
256,192,65678,1,8,0:0:0:0:
256,192,65772,1,0,0:0:0:0:
256,192,65958,1,0,0:0:0:0:
256,192,66052,1,8,0:0:0:0:
256,192,66145,1,0,0:0:0:0:
256,192,66332,1,0,0:0:0:0:
256,192,66519,1,8,0:0:0:0:
256,192,66613,1,8,0:0:0:0:
256,192,66706,1,8,0:0:0:0:
256,192,66800,1,8,0:0:0:0:
256,192,66893,1,0,0:0:0:0:
256,192,66987,1,0,0:0:0:0:
256,192,67080,1,0,0:0:0:0:
256,192,67267,1,12,0:0:0:0:
256,192,67828,1,8,0:0:0:0:
256,192,67921,1,0,0:0:0:0:
256,192,68015,1,8,0:0:0:0:
256,192,68388,1,0,0:0:0:0:
256,192,68482,1,0,0:0:0:0:
256,192,68575,1,0,0:0:0:0:
256,192,68669,1,0,0:0:0:0:
256,192,68762,1,8,0:0:0:0:
256,192,69043,1,8,0:0:0:0:
256,192,69323,1,8,0:0:0:0:
256,192,69510,1,0,0:0:0:0:
256,192,69697,1,8,0:0:0:0:
256,192,69884,1,0,0:0:0:0:
256,192,69977,1,0,0:0:0:0:
256,192,70071,1,0,0:0:0:0:
245,183,70164,1,0,0:0:0:0:
256,192,70258,1,8,0:0:0:0:
256,192,70818,1,8,0:0:0:0:
256,192,70912,1,0,0:0:0:0:
256,192,71005,1,8,0:0:0:0:
256,192,71192,1,0,0:0:0:0:
256,192,71379,1,8,0:0:0:0:
256,192,71472,1,8,0:0:0:0:
256,192,71566,1,8,0:0:0:0:
256,192,71659,1,8,0:0:0:0:
256,192,71753,1,0,0:0:0:0:
256,192,72033,1,0,0:0:0:0:
256,192,72314,1,0,0:0:0:0:
256,192,72501,1,8,0:0:0:0:
256,192,72687,1,0,0:0:0:0:
256,192,72781,1,0,0:0:0:0:
256,192,72874,1,8,0:0:0:0:
256,192,72968,1,0,0:0:0:0:
256,192,73061,1,8,0:0:0:0:
256,192,73248,1,4,0:0:0:0:
257,202,73622,1,0,0:0:0:0:
256,192,73996,1,8,0:0:0:0:
256,192,74276,1,0,0:0:0:0:
256,192,74557,1,0,0:0:0:0:
256,191,74650,1,0,0:0:0:0:
256,192,74744,1,8,0:0:0:0:
256,192,75024,1,8,0:0:0:0:
256,192,75304,1,0,0:0:0:0:
256,192,75398,1,0,0:0:0:0:
256,192,75491,1,8,0:0:0:0:
256,192,75772,1,8,0:0:0:0:
256,192,76052,1,8,0:0:0:0:
256,192,76145,1,8,0:0:0:0:
256,192,76239,1,0,0:0:0:0:
256,192,76426,1,8,0:0:0:0:
256,192,76519,1,0,0:0:0:0:
256,192,76613,1,8,0:0:0:0:
256,192,76706,1,8,0:0:0:0:
256,192,76800,1,0,0:0:0:0:
256,192,76987,1,8,0:0:0:0:
256,192,77173,1,0,0:0:0:0:
256,192,77267,1,0,0:0:0:0:
256,192,77360,1,8,0:0:0:0:
256,192,77454,1,0,0:0:0:0:
256,192,77547,1,8,0:0:0:0:
256,192,77734,1,0,0:0:0:0:
256,192,78856,1,8,0:0:0:0:
256,192,78949,1,8,0:0:0:0:
256,192,79043,1,8,0:0:0:0:
256,192,79230,1,4,0:0:0:0:
256,192,79510,1,8,0:0:0:0:
256,192,79790,1,8,0:0:0:0:
256,192,79977,1,0,0:0:0:0:
256,192,80351,1,8,0:0:0:0:
256,192,80725,1,0,0:0:0:0:
256,192,81005,1,0,0:0:0:0:
256,192,81286,1,8,0:0:0:0:
256,192,81472,1,0,0:0:0:0:
256,192,81846,1,8,0:0:0:0:
256,192,82033,1,8,0:0:0:0:
256,192,82220,1,8,0:0:0:0:
256,192,82407,1,8,0:0:0:0:
256,192,82594,1,0,0:0:0:0:
256,192,82781,1,0,0:0:0:0:
256,192,82968,1,8,0:0:0:0:
256,192,83155,1,0,0:0:0:0:
256,192,83342,1,8,0:0:0:0:
256,192,83529,1,8,0:0:0:0:
256,192,83715,1,0,0:0:0:0:
256,192,83902,1,0,0:0:0:0:
256,192,84089,1,8,0:0:0:0:
256,192,84276,1,8,0:0:0:0:
256,192,84370,1,8,0:0:0:0:
256,192,84463,1,0,0:0:0:0:
256,192,84650,1,0,0:0:0:0:
256,192,84744,1,0,0:0:0:0:
256,192,84837,1,8,0:0:0:0:
256,192,85024,1,8,0:0:0:0:
256,192,85211,1,4,0:0:0:0:
256,192,85491,1,8,0:0:0:0:
256,192,85772,1,8,0:0:0:0:
256,192,85958,1,0,0:0:0:0:
256,192,86332,1,8,0:0:0:0:
256,192,86706,1,0,0:0:0:0:
256,192,86987,1,8,0:0:0:0:
256,192,87267,1,8,0:0:0:0:
256,192,87454,1,0,0:0:0:0:
256,192,87734,1,0,0:0:0:0:
256,192,88015,1,8,0:0:0:0:
256,192,88201,1,8,0:0:0:0:
256,192,88482,1,0,0:0:0:0:
256,192,88762,1,8,0:0:0:0:
256,192,88949,1,0,0:0:0:0:
256,192,89043,1,0,0:0:0:0:
256,192,89136,1,0,0:0:0:0:
256,192,89230,1,0,0:0:0:0:
256,192,89323,1,8,0:0:0:0:
256,192,89416,1,8,0:0:0:0:
256,192,89510,1,8,0:0:0:0:
256,192,89697,1,4,0:0:0:0:
256,192,91940,1,8,0:0:0:0:
256,192,92127,1,0,0:0:0:0:
256,192,92220,1,0,0:0:0:0:
256,192,92314,1,8,0:0:0:0:
256,192,92407,1,8,0:0:0:0:
256,192,92501,1,0,0:0:0:0:
256,192,92687,1,12,0:0:0:0:
256,192,92968,1,4,0:0:0:0:
256,192,93248,1,12,0:0:0:0:
256,192,93529,1,12,0:0:0:0:
256,192,93809,1,0,0:0:0:0:
256,192,93902,1,0,0:0:0:0:
256,192,93996,1,0,0:0:0:0:
256,192,94089,1,0,0:0:0:0:
256,192,94183,1,8,0:0:0:0:
256,192,94930,1,8,0:0:0:0:
256,192,95024,1,8,0:0:0:0:
256,192,95117,1,8,0:0:0:0:
256,192,95211,1,8,0:0:0:0:
256,192,95304,1,0,0:0:0:0:
256,192,95678,1,12,0:0:0:0:
256,192,95865,1,0,0:0:0:0:
256,192,95958,1,8,0:0:0:0:
256,192,96145,1,0,0:0:0:0:
256,192,96239,1,0,0:0:0:0:
256,192,96426,1,8,0:0:0:0:
256,192,96613,1,0,0:0:0:0:
256,192,96706,1,8,0:0:0:0:
256,192,96893,1,8,0:0:0:0:
256,192,96987,1,8,0:0:0:0:
256,192,97173,1,0,0:0:0:0:
256,192,97360,1,8,0:0:0:0:
256,192,97454,1,8,0:0:0:0:
256,192,97641,1,0,0:0:0:0:
256,192,97734,1,8,0:0:0:0:
256,192,97828,1,8,0:0:0:0:
256,192,97921,1,0,0:0:0:0:
256,192,98108,1,8,0:0:0:0:
256,192,98295,1,0,0:0:0:0:
256,192,98388,1,0,0:0:0:0:
256,192,98482,1,8,0:0:0:0:
256,192,98669,1,0,0:0:0:0:
256,192,98856,1,0,0:0:0:0:
256,192,98949,1,8,0:0:0:0:
256,192,99136,1,8,0:0:0:0:
256,192,99230,1,0,0:0:0:0:
256,192,99416,1,8,0:0:0:0:
256,192,99603,1,0,0:0:0:0:
256,192,99697,1,0,0:0:0:0:
256,192,99790,1,8,0:0:0:0:
256,192,99884,1,8,0:0:0:0:
256,192,99977,1,0,0:0:0:0:
256,192,100164,1,8,0:0:0:0:
256,192,100351,1,0,0:0:0:0:
256,192,100444,1,8,0:0:0:0:
256,192,100631,1,0,0:0:0:0:
256,192,100725,1,0,0:0:0:0:
256,192,100912,1,8,0:0:0:0:
256,192,101099,1,0,0:0:0:0:
256,192,101192,1,0,0:0:0:0:
256,192,101286,1,8,0:0:0:0:
256,192,101659,1,0,0:0:0:0:
256,192,101846,1,8,0:0:0:0:
256,192,101940,1,8,0:0:0:0:
256,192,102127,1,0,0:0:0:0:
256,192,102220,1,0,0:0:0:0:
256,192,102407,1,8,0:0:0:0:
256,192,102594,1,0,0:0:0:0:
256,192,102687,1,8,0:0:0:0:
256,192,102874,1,0,0:0:0:0:
256,192,102968,1,8,0:0:0:0:
256,192,103155,1,0,0:0:0:0:
256,192,103248,1,0,0:0:0:0:
256,192,103342,1,8,0:0:0:0:
256,192,103529,1,0,0:0:0:0:
256,192,103622,1,0,0:0:0:0:
256,192,103715,1,0,0:0:0:0:
256,192,103902,1,8,0:0:0:0:
256,192,104089,1,0,0:0:0:0:
256,192,104183,1,8,0:0:0:0:
256,192,104370,1,0,0:0:0:0:
256,192,104463,1,8,0:0:0:0:
256,192,104650,1,0,0:0:0:0:
256,192,105024,1,8,0:0:0:0:
256,192,105117,1,8,0:0:0:0:
256,192,105211,1,0,0:0:0:0:
256,192,105304,1,0,0:0:0:0:
256,192,105398,1,8,0:0:0:0:
256,192,105585,1,0,0:0:0:0:
256,192,105772,1,8,0:0:0:0:
256,192,105865,1,0,0:0:0:0:
256,192,105958,1,0,0:0:0:0:
256,192,106145,1,8,0:0:0:0:
256,192,106332,1,0,0:0:0:0:
256,192,106426,1,0,0:0:0:0:
256,192,106613,1,8,0:0:0:0:
256,192,106706,1,0,0:0:0:0:
256,192,106893,1,8,0:0:0:0:
256,192,107080,1,0,0:0:0:0:
256,192,107173,1,0,0:0:0:0:
256,192,107267,1,8,0:0:0:0:
256,192,107641,1,4,0:0:0:0:
256,192,107828,1,8,0:0:0:0:
256,192,107921,1,0,0:0:0:0:
256,192,108108,1,8,0:0:0:0:
256,192,108201,1,8,0:0:0:0:
256,192,108388,1,0,0:0:0:0:
256,192,108575,1,8,0:0:0:0:
256,192,108669,1,0,0:0:0:0:
256,192,108856,1,0,0:0:0:0:
256,192,108949,1,8,0:0:0:0:
256,192,109136,1,0,0:0:0:0:
256,192,109323,1,8,0:0:0:0:
256,192,109416,1,8,0:0:0:0:
256,192,109603,1,0,0:0:0:0:
256,192,109697,1,8,0:0:0:0:
256,192,109790,1,0,0:0:0:0:
256,192,109884,1,8,0:0:0:0:
256,192,110071,1,8,0:0:0:0:
256,192,110258,1,0,0:0:0:0:
256,192,110351,1,0,0:0:0:0:
256,192,110444,1,8,0:0:0:0:
256,192,110631,1,0,0:0:0:0:
256,192,110818,1,8,0:0:0:0:
256,192,110912,1,0,0:0:0:0:
256,192,111099,1,0,0:0:0:0:
256,192,111192,1,8,0:0:0:0:
256,192,111379,1,8,0:0:0:0:
256,192,111472,1,0,0:0:0:0:
256,192,111659,1,0,0:0:0:0:
256,192,111753,1,8,0:0:0:0:
256,192,111846,1,8,0:0:0:0:
256,192,111940,1,0,0:0:0:0:
256,192,112127,1,8,0:0:0:0:
256,192,112314,1,0,0:0:0:0:
256,192,112407,1,8,0:0:0:0:
256,192,112594,1,0,0:0:0:0:
256,192,112687,1,0,0:0:0:0:
256,192,112874,1,8,0:0:0:0:
256,192,112968,1,8,0:0:0:0:
256,192,113061,1,0,0:0:0:0:
256,192,113155,1,0,0:0:0:0:
256,192,113248,1,8,0:0:0:0:
256,192,113622,1,0,0:0:0:0:
256,192,113809,1,8,0:0:0:0:
256,192,113902,1,8,0:0:0:0:
256,192,114089,1,0,0:0:0:0:
256,192,114183,1,0,0:0:0:0:
256,192,114370,1,8,0:0:0:0:
256,192,114557,1,0,0:0:0:0:
256,192,114650,1,8,0:0:0:0:
256,192,114837,1,0,0:0:0:0:
256,192,114930,1,8,0:0:0:0:
256,192,115117,1,0,0:0:0:0:
256,192,115211,1,8,0:0:0:0:
256,192,115304,1,0,0:0:0:0:
256,192,115398,1,8,0:0:0:0:
256,192,115585,1,8,0:0:0:0:
256,192,115678,1,0,0:0:0:0:
256,192,115865,1,8,0:0:0:0:
256,192,115958,1,0,0:0:0:0:
256,192,116145,1,0,0:0:0:0:
256,192,116239,1,8,0:0:0:0:
256,192,116426,1,8,0:0:0:0:
256,192,116613,1,0,0:0:0:0:
256,192,116987,1,8,0:0:0:0:
256,192,117080,1,8,0:0:0:0:
256,192,117173,1,8,0:0:0:0:
256,192,117267,1,8,0:0:0:0:
256,192,117360,1,0,0:0:0:0:
256,192,117547,1,0,0:0:0:0:
256,192,117734,1,8,0:0:0:0:
256,192,117828,1,0,0:0:0:0:
256,192,117921,1,8,0:0:0:0:
256,192,118108,1,0,0:0:0:0:
256,192,118201,1,0,0:0:0:0:
256,192,118295,1,0,0:0:0:0:
256,192,118482,1,8,0:0:0:0:
256,192,118575,1,8,0:0:0:0:
256,192,118669,1,8,0:0:0:0:
256,192,118762,1,8,0:0:0:0:
256,192,118856,1,0,0:0:0:0:
256,192,119603,1,4,0:0:0:0:
256,192,119790,1,8,0:0:0:0:
256,192,119884,1,8,0:0:0:0:
256,192,120071,1,0,0:0:0:0:
256,192,120164,1,0,0:0:0:0:
256,192,120351,1,8,0:0:0:0:
256,192,120444,1,8,0:0:0:0:
256,192,120538,1,0,0:0:0:0:
256,192,120631,1,8,0:0:0:0:
256,192,120818,1,0,0:0:0:0:
256,192,120912,1,8,0:0:0:0:
256,192,121005,1,8,0:0:0:0:
256,192,121099,1,0,0:0:0:0:
256,192,121286,1,8,0:0:0:0:
256,192,121472,1,8,0:0:0:0:
256,192,121566,1,8,0:0:0:0:
256,192,121659,1,0,0:0:0:0:
256,192,121753,1,0,0:0:0:0:
256,192,121846,1,8,0:0:0:0:
256,192,122033,1,0,0:0:0:0:
256,192,122127,1,8,0:0:0:0:
256,192,122594,1,4,0:0:0:0:
256,192,122781,1,8,0:0:0:0:
256,192,122874,1,0,0:0:0:0:
256,192,123061,1,0,0:0:0:0:
256,192,123155,1,8,0:0:0:0:
256,192,123342,1,0,0:0:0:0:
256,192,123435,1,8,0:0:0:0:
256,192,123529,1,0,0:0:0:0:
256,192,123622,1,8,0:0:0:0:
256,192,123809,1,8,0:0:0:0:
256,192,123902,1,0,0:0:0:0:
256,192,124089,1,8,0:0:0:0:
256,192,124276,1,0,0:0:0:0:
256,192,124370,1,8,0:0:0:0:
256,192,124557,1,8,0:0:0:0:
256,192,124650,1,0,0:0:0:0:
256,192,124744,1,0,0:0:0:0:
256,192,124837,1,8,0:0:0:0:
256,192,125024,1,0,0:0:0:0:
256,192,125117,1,8,0:0:0:0:
256,192,125585,1,12,0:0:0:0:
256,192,125772,1,0,0:0:0:0:
256,192,125865,1,8,0:0:0:0:
256,192,126052,1,0,0:0:0:0:
256,192,126145,1,0,0:0:0:0:
256,192,126332,1,8,0:0:0:0:
256,192,126426,1,8,0:0:0:0:
256,192,126519,1,0,0:0:0:0:
256,192,126613,1,8,0:0:0:0:
256,192,126800,1,0,0:0:0:0:
256,192,126893,1,8,0:0:0:0:
256,192,126987,1,8,0:0:0:0:
256,192,127080,1,0,0:0:0:0:
256,192,127267,1,0,0:0:0:0:
256,192,127360,1,8,0:0:0:0:
256,192,127547,1,0,0:0:0:0:
256,192,127641,1,0,0:0:0:0:
256,192,127828,1,12,0:0:0:0:
256,192,128108,1,12,0:0:0:0:
256,192,128388,1,12,0:0:0:0:
256,192,128949,1,4,0:0:0:0:
256,192,129136,8,0,131940,0:0:0:0:
