osu file format v14

[General]
AudioFilename: audio.ogg
AudioLeadIn: 0
PreviewTime: 95484
Countdown: 0
SampleSet: Normal
StackLeniency: 0.7
Mode: 1
LetterboxInBreaks: 0
WidescreenStoryboard: 1

[Editor]
DistanceSpacing: 2
BeatDivisor: 3
GridSize: 32
TimelineZoom: 4.299997

[Metadata]
Title:LaureLs ~the Angelus~
TitleUnicode:LaμreLs ~the Angelus~
Artist:Ashrount
ArtistUnicode:Ashrount
Creator:Dusk-
Version:EXCEED
Source:SOUND VOLTEX EXCEED GEAR
Tags:sdvx hexadiver electronic instrumental friggy-chan hivie video rhythm game speedcore
BeatmapID:4226431
BeatmapSetID:2028207

[Difficulty]
HPDrainRate:7
CircleSize:5
OverallDifficulty:7
ApproachRate:9
SliderMultiplier:1.4
SliderTickRate:1

[Events]
//Background and Video events
0,0,"bg.jpg",0,-10
//Break Periods
//Storyboard Layer 0 (Background)
//Storyboard Layer 1 (Fail)
//Storyboard Layer 2 (Pass)
//Storyboard Layer 3 (Foreground)
//Storyboard Layer 4 (Overlay)
//Storyboard Sound Samples

[TimingPoints]
1473,186.915887850467,4,1,0,100,1,0
2220,-125,4,1,0,100,0,0
2965,-111.111111111111,4,1,0,100,0,0
2968,-111.111111111111,4,1,0,100,0,1
3012,-110.085436511833,4,1,0,100,0,1
3058,-109.099756690998,4,1,0,100,0,1
3105,-108.110714630148,4,1,0,100,0,1
3152,-107.139443754181,4,1,0,100,0,1
3198,-106.205589767883,4,1,0,100,0,1
3245,-105.268100291107,4,1,0,100,0,1
3292,-104.347016662012,4,1,0,100,0,1
3339,-103.441911968257,4,1,0,100,0,1
3385,-102.571141001006,4,1,0,100,0,1
3432,-101.696452871269,4,1,0,100,0,1
3479,-100.836556624989,4,1,0,100,0,1
3526,-99.9910801891,4,1,0,100,0,1
3572,-99.1772095903742,4,1,0,100,0,1
3619,-98.3592173378959,4,1,0,100,0,1
3666,-97.554607954051,4,1,0,100,0,1
3712,-96.7797634464301,4,1,0,100,0,1
3759,-96.0006851074762,4,1,0,100,0,1
3806,-95.2340497833659,4,1,0,100,0,1
3853,-94.4795617361989,4,1,0,100,0,1
3899,-93.7526135318223,4,1,0,100,0,1
3946,-93.0213260310348,4,1,0,100,0,1
3993,-92.3013585837793,4,1,0,100,0,1
4040,-91.5924503635918,4,1,0,100,0,1
4086,-90.9090909090909,4,1,0,100,0,1
4089,-90.9090909090909,4,1,0,100,0,0
4276,-100,4,1,0,100,0,0
15818,-95.2380952380952,4,1,0,100,0,0
16099,-90.9090909090909,4,1,0,100,0,0
16379,-100,4,1,0,100,0,0
28575,-142.857142857143,4,1,0,100,0,0
30161,-139.147431124348,4,1,0,100,0,0
30208,-137.344970142398,4,1,0,100,0,0
30255,-135.588608742971,4,1,0,100,0,0
30301,-133.912576137585,4,1,0,100,0,0
30348,-132.242370632464,4,1,0,100,0,0
30441,-129.057320441989,4,1,0,100,0,0
30535,-125.990224169897,4,1,0,100,0,0
30628,-123.095924248662,4,1,0,100,0,0
30722,-120.302566991229,4,1,0,100,0,0
30815,-117.660947583819,4,1,0,100,0,0
30909,-115.106251924854,4,1,0,100,0,0
31002,-112.685610914299,4,1,0,100,0,0
31049,-111.500596658711,4,1,0,100,0,0
31096,-110.340246512658,4,1,0,100,0,0
31142,-109.22773434646,4,1,0,100,0,0
31189,-108.113971651721,4,1,0,100,0,0
31236,-107.022693106164,4,1,0,100,0,0
31283,-105.953224663359,4,1,0,100,0,0
31329,-104.92700729927,4,1,0,100,0,0
31563,-100,4,1,0,100,0,0
37451,-101.359167148641,4,1,0,100,0,0
37544,-102.740729884215,4,1,0,100,0,0
37638,-104.17595482241,4,1,0,100,0,0
37731,-105.635925256178,4,1,0,100,0,0
37825,-107.153775603791,4,1,0,100,0,0
37918,-108.699023104357,4,1,0,100,0,0
38012,-110.306845003934,4,1,0,100,0,0
38105,-111.945065474289,4,1,0,100,0,0
38198,-113.632679526666,4,1,0,100,0,0
38292,-115.390946502058,4,1,0,100,0,0
38385,-117.184887997325,4,1,0,100,0,0
38479,-119.055706521739,4,1,0,100,0,0
38572,-120.966350301984,4,1,0,100,0,0
38666,-122.960884055429,4,1,0,100,0,0
38759,-125,4,1,0,100,0,0
38856,-125,4,1,0,100,0,1
38915,-122.652937613568,4,1,0,100,0,1
38977,-120.392390011891,4,1,0,100,0,1
39040,-118.179165450832,4,1,0,100,0,1
39102,-116.079105760963,4,1,0,100,0,1
39164,-114.052379611377,4,1,0,100,0,1
39227,-112.064194798008,4,1,0,100,0,1
39289,-110.174102285092,4,1,0,100,0,1
39351,-108.346709470305,4,1,0,100,0,1
39413,-106.578947368421,4,1,0,100,0,1
39476,-104.840797307792,4,1,0,100,0,1
39538,-103.184713375796,4,1,0,100,0,1
39600,-101.580135440181,4,1,0,100,0,1
39603,-101.580135440181,4,1,0,100,0,0
39787,-97.0292285577384,4,1,0,100,0,0
40068,-90.9090909090909,4,1,0,100,0,0
40304,-100,4,1,0,100,0,0
46286,-95.2380952380952,4,1,0,100,0,0
49320,-95.2380952380952,4,1,0,100,0,0
49507,-95.8468637839685,4,1,0,100,0,0
49600,-96.1525272615047,4,1,0,100,0,0
49787,-96.7730802415876,4,1,0,100,0,0
49881,-97.0880509677643,4,1,0,100,0,0
50068,-97.7207778629679,4,1,0,100,0,0
50114,-97.8776877967048,4,1,0,100,0,0
50161,-98.0385301213244,4,1,0,100,0,0
50348,-98.6837474484409,4,1,0,100,0,0
50395,-98.8472520886946,4,1,0,100,0,0
50441,-99.0078033967727,4,1,0,100,0,0
50535,-99.3375137279909,4,1,0,100,0,0
50628,-99.6658846946755,4,1,0,100,0,0
50675,-99.8326627977356,4,1,0,100,0,0
50722,-100,4,1,0,100,0,0
51625,-99.1779368867674,4,1,0,100,0,0
51688,-98.3563445101907,4,1,0,100,0,0
51750,-97.5609756097561,4,1,0,100,0,0
51812,-96.7783671885108,4,1,0,100,0,0
51874,-96.0082146065974,4,1,0,100,0,0
51937,-95.2380952380952,4,1,0,100,0,0
51999,-94.4921677614957,4,1,0,100,0,0
52061,-93.75783404362,4,1,0,100,0,0
52124,-93.0232558139535,4,1,0,100,0,0
52186,-92.3114895717635,4,1,0,100,0,0
52248,-91.6105327617881,4,1,0,100,0,0
52311,-90.9090909090909,4,1,0,100,0,0
53061,-125,4,1,0,100,0,0
53806,-125,4,1,0,100,0,0
53899,-121.014741172437,4,1,0,100,0,0
53993,-117.236798405845,4,1,0,100,0,0
54086,-113.724226804124,4,1,0,100,0,0
54180,-110.381488430269,4,1,0,100,0,0
54242,-108.282208588957,4,1,0,100,0,0
54304,-106.261288380494,4,1,0,100,0,0
54367,-104.283604135894,4,1,0,100,0,0
54429,-102.40789091964,4,1,0,100,0,0
54491,-100.598461100028,4,1,0,100,0,0
54554,-98.8241881298992,4,1,0,100,0,0
54616,-97.1381397908641,4,1,0,100,0,0
54678,-95.508658008658,4,1,0,100,0,0
54741,-93.9079542431498,4,1,0,100,0,0
54803,-92.384192619733,4,1,0,100,0,0
54865,-90.9090909090909,4,1,0,100,0,0
55304,-142.857142857143,4,1,0,100,0,0
55678,-90.9090909090909,4,1,0,100,0,0
55725,-142.857142857143,4,1,0,100,0,0
57921,-90.909090909091,4,1,0,100,0,0
58295,-90.9090909090909,4,1,0,100,0,0
58622,-142.857142857143,4,1,0,100,0,0
60491,-100,4,1,0,100,0,0
60725,-95.2380952380952,4,1,0,100,0,0
60912,-90.9090909090909,4,1,0,100,0,0
61613,-86.9565217391304,4,1,0,100,0,0
61800,-142.857142857143,4,1,0,100,0,0
61937,-141.80334301185,4,1,0,100,0,0
62030,-140.775942661265,4,1,0,100,0,0
62124,-139.752513534416,4,1,0,100,0,0
62217,-138.754511249328,4,1,0,100,0,0
62404,-136.790310370931,4,1,0,100,0,0
62498,-135.823812387252,4,1,0,100,0,0
62544,-135.355805243446,4,1,0,100,0,0
62591,-134.880943494812,4,1,0,100,0,0
62684,-133.951074870274,4,1,0,100,0,0
62778,-133.024146054181,4,1,0,100,0,0
62965,-131.21777648682,4,1,0,100,0,0
63152,-129.459807995415,4,1,0,100,0,0
63245,-128.602946409508,4,1,0,100,0,0
63339,-127.74832096147,4,1,0,100,0,0
63432,-126.913892400618,4,1,0,100,0,0
63526,-126.081495953112,4,1,0,100,0,0
63712,-124.466179914589,4,1,0,100,0,0
63806,-123.665480427046,4,1,0,100,0,0
63899,-122.88337300238,4,1,0,100,0,0
63902,-90.9090909090909,4,1,0,100,0,0
64273,-119.835532860269,4,1,0,100,0,0
64276,-86.9565217391304,4,1,0,100,0,0
64510,-117.647058823529,4,1,0,100,0,0
64647,-116.935222934058,4,1,0,100,0,0
64834,-115.537084398977,4,1,0,100,0,0
65021,-114.171984583307,4,1,0,100,0,0
65114,-113.505025125628,4,1,0,100,0,0
65208,-112.83876607968,4,1,0,100,0,0
65301,-112.187247780468,4,1,0,100,0,0
65395,-111.536324918215,4,1,0,100,0,0
65769,-109.019607843137,4,1,0,100,0,0
65862,-108.411327093832,4,1,0,100,0,0
65909,-108.106491175591,4,1,0,100,0,0
65955,-107.809796551518,4,1,0,100,0,0
66049,-107.208543458914,4,1,0,100,0,0
66142,-106.620250177012,4,1,0,100,0,0
66236,-106.032155850252,4,1,0,100,0,0
66329,-105.456667639335,4,1,0,100,0,0
66423,-104.88130477683,4,1,0,100,0,0
66516,-104.318208059116,4,1,0,100,0,0
66610,-103.75516766192,4,1,0,100,0,0
66703,-103.204066480096,4,1,0,100,0,0
66797,-102.65295688235,4,1,0,100,0,0
66843,-102.385404272197,4,1,0,100,0,0
66890,-102.113471971067,4,1,0,100,0,0
66984,-101.573917931422,4,1,0,100,0,0
67077,-101.045685846894,4,1,0,100,0,0
67170,-100.522919448153,4,1,0,100,0,0
67264,-90.9090909090909,4,1,0,100,0,0
67326,-91.5997794252803,4,1,0,100,0,0
67389,-92.3124421117629,4,1,0,100,0,0
67451,-93.0247028809657,4,1,0,100,0,0
67513,-93.7480403837712,4,1,0,100,0,0
67575,-94.4827150350755,4,1,0,100,0,0
67638,-95.2411288781296,4,1,0,100,0,0
67700,-95.9994862903744,4,1,0,100,0,0
67762,-96.7700174768593,4,1,0,100,0,0
67825,-97.5657508320825,4,1,0,100,0,0
67871,-98.1550784584072,4,1,0,100,0,0
67918,-98.7646165026095,4,1,0,100,0,0
67965,-99.3817722528751,4,1,0,100,0,0
68012,-100.006689410663,4,1,0,100,0,0
68074,-100.843170320405,4,1,0,100,0,0
68136,-101.693762329093,4,1,0,100,0,0
68198,-102.558825547095,4,1,0,100,0,0
68261,-103.453048231956,4,1,0,100,0,0
68323,-104.348433028547,4,1,0,100,0,0
68385,-105.259452228402,4,1,0,100,0,0
68479,-106.671423474848,4,1,0,100,0,0
68572,-108.106153734905,4,1,0,100,0,0
68666,-109.596070669306,4,1,0,100,0,0
68759,-111.111111111111,4,1,0,100,0,0
69382,-109.382839939789,4,1,0,100,0,0
69445,-107.680908866387,4,1,0,100,0,0
69507,-106.05692045731,4,1,0,100,0,0
69569,-104.481188593338,4,1,0,100,0,0
69631,-102.951593860685,4,1,0,100,0,0
69694,-101.442531409958,4,1,0,100,0,0
69756,-100,4,1,0,100,0,0
69818,-98.5979194934419,4,1,0,100,0,0
69881,-97.2129319955407,4,1,0,100,0,0
69943,-95.8873982845832,4,1,0,100,0,0
70005,-94.5975265784335,4,1,0,100,0,0
70068,-93.3219178082192,4,1,0,100,0,0
70130,-92.0997042670046,4,1,0,100,0,0
70192,-90.9090909090909,4,1,0,100,0,0
70317,-91.5997794252803,4,1,0,100,0,0
70379,-92.3010434030993,4,1,0,100,0,0
70441,-93.0131276053008,4,1,0,100,0,0
70504,-93.7480403837712,4,1,0,100,0,0
70566,-94.4827150350755,4,1,0,100,0,0
70628,-95.2289954774189,4,1,0,100,0,0
70691,-95.9994862903744,4,1,0,100,0,0
70753,-96.7700174768593,4,1,0,100,0,0
70815,-97.5530179445351,4,1,0,100,0,0
70862,-98.1550784584072,4,1,0,100,0,0
70909,-98.7646165026095,4,1,0,100,0,0
70955,-99.3685609837155,4,1,0,100,0,0
71002,-99.9933114841817,4,1,0,100,0,0
71189,-102.558825547095,4,1,0,100,0,0
71283,-103.898811592188,4,1,0,100,0,0
71329,-104.567391760509,4,1,0,100,0,0
71376,-105.259452228402,4,1,0,100,0,0
71423,-105.960734283082,4,1,0,100,0,0
71469,-106.656203181851,4,1,0,100,0,0
71563,-108.106153734905,4,1,0,100,0,0
71625,-109.084275811748,4,1,0,100,0,0
71688,-110.096472494293,4,1,0,100,0,0
71750,-111.111111111111,4,1,0,100,0,0
72373,-109.495896834701,4,1,0,100,0,0
72435,-107.926970187197,4,1,0,100,0,0
72498,-106.378132118451,4,1,0,100,0,0
72560,-104.896675651393,4,1,0,100,0,0
72622,-103.455914931325,4,1,0,100,0,0
72684,-102.054195804196,4,1,0,100,0,0
72747,-100.668247467127,4,1,0,100,0,0
72809,-99.3405658370559,4,1,0,100,0,0
72871,-98.04744908671,4,1,0,100,0,0
72934,-96.7675093244923,4,1,0,100,0,0
72996,-95.5400981996727,4,1,0,100,0,0
73058,-94.3434343434343,4,1,0,100,0,0
73121,-93.1577897466587,4,1,0,100,0,0
73183,-92.0197044334975,4,1,0,100,0,0
73245,-90.9090909090909,4,1,0,100,0,0
73432,-125,4,1,0,100,0,0
73526,-123.983388129434,4,1,0,100,0,0
73619,-122.993734443395,4,1,0,100,0,0
73712,-122.019754768392,4,1,0,100,0,0
73806,-121.05085318466,4,1,0,100,0,0
73899,-120.107283547062,4,1,0,100,0,0
73946,-119.635999332109,4,1,0,100,0,0
73993,-119.168399168399,4,1,0,100,0,0
74086,-118.253837266876,4,1,0,100,0,0
74180,-117.343596462496,4,1,0,100,0,0
74227,-116.893710743127,4,1,0,100,0,0
74273,-116.456724908574,4,1,0,100,0,0
74367,-115.573836599726,4,1,0,100,0,0
74413,-115.146645239052,4,1,0,100,0,0
74460,-114.713416586615,4,1,0,100,0,0
74554,-113.856666136978,4,1,0,100,0,0
74647,-113.021531666535,4,1,0,100,0,0
74694,-112.604117554613,4,1,0,100,0,0
74741,-112.189775307289,4,1,0,100,0,0
74834,-111.378827918545,4,1,0,100,0,0
74927,-110.579520024693,4,1,0,100,0,0
74974,-110.179916961402,4,1,0,100,0,0
75021,-109.783191603463,4,1,0,100,0,0
75114,-109.00654191389,4,1,0,100,0,0
75161,-108.618206624725,4,1,0,100,0,0
75208,-108.232628398792,4,1,0,100,0,0
75301,-107.477686942174,4,1,0,100,0,0
75395,-106.725255083042,4,1,0,100,0,0
75441,-106.360869887924,4,1,0,100,0,0
75488,-105.991124260355,4,1,0,100,0,0
75582,-105.259291905392,4,1,0,100,0,0
75675,-104.54512292989,4,1,0,100,0,0
75722,-104.187872618874,4,1,0,100,0,0
75769,-103.833055575683,4,1,0,100,0,0
75862,-103.138045199367,4,1,0,100,0,0
75909,-102.790330679291,4,1,0,100,0,0
75955,-102.452277114463,4,1,0,100,0,0
76049,-101.768340316739,4,1,0,100,0,0
76142,-101.100606744744,4,1,0,100,0,0
76189,-100.766472118698,4,1,0,100,0,0
76236,-100.434538828147,4,1,0,100,0,0
76298,-100,4,1,0,100,0,0
76360,-99.5692051139522,4,1,0,100,0,0
76423,-99.1352473192667,4,1,0,100,0,0
76485,-98.7118550664738,4,1,0,100,0,0
76547,-98.292063927567,4,1,0,100,0,0
76610,-97.869143559623,4,1,0,100,0,0
76672,-97.4564744287269,4,1,0,100,0,0
76734,-97.0472707571448,4,1,0,100,0,0
76797,-96.6349720142963,4,1,0,100,0,0
76859,-96.2326237324558,4,1,0,100,0,0
76921,-95.8336119842172,4,1,0,100,0,0
76984,-95.4315396909963,4,1,0,100,0,0
77046,-95.0391298580714,4,1,0,100,0,0
77108,-94.6499339498018,4,1,0,100,0,0
77170,-94.2639126430733,4,1,0,100,0,0
77233,-93.8748771699967,4,1,0,100,0,0
77295,-93.495139296666,4,1,0,100,0,0
77357,-93.118461238547,4,1,0,100,0,0
77420,-92.7388040383122,4,1,0,100,0,0
77482,-92.3681835761248,4,1,0,100,0,0
77544,-92.0005136106831,4,1,0,100,0,0
77607,-91.6298996099495,4,1,0,100,0,0
77669,-91.2680720973186,4,1,0,100,0,0
77731,-90.9090909090909,4,1,0,100,0,0
78105,-142.857142857143,4,1,0,100,0,0
78292,-133.333333333333,4,1,0,100,0,0
78385,-129.054520358868,4,1,0,100,0,0
78479,-125,4,1,0,100,0,0
78572,-121.231766612642,4,1,0,100,0,0
78666,-117.647058823529,4,1,0,100,0,0
78712,-115.968992248062,4,1,0,100,0,0
78759,-114.303178484108,4,1,0,100,0,0
78853,-111.111111111111,4,1,0,100,0,0
78946,-108.123735183579,4,1,0,100,0,0
79040,-105.263157894737,4,1,0,100,0,0
79133,-102.578167855184,4,1,0,100,0,0
79227,-100,4,1,0,100,0,0
79276,-125,4,1,0,100,0,0
84460,-125,4,1,0,100,0,0
84522,-123.71816076745,4,1,0,100,0,0
84585,-122.442298248486,4,1,0,100,0,0
84647,-121.212121212121,4,1,0,100,0,0
84709,-120.006417455479,4,1,0,100,0,0
84772,-118.805590851334,4,1,0,100,0,0
84834,-117.647058823529,4,1,0,100,0,0
84927,-115.951015346458,4,1,0,100,0,0
85021,-114.285714285714,4,1,0,100,0,0
85114,-112.68454353721,4,1,0,100,0,0
85208,-111.111111111111,4,1,0,100,0,0
87825,-109.941192943153,4,1,0,100,0,0
87887,-109.182935647144,4,1,0,100,0,0
87949,-108.435066011158,4,1,0,100,0,0
88012,-107.685555982226,4,1,0,100,0,0
88074,-106.957990519261,4,1,0,100,0,0
88136,-106.240190507117,4,1,0,100,0,0
88198,-105.531960647277,4,1,0,100,0,0
88245,-105.001337255951,4,1,0,100,0,0
88292,-104.476023205067,4,1,0,100,0,0
88339,-103.955939204576,4,1,0,100,0,0
88385,-103.451910408432,4,1,0,100,0,0
88479,-102.43698794552,4,1,0,100,0,0
88526,-101.936957989303,4,1,0,100,0,0
88572,-101.452271435216,4,1,0,100,0,0
88619,-100.961785732654,4,1,0,100,0,0
88666,-100.476019859753,4,1,0,100,0,0
88759,-99.5284692998023,4,1,0,100,0,0
88806,-99.0563657465812,4,1,0,100,0,0
88853,-98.5887198031239,4,1,0,100,0,0
88899,-98.1352797080438,4,1,0,100,0,0
88946,-97.6762700900632,4,1,0,100,0,0
88993,-97.2215343469863,4,1,0,100,0,0
89040,-96.7710130638403,4,1,0,100,0,0
89133,-95.8917493038933,4,1,0,100,0,0
89180,-95.4534403112084,4,1,0,100,0,0
89227,-95.0191199961276,4,1,0,100,0,0
89320,-94.1712640921084,4,1,0,100,0,0
89367,-93.748507569607,4,1,0,100,0,0
89413,-93.3384052113547,4,1,0,100,0,0
89460,-92.9230769230769,4,1,0,100,0,0
89507,-92.5114284367784,4,1,0,100,0,0
89554,-92.1034110636701,4,1,0,100,0,0
89600,-91.7075449661294,4,1,0,100,0,0
89647,-91.3065723987162,4,1,0,100,0,0
89694,-90.9090909090909,4,1,0,100,0,0
90398,-125,4,1,0,100,0,0
91937,-111.111111111111,4,1,0,100,0,0
92124,-109.090024804241,4,1,0,100,0,0
92311,-107.141151182231,4,1,0,100,0,0
92404,-106.197623218598,4,1,0,100,0,0
92498,-105.260687972218,4,1,0,100,0,0
92544,-104.80818653334,4,1,0,100,0,0
92591,-104.349848802047,4,1,0,100,0,0
92638,-103.895502339154,4,1,0,100,0,0
92684,-103.454637701213,4,1,0,100,0,0
92965,-100.840713932473,4,1,0,100,0,0
93245,-98.3642503179406,4,1,0,100,0,0
93526,-95.9982880376632,4,1,0,100,0,0
93806,-93.7513061650993,4,1,0,100,0,0
93853,-93.3844040134893,4,1,0,100,0,0
93899,-93.0280784704077,4,1,0,100,0,0
93946,-92.6668043792605,4,1,0,100,0,0
93993,-92.3083254454916,4,1,0,100,0,0
94040,-91.9526093551429,4,1,0,100,0,0
94086,-91.6071063916684,4,1,0,100,0,0
94133,-91.2567639041458,4,1,0,100,0,0
94180,-90.9090909090909,4,1,0,100,0,0
94927,-111.111111111111,4,1,0,100,0,0
94974,-109.959573686145,4,1,0,100,0,0
95021,-108.831660119307,4,1,0,100,0,0
95068,-107.726650824512,4,1,0,100,0,0
95114,-106.666666666667,4,1,0,100,0,0
95161,-105.60496964563,4,1,0,100,0,0
95208,-104.564199342979,4,1,0,100,0,0
95255,-103.543743078627,4,1,0,100,0,0
95301,-102.564102564103,4,1,0,100,0,0
95488,-98.7654320987654,4,1,0,100,0,0
95675,-95.2380952380952,4,1,0,100,0,0
95678,-95.2380952380952,4,1,0,100,0,1
107267,-95.2380952380952,4,1,0,100,0,0
107641,-95.2380952380952,4,1,0,100,0,1
118152,-94.3908133005237,4,1,0,100,0,1
118198,-93.5760305248014,4,1,0,100,0,1
118245,-92.7579365079365,4,1,0,100,0,1
118292,-91.9540229885058,4,1,0,100,0,1
118339,-91.1639244363193,4,1,0,100,0,1
118385,-90.4036741600193,4,1,0,100,0,1
118432,-89.6398825573731,4,1,0,100,0,1
118479,-88.8888888888889,4,1,0,100,0,1
118526,-88.1503741676978,4,1,0,100,0,1
118572,-87.4393594014846,4,1,0,100,0,1
118619,-86.7246376811594,4,1,0,100,0,1
118666,-86.0215053763441,4,1,0,100,0,1
118712,-85.3442866107593,4,1,0,100,0,1
118759,-84.6632710809281,4,1,0,100,0,1
118806,-83.9930380102184,4,1,0,100,0,1
118853,-83.3333333333333,4,1,0,100,0,1
118856,-83.3333333333333,4,1,0,100,0,0
119600,-100,4,1,0,100,0,0
119603,-100,4,1,0,100,0,1
122407,-100,4,1,0,100,0,0
122594,-98.0392156862745,4,1,0,100,0,1
125398,-98.0392156862745,4,1,0,100,0,0
125585,-95.2380952380952,4,1,0,100,0,1
128388,-95.2380952380952,4,1,0,100,0,0
128666,-100,4,1,0,100,0,0
128759,-103.092783505155,4,1,0,100,0,0
128853,-106.382978723404,4,1,0,100,0,0
128946,-109.89010989011,4,1,0,100,0,0
128996,-14.2857142857143,4,1,0,40,0,0
129276,-125,4,1,0,40,0,0
131566,-33.3333333333333,4,1,0,40,0,0

[HitObjects]
256,192,1472,5,4,0:0:0:0:
256,192,2968,1,0,0:0:0:0:
256,192,3015,1,0,0:0:0:0:
256,192,3061,1,0,0:0:0:0:
256,192,3108,1,0,0:0:0:0:
256,192,3155,1,8,0:0:0:0:
256,192,3201,1,8,0:0:0:0:
256,192,3248,1,8,0:0:0:0:
256,192,3295,1,8,0:0:0:0:
256,192,3342,1,0,0:0:0:0:
256,192,3388,1,0,0:0:0:0:
256,192,3435,1,8,0:0:0:0:
256,192,3482,1,8,0:0:0:0:
256,192,3529,1,0,0:0:0:0:
256,192,3575,1,0,0:0:0:0:
256,192,3622,1,8,0:0:0:0:
256,192,3669,1,0,0:0:0:0:
256,192,3715,1,8,0:0:0:0:
256,192,3762,1,8,0:0:0:0:
256,192,3809,1,8,0:0:0:0:
256,192,3856,1,8,0:0:0:0:
256,192,3902,1,0,0:0:0:0:
256,192,3949,1,0,0:0:0:0:
256,192,3996,1,8,0:0:0:0:
256,192,4043,1,8,0:0:0:0:
256,192,4089,1,0,0:0:0:0:
256,192,4463,1,12,0:0:0:0:
256,192,4744,1,12,0:0:0:0:
256,192,5304,1,8,0:0:0:0:
256,192,5398,1,8,0:0:0:0:
256,192,5491,1,8,0:0:0:0:
256,192,5585,1,0,0:0:0:0:
256,192,5631,1,0,0:0:0:0:
256,192,5678,1,0,0:0:0:0:
256,192,5725,1,0,0:0:0:0:
256,192,5772,1,0,0:0:0:0:
256,192,5818,1,0,0:0:0:0:
256,192,5865,1,0,0:0:0:0:
256,192,5912,1,0,0:0:0:0:
256,192,5958,1,12,0:0:0:0:
256,192,6239,1,12,0:0:0:0:
256,192,6800,1,8,0:0:0:0:
256,192,6893,1,8,0:0:0:0:
256,192,6987,1,0,0:0:0:0:
256,192,7080,1,8,0:0:0:0:
256,192,7173,1,0,0:0:0:0:
256,192,7220,1,0,0:0:0:0:
256,192,7267,1,8,0:0:0:0:
256,192,7314,1,8,0:0:0:0:
256,192,7360,1,0,0:0:0:0:
256,192,7454,1,12,0:0:0:0:
256,192,7734,1,12,0:0:0:0:
256,192,8015,1,0,0:0:0:0:
256,192,8061,1,0,0:0:0:0:
256,192,8108,1,0,0:0:0:0:
256,192,8155,1,0,0:0:0:0:
256,192,8201,1,12,0:0:0:0:
256,192,8482,1,12,0:0:0:0:
256,192,8762,1,0,0:0:0:0:
256,192,8809,1,0,0:0:0:0:
256,192,8856,1,0,0:0:0:0:
256,192,8902,1,0,0:0:0:0:
256,192,8949,1,12,0:0:0:0:
256,192,9136,1,0,0:0:0:0:
256,192,9230,1,12,0:0:0:0:
256,192,9323,1,0,0:0:0:0:
256,192,9416,1,0,0:0:0:0:
256,192,9510,1,8,0:0:0:0:
256,192,9603,1,8,0:0:0:0:
256,192,9697,1,4,0:0:0:0:
256,192,10444,1,12,0:0:0:0:
256,192,10631,1,0,0:0:0:0:
256,192,10725,1,0,0:0:0:0:
256,192,10818,1,8,0:0:0:0:
256,192,10912,1,8,0:0:0:0:
256,192,11005,1,0,0:0:0:0:
256,192,11099,1,0,0:0:0:0:
256,192,11145,1,0,0:0:0:0:
256,192,11192,1,8,0:0:0:0:
256,192,11379,1,8,0:0:0:0:
256,192,11472,1,8,0:0:0:0:
256,192,11566,1,0,0:0:0:0:
256,192,11659,1,0,0:0:0:0:
256,192,11753,1,8,0:0:0:0:
256,192,11800,1,8,0:0:0:0:
256,192,11846,1,0,0:0:0:0:
256,192,11940,1,8,0:0:0:0:
256,192,12127,1,8,0:0:0:0:
256,192,12220,1,0,0:0:0:0:
256,192,12267,1,0,0:0:0:0:
256,192,12314,1,8,0:0:0:0:
256,192,12407,1,0,0:0:0:0:
256,192,12501,1,8,0:0:0:0:
256,192,12547,1,8,0:0:0:0:
256,192,12594,1,0,0:0:0:0:
256,192,12641,1,0,0:0:0:0:
256,192,12687,1,8,0:0:0:0:
256,192,12874,1,0,0:0:0:0:
256,192,12921,1,0,0:0:0:0:
256,192,12968,1,8,0:0:0:0:
256,192,13155,1,0,0:0:0:0:
256,192,13201,1,0,0:0:0:0:
256,192,13248,1,8,0:0:0:0:
256,192,13342,1,0,0:0:0:0:
256,192,13435,1,8,0:0:0:0:
256,192,13482,1,8,0:0:0:0:
256,192,13529,1,0,0:0:0:0:
256,192,13575,1,0,0:0:0:0:
256,192,13622,1,8,0:0:0:0:
256,192,13715,1,0,0:0:0:0:
256,192,13762,1,0,0:0:0:0:
256,192,13809,1,8,0:0:0:0:
256,192,13856,1,8,0:0:0:0:
256,192,13902,1,0,0:0:0:0:
256,192,13996,1,8,0:0:0:0:
256,192,14043,1,0,0:0:0:0:
256,192,14089,1,0,0:0:0:0:
256,192,14136,1,0,0:0:0:0:
256,192,14183,1,8,0:0:0:0:
256,192,14276,1,0,0:0:0:0:
256,192,14323,1,0,0:0:0:0:
256,192,14370,1,8,0:0:0:0:
256,192,14463,1,0,0:0:0:0:
256,192,14510,1,0,0:0:0:0:
256,192,14557,1,8,0:0:0:0:
256,192,14603,1,8,0:0:0:0:
256,192,14650,1,8,0:0:0:0:
256,192,14697,1,8,0:0:0:0:
256,192,14744,1,0,0:0:0:0:
256,192,14790,1,0,0:0:0:0:
256,192,14837,1,0,0:0:0:0:
256,192,14884,1,0,0:0:0:0:
256,192,14930,1,12,0:0:0:0:
256,192,15491,1,4,0:0:0:0:
256,192,15585,1,4,0:0:0:0:
256,192,15865,1,12,0:0:0:0:
256,192,16145,1,12,0:0:0:0:
256,192,16613,1,4,0:0:0:0:
256,192,16706,1,8,0:0:0:0:
256,192,16800,1,0,0:0:0:0:
256,192,16893,1,0,0:0:0:0:
256,192,16987,1,8,0:0:0:0:
256,192,17080,1,8,0:0:0:0:
256,192,17173,1,0,0:0:0:0:
256,192,17267,1,8,0:0:0:0:
256,192,17360,1,0,0:0:0:0:
256,192,17547,1,8,0:0:0:0:
256,192,17734,1,0,0:0:0:0:
256,192,17828,1,0,0:0:0:0:
256,192,17921,1,8,0:0:0:0:
256,192,18108,1,0,0:0:0:0:
256,192,18295,1,8,0:0:0:0:
256,192,18388,1,0,0:0:0:0:
256,192,18482,1,8,0:0:0:0:
256,192,18529,1,8,0:0:0:0:
256,192,18575,1,0,0:0:0:0:
256,192,18669,1,8,0:0:0:0:
256,192,18762,1,0,0:0:0:0:
256,192,18809,1,0,0:0:0:0:
256,192,18856,1,8,0:0:0:0:
256,192,18902,1,8,0:0:0:0:
256,192,18949,1,0,0:0:0:0:
256,192,19043,1,8,0:0:0:0:
256,192,19136,1,0,0:0:0:0:
256,192,19230,1,8,0:0:0:0:
256,192,19323,1,8,0:0:0:0:
256,192,19416,1,4,0:0:0:0:
256,192,19977,1,0,0:0:0:0:
256,192,20024,1,0,0:0:0:0:
256,192,20071,1,0,0:0:0:0:
256,192,20117,1,0,0:0:0:0:
256,192,20164,1,8,0:0:0:0:
256,192,20444,1,8,0:0:0:0:
256,192,20631,1,0,0:0:0:0:
256,192,20678,1,0,0:0:0:0:
256,192,20725,1,0,0:0:0:0:
256,192,20818,1,0,0:0:0:0:
256,192,20912,1,8,0:0:0:0:
256,192,20958,1,8,0:0:0:0:
256,192,21005,1,0,0:0:0:0:
256,192,21099,1,8,0:0:0:0:
256,192,21192,1,0,0:0:0:0:
256,192,21239,1,0,0:0:0:0:
256,192,21286,1,8,0:0:0:0:
256,192,21379,1,8,0:0:0:0:
256,192,21472,1,0,0:0:0:0:
256,192,21566,1,0,0:0:0:0:
256,192,21659,1,8,0:0:0:0:
256,192,21722,1,0,0:0:0:0:
256,192,21784,1,0,0:0:0:0:
256,192,21846,1,8,0:0:0:0:
256,192,21940,1,8,0:0:0:0:
256,192,22127,1,8,0:0:0:0:
256,192,22220,1,0,0:0:0:0:
256,192,22267,1,0,0:0:0:0:
256,192,22314,1,0,0:0:0:0:
256,192,22360,1,0,0:0:0:0:
256,192,22407,1,12,0:0:0:0:
256,192,22594,1,8,0:0:0:0:
256,192,22687,1,8,0:0:0:0:
256,192,22781,1,0,0:0:0:0:
256,192,22828,1,8,0:0:0:0:
256,192,22874,1,0,0:0:0:0:
256,192,22921,1,0,0:0:0:0:
256,192,22968,1,8,0:0:0:0:
256,192,23061,1,8,0:0:0:0:
256,192,23155,1,0,0:0:0:0:
256,192,23248,1,8,0:0:0:0:
256,192,23342,1,0,0:0:0:0:
256,192,23529,1,8,0:0:0:0:
256,192,23715,1,0,0:0:0:0:
256,192,23902,1,8,0:0:0:0:
256,192,23996,1,0,0:0:0:0:
256,192,24089,1,8,0:0:0:0:
256,192,24183,1,8,0:0:0:0:
256,192,24276,1,0,0:0:0:0:
256,192,24323,1,0,0:0:0:0:
256,192,24370,1,8,0:0:0:0:
256,192,24416,1,8,0:0:0:0:
256,192,24463,1,0,0:0:0:0:
256,192,24557,1,8,0:0:0:0:
256,192,24650,1,0,0:0:0:0:
256,192,24837,1,0,0:0:0:0:
256,192,24930,1,8,0:0:0:0:
256,192,25024,1,0,0:0:0:0:
256,192,25211,1,0,0:0:0:0:
256,192,25304,1,0,0:0:0:0:
256,192,25398,1,8,0:0:0:0:
256,192,25491,1,0,0:0:0:0:
256,192,25538,1,0,0:0:0:0:
256,192,25585,1,0,0:0:0:0:
256,192,25631,1,0,0:0:0:0:
256,192,25678,1,8,0:0:0:0:
256,192,25865,1,8,0:0:0:0:
256,192,25958,1,8,0:0:0:0:
256,192,26052,1,0,0:0:0:0:
256,192,26099,1,0,0:0:0:0:
256,192,26145,1,8,0:0:0:0:
256,192,26192,1,0,0:0:0:0:
256,192,26239,1,8,0:0:0:0:
256,192,26426,1,8,0:0:0:0:
256,192,26613,1,0,0:0:0:0:
256,192,26706,1,8,0:0:0:0:
256,192,26800,1,0,0:0:0:0:
256,192,26846,1,0,0:0:0:0:
256,192,26893,1,8,0:0:0:0:
256,192,26987,1,0,0:0:0:0:
256,192,27080,1,8,0:0:0:0:
256,192,27173,1,0,0:0:0:0:
256,192,27267,1,8,0:0:0:0:
256,192,27314,1,8,0:0:0:0:
256,192,27360,1,0,0:0:0:0:
256,192,27547,1,8,0:0:0:0:
256,192,27734,1,0,0:0:0:0:
256,192,27828,1,8,0:0:0:0:
256,192,27921,1,0,0:0:0:0:
256,192,27968,1,8,0:0:0:0:
256,192,28015,1,0,0:0:0:0:
256,192,28108,1,0,0:0:0:0:
256,192,28201,1,8,0:0:0:0:
256,192,28248,1,8,0:0:0:0:
256,192,28295,1,8,0:0:0:0:
256,192,28342,1,8,0:0:0:0:
256,192,28388,1,4,0:0:0:0:
256,192,28575,1,8,0:0:0:0:
256,192,28762,1,8,0:0:0:0:
256,192,28809,1,8,0:0:0:0:
256,192,28856,1,0,0:0:0:0:
256,192,28949,1,8,0:0:0:0:
256,192,29043,1,0,0:0:0:0:
256,192,29089,1,0,0:0:0:0:
256,192,29136,1,8,0:0:0:0:
256,192,29230,1,0,0:0:0:0:
256,192,29323,1,8,0:0:0:0:
256,192,29416,1,8,0:0:0:0:
256,192,29510,1,0,0:0:0:0:
256,192,29697,1,8,0:0:0:0:
256,192,29790,1,0,0:0:0:0:
256,192,29884,1,0,0:0:0:0:
256,192,30071,1,8,0:0:0:0:
256,192,30164,1,0,0:0:0:0:
256,192,30211,1,0,0:0:0:0:
256,192,30258,1,8,0:0:0:0:
256,192,30304,1,8,0:0:0:0:
256,192,30351,1,8,0:0:0:0:
256,192,30444,1,0,0:0:0:0:
256,192,30538,1,0,0:0:0:0:
256,192,30631,1,8,0:0:0:0:
256,192,30725,1,8,0:0:0:0:
256,192,30818,1,0,0:0:0:0:
256,192,30912,1,8,0:0:0:0:
256,192,31005,1,0,0:0:0:0:
256,192,31052,1,0,0:0:0:0:
256,192,31099,1,0,0:0:0:0:
256,192,31145,1,0,0:0:0:0:
256,192,31192,1,0,0:0:0:0:
256,192,31239,1,0,0:0:0:0:
256,192,31286,1,0,0:0:0:0:
256,192,31332,1,0,0:0:0:0:
256,192,31566,1,12,0:0:0:0:
256,192,31753,1,8,0:0:0:0:
256,192,31846,1,0,0:0:0:0:
256,192,31893,1,0,0:0:0:0:
256,192,31940,1,8,0:0:0:0:
256,192,31987,1,8,0:0:0:0:
256,192,32033,1,0,0:0:0:0:
256,192,32220,1,0,0:0:0:0:
256,192,32314,1,8,0:0:0:0:
256,192,32407,1,0,0:0:0:0:
256,192,32594,1,8,0:0:0:0:
256,192,32687,1,8,0:0:0:0:
256,192,32781,1,0,0:0:0:0:
256,192,32874,1,8,0:0:0:0:
256,192,32921,1,0,0:0:0:0:
256,192,32968,1,0,0:0:0:0:
256,192,33061,1,8,0:0:0:0:
256,192,33155,1,0,0:0:0:0:
256,192,33201,1,0,0:0:0:0:
256,192,33248,1,8,0:0:0:0:
256,192,33342,1,8,0:0:0:0:
256,192,33435,1,0,0:0:0:0:
256,192,33529,1,0,0:0:0:0:
256,192,33622,1,8,0:0:0:0:
256,192,33684,1,8,0:0:0:0:
256,192,33747,1,0,0:0:0:0:
256,192,33809,1,0,0:0:0:0:
256,192,33902,1,8,0:0:0:0:
256,192,33996,1,8,0:0:0:0:
256,192,34089,1,0,0:0:0:0:
256,192,34183,1,8,0:0:0:0:
256,192,34230,1,8,0:0:0:0:
256,192,34276,1,8,0:0:0:0:
256,192,34323,1,8,0:0:0:0:
256,192,34370,1,4,0:0:0:0:
256,192,34930,1,12,0:0:0:0:
256,192,35117,1,4,0:0:0:0:
256,192,35211,1,12,0:0:0:0:
256,192,35491,1,12,0:0:0:0:
256,192,35772,1,12,0:0:0:0:
256,192,36052,1,8,0:0:0:0:
256,192,36145,1,0,0:0:0:0:
256,192,36192,1,0,0:0:0:0:
256,192,36239,1,0,0:0:0:0:
256,192,36332,1,8,0:0:0:0:
256,192,36426,1,0,0:0:0:0:
256,192,36472,1,0,0:0:0:0:
256,192,36519,1,0,0:0:0:0:
256,192,36613,1,8,0:0:0:0:
256,192,36706,1,0,0:0:0:0:
256,192,36753,1,0,0:0:0:0:
256,192,36800,1,8,0:0:0:0:
256,192,36846,1,8,0:0:0:0:
256,192,36893,1,0,0:0:0:0:
256,192,36987,1,8,0:0:0:0:
256,192,37049,1,0,0:0:0:0:
256,192,37111,1,0,0:0:0:0:
256,192,37173,1,8,0:0:0:0:
256,192,37236,1,0,0:0:0:0:
256,192,37298,1,0,0:0:0:0:
256,192,37360,1,8,0:0:0:0:
256,192,37454,1,8,0:0:0:0:
256,192,37547,1,0,0:0:0:0:
256,192,37641,1,0,0:0:0:0:
256,192,37734,1,8,0:0:0:0:
256,192,37828,1,0,0:0:0:0:
256,192,37921,1,8,0:0:0:0:
256,192,38015,1,8,0:0:0:0:
256,192,38108,1,0,0:0:0:0:
256,192,38201,1,8,0:0:0:0:
256,192,38295,1,0,0:0:0:0:
256,192,38388,1,0,0:0:0:0:
256,192,38482,1,8,0:0:0:0:
256,192,38575,1,8,0:0:0:0:
256,192,38669,1,0,0:0:0:0:
256,192,38762,1,0,0:0:0:0:
256,192,38856,1,8,0:0:0:0:
256,192,38918,1,0,0:0:0:0:
256,192,38980,1,8,0:0:0:0:
256,192,39043,1,0,0:0:0:0:
256,192,39105,1,8,0:0:0:0:
256,192,39167,1,0,0:0:0:0:
256,192,39230,1,8,0:0:0:0:
256,192,39292,1,0,0:0:0:0:
256,192,39354,1,8,0:0:0:0:
256,192,39416,1,0,0:0:0:0:
256,192,39479,1,8,0:0:0:0:
256,192,39541,1,0,0:0:0:0:
256,192,39603,1,8,0:0:0:0:
256,192,39790,1,4,0:0:0:0:
256,192,40071,1,12,0:0:0:0:
256,192,40351,1,4,0:0:0:0:
256,192,40444,1,0,0:0:0:0:
256,192,40538,1,8,0:0:0:0:
256,192,40631,1,8,0:0:0:0:
256,192,40725,1,0,0:0:0:0:
256,192,40818,1,8,0:0:0:0:
256,192,40865,1,8,0:0:0:0:
256,192,40912,1,0,0:0:0:0:
256,192,41005,1,8,0:0:0:0:
256,192,41099,1,0,0:0:0:0:
256,192,41192,1,0,0:0:0:0:
256,192,41286,1,8,0:0:0:0:
256,192,41379,1,8,0:0:0:0:
256,192,41472,1,0,0:0:0:0:
256,192,41659,1,8,0:0:0:0:
256,192,41753,1,0,0:0:0:0:
256,192,41800,1,0,0:0:0:0:
256,192,41846,1,8,0:0:0:0:
256,192,41940,1,0,0:0:0:0:
256,192,42033,1,8,0:0:0:0:
256,192,42220,1,0,0:0:0:0:
256,192,42314,1,0,0:0:0:0:
256,192,42407,1,8,0:0:0:0:
256,192,42501,1,0,0:0:0:0:
256,192,42547,1,0,0:0:0:0:
256,192,42594,1,0,0:0:0:0:
256,192,42641,1,0,0:0:0:0:
256,192,42687,1,8,0:0:0:0:
256,192,42781,1,8,0:0:0:0:
256,192,42874,1,0,0:0:0:0:
256,192,42968,1,8,0:0:0:0:
256,192,43155,1,8,0:0:0:0:
256,192,43248,1,0,0:0:0:0:
256,192,43295,1,0,0:0:0:0:
256,192,43342,1,8,0:0:0:0:
256,192,43388,1,8,0:0:0:0:
256,192,43435,1,0,0:0:0:0:
256,192,43529,1,0,0:0:0:0:
257,192,43622,1,8,0:0:0:0:
256,192,43809,1,0,0:0:0:0:
256,192,43902,1,8,0:0:0:0:
256,192,43996,1,0,0:0:0:0:
256,192,44043,1,0,0:0:0:0:
256,192,44089,1,0,0:0:0:0:
256,192,44183,1,8,0:0:0:0:
256,192,44370,1,0,0:0:0:0:
257,192,44463,1,8,0:0:0:0:
257,192,44510,1,0,0:0:0:0:
256,192,44557,1,0,0:0:0:0:
256,192,44650,1,8,0:0:0:0:
256,192,44744,1,8,0:0:0:0:
256,192,44837,1,0,0:0:0:0:
256,192,44930,1,0,0:0:0:0:
256,192,45024,1,8,0:0:0:0:
256,192,45117,1,0,0:0:0:0:
256,192,45211,1,8,0:0:0:0:
257,192,45258,1,8,0:0:0:0:
257,192,45304,1,0,0:0:0:0:
257,192,45351,1,0,0:0:0:0:
256,192,45398,1,8,0:0:0:0:
256,192,45491,1,0,0:0:0:0:
256,192,45585,1,8,0:0:0:0:
256,192,45631,1,8,0:0:0:0:
256,192,45678,1,0,0:0:0:0:
256,192,45772,1,8,0:0:0:0:
256,192,45865,1,0,0:0:0:0:
256,192,46052,1,8,0:0:0:0:
256,192,46145,1,0,0:0:0:0:
256,192,46332,1,4,0:0:0:0:
256,192,46519,1,8,0:0:0:0:
256,192,46613,1,0,0:0:0:0:
256,192,46659,1,0,0:0:0:0:
256,192,46706,1,0,0:0:0:0:
256,192,46800,1,0,0:0:0:0:
256,192,46893,1,8,0:0:0:0:
256,192,46987,1,0,0:0:0:0:
256,192,47173,1,0,0:0:0:0:
256,192,47267,1,8,0:0:0:0:
256,192,47360,1,8,0:0:0:0:
256,192,47454,1,0,0:0:0:0:
256,192,47501,1,0,0:0:0:0:
256,192,47547,1,0,0:0:0:0:
256,192,47641,1,8,0:0:0:0:
256,192,47734,1,0,0:0:0:0:
256,192,47781,1,8,0:0:0:0:
256,192,47828,1,0,0:0:0:0:
256,192,47968,1,0,0:0:0:0:
256,192,48015,1,8,0:0:0:0:
256,192,48108,1,8,0:0:0:0:
256,192,48201,1,0,0:0:0:0:
256,192,48248,1,8,0:0:0:0:
256,192,48295,1,0,0:0:0:0:
256,192,48388,1,8,0:0:0:0:
256,192,48482,1,0,0:0:0:0:
256,192,48529,1,0,0:0:0:0:
256,192,48575,1,0,0:0:0:0:
256,192,48622,1,0,0:0:0:0:
256,192,48669,1,0,0:0:0:0:
256,192,48715,1,0,0:0:0:0:
256,192,48762,1,8,0:0:0:0:
256,192,48856,1,8,0:0:0:0:
256,192,48949,1,0,0:0:0:0:
256,192,49043,1,0,0:0:0:0:
256,192,49136,1,8,0:0:0:0:
256,192,49230,1,0,0:0:0:0:
256,192,49276,1,0,0:0:0:0:
256,192,49323,1,12,0:0:0:0:
256,192,49510,1,0,0:0:0:0:
256,192,49603,1,12,0:0:0:0:
256,192,49790,1,0,0:0:0:0:
256,192,49884,1,12,0:0:0:0:
256,192,50071,1,0,0:0:0:0:
256,192,50117,1,0,0:0:0:0:
256,192,50164,1,12,0:0:0:0:
256,192,50351,1,0,0:0:0:0:
256,192,50398,1,0,0:0:0:0:
256,192,50444,1,12,0:0:0:0:
256,192,50538,1,8,0:0:0:0:
256,192,50631,1,0,0:0:0:0:
256,192,50678,1,0,0:0:0:0:
256,192,50725,1,0,0:0:0:0:
256,192,50818,1,8,0:0:0:0:
256,192,50912,1,0,0:0:0:0:
256,192,51005,1,0,0:0:0:0:
256,192,51099,1,8,0:0:0:0:
256,192,51192,1,0,0:0:0:0:
256,192,51286,1,8,0:0:0:0:
256,192,51379,1,8,0:0:0:0:
256,192,51472,1,8,0:0:0:0:
256,192,51566,1,0,0:0:0:0:
256,192,51613,1,0,0:0:0:0:
256,192,51659,1,8,0:0:0:0:
256,192,51753,1,0,0:0:0:0:
256,192,51800,1,0,0:0:0:0:
256,192,51846,1,8,0:0:0:0:
256,192,51893,1,8,0:0:0:0:
256,192,51940,1,0,0:0:0:0:
256,192,52002,1,0,0:0:0:0:
256,192,52064,1,0,0:0:0:0:
256,192,52127,1,8,0:0:0:0:
256,192,52189,1,8,0:0:0:0:
256,192,52251,1,8,0:0:0:0:
256,192,52314,1,4,0:0:0:0:
256,192,53809,1,8,0:0:0:0:
256,192,53902,1,8,0:0:0:0:
256,192,53996,1,8,0:0:0:0:
256,192,54089,1,8,0:0:0:0:
256,192,54183,1,8,0:0:0:0:
256,192,54245,1,8,0:0:0:0:
256,192,54307,1,8,0:0:0:0:
256,192,54370,1,8,0:0:0:0:
256,192,54432,1,8,0:0:0:0:
256,192,54494,1,8,0:0:0:0:
256,192,54557,1,8,0:0:0:0:
256,192,54619,1,8,0:0:0:0:
256,192,54681,1,8,0:0:0:0:
256,192,54744,1,8,0:0:0:0:
256,192,54806,1,8,0:0:0:0:
256,192,54868,1,8,0:0:0:0:
256,192,55304,1,0,0:0:0:0:
256,192,55678,1,12,0:0:0:0:
256,192,55865,1,8,0:0:0:0:
256,192,55958,1,8,0:0:0:0:
256,192,56052,1,0,0:0:0:0:
256,192,56145,1,0,0:0:0:0:
256,192,56192,1,0,0:0:0:0:
256,192,56239,1,8,0:0:0:0:
256,192,56426,1,8,0:0:0:0:
256,192,56519,1,8,0:0:0:0:
256,192,56566,1,8,0:0:0:0:
256,192,56613,1,0,0:0:0:0:
256,192,56706,1,8,0:0:0:0:
256,192,56800,1,0,0:0:0:0:
256,192,56987,1,0,0:0:0:0:
256,192,57080,1,0,0:0:0:0:
256,192,57173,1,8,0:0:0:0:
256,192,57267,1,8,0:0:0:0:
256,192,57360,1,8,0:0:0:0:
256,192,57454,1,8,0:0:0:0:
256,192,57547,1,0,0:0:0:0:
256,192,57734,1,0,0:0:0:0:
256,192,57828,1,0,0:0:0:0:
256,192,57921,1,12,0:0:0:0:
256,192,58295,1,4,0:0:0:0:
256,192,58669,1,8,0:0:0:0:
256,192,58856,1,0,0:0:0:0:
256,192,58949,1,8,0:0:0:0:
256,192,59043,1,0,0:0:0:0:
256,192,59136,1,0,0:0:0:0:
256,192,59323,1,0,0:0:0:0:
256,192,59416,1,8,0:0:0:0:
256,192,59510,1,0,0:0:0:0:
256,192,59697,1,8,0:0:0:0:
256,192,59790,1,0,0:0:0:0:
256,192,59884,1,0,0:0:0:0:
256,192,59930,1,0,0:0:0:0:
256,192,59977,1,8,0:0:0:0:
256,192,60071,1,8,0:0:0:0:
256,192,60164,1,8,0:0:0:0:
256,192,60538,1,4,0:0:0:0:
256,192,60818,1,4,0:0:0:0:
256,192,61099,1,4,0:0:0:0:
256,192,61659,1,12,0:0:0:0:
256,192,61846,1,0,0:0:0:0:
256,192,61940,1,8,0:0:0:0:
256,192,62033,1,0,0:0:0:0:
256,192,62127,1,0,0:0:0:0:
256,192,62220,1,8,0:0:0:0:
256,192,62407,1,0,0:0:0:0:
256,192,62501,1,0,0:0:0:0:
256,192,62547,1,0,0:0:0:0:
256,192,62594,1,8,0:0:0:0:
256,192,62687,1,8,0:0:0:0:
256,192,62781,1,0,0:0:0:0:
256,192,62968,1,8,0:0:0:0:
256,192,63155,1,0,0:0:0:0:
256,192,63248,1,0,0:0:0:0:
256,192,63342,1,8,0:0:0:0:
256,192,63435,1,8,0:0:0:0:
256,192,63529,1,0,0:0:0:0:
256,192,63715,1,0,0:0:0:0:
256,192,63809,1,0,0:0:0:0:
256,192,63902,1,12,0:0:0:0:
256,192,64276,1,4,0:0:0:0:
256,192,64557,1,0,0:0:0:0:
256,192,64650,1,8,0:0:0:0:
256,192,64837,1,0,0:0:0:0:
256,192,65024,1,0,0:0:0:0:
256,192,65117,1,0,0:0:0:0:
256,192,65211,1,0,0:0:0:0:
256,192,65304,1,0,0:0:0:0:
256,192,65398,1,8,0:0:0:0:
256,192,65772,1,8,0:0:0:0:
256,192,65865,1,0,0:0:0:0:
256,192,65912,1,0,0:0:0:0:
256,192,65958,1,8,0:0:0:0:
256,192,66052,1,0,0:0:0:0:
256,192,66145,1,8,0:0:0:0:
256,192,66239,1,8,0:0:0:0:
256,192,66332,1,8,0:0:0:0:
256,192,66426,1,8,0:0:0:0:
256,192,66519,1,0,0:0:0:0:
256,192,66613,1,0,0:0:0:0:
256,192,66706,1,0,0:0:0:0:
256,192,66800,1,0,0:0:0:0:
256,192,66846,1,0,0:0:0:0:
256,192,66893,1,8,0:0:0:0:
256,192,66987,1,0,0:0:0:0:
256,192,67080,1,8,0:0:0:0:
256,192,67173,1,8,0:0:0:0:
256,192,67267,1,0,0:0:0:0:
256,192,67329,1,8,0:0:0:0:
256,192,67392,1,8,0:0:0:0:
256,192,67454,1,0,0:0:0:0:
256,192,67516,1,8,0:0:0:0:
256,192,67578,1,8,0:0:0:0:
256,192,67641,1,0,0:0:0:0:
256,192,67703,1,0,0:0:0:0:
256,192,67765,1,8,0:0:0:0:
256,192,67828,1,0,0:0:0:0:
256,192,67874,1,0,0:0:0:0:
256,192,67921,1,0,0:0:0:0:
256,192,67968,1,0,0:0:0:0:
256,192,68015,1,8,0:0:0:0:
256,192,68077,1,8,0:0:0:0:
256,192,68139,1,8,0:0:0:0:
256,192,68201,1,0,0:0:0:0:
256,192,68264,1,8,0:0:0:0:
256,192,68326,1,8,0:0:0:0:
256,192,68388,1,0,0:0:0:0:
256,192,68482,1,0,0:0:0:0:
256,192,68575,1,0,0:0:0:0:
256,192,68669,1,0,0:0:0:0:
256,192,68762,1,8,0:0:0:0:
256,192,68949,1,0,0:0:0:0:
256,192,68996,1,0,0:0:0:0:
256,192,69043,1,8,0:0:0:0:
256,192,69230,1,0,0:0:0:0:
256,192,69276,1,0,0:0:0:0:
256,192,69323,1,8,0:0:0:0:
256,192,69385,1,0,0:0:0:0:
256,192,69448,1,0,0:0:0:0:
256,192,69510,1,8,0:0:0:0:
256,192,69572,1,8,0:0:0:0:
256,192,69634,1,0,0:0:0:0:
256,192,69697,1,8,0:0:0:0:
256,192,69759,1,0,0:0:0:0:
256,192,69821,1,0,0:0:0:0:
256,192,69884,1,8,0:0:0:0:
256,192,69946,1,8,0:0:0:0:
256,192,70008,1,8,0:0:0:0:
256,192,70071,1,0,0:0:0:0:
256,192,70133,1,0,0:0:0:0:
256,192,70195,1,0,0:0:0:0:
256,192,70258,1,8,0:0:0:0:
256,192,70320,1,8,0:0:0:0:
256,192,70382,1,0,0:0:0:0:
256,192,70444,1,8,0:0:0:0:
256,192,70507,1,0,0:0:0:0:
256,192,70569,1,0,0:0:0:0:
256,192,70631,1,8,0:0:0:0:
256,192,70694,1,0,0:0:0:0:
256,192,70756,1,0,0:0:0:0:
256,192,70818,1,8,0:0:0:0:
256,192,70865,1,8,0:0:0:0:
256,192,70912,1,0,0:0:0:0:
256,192,70958,1,0,0:0:0:0:
256,192,71005,1,8,0:0:0:0:
256,192,71192,1,0,0:0:0:0:
256,192,71286,1,8,0:0:0:0:
256,192,71332,1,8,0:0:0:0:
256,192,71379,1,8,0:0:0:0:
256,192,71426,1,8,0:0:0:0:
256,192,71472,1,0,0:0:0:0:
256,192,71566,1,0,0:0:0:0:
256,192,71628,1,8,0:0:0:0:
256,192,71691,1,8,0:0:0:0:
256,192,71753,1,0,0:0:0:0:
256,192,71940,1,0,0:0:0:0:
256,192,71987,1,0,0:0:0:0:
256,192,72033,1,8,0:0:0:0:
256,192,72220,1,0,0:0:0:0:
256,192,72267,1,0,0:0:0:0:
256,192,72314,1,8,0:0:0:0:
256,192,72376,1,0,0:0:0:0:
256,192,72438,1,0,0:0:0:0:
256,192,72501,1,8,0:0:0:0:
256,192,72563,1,8,0:0:0:0:
256,192,72625,1,8,0:0:0:0:
256,192,72687,1,0,0:0:0:0:
256,192,72750,1,8,0:0:0:0:
256,192,72812,1,8,0:0:0:0:
256,192,72874,1,0,0:0:0:0:
256,192,72937,1,0,0:0:0:0:
256,192,72999,1,0,0:0:0:0:
256,192,73061,1,8,0:0:0:0:
256,192,73124,1,8,0:0:0:0:
256,192,73186,1,8,0:0:0:0:
256,192,73248,5,4,0:0:0:0:
256,192,73435,1,0,0:0:0:0:
256,192,73529,1,0,0:0:0:0:
256,192,73622,1,8,0:0:0:0:
256,192,73715,1,0,0:0:0:0:
256,192,73809,1,8,0:0:0:0:
256,192,73902,1,0,0:0:0:0:
256,192,73949,1,0,0:0:0:0:
256,192,73996,1,8,0:0:0:0:
256,192,74089,1,8,0:0:0:0:
256,192,74183,1,0,0:0:0:0:
256,192,74230,1,0,0:0:0:0:
256,192,74276,1,8,0:0:0:0:
256,192,74370,1,0,0:0:0:0:
256,192,74416,1,0,0:0:0:0:
256,192,74463,1,8,0:0:0:0:
256,192,74557,1,0,0:0:0:0:
256,192,74650,1,8,0:0:0:0:
256,192,74697,1,8,0:0:0:0:
256,192,74744,1,0,0:0:0:0:
256,192,74837,1,8,0:0:0:0:
256,192,74930,1,0,0:0:0:0:
256,192,74977,1,0,0:0:0:0:
256,192,75024,1,8,0:0:0:0:
256,192,75117,1,0,0:0:0:0:
256,192,75164,1,0,0:0:0:0:
256,192,75211,1,8,0:0:0:0:
256,192,75304,1,0,0:0:0:0:
256,192,75398,1,8,0:0:0:0:
256,192,75444,1,8,0:0:0:0:
256,192,75491,1,0,0:0:0:0:
256,192,75585,1,0,0:0:0:0:
256,192,75678,1,8,0:0:0:0:
256,192,75725,1,0,0:0:0:0:
256,192,75772,1,0,0:0:0:0:
256,192,75865,1,8,0:0:0:0:
256,192,75912,1,8,0:0:0:0:
256,192,75958,1,0,0:0:0:0:
256,192,76052,1,8,0:0:0:0:
256,192,76145,1,0,0:0:0:0:
256,192,76192,1,0,0:0:0:0:
256,192,76239,1,8,0:0:0:0:
256,192,76301,1,0,0:0:0:0:
256,192,76363,1,0,0:0:0:0:
256,192,76426,1,8,0:0:0:0:
256,192,76488,1,8,0:0:0:0:
256,192,76550,1,0,0:0:0:0:
256,192,76613,1,8,0:0:0:0:
256,192,76675,1,8,0:0:0:0:
256,192,76737,1,8,0:0:0:0:
256,192,76800,1,0,0:0:0:0:
256,192,76862,1,0,0:0:0:0:
256,192,76924,1,0,0:0:0:0:
256,192,76987,1,8,0:0:0:0:
256,192,77049,1,0,0:0:0:0:
256,192,77111,1,8,0:0:0:0:
256,192,77173,1,8,0:0:0:0:
256,192,77236,1,0,0:0:0:0:
256,192,77298,1,8,0:0:0:0:
256,192,77360,1,8,0:0:0:0:
256,192,77423,1,8,0:0:0:0:
256,192,77485,1,0,0:0:0:0:
256,192,77547,1,0,0:0:0:0:
256,192,77610,1,8,0:0:0:0:
256,192,77672,1,8,0:0:0:0:
256,192,77734,1,0,0:0:0:0:
256,192,78108,1,8,0:0:0:0:
256,192,78295,1,0,0:0:0:0:
256,192,78388,1,8,0:0:0:0:
256,192,78482,1,0,0:0:0:0:
256,192,78575,1,0,0:0:0:0:
256,192,78669,1,8,0:0:0:0:
256,192,78715,1,0,0:0:0:0:
256,192,78762,1,0,0:0:0:0:
256,192,78856,1,8,0:0:0:0:
256,192,78949,1,8,0:0:0:0:
256,192,79043,1,8,0:0:0:0:
256,192,79136,1,8,0:0:0:0:
256,192,79230,1,4,0:0:0:0:
256,192,79510,1,8,0:0:0:0:
256,192,79790,1,8,0:0:0:0:
256,192,79977,1,0,0:0:0:0:
256,192,80351,1,8,0:0:0:0:
256,192,80694,1,8,0:0:0:0:
256,192,80725,1,0,0:0:0:0:
256,192,81005,1,8,0:0:0:0:
256,192,81286,1,8,0:0:0:0:
256,192,81472,1,0,0:0:0:0:
256,192,81535,1,8,0:0:0:0:
256,192,81597,1,0,0:0:0:0:
256,192,81846,1,8,0:0:0:0:
256,192,82033,1,0,0:0:0:0:
256,192,82220,1,8,0:0:0:0:
256,192,82345,1,0,0:0:0:0:
256,192,82407,1,8,0:0:0:0:
256,192,82469,1,0,0:0:0:0:
256,192,82532,1,0,0:0:0:0:
256,192,82594,1,8,0:0:0:0:
256,192,82719,1,8,0:0:0:0:
256,192,82781,1,0,0:0:0:0:
256,192,82843,1,8,0:0:0:0:
256,192,82906,1,8,0:0:0:0:
256,192,82968,1,0,0:0:0:0:
256,192,83092,1,0,0:0:0:0:
256,192,83155,1,8,0:0:0:0:
256,192,83217,1,8,0:0:0:0:
256,192,83279,1,0,0:0:0:0:
256,192,83342,1,8,0:0:0:0:
256,192,83466,1,8,0:0:0:0:
256,192,83529,1,0,0:0:0:0:
256,192,83591,1,0,0:0:0:0:
256,192,83653,1,8,0:0:0:0:
256,192,83715,1,0,0:0:0:0:
256,192,83840,1,0,0:0:0:0:
256,192,83902,1,8,0:0:0:0:
256,192,84027,1,8,0:0:0:0:
256,192,84089,1,8,0:0:0:0:
256,192,84214,1,0,0:0:0:0:
256,192,84276,1,8,0:0:0:0:
256,192,84339,1,0,0:0:0:0:
256,192,84463,1,8,0:0:0:0:
256,192,84525,1,8,0:0:0:0:
256,192,84588,1,8,0:0:0:0:
256,192,84650,1,0,0:0:0:0:
256,192,84712,1,0,0:0:0:0:
256,192,84775,1,0,0:0:0:0:
256,192,84837,1,8,0:0:0:0:
256,192,84930,1,0,0:0:0:0:
256,192,85024,1,8,0:0:0:0:
256,192,85117,1,8,0:0:0:0:
256,192,85211,1,4,0:0:0:0:
256,192,85491,1,8,0:0:0:0:
256,192,85772,1,8,0:0:0:0:
256,192,85958,1,4,0:0:0:0:
256,192,86332,1,8,0:0:0:0:
256,192,86706,1,4,0:0:0:0:
256,192,86987,1,8,0:0:0:0:
256,192,87267,1,8,0:0:0:0:
256,192,87454,1,4,0:0:0:0:
256,192,87734,1,0,0:0:0:0:
256,192,87828,1,8,0:0:0:0:
256,192,87890,1,8,0:0:0:0:
256,192,87952,1,8,0:0:0:0:
256,192,88015,1,0,0:0:0:0:
256,192,88077,1,0,0:0:0:0:
256,192,88139,1,0,0:0:0:0:
256,192,88201,1,8,0:0:0:0:
256,192,88248,1,8,0:0:0:0:
256,192,88295,1,0,0:0:0:0:
256,192,88342,1,0,0:0:0:0:
256,192,88388,1,0,0:0:0:0:
256,192,88482,1,8,0:0:0:0:
256,192,88529,1,8,0:0:0:0:
256,192,88575,1,0,0:0:0:0:
256,192,88622,1,0,0:0:0:0:
256,192,88669,1,8,0:0:0:0:
256,192,88762,1,0,0:0:0:0:
256,192,88809,1,0,0:0:0:0:
256,192,88856,1,8,0:0:0:0:
256,192,88902,1,0,0:0:0:0:
256,192,88949,1,8,0:0:0:0:
256,192,88996,1,8,0:0:0:0:
256,192,89043,1,0,0:0:0:0:
256,192,89136,1,0,0:0:0:0:
256,192,89183,1,0,0:0:0:0:
256,192,89230,1,8,0:0:0:0:
256,192,89323,1,0,0:0:0:0:
256,192,89370,1,0,0:0:0:0:
256,192,89416,1,8,0:0:0:0:
256,192,89463,1,8,0:0:0:0:
256,192,89510,1,8,0:0:0:0:
256,192,89557,1,8,0:0:0:0:
256,192,89603,1,8,0:0:0:0:
256,192,89650,1,8,0:0:0:0:
256,192,89697,1,4,0:0:0:0:
256,192,91940,5,4,0:0:0:0:
256,192,92127,1,8,0:0:0:0:
256,192,92314,1,0,0:0:0:0:
256,192,92407,1,8,0:0:0:0:
256,192,92501,1,0,0:0:0:0:
256,192,92547,1,0,0:0:0:0:
256,192,92594,1,8,0:0:0:0:
256,192,92641,1,8,0:0:0:0:
256,192,92687,5,4,0:0:0:0:
256,192,92968,1,4,0:0:0:0:
256,192,93248,1,12,0:0:0:0:
256,192,93529,1,12,0:0:0:0:
256,192,93809,1,0,0:0:0:0:
256,192,93856,1,0,0:0:0:0:
256,192,93902,1,0,0:0:0:0:
256,192,93949,1,0,0:0:0:0:
256,192,93996,1,8,0:0:0:0:
256,192,94043,1,8,0:0:0:0:
256,192,94089,1,8,0:0:0:0:
256,192,94136,1,8,0:0:0:0:
256,192,94183,1,4,0:0:0:0:
256,192,94930,1,8,0:0:0:0:
256,192,94977,1,8,0:0:0:0:
256,192,95024,1,8,0:0:0:0:
256,192,95071,1,8,0:0:0:0:
256,192,95117,1,8,0:0:0:0:
256,192,95164,1,8,0:0:0:0:
256,192,95211,1,8,0:0:0:0:
256,192,95258,1,8,0:0:0:0:
256,192,95304,1,0,0:0:0:0:
256,192,95491,1,8,0:0:0:0:
256,192,95678,1,4,0:0:0:0:
256,192,95865,1,8,0:0:0:0:
256,192,95958,1,0,0:0:0:0:
256,192,96005,1,0,0:0:0:0:
256,192,96052,1,8,0:0:0:0:
256,192,96145,1,0,0:0:0:0:
256,192,96239,1,8,0:0:0:0:
256,192,96286,1,0,0:0:0:0:
256,192,96332,1,0,0:0:0:0:
256,192,96426,1,8,0:0:0:0:
256,192,96472,1,8,0:0:0:0:
256,192,96519,1,0,0:0:0:0:
256,192,96566,1,0,0:0:0:0:
256,192,96613,1,0,0:0:0:0:
256,192,96706,1,8,0:0:0:0:
256,192,96753,1,8,0:0:0:0:
256,192,96800,1,8,0:0:0:0:
256,192,96846,1,8,0:0:0:0:
256,192,96893,1,0,0:0:0:0:
256,192,96987,1,8,0:0:0:0:
256,192,97033,1,0,0:0:0:0:
256,192,97080,1,0,0:0:0:0:
256,192,97173,1,0,0:0:0:0:
256,192,97220,1,0,0:0:0:0:
256,192,97267,1,8,0:0:0:0:
256,192,97314,1,8,0:0:0:0:
256,192,97360,1,0,0:0:0:0:
256,192,97454,1,8,0:0:0:0:
256,192,97501,1,8,0:0:0:0:
256,192,97547,1,0,0:0:0:0:
256,192,97594,1,0,0:0:0:0:
256,192,97641,1,8,0:0:0:0:
256,192,97734,1,0,0:0:0:0:
256,192,97781,1,0,0:0:0:0:
256,192,97828,1,8,0:0:0:0:
256,192,97921,1,0,0:0:0:0:
256,192,97968,1,0,0:0:0:0:
256,192,98015,1,0,0:0:0:0:
256,192,98061,1,0,0:0:0:0:
256,192,98108,1,8,0:0:0:0:
256,192,98201,1,8,0:0:0:0:
256,192,98295,1,0,0:0:0:0:
256,192,98342,1,0,0:0:0:0:
256,192,98388,1,8,0:0:0:0:
256,192,98482,1,8,0:0:0:0:
256,192,98529,1,8,0:0:0:0:
256,192,98575,1,0,0:0:0:0:
256,192,98622,1,0,0:0:0:0:
256,192,98669,1,8,0:0:0:0:
256,192,98856,1,0,0:0:0:0:
256,192,98949,1,8,0:0:0:0:
256,192,98996,1,8,0:0:0:0:
256,192,99043,1,8,0:0:0:0:
256,192,99089,1,8,0:0:0:0:
256,192,99136,1,0,0:0:0:0:
256,192,99230,1,8,0:0:0:0:
256,192,99323,1,0,0:0:0:0:
256,192,99370,1,0,0:0:0:0:
256,192,99416,1,8,0:0:0:0:
256,192,99510,1,0,0:0:0:0:
256,192,99603,1,8,0:0:0:0:
256,192,99650,1,0,0:0:0:0:
256,192,99697,1,0,0:0:0:0:
256,192,99790,1,8,0:0:0:0:
256,192,99837,1,8,0:0:0:0:
256,192,99884,1,0,0:0:0:0:
256,192,99977,1,8,0:0:0:0:
256,192,100024,1,8,0:0:0:0:
256,192,100071,1,0,0:0:0:0:
256,192,100117,1,0,0:0:0:0:
256,192,100164,1,8,0:0:0:0:
256,192,100258,1,0,0:0:0:0:
256,192,100351,1,0,0:0:0:0:
256,192,100444,1,8,0:0:0:0:
256,192,100491,1,8,0:0:0:0:
256,192,100538,1,0,0:0:0:0:
256,192,100631,1,0,0:0:0:0:
256,192,100725,1,8,0:0:0:0:
256,192,100772,1,8,0:0:0:0:
256,192,100818,1,0,0:0:0:0:
256,192,100865,1,0,0:0:0:0:
256,192,100912,1,8,0:0:0:0:
256,192,101005,1,0,0:0:0:0:
256,192,101099,1,8,0:0:0:0:
256,192,101145,1,0,0:0:0:0:
256,192,101192,1,0,0:0:0:0:
256,192,101239,1,0,0:0:0:0:
256,192,101286,1,8,0:0:0:0:
256,192,101379,1,0,0:0:0:0:
256,192,101472,1,8,0:0:0:0:
256,192,101519,1,8,0:0:0:0:
256,192,101566,1,0,0:0:0:0:
256,192,101659,1,12,0:0:0:0:
256,192,101846,1,0,0:0:0:0:
256,192,101940,1,12,0:0:0:0:
256,192,102127,1,0,0:0:0:0:
256,192,102220,1,8,0:0:0:0:
256,192,102314,1,0,0:0:0:0:
256,192,102360,1,0,0:0:0:0:
256,192,102407,1,8,0:0:0:0:
256,192,102594,1,0,0:0:0:0:
256,192,102641,1,0,0:0:0:0:
256,192,102687,1,8,0:0:0:0:
256,192,102874,1,0,0:0:0:0:
256,192,102921,1,0,0:0:0:0:
256,192,102968,1,8,0:0:0:0:
256,192,103061,1,8,0:0:0:0:
256,192,103155,1,0,0:0:0:0:
256,192,103201,1,0,0:0:0:0:
256,192,103248,1,8,0:0:0:0:
256,192,103295,1,8,0:0:0:0:
256,192,103342,1,0,0:0:0:0:
256,192,103435,1,8,0:0:0:0:
256,192,103529,1,8,0:0:0:0:
256,192,103622,1,0,0:0:0:0:
256,192,103669,1,0,0:0:0:0:
256,192,103715,1,8,0:0:0:0:
256,192,103809,1,0,0:0:0:0:
256,192,103902,1,8,0:0:0:0:
256,192,103996,1,0,0:0:0:0:
256,192,104043,1,8,0:0:0:0:
256,192,104089,1,0,0:0:0:0:
256,192,104183,1,8,0:0:0:0:
256,192,104276,1,0,0:0:0:0:
256,192,104370,1,0,0:0:0:0:
256,192,104463,1,8,0:0:0:0:
256,192,104510,1,8,0:0:0:0:
256,192,104557,1,0,0:0:0:0:
256,192,104603,1,0,0:0:0:0:
256,192,104650,1,8,0:0:0:0:
256,192,104744,1,0,0:0:0:0:
256,192,104837,1,0,0:0:0:0:
256,192,104930,1,8,0:0:0:0:
256,192,105024,1,0,0:0:0:0:
256,192,105086,1,8,0:0:0:0:
256,192,105149,1,8,0:0:0:0:
256,192,105211,1,0,0:0:0:0:
256,192,105258,1,0,0:0:0:0:
256,192,105304,1,8,0:0:0:0:
256,192,105398,1,8,0:0:0:0:
256,192,105444,1,8,0:0:0:0:
256,192,105491,1,0,0:0:0:0:
256,192,105538,1,0,0:0:0:0:
256,192,105585,1,8,0:0:0:0:
256,192,105678,1,0,0:0:0:0:
256,192,105725,1,0,0:0:0:0:
256,192,105772,1,8,0:0:0:0:
256,192,105834,1,8,0:0:0:0:
256,192,105896,1,8,0:0:0:0:
256,192,105958,1,0,0:0:0:0:
256,192,106021,1,0,0:0:0:0:
256,192,106083,1,0,0:0:0:0:
256,192,106145,1,8,0:0:0:0:
256,192,106192,1,8,0:0:0:0:
256,192,106239,1,0,0:0:0:0:
256,192,106286,1,0,0:0:0:0:
256,192,106332,1,0,0:0:0:0:
256,192,106426,1,8,0:0:0:0:
256,192,106472,1,8,0:0:0:0:
256,192,106519,1,0,0:0:0:0:
256,192,106566,1,0,0:0:0:0:
256,192,106613,1,8,0:0:0:0:
256,192,106706,1,8,0:0:0:0:
256,192,106800,1,0,0:0:0:0:
256,192,106846,1,0,0:0:0:0:
256,192,106893,1,8,0:0:0:0:
256,192,106955,1,0,0:0:0:0:
256,192,107018,1,8,0:0:0:0:
256,192,107080,1,0,0:0:0:0:
256,192,107142,1,8,0:0:0:0:
256,192,107205,1,8,0:0:0:0:
256,192,107641,1,4,0:0:0:0:
256,192,107828,1,8,0:0:0:0:
256,192,107921,1,0,0:0:0:0:
256,192,107968,1,0,0:0:0:0:
256,192,108015,1,8,0:0:0:0:
256,192,108108,1,0,0:0:0:0:
256,192,108201,1,8,0:0:0:0:
256,192,108248,1,8,0:0:0:0:
256,192,108295,1,0,0:0:0:0:
256,192,108388,1,8,0:0:0:0:
256,192,108435,1,8,0:0:0:0:
256,192,108482,1,0,0:0:0:0:
256,192,108529,1,0,0:0:0:0:
256,192,108575,1,0,0:0:0:0:
256,192,108669,1,8,0:0:0:0:
256,192,108715,1,8,0:0:0:0:
256,192,108762,1,8,0:0:0:0:
256,192,108809,1,8,0:0:0:0:
256,192,108856,1,0,0:0:0:0:
256,192,108949,1,8,0:0:0:0:
256,192,109043,1,0,0:0:0:0:
256,192,109089,1,0,0:0:0:0:
256,192,109136,1,8,0:0:0:0:
256,192,109183,1,8,0:0:0:0:
256,192,109230,1,0,0:0:0:0:
256,192,109323,1,0,0:0:0:0:
256,192,109416,1,8,0:0:0:0:
256,192,109463,1,8,0:0:0:0:
256,192,109510,1,8,0:0:0:0:
256,192,109603,1,0,0:0:0:0:
256,192,109650,1,0,0:0:0:0:
256,192,109697,1,8,0:0:0:0:
256,192,109790,1,0,0:0:0:0:
256,192,109884,1,8,0:0:0:0:
256,192,109930,1,8,0:0:0:0:
256,192,109977,1,0,0:0:0:0:
256,192,110071,1,8,0:0:0:0:
256,192,110117,1,0,0:0:0:0:
256,192,110164,1,0,0:0:0:0:
256,192,110258,1,0,0:0:0:0:
256,192,110304,1,8,0:0:0:0:
256,192,110351,1,0,0:0:0:0:
256,192,110444,1,8,0:0:0:0:
256,192,110491,1,8,0:0:0:0:
256,192,110538,1,0,0:0:0:0:
256,192,110585,1,0,0:0:0:0:
256,192,110631,1,8,0:0:0:0:
256,192,110818,1,0,0:0:0:0:
256,192,110912,1,8,0:0:0:0:
256,192,110958,1,0,0:0:0:0:
256,192,111005,1,0,0:0:0:0:
256,192,111099,1,0,0:0:0:0:
256,192,111192,1,8,0:0:0:0:
256,192,111239,1,8,0:0:0:0:
256,192,111286,1,0,0:0:0:0:
256,192,111332,1,0,0:0:0:0:
256,192,111379,1,0,0:0:0:0:
256,192,111472,1,8,0:0:0:0:
256,192,111519,1,8,0:0:0:0:
256,192,111566,1,8,0:0:0:0:
256,192,111613,1,8,0:0:0:0:
256,192,111659,1,0,0:0:0:0:
256,192,111753,1,8,0:0:0:0:
256,192,111846,1,0,0:0:0:0:
256,192,111893,1,0,0:0:0:0:
256,192,111940,1,8,0:0:0:0:
256,192,112033,1,0,0:0:0:0:
256,192,112127,1,8,0:0:0:0:
256,192,112173,1,8,0:0:0:0:
256,192,112220,1,0,0:0:0:0:
256,192,112267,1,0,0:0:0:0:
256,192,112314,1,0,0:0:0:0:
256,192,112407,1,8,0:0:0:0:
256,192,112454,1,0,0:0:0:0:
256,192,112501,1,8,0:0:0:0:
256,192,112547,1,8,0:0:0:0:
256,192,112594,1,0,0:0:0:0:
256,192,112687,1,0,0:0:0:0:
256,192,112734,1,0,0:0:0:0:
256,192,112781,1,8,0:0:0:0:
256,192,112874,1,0,0:0:0:0:
256,192,112968,1,8,0:0:0:0:
256,192,113015,1,8,0:0:0:0:
256,192,113061,1,0,0:0:0:0:
256,192,113108,1,8,0:0:0:0:
256,192,113155,1,0,0:0:0:0:
256,192,113201,1,0,0:0:0:0:
256,192,113248,1,8,0:0:0:0:
256,192,113295,1,8,0:0:0:0:
256,192,113342,1,0,0:0:0:0:
256,192,113435,1,8,0:0:0:0:
256,192,113529,1,0,0:0:0:0:
256,192,113622,1,8,0:0:0:0:
256,192,113715,1,0,0:0:0:0:
256,192,113762,1,0,0:0:0:0:
256,192,113809,1,0,0:0:0:0:
256,192,113902,1,8,0:0:0:0:
256,192,113996,1,0,0:0:0:0:
256,192,114043,1,8,0:0:0:0:
256,192,114089,1,0,0:0:0:0:
256,192,114183,1,8,0:0:0:0:
256,192,114276,1,0,0:0:0:0:
256,192,114323,1,0,0:0:0:0:
256,192,114370,1,8,0:0:0:0:
256,192,114463,1,0,0:0:0:0:
256,192,114510,1,8,0:0:0:0:
256,192,114557,1,0,0:0:0:0:
256,192,114650,1,8,0:0:0:0:
256,192,114744,1,0,0:0:0:0:
256,192,114790,1,8,0:0:0:0:
256,192,114837,1,0,0:0:0:0:
256,192,114884,1,0,0:0:0:0:
256,192,114930,1,8,0:0:0:0:
256,192,115024,1,0,0:0:0:0:
256,192,115117,1,8,0:0:0:0:
256,192,115164,1,8,0:0:0:0:
256,192,115211,1,0,0:0:0:0:
256,192,115304,1,0,0:0:0:0:
256,192,115398,1,0,0:0:0:0:
256,192,115444,1,0,0:0:0:0:
256,192,115491,1,8,0:0:0:0:
256,192,115585,1,0,0:0:0:0:
256,192,115678,1,8,0:0:0:0:
256,192,115725,1,8,0:0:0:0:
256,192,115772,1,0,0:0:0:0:
256,192,115865,1,0,0:0:0:0:
256,192,115958,1,8,0:0:0:0:
256,192,116005,1,0,0:0:0:0:
256,192,116052,1,8,0:0:0:0:
256,192,116145,1,0,0:0:0:0:
256,192,116239,1,8,0:0:0:0:
256,192,116286,1,8,0:0:0:0:
256,192,116332,1,8,0:0:0:0:
256,192,116426,1,0,0:0:0:0:
256,192,116472,1,0,0:0:0:0:
256,192,116519,1,8,0:0:0:0:
256,192,116566,1,8,0:0:0:0:
256,192,116613,1,0,0:0:0:0:
256,192,116675,1,0,0:0:0:0:
256,192,116737,1,0,0:0:0:0:
256,192,116800,1,8,0:0:0:0:
256,192,116862,1,8,0:0:0:0:
256,192,116924,1,0,0:0:0:0:
256,192,116987,1,8,0:0:0:0:
256,192,117049,1,8,0:0:0:0:
256,192,117111,1,8,0:0:0:0:
256,192,117173,1,0,0:0:0:0:
256,192,117236,1,8,0:0:0:0:
256,192,117298,1,8,0:0:0:0:
256,192,117360,1,0,0:0:0:0:
256,192,117423,1,0,0:0:0:0:
256,192,117485,1,0,0:0:0:0:
256,192,117547,1,8,0:0:0:0:
256,192,117610,1,8,0:0:0:0:
256,192,117672,1,8,0:0:0:0:
256,192,117734,1,0,0:0:0:0:
256,192,117796,1,0,0:0:0:0:
256,192,117859,1,8,0:0:0:0:
256,192,117921,1,0,0:0:0:0:
256,192,117983,1,8,0:0:0:0:
256,192,118046,1,8,0:0:0:0:
256,192,118108,1,0,0:0:0:0:
256,192,118155,1,0,0:0:0:0:
256,192,118201,1,8,0:0:0:0:
256,192,118248,1,0,0:0:0:0:
256,192,118295,1,8,0:0:0:0:
256,192,118342,1,8,0:0:0:0:
256,192,118388,1,0,0:0:0:0:
256,192,118435,1,0,0:0:0:0:
256,192,118482,1,8,0:0:0:0:
256,192,118529,1,0,0:0:0:0:
256,192,118575,1,8,0:0:0:0:
256,192,118622,1,8,0:0:0:0:
256,192,118669,1,0,0:0:0:0:
256,192,118715,1,0,0:0:0:0:
256,192,118762,1,0,0:0:0:0:
256,192,118809,1,0,0:0:0:0:
256,192,118856,1,8,0:0:0:0:
256,192,119603,1,8,0:0:0:0:
256,192,119697,1,8,0:0:0:0:
256,192,119790,1,0,0:0:0:0:
256,192,119884,1,0,0:0:0:0:
256,192,119977,1,8,0:0:0:0:
256,192,120071,1,0,0:0:0:0:
256,192,120164,1,8,0:0:0:0:
256,192,120258,1,0,0:0:0:0:
256,192,120304,1,0,0:0:0:0:
256,192,120351,1,8,0:0:0:0:
256,192,120444,1,8,0:0:0:0:
256,192,120538,1,0,0:0:0:0:
256,192,120631,1,8,0:0:0:0:
256,192,120678,1,8,0:0:0:0:
256,192,120725,1,0,0:0:0:0:
256,192,120818,1,0,0:0:0:0:
256,192,120865,1,0,0:0:0:0:
256,192,120912,1,8,0:0:0:0:
256,192,121005,1,0,0:0:0:0:
256,192,121099,1,8,0:0:0:0:
256,192,121192,1,8,0:0:0:0:
256,192,121286,1,0,0:0:0:0:
256,192,121379,1,0,0:0:0:0:
256,192,121472,1,8,0:0:0:0:
256,192,121519,1,0,0:0:0:0:
256,192,121566,1,0,0:0:0:0:
256,192,121613,1,0,0:0:0:0:
256,192,121659,1,8,0:0:0:0:
256,192,121753,1,0,0:0:0:0:
256,192,121846,1,8,0:0:0:0:
256,192,121940,1,0,0:0:0:0:
256,192,122033,1,0,0:0:0:0:
256,192,122127,1,8,0:0:0:0:
256,192,122220,1,0,0:0:0:0:
256,192,122267,1,0,0:0:0:0:
256,192,122314,1,8,0:0:0:0:
256,192,122360,1,8,0:0:0:0:
256,192,122407,1,0,0:0:0:0:
256,192,122594,1,8,0:0:0:0:
256,192,122656,1,8,0:0:0:0:
256,192,122719,1,0,0:0:0:0:
256,192,122781,1,0,0:0:0:0:
256,192,122843,1,8,0:0:0:0:
256,192,122906,1,0,0:0:0:0:
256,192,122968,1,0,0:0:0:0:
256,192,123030,1,8,0:0:0:0:
256,192,123092,1,0,0:0:0:0:
256,192,123155,1,8,0:0:0:0:
256,192,123217,1,0,0:0:0:0:
256,192,123279,1,8,0:0:0:0:
256,192,123342,1,8,0:0:0:0:
256,192,123404,1,0,0:0:0:0:
256,192,123466,1,0,0:0:0:0:
256,192,123529,1,8,0:0:0:0:
256,192,123591,1,0,0:0:0:0:
256,192,123653,1,0,0:0:0:0:
256,192,123715,1,8,0:0:0:0:
256,192,123778,1,0,0:0:0:0:
256,192,123840,1,8,0:0:0:0:
256,192,123902,1,8,0:0:0:0:
256,192,123965,1,0,0:0:0:0:
256,192,124027,1,8,0:0:0:0:
256,192,124089,1,8,0:0:0:0:
256,192,124152,1,0,0:0:0:0:
256,192,124214,1,0,0:0:0:0:
256,192,124276,1,8,0:0:0:0:
256,192,124339,1,0,0:0:0:0:
256,192,124401,1,0,0:0:0:0:
256,192,124463,1,8,0:0:0:0:
256,192,124525,1,8,0:0:0:0:
256,192,124588,1,8,0:0:0:0:
256,192,124650,1,0,0:0:0:0:
256,192,124712,1,0,0:0:0:0:
256,192,124775,1,8,0:0:0:0:
256,192,124837,1,8,0:0:0:0:
256,192,124899,1,0,0:0:0:0:
256,192,124962,1,0,0:0:0:0:
256,192,125024,1,8,0:0:0:0:
256,192,125086,1,0,0:0:0:0:
256,192,125149,1,0,0:0:0:0:
256,192,125211,1,8,0:0:0:0:
256,192,125273,1,8,0:0:0:0:
256,192,125335,1,8,0:0:0:0:
256,192,125398,1,0,0:0:0:0:
256,192,125585,1,8,0:0:0:0:
256,192,125631,1,8,0:0:0:0:
256,192,125678,1,0,0:0:0:0:
256,192,125725,1,0,0:0:0:0:
256,192,125772,1,8,0:0:0:0:
256,192,125818,1,0,0:0:0:0:
256,192,125865,1,8,0:0:0:0:
256,192,125912,1,8,0:0:0:0:
256,192,125958,1,0,0:0:0:0:
256,192,126005,1,8,0:0:0:0:
256,192,126052,1,0,0:0:0:0:
256,192,126099,1,0,0:0:0:0:
256,192,126145,1,8,0:0:0:0:
256,192,126239,1,8,0:0:0:0:
256,192,126332,1,0,0:0:0:0:
256,192,126379,1,0,0:0:0:0:
256,192,126426,1,8,0:0:0:0:
256,192,126472,1,8,0:0:0:0:
256,192,126519,1,0,0:0:0:0:
256,192,126566,1,8,0:0:0:0:
256,192,126613,1,8,0:0:0:0:
256,192,126659,1,8,0:0:0:0:
256,192,126706,1,0,0:0:0:0:
256,192,126753,1,0,0:0:0:0:
256,192,126800,1,8,0:0:0:0:
256,192,126846,1,0,0:0:0:0:
256,192,126893,1,8,0:0:0:0:
256,192,126987,1,0,0:0:0:0:
256,192,127080,1,8,0:0:0:0:
256,192,127127,1,8,0:0:0:0:
256,192,127173,1,0,0:0:0:0:
256,192,127220,1,0,0:0:0:0:
256,192,127267,1,8,0:0:0:0:
256,192,127314,1,0,0:0:0:0:
256,192,127360,1,8,0:0:0:0:
256,192,127407,1,8,0:0:0:0:
256,192,127454,1,0,0:0:0:0:
256,192,127501,1,0,0:0:0:0:
256,192,127547,1,8,0:0:0:0:
256,192,127594,1,0,0:0:0:0:
256,192,127641,1,8,0:0:0:0:
256,192,127687,1,8,0:0:0:0:
256,192,127734,1,0,0:0:0:0:
256,192,127781,1,0,0:0:0:0:
256,192,127828,1,12,0:0:0:0:
256,192,128015,1,0,0:0:0:0:
256,192,128061,1,0,0:0:0:0:
256,192,128108,1,12,0:0:0:0:
256,192,128295,1,8,0:0:0:0:
256,192,128342,1,8,0:0:0:0:
256,192,128388,1,4,0:0:0:0:
256,192,128575,1,0,0:0:0:0:
256,192,128669,1,0,0:0:0:0:
256,192,128762,1,8,0:0:0:0:
256,192,128856,1,8,0:0:0:0:
256,192,128949,1,4,0:0:0:0:
256,192,129043,12,0,131753,0:0:0:0:
