osu file format v14

[General]
AudioFilename: audio.ogg
AudioLeadIn: 0
PreviewTime: 95484
Countdown: 0
SampleSet: Normal
StackLeniency: 0.7
Mode: 1
LetterboxInBreaks: 0
WidescreenStoryboard: 1

[Editor]
DistanceSpacing: 2
BeatDivisor: 4
GridSize: 32
TimelineZoom: 2.499999

[Metadata]
Title:LaureLs ~the Angelus~
TitleUnicode:LaμreLs ~the Angelus~
Artist:Ashrount
ArtistUnicode:Ashrount
Creator:Dusk-
Version:BASIC
Source:SOUND VOLTEX EXCEED GEAR
Tags:sdvx hexadiver electronic instrumental friggy-chan hivie video rhythm game speedcore
BeatmapID:4229414
BeatmapSetID:2028207

[Difficulty]
HPDrainRate:8
CircleSize:5
OverallDifficulty:3
ApproachRate:9
SliderMultiplier:0.8
SliderTickRate:1

[Events]
//Background and Video events
0,0,"bg.jpg",0,-10
//Break Periods
2,28588,30966
//Storyboard Layer 0 (Background)
//Storyboard Layer 1 (Fail)
//Storyboard Layer 2 (Pass)
//Storyboard Layer 3 (Foreground)
//Storyboard Layer 4 (Overlay)
//Storyboard Sound Samples

[TimingPoints]
1473,186.915887850467,4,1,0,100,1,0
2968,-100,4,1,0,100,0,1
4089,-100,4,1,0,100,0,0
38856,-100,4,1,0,100,0,1
39603,-100,4,1,0,100,0,0
95678,-100,4,1,0,100,0,1
107267,-100,4,1,0,100,0,0
107641,-100,4,1,0,100,0,1
118856,-100,4,1,0,100,0,0
119600,-100,4,1,0,100,0,0
119603,-100,4,1,0,100,0,1
122407,-100,4,1,0,100,0,0
122594,-100,4,1,0,100,0,1
125398,-100,4,1,0,100,0,0
125585,-100,4,1,0,100,0,1
128388,-100,4,1,0,100,0,0
128666,-100,4,1,0,100,0,0
128996,-100,4,1,0,40,0,0

[HitObjects]
256,192,1472,5,4,0:0:0:0:
256,192,2968,12,0,3715,0:0:0:0:
256,192,4463,5,4,0:0:0:0:
256,192,5958,1,12,0:0:0:0:
256,192,7454,1,4,0:0:0:0:
256,192,8201,1,4,0:0:0:0:
256,192,8949,1,12,0:0:0:0:
256,192,10444,1,0,0:0:0:0:
256,192,11192,1,0,0:0:0:0:
256,192,11566,1,8,0:0:0:0:
256,192,11940,1,0,0:0:0:0:
256,192,12687,1,8,0:0:0:0:
256,192,13435,1,0,0:0:0:0:
256,192,13809,1,0,0:0:0:0:
256,192,14183,1,8,0:0:0:0:
256,192,14557,1,8,0:0:0:0:
256,192,14930,1,0,0:0:0:0:
256,192,16613,1,0,0:0:0:0:
256,192,17173,1,8,0:0:0:0:
256,192,18108,1,0,0:0:0:0:
256,192,18669,1,8,0:0:0:0:
256,192,19043,1,8,0:0:0:0:
256,192,19416,1,0,0:0:0:0:
256,192,20912,1,8,0:0:0:0:
256,192,21286,1,0,0:0:0:0:
256,192,21659,1,8,0:0:0:0:
256,192,22407,1,0,0:0:0:0:
256,192,22781,1,8,0:0:0:0:
256,192,23155,1,0,0:0:0:0:
256,192,23902,1,8,0:0:0:0:
256,192,24276,1,0,0:0:0:0:
256,192,24650,1,0,0:0:0:0:
256,192,25024,1,0,0:0:0:0:
256,192,25398,1,8,0:0:0:0:
256,192,26145,1,0,0:0:0:0:
256,192,26893,1,8,0:0:0:0:
256,192,27267,1,0,0:0:0:0:
256,192,27641,1,8,0:0:0:0:
256,192,28015,1,0,0:0:0:0:
256,192,28388,1,8,0:0:0:0:
256,192,31566,5,0,0:0:0:0:
256,192,32033,1,8,0:0:0:0:
256,192,32874,1,8,0:0:0:0:
256,192,33248,1,0,0:0:0:0:
256,192,33622,1,8,0:0:0:0:
256,192,34370,5,0,0:0:0:0:
256,192,35117,1,8,0:0:0:0:
256,192,35772,1,8,0:0:0:0:
256,192,36332,1,8,0:0:0:0:
256,192,37360,1,0,0:0:0:0:
256,192,38108,1,8,0:0:0:0:
256,192,38856,1,8,0:0:0:0:
256,192,39230,1,8,0:0:0:0:
256,192,39603,1,8,0:0:0:0:
256,192,40351,1,0,0:0:0:0:
256,192,41099,1,8,0:0:0:0:
256,192,41846,1,0,0:0:0:0:
256,192,42220,1,8,0:0:0:0:
256,192,42594,1,0,0:0:0:0:
256,192,43342,1,8,0:0:0:0:
256,192,43902,1,8,0:0:0:0:
256,192,44463,1,8,0:0:0:0:
256,192,44837,1,0,0:0:0:0:
256,192,46332,1,0,0:0:0:0:
256,192,46706,1,0,0:0:0:0:
256,192,47080,1,0,0:0:0:0:
256,192,47828,1,8,0:0:0:0:
256,192,48201,1,8,0:0:0:0:
256,192,48575,1,8,0:0:0:0:
256,192,49323,1,0,0:0:0:0:
256,192,49884,1,0,0:0:0:0:
256,192,50444,1,0,0:0:0:0:
256,192,50818,1,8,0:0:0:0:
256,192,51566,1,8,0:0:0:0:
256,192,51940,1,8,0:0:0:0:
256,192,52314,1,0,0:0:0:0:
256,192,55304,1,0,0:0:0:0:
256,192,56052,1,8,0:0:0:0:
256,192,56800,1,0,0:0:0:0:
256,192,57173,1,0,0:0:0:0:
256,192,57547,1,0,0:0:0:0:
256,192,58295,1,8,0:0:0:0:
256,192,59043,1,0,0:0:0:0:
256,192,59790,1,0,0:0:0:0:
256,192,60164,1,8,0:0:0:0:
256,192,60538,1,0,0:0:0:0:
256,192,61659,1,8,0:0:0:0:
256,192,62033,1,0,0:0:0:0:
256,192,62781,1,0,0:0:0:0:
256,192,63155,1,0,0:0:0:0:
256,192,63529,1,8,0:0:0:0:
256,192,63902,1,8,0:0:0:0:
256,192,64276,1,0,0:0:0:0:
256,192,65024,1,8,0:0:0:0:
256,192,65398,1,0,0:0:0:0:
256,192,65772,1,8,0:0:0:0:
256,192,67267,1,8,0:0:0:0:
256,192,67641,1,0,0:0:0:0:
256,192,68015,1,8,0:0:0:0:
256,192,68388,1,8,0:0:0:0:
256,192,68762,1,0,0:0:0:0:
256,192,69510,1,8,0:0:0:0:
256,192,70258,1,0,0:0:0:0:
256,192,70631,1,8,0:0:0:0:
256,192,71005,1,0,0:0:0:0:
256,192,71379,1,0,0:0:0:0:
256,192,71753,1,8,0:0:0:0:
256,192,73248,1,8,0:0:0:0:
256,192,73996,1,0,0:0:0:0:
256,192,74744,1,8,0:0:0:0:
256,192,75117,1,8,0:0:0:0:
256,192,75491,1,0,0:0:0:0:
256,192,76239,1,0,0:0:0:0:
256,192,76613,1,8,0:0:0:0:
256,192,76987,1,0,0:0:0:0:
256,192,77360,1,8,0:0:0:0:
256,192,77734,1,0,0:0:0:0:
256,192,79230,1,12,0:0:0:0:
256,192,79977,1,8,0:0:0:0:
256,192,80725,1,0,0:0:0:0:
256,192,82220,1,8,0:0:0:0:
256,192,82968,1,8,0:0:0:0:
256,192,83715,1,0,0:0:0:0:
256,192,84463,1,0,0:0:0:0:
256,192,85211,1,12,0:0:0:0:
256,192,86706,1,12,0:0:0:0:
256,192,87454,1,12,0:0:0:0:
256,192,88201,1,12,0:0:0:0:
256,192,88949,1,0,0:0:0:0:
256,192,89323,1,0,0:0:0:0:
256,192,89697,1,8,0:0:0:0:
256,192,92687,5,0,0:0:0:0:
256,192,93248,1,0,0:0:0:0:
256,192,93809,1,0,0:0:0:0:
256,192,94183,1,8,0:0:0:0:
256,192,95678,5,12,0:0:0:0:
256,192,96426,1,0,0:0:0:0:
256,192,96800,1,0,0:0:0:0:
256,192,97173,1,8,0:0:0:0:
256,192,97547,1,0,0:0:0:0:
256,192,97921,1,8,0:0:0:0:
256,192,98669,1,0,0:0:0:0:
256,192,99043,1,8,0:0:0:0:
256,192,99416,1,8,0:0:0:0:
256,192,99790,1,0,0:0:0:0:
256,192,100164,1,0,0:0:0:0:
256,192,101659,1,0,0:0:0:0:
256,192,102407,1,8,0:0:0:0:
256,192,102781,1,0,0:0:0:0:
256,192,103155,1,8,0:0:0:0:
256,192,103529,1,0,0:0:0:0:
256,192,103902,1,8,0:0:0:0:
256,192,104650,1,0,0:0:0:0:
256,192,105024,1,8,0:0:0:0:
256,192,105398,1,8,0:0:0:0:
256,192,105772,1,8,0:0:0:0:
256,192,106145,1,0,0:0:0:0:
256,192,107641,1,12,0:0:0:0:
256,192,108388,1,8,0:0:0:0:
256,192,108762,1,8,0:0:0:0:
256,192,109136,1,0,0:0:0:0:
256,192,109510,1,0,0:0:0:0:
256,192,109884,1,8,0:0:0:0:
256,192,110631,1,8,0:0:0:0:
256,192,111005,1,0,0:0:0:0:
256,192,111379,1,8,0:0:0:0:
256,192,111753,1,8,0:0:0:0:
256,192,112127,1,0,0:0:0:0:
256,192,113622,1,0,0:0:0:0:
256,192,114370,1,0,0:0:0:0:
256,192,115117,1,8,0:0:0:0:
256,192,115491,1,8,0:0:0:0:
256,192,115865,1,0,0:0:0:0:
256,192,116613,1,0,0:0:0:0:
256,192,116987,1,0,0:0:0:0:
256,192,117360,1,8,0:0:0:0:
256,192,117734,1,8,0:0:0:0:
256,192,118108,1,0,0:0:0:0:
256,192,119603,1,0,0:0:0:0:
256,192,120351,1,0,0:0:0:0:
256,192,121099,1,8,0:0:0:0:
256,192,121472,1,0,0:0:0:0:
256,192,121846,1,8,0:0:0:0:
256,192,122594,1,0,0:0:0:0:
256,192,122968,1,0,0:0:0:0:
256,192,123342,1,0,0:0:0:0:
256,192,123715,1,0,0:0:0:0:
256,192,124089,1,8,0:0:0:0:
256,192,125585,1,8,0:0:0:0:
256,192,125958,1,0,0:0:0:0:
256,192,126332,1,8,0:0:0:0:
256,192,127080,1,8,0:0:0:0:
256,192,127454,1,0,0:0:0:0:
256,192,127828,1,8,0:0:0:0:
256,192,128201,1,8,0:0:0:0:
256,192,128949,1,4,0:0:0:0:
256,192,129136,12,0,131940,0:0:0:0:
