osu file format v14

[General]
AudioFilename: audio.ogg
AudioLeadIn: 0
PreviewTime: 95484
Countdown: 0
SampleSet: Normal
StackLeniency: 0.7
Mode: 1
LetterboxInBreaks: 0
WidescreenStoryboard: 1

[Editor]
Bookmarks: 16465
DistanceSpacing: 2
BeatDivisor: 4
GridSize: 32
TimelineZoom: 2.199999

[Metadata]
Title:LaureLs ~the Angelus~
TitleUnicode:LaμreLs ~the Angelus~
Artist:Ashrount
ArtistUnicode:Ashrount
Creator:Dusk-
Version:ADVANCED
Source:SOUND VOLTEX EXCEED GEAR
Tags:sdvx hexadiver electronic instrumental friggy-chan hivie video rhythm game speedcore
BeatmapID:4229413
BeatmapSetID:2028207

[Difficulty]
HPDrainRate:6
CircleSize:5
OverallDifficulty:5
ApproachRate:9
SliderMultiplier:0.85
SliderTickRate:1

[Events]
//Background and Video events
0,0,"bg.jpg",0,-10
//Break Periods
2,28587,30404
//Storyboard Layer 0 (Background)
//Storyboard Layer 1 (Fail)
//Storyboard Layer 2 (Pass)
//Storyboard Layer 3 (Foreground)
//Storyboard Layer 4 (Overlay)
//Storyboard Sound Samples

[TimingPoints]
1473,186.915887850467,4,1,0,100,1,0
2968,-100,4,1,0,100,0,1
4089,-100,4,1,0,100,0,0
38856,-100,4,1,0,100,0,1
39603,-100,4,1,0,100,0,0
95678,-100,4,1,0,100,0,1
107267,-100,4,1,0,100,0,0
107641,-100,4,1,0,100,0,1
118856,-100,4,1,0,100,0,0
119600,-100,4,1,0,100,0,0
119603,-100,4,1,0,100,0,1
122407,-100,4,1,0,100,0,0
122594,-100,4,1,0,100,0,1
125398,-100,4,1,0,100,0,0
125585,-100,4,1,0,100,0,1
128388,-100,4,1,0,100,0,0
128666,-100,4,1,0,100,0,0
128996,-100,4,1,0,40,0,0

[HitObjects]
256,192,1472,5,4,0:0:0:0:
256,192,2967,1,8,0:0:0:0:
256,192,3154,1,8,0:0:0:0:
256,192,3247,1,8,0:0:0:0:
256,192,3341,1,8,0:0:0:0:
256,192,3528,1,8,0:0:0:0:
256,192,3714,1,0,0:0:0:0:
256,192,3808,1,0,0:0:0:0:
256,192,3901,1,0,0:0:0:0:
256,192,4088,1,8,0:0:0:0:
256,192,4462,5,4,0:0:0:0:
256,192,4743,1,4,0:0:0:0:
256,192,5957,1,12,0:0:0:0:
256,192,6238,1,12,0:0:0:0:
256,192,7453,1,4,0:0:0:0:
256,192,7733,1,4,0:0:0:0:
256,192,8200,1,4,0:0:0:0:
256,192,8481,1,4,0:0:0:0:
256,192,8948,1,12,0:0:0:0:
256,192,9229,1,12,0:0:0:0:
256,192,9509,1,12,0:0:0:0:
256,192,9696,1,4,0:0:0:0:
256,192,10443,1,4,0:0:0:0:
256,192,10817,1,8,0:0:0:0:
256,192,11004,1,8,0:0:0:0:
256,192,11191,1,0,0:0:0:0:
256,192,11285,1,0,0:0:0:0:
256,192,11378,1,0,0:0:0:0:
256,192,11565,1,8,0:0:0:0:
256,192,11752,1,8,0:0:0:0:
256,192,11939,1,0,0:0:0:0:
256,192,12313,1,8,0:0:0:0:
256,192,12500,1,8,0:0:0:0:
256,192,12593,1,8,0:0:0:0:
256,192,12686,1,8,0:0:0:0:
256,192,13434,1,8,0:0:0:0:
256,192,13714,1,0,0:0:0:0:
256,192,13995,1,8,0:0:0:0:
256,192,14182,1,0,0:0:0:0:
256,192,14275,1,0,0:0:0:0:
256,192,14369,1,0,0:0:0:0:
256,192,14556,1,8,0:0:0:0:
256,192,14743,1,8,0:0:0:0:
256,192,14929,1,0,0:0:0:0:
256,192,15490,1,4,0:0:0:0:
256,192,15864,1,12,0:0:0:0:
256,192,16144,1,12,0:0:0:0:
256,192,16612,1,0,0:0:0:0:
256,192,16799,1,0,0:0:0:0:
256,192,16986,1,0,0:0:0:0:
256,192,17172,1,8,0:0:0:0:
256,192,17359,1,8,0:0:0:0:
256,192,17546,1,0,0:0:0:0:
256,192,17733,1,8,0:0:0:0:
256,192,18107,1,0,0:0:0:0:
256,192,18294,1,8,0:0:0:0:
256,192,18481,1,0,0:0:0:0:
256,192,18574,1,0,0:0:0:0:
256,192,18668,1,0,0:0:0:0:
256,192,18855,1,0,0:0:0:0:
256,192,19042,1,8,0:0:0:0:
256,192,19229,1,8,0:0:0:0:
256,192,19415,1,0,0:0:0:0:
256,192,19976,1,0,0:0:0:0:
256,192,20163,1,8,0:0:0:0:
256,192,20443,1,0,0:0:0:0:
256,192,20630,1,0,0:0:0:0:
256,192,20724,1,0,0:0:0:0:
256,192,20911,1,8,0:0:0:0:
256,192,21098,1,8,0:0:0:0:
256,192,21285,1,0,0:0:0:0:
256,192,21472,1,0,0:0:0:0:
256,192,21658,1,12,0:0:0:0:
256,192,21939,1,12,0:0:0:0:
256,192,22219,1,12,0:0:0:0:
256,192,22593,1,0,0:0:0:0:
256,192,22780,1,0,0:0:0:0:
256,192,22873,1,0,0:0:0:0:
256,192,22967,1,0,0:0:0:0:
256,192,23154,1,8,0:0:0:0:
256,192,23341,1,8,0:0:0:0:
256,192,23528,1,0,0:0:0:0:
256,192,23714,1,8,0:0:0:0:
256,192,24088,1,0,0:0:0:0:
256,192,24275,1,8,0:0:0:0:
256,192,24369,1,8,0:0:0:0:
256,192,24462,1,8,0:0:0:0:
256,192,24649,1,0,0:0:0:0:
256,192,24836,1,8,0:0:0:0:
256,192,25023,1,0,0:0:0:0:
256,192,25210,1,0,0:0:0:0:
256,192,25397,1,8,0:0:0:0:
256,192,26144,1,0,0:0:0:0:
256,192,26425,1,8,0:0:0:0:
256,192,26705,1,8,0:0:0:0:
256,192,26892,1,0,0:0:0:0:
256,192,27079,1,8,0:0:0:0:
256,192,27266,1,0,0:0:0:0:
256,192,27359,1,0,0:0:0:0:
256,192,27546,1,8,0:0:0:0:
256,192,27733,1,0,0:0:0:0:
256,192,27920,1,8,0:0:0:0:
256,192,28107,1,0,0:0:0:0:
256,192,28387,1,12,0:0:0:0:
256,192,31004,5,8,0:0:0:0:
256,192,31098,1,8,0:0:0:0:
256,192,31191,1,8,0:0:0:0:
256,192,31565,5,0,0:0:0:0:
256,192,31752,1,0,0:0:0:0:
256,192,31845,1,0,0:0:0:0:
256,192,32032,1,8,0:0:0:0:
256,192,32219,1,0,0:0:0:0:
256,192,32406,1,8,0:0:0:0:
256,192,32593,1,8,0:0:0:0:
256,192,32687,1,8,0:0:0:0:
256,192,32873,1,0,0:0:0:0:
256,192,33434,1,8,0:0:0:0:
256,192,33621,1,4,0:0:0:0:
256,192,33901,1,4,0:0:0:0:
256,192,34182,5,4,0:0:0:0:
256,192,34369,1,12,0:0:0:0:
256,192,35116,1,8,0:0:0:0:
256,192,35210,1,8,0:0:0:0:
256,192,35490,1,8,0:0:0:0:
256,192,35771,1,8,0:0:0:0:
256,192,36051,1,8,0:0:0:0:
256,192,36331,1,8,0:0:0:0:
256,192,36612,1,8,0:0:0:0:
256,192,36799,1,0,0:0:0:0:
256,192,36986,1,8,0:0:0:0:
256,192,37079,1,8,0:0:0:0:
256,192,37172,1,8,0:0:0:0:
256,192,37359,1,0,0:0:0:0:
256,192,37733,1,0,0:0:0:0:
256,192,37920,1,0,0:0:0:0:
256,192,38107,1,8,0:0:0:0:
256,192,38294,1,8,0:0:0:0:
256,192,38481,1,0,0:0:0:0:
256,192,38668,1,0,0:0:0:0:
256,192,38855,1,8,0:0:0:0:
256,192,38948,1,8,0:0:0:0:
256,192,39042,1,8,0:0:0:0:
256,192,39229,1,0,0:0:0:0:
256,192,39415,1,0,0:0:0:0:
256,192,39602,1,8,0:0:0:0:
256,192,40350,1,4,0:0:0:0:
256,192,40724,1,8,0:0:0:0:
256,192,40911,1,0,0:0:0:0:
256,192,41004,1,0,0:0:0:0:
256,192,41285,1,8,0:0:0:0:
256,192,41472,1,0,0:0:0:0:
256,192,41658,1,0,0:0:0:0:
256,192,41845,1,8,0:0:0:0:
256,192,42032,1,0,0:0:0:0:
256,192,42219,1,8,0:0:0:0:
256,192,42406,1,8,0:0:0:0:
256,192,42500,1,8,0:0:0:0:
256,192,42780,1,0,0:0:0:0:
256,192,42967,1,8,0:0:0:0:
256,192,43154,1,8,0:0:0:0:
256,192,43341,1,0,0:0:0:0:
256,192,43901,1,0,0:0:0:0:
256,192,44462,1,8,0:0:0:0:
256,192,44649,1,0,0:0:0:0:
256,192,44743,1,0,0:0:0:0:
256,192,44836,1,0,0:0:0:0:
256,192,45023,1,0,0:0:0:0:
256,192,45210,1,8,0:0:0:0:
256,192,45397,1,0,0:0:0:0:
256,192,45584,1,8,0:0:0:0:
256,192,46331,1,0,0:0:0:0:
256,192,46518,1,8,0:0:0:0:
256,192,46705,1,0,0:0:0:0:
256,192,46892,1,0,0:0:0:0:
256,192,46986,1,0,0:0:0:0:
256,192,47266,1,8,0:0:0:0:
256,192,47453,1,0,0:0:0:0:
256,192,47640,1,8,0:0:0:0:
256,192,47827,1,0,0:0:0:0:
256,192,48014,1,0,0:0:0:0:
256,192,48200,1,8,0:0:0:0:
256,192,48387,1,8,0:0:0:0:
256,192,48481,1,8,0:0:0:0:
256,192,48948,1,8,0:0:0:0:
256,192,49135,1,8,0:0:0:0:
256,192,49322,1,4,0:0:0:0:
256,192,49602,1,4,0:0:0:0:
256,192,49883,1,12,0:0:0:0:
256,192,50443,1,12,0:0:0:0:
256,192,50630,1,4,0:0:0:0:
256,192,50817,1,12,0:0:0:0:
256,192,51098,1,8,0:0:0:0:
256,192,51378,1,8,0:0:0:0:
256,192,51565,1,0,0:0:0:0:
256,192,51658,1,0,0:0:0:0:
256,192,51752,1,0,0:0:0:0:
256,192,51939,1,8,0:0:0:0:
256,192,52126,1,8,0:0:0:0:
256,192,52313,1,4,0:0:0:0:
256,192,52500,12,0,54930,0:0:0:0:
256,192,55303,5,0,0:0:0:0:
256,192,55677,1,12,0:0:0:0:
256,192,56051,1,0,0:0:0:0:
256,192,56238,1,0,0:0:0:0:
256,192,56425,1,8,0:0:0:0:
256,192,56612,1,8,0:0:0:0:
256,192,56705,1,8,0:0:0:0:
256,192,56986,1,0,0:0:0:0:
256,192,57172,1,8,0:0:0:0:
256,192,57266,1,8,0:0:0:0:
256,192,57359,1,8,0:0:0:0:
256,192,57546,1,0,0:0:0:0:
256,192,57733,1,8,0:0:0:0:
256,192,57920,1,4,0:0:0:0:
256,192,58294,1,12,0:0:0:0:
256,192,58668,1,8,0:0:0:0:
256,192,58855,1,8,0:0:0:0:
256,192,59042,1,0,0:0:0:0:
256,192,59229,1,0,0:0:0:0:
256,192,59415,1,8,0:0:0:0:
256,192,59789,1,8,0:0:0:0:
256,192,59976,1,0,0:0:0:0:
256,192,60070,1,0,0:0:0:0:
256,192,60163,1,0,0:0:0:0:
256,192,60537,1,12,0:0:0:0:
256,192,60817,1,12,0:0:0:0:
256,192,61098,1,12,0:0:0:0:
256,192,61658,1,12,0:0:0:0:
256,192,62032,1,0,0:0:0:0:
256,192,62219,1,0,0:0:0:0:
256,192,62406,1,8,0:0:0:0:
256,192,62780,1,0,0:0:0:0:
256,192,63154,1,8,0:0:0:0:
256,192,63247,1,8,0:0:0:0:
256,192,63341,1,8,0:0:0:0:
256,192,63528,1,0,0:0:0:0:
256,192,63714,1,0,0:0:0:0:
256,192,63901,1,12,0:0:0:0:
256,192,64275,1,4,0:0:0:0:
256,192,64649,1,8,0:0:0:0:
256,192,64836,1,0,0:0:0:0:
256,192,65023,1,8,0:0:0:0:
256,192,65116,1,8,0:0:0:0:
256,192,65210,1,8,0:0:0:0:
256,192,65397,1,8,0:0:0:0:
256,192,65584,1,0,0:0:0:0:
256,192,65771,1,8,0:0:0:0:
256,192,65957,1,0,0:0:0:0:
256,192,66051,1,0,0:0:0:0:
256,192,66144,1,0,0:0:0:0:
256,192,66331,1,0,0:0:0:0:
256,192,66518,1,8,0:0:0:0:
256,192,66705,1,8,0:0:0:0:
256,192,66892,1,0,0:0:0:0:
256,192,66986,1,0,0:0:0:0:
256,192,67079,1,0,0:0:0:0:
256,192,67266,1,12,0:0:0:0:
256,192,67827,1,8,0:0:0:0:
256,192,67920,1,8,0:0:0:0:
256,192,68014,1,8,0:0:0:0:
256,192,68387,1,0,0:0:0:0:
256,192,68481,1,0,0:0:0:0:
256,192,68574,1,0,0:0:0:0:
256,192,68761,1,8,0:0:0:0:
256,192,69042,1,8,0:0:0:0:
256,192,69322,1,8,0:0:0:0:
256,192,69509,1,0,0:0:0:0:
256,192,70070,1,0,0:0:0:0:
256,192,70257,1,8,0:0:0:0:
256,192,70817,1,8,0:0:0:0:
256,192,70911,1,8,0:0:0:0:
256,192,71004,1,8,0:0:0:0:
256,192,71191,1,0,0:0:0:0:
256,192,71378,1,8,0:0:0:0:
256,192,71565,1,8,0:0:0:0:
256,192,71752,1,0,0:0:0:0:
256,192,72032,1,0,0:0:0:0:
256,192,72313,1,0,0:0:0:0:
256,192,72500,1,8,0:0:0:0:
256,192,72686,1,0,0:0:0:0:
256,192,72873,1,8,0:0:0:0:
256,192,73060,1,8,0:0:0:0:
256,192,73247,1,4,0:0:0:0:
256,192,73995,1,8,0:0:0:0:
256,192,74275,1,0,0:0:0:0:
256,192,74556,1,0,0:0:0:0:
256,192,74743,1,8,0:0:0:0:
256,192,75023,1,8,0:0:0:0:
256,192,75303,1,0,0:0:0:0:
256,192,75490,1,8,0:0:0:0:
256,192,76051,1,8,0:0:0:0:
256,192,76238,1,0,0:0:0:0:
256,192,76425,1,8,0:0:0:0:
256,192,76612,1,0,0:0:0:0:
256,192,76705,1,0,0:0:0:0:
256,192,76799,1,0,0:0:0:0:
256,192,76986,1,8,0:0:0:0:
256,192,77172,1,0,0:0:0:0:
256,192,77359,1,8,0:0:0:0:
256,192,77453,1,8,0:0:0:0:
256,192,77546,1,8,0:0:0:0:
256,192,77733,1,0,0:0:0:0:
256,192,78855,1,8,0:0:0:0:
256,192,78948,1,8,0:0:0:0:
256,192,79042,1,8,0:0:0:0:
256,192,79229,1,4,0:0:0:0:
256,192,79509,1,8,0:0:0:0:
256,192,79789,1,8,0:0:0:0:
256,192,79976,1,0,0:0:0:0:
256,192,80724,1,0,0:0:0:0:
256,192,81004,1,0,0:0:0:0:
256,192,81285,1,0,0:0:0:0:
256,192,81472,1,8,0:0:0:0:
256,192,82219,1,8,0:0:0:0:
256,192,82406,1,8,0:0:0:0:
256,192,82593,1,0,0:0:0:0:
256,192,82780,1,0,0:0:0:0:
256,192,82967,1,8,0:0:0:0:
256,192,83154,1,0,0:0:0:0:
256,192,83341,1,8,0:0:0:0:
256,192,83528,1,8,0:0:0:0:
256,192,83714,1,0,0:0:0:0:
256,192,83901,1,0,0:0:0:0:
256,192,84088,1,8,0:0:0:0:
256,192,84275,1,8,0:0:0:0:
256,192,84462,1,0,0:0:0:0:
256,192,84649,1,0,0:0:0:0:
256,192,84836,1,8,0:0:0:0:
256,192,85210,1,4,0:0:0:0:
256,192,85490,1,8,0:0:0:0:
256,192,85771,1,8,0:0:0:0:
256,192,85957,1,4,0:0:0:0:
256,192,86705,1,4,0:0:0:0:
256,192,86986,1,8,0:0:0:0:
256,192,87266,1,8,0:0:0:0:
256,192,87453,1,4,0:0:0:0:
256,192,87733,1,4,0:0:0:0:
256,192,88200,1,8,0:0:0:0:
256,192,88481,1,0,0:0:0:0:
256,192,88761,1,8,0:0:0:0:
256,192,88948,1,0,0:0:0:0:
256,192,89042,1,0,0:0:0:0:
256,192,89135,1,0,0:0:0:0:
256,192,89322,1,8,0:0:0:0:
256,192,89509,1,8,0:0:0:0:
256,192,89696,1,4,0:0:0:0:
256,192,91939,1,8,0:0:0:0:
256,192,92126,1,0,0:0:0:0:
256,192,92313,1,8,0:0:0:0:
256,192,92406,1,8,0:0:0:0:
256,192,92500,1,8,0:0:0:0:
256,192,92686,1,4,0:0:0:0:
256,192,92967,1,4,0:0:0:0:
256,192,93247,1,12,0:0:0:0:
256,192,93528,1,12,0:0:0:0:
256,192,93808,1,0,0:0:0:0:
256,192,93901,1,0,0:0:0:0:
256,192,93995,1,0,0:0:0:0:
256,192,94182,1,8,0:0:0:0:
256,192,94929,1,8,0:0:0:0:
256,192,95023,1,8,0:0:0:0:
256,192,95116,1,8,0:0:0:0:
256,192,95303,1,0,0:0:0:0:
256,192,95677,1,12,0:0:0:0:
256,192,95957,1,0,0:0:0:0:
256,192,96051,1,0,0:0:0:0:
256,192,96238,1,0,0:0:0:0:
256,192,96425,1,8,0:0:0:0:
256,192,96612,1,0,0:0:0:0:
256,192,96799,1,8,0:0:0:0:
256,192,96986,1,0,0:0:0:0:
256,192,97079,1,0,0:0:0:0:
256,192,97172,1,0,0:0:0:0:
256,192,97453,1,8,0:0:0:0:
256,192,97546,1,8,0:0:0:0:
256,192,97733,1,0,0:0:0:0:
256,192,97920,1,8,0:0:0:0:
256,192,98014,1,8,0:0:0:0:
256,192,98107,1,8,0:0:0:0:
256,192,98294,1,0,0:0:0:0:
256,192,98481,1,8,0:0:0:0:
256,192,98668,1,0,0:0:0:0:
256,192,99229,1,8,0:0:0:0:
256,192,99415,1,0,0:0:0:0:
256,192,99509,1,0,0:0:0:0:
256,192,99602,1,0,0:0:0:0:
256,192,99789,1,8,0:0:0:0:
256,192,99976,1,8,0:0:0:0:
256,192,100163,1,0,0:0:0:0:
256,192,100443,1,8,0:0:0:0:
256,192,100724,1,0,0:0:0:0:
256,192,100911,1,8,0:0:0:0:
256,192,101098,1,0,0:0:0:0:
256,192,101191,1,0,0:0:0:0:
256,192,101285,1,0,0:0:0:0:
256,192,101472,1,8,0:0:0:0:
256,192,101658,1,0,0:0:0:0:
256,192,101939,1,0,0:0:0:0:
256,192,102032,1,0,0:0:0:0:
256,192,102219,1,0,0:0:0:0:
256,192,102406,1,8,0:0:0:0:
256,192,102686,1,8,0:0:0:0:
256,192,102780,1,8,0:0:0:0:
256,192,102967,1,8,0:0:0:0:
256,192,103154,1,0,0:0:0:0:
256,192,103901,1,0,0:0:0:0:
256,192,104182,1,8,0:0:0:0:
256,192,104462,1,8,0:0:0:0:
256,192,104649,1,0,0:0:0:0:
256,192,105023,1,8,0:0:0:0:
256,192,105116,1,8,0:0:0:0:
256,192,105210,1,8,0:0:0:0:
256,192,105397,1,0,0:0:0:0:
256,192,105584,1,0,0:0:0:0:
256,192,105771,1,8,0:0:0:0:
256,192,105957,1,0,0:0:0:0:
256,192,106144,1,0,0:0:0:0:
256,192,106238,1,0,0:0:0:0:
256,192,106331,1,0,0:0:0:0:
256,192,106518,1,8,0:0:0:0:
256,192,106705,1,0,0:0:0:0:
256,192,106892,1,8,0:0:0:0:
256,192,107640,1,4,0:0:0:0:
256,192,107920,1,8,0:0:0:0:
256,192,108014,1,8,0:0:0:0:
256,192,108200,1,0,0:0:0:0:
256,192,108387,1,8,0:0:0:0:
256,192,108481,1,8,0:0:0:0:
256,192,108574,1,8,0:0:0:0:
256,192,108761,1,0,0:0:0:0:
256,192,108948,1,8,0:0:0:0:
256,192,109135,1,0,0:0:0:0:
256,192,109415,1,0,0:0:0:0:
256,192,109509,1,0,0:0:0:0:
256,192,109696,1,8,0:0:0:0:
256,192,109883,1,0,0:0:0:0:
256,192,109976,1,0,0:0:0:0:
256,192,110070,1,0,0:0:0:0:
256,192,110257,1,8,0:0:0:0:
256,192,110443,1,8,0:0:0:0:
256,192,110630,1,0,0:0:0:0:
256,192,110911,1,0,0:0:0:0:
256,192,111191,1,8,0:0:0:0:
256,192,111285,1,8,0:0:0:0:
256,192,111472,1,8,0:0:0:0:
256,192,112126,1,0,0:0:0:0:
256,192,112406,1,8,0:0:0:0:
256,192,112686,1,0,0:0:0:0:
256,192,112780,1,0,0:0:0:0:
256,192,112967,1,0,0:0:0:0:
256,192,113247,1,8,0:0:0:0:
256,192,113434,1,8,0:0:0:0:
256,192,113621,1,0,0:0:0:0:
256,192,113901,1,0,0:0:0:0:
256,192,113995,1,0,0:0:0:0:
256,192,114182,1,0,0:0:0:0:
256,192,114369,1,8,0:0:0:0:
256,192,114649,1,8,0:0:0:0:
256,192,114743,1,8,0:0:0:0:
256,192,114929,1,8,0:0:0:0:
256,192,115116,1,0,0:0:0:0:
256,192,115210,1,0,0:0:0:0:
256,192,115303,1,0,0:0:0:0:
256,192,115490,1,8,0:0:0:0:
256,192,115677,1,0,0:0:0:0:
256,192,115864,1,8,0:0:0:0:
256,192,115957,1,8,0:0:0:0:
256,192,116051,1,8,0:0:0:0:
256,192,116238,1,0,0:0:0:0:
256,192,116425,1,8,0:0:0:0:
256,192,116612,1,0,0:0:0:0:
256,192,117172,1,8,0:0:0:0:
256,192,117359,1,0,0:0:0:0:
256,192,117453,1,0,0:0:0:0:
256,192,117546,1,0,0:0:0:0:
256,192,117733,1,8,0:0:0:0:
256,192,117920,1,8,0:0:0:0:
256,192,118107,1,0,0:0:0:0:
256,192,118200,1,0,0:0:0:0:
256,192,118294,1,0,0:0:0:0:
256,192,118481,1,8,0:0:0:0:
256,192,118668,1,8,0:0:0:0:
256,192,118855,1,0,0:0:0:0:
256,192,119602,1,0,0:0:0:0:
256,192,119883,1,0,0:0:0:0:
256,192,120163,1,8,0:0:0:0:
256,192,120257,1,8,0:0:0:0:
256,192,120350,1,8,0:0:0:0:
256,192,120630,1,8,0:0:0:0:
256,192,120911,1,0,0:0:0:0:
256,192,121004,1,0,0:0:0:0:
256,192,121098,1,0,0:0:0:0:
256,192,121378,1,0,0:0:0:0:
256,192,121658,1,8,0:0:0:0:
256,192,121752,1,8,0:0:0:0:
256,192,121845,1,8,0:0:0:0:
256,192,122593,1,0,0:0:0:0:
256,192,122686,1,0,0:0:0:0:
256,192,122873,1,8,0:0:0:0:
256,192,123060,1,0,0:0:0:0:
256,192,123154,1,0,0:0:0:0:
256,192,123341,1,8,0:0:0:0:
256,192,123434,1,8,0:0:0:0:
256,192,123621,1,0,0:0:0:0:
256,192,123901,1,8,0:0:0:0:
256,192,124088,1,0,0:0:0:0:
256,192,124182,1,0,0:0:0:0:
256,192,124369,1,8,0:0:0:0:
256,192,124556,1,0,0:0:0:0:
256,192,124649,1,0,0:0:0:0:
256,192,124836,1,8,0:0:0:0:
256,192,125584,1,0,0:0:0:0:
256,192,125677,1,0,0:0:0:0:
256,192,125771,1,0,0:0:0:0:
256,192,125957,1,8,0:0:0:0:
256,192,126144,1,0,0:0:0:0:
256,192,126331,1,8,0:0:0:0:
256,192,126425,1,8,0:0:0:0:
256,192,126518,1,8,0:0:0:0:
256,192,126705,1,0,0:0:0:0:
256,192,126892,1,8,0:0:0:0:
256,192,127079,1,0,0:0:0:0:
256,192,127172,1,0,0:0:0:0:
256,192,127266,1,0,0:0:0:0:
256,192,127453,1,8,0:0:0:0:
256,192,127640,1,0,0:0:0:0:
256,192,127827,1,8,0:0:0:0:
256,192,127920,1,8,0:0:0:0:
256,192,128107,1,8,0:0:0:0:
256,192,128387,1,8,0:0:0:0:
256,192,128948,1,4,0:0:0:0:
256,192,129135,12,0,131939,0:0:0:0:
