osu file format v14

[General]
AudioFilename: audio.mp3
AudioLeadIn: 0
PreviewTime: 23519
Countdown: 0
SampleSet: Normal
StackLeniency: 0.7
Mode: 3
LetterboxInBreaks: 0
SpecialStyle: 0
WidescreenStoryboard: 0

[Editor]
Bookmarks: 5357,15736,26115,36492,46870,57248,67627,88384,98762,109140,119519,129897
DistanceSpacing: 1.4
BeatDivisor: 6
GridSize: 8
TimelineZoom: 2.199999

[Metadata]
Title:Cataraxir
TitleUnicode:Cataraxir
Artist:Ashrount
ArtistUnicode:Ashrount
Creator:NovaSagittarii
Version:Intervention
Source:
Tags:Arcade Core
BeatmapID:2245055
BeatmapSetID:1072697

[Difficulty]
HPDrainRate:8
CircleSize:4
OverallDifficulty:8
ApproachRate:5
SliderMultiplier:1.4
SliderTickRate:1

[Events]
//Background and Video events
0,0,"75212263_p0.jpg",0,0
//Break Periods
//Storyboard Layer 0 (Background)
//Storyboard Layer 1 (Fail)
//Storyboard Layer 2 (Pass)
//Storyboard Layer 3 (Foreground)
//Storyboard Layer 4 (Overlay)
//Storyboard Sound Samples

[TimingPoints]
5018,324.324324324324,5,1,0,30,1,0
5342,324.324324324324,4,1,0,30,1,0
26098,-100,4,1,0,30,0,1
36477,-100,4,1,0,30,0,0
36963,-100,4,1,0,30,0,1
46855,-100,4,1,0,30,0,0
67612,-100,4,1,0,30,0,1
77990,-100,4,1,0,30,0,0
78314,-100,4,1,0,30,0,1
88206,-100,4,1,0,30,0,0
98747,-100,4,1,0,30,0,1
109125,-100,4,1,0,30,0,0
109450,-100,4,1,0,30,0,1
119504,-100,4,1,0,30,0,0

[HitObjects]
64,192,5017,128,0,5099:0:0:0:0:
64,192,5342,1,0,0:0:0:0:
320,192,5342,128,0,5423:0:0:0:0:
320,192,5504,1,0,0:0:0:0:
320,192,5666,1,0,0:0:0:0:
320,192,5828,1,0,0:0:0:0:
448,192,5828,128,0,5909:0:0:0:0:
448,192,5990,1,0,0:0:0:0:
448,192,6152,1,0,0:0:0:0:
448,192,6314,1,0,0:0:0:0:
192,192,6314,128,0,6396:0:0:0:0:
192,192,6477,1,0,0:0:0:0:
192,192,6639,1,0,0:0:0:0:
192,192,6801,1,0,0:0:0:0:
192,192,6963,1,0,0:0:0:0:
192,192,7125,1,0,0:0:0:0:
448,192,7287,1,0,0:0:0:0:
192,192,7287,128,0,7369:0:0:0:0:
192,192,7450,1,0,0:0:0:0:
192,192,7612,1,0,0:0:0:0:
64,192,7612,128,0,7693:0:0:0:0:
64,192,7774,1,0,0:0:0:0:
64,192,7936,1,0,0:0:0:0:
320,192,7936,128,0,8017:0:0:0:0:
320,192,8098,1,0,0:0:0:0:
320,192,8260,1,0,0:0:0:0:
320,192,8423,1,0,0:0:0:0:
448,192,8423,128,0,8504:0:0:0:0:
448,192,8585,1,0,0:0:0:0:
448,192,8747,1,0,0:0:0:0:
448,192,8909,1,0,0:0:0:0:
192,192,8909,128,0,8990:0:0:0:0:
192,192,9071,1,0,0:0:0:0:
192,192,9233,1,0,0:0:0:0:
192,192,9396,1,0,0:0:0:0:
192,192,9558,1,0,0:0:0:0:
192,192,9720,1,0,0:0:0:0:
448,192,9882,1,0,0:0:0:0:
192,192,9882,128,0,9963:0:0:0:0:
192,192,10044,1,0,0:0:0:0:
192,192,10206,1,0,0:0:0:0:
64,192,10206,128,0,10287:0:0:0:0:
64,192,10369,1,0,0:0:0:0:
64,192,10531,1,0,0:0:0:0:
320,192,10531,128,0,10612:0:0:0:0:
320,192,10693,1,0,0:0:0:0:
320,192,10855,1,0,0:0:0:0:
320,192,10977,1,0,0:0:0:0:
64,192,11017,1,0,0:0:0:0:
448,192,11017,128,0,11098:0:0:0:0:
448,192,11179,1,0,0:0:0:0:
448,192,11341,1,0,0:0:0:0:
448,192,11504,1,0,0:0:0:0:
192,192,11504,128,0,11585:0:0:0:0:
192,192,11666,1,0,0:0:0:0:
192,192,11828,1,0,0:0:0:0:
320,192,11828,1,0,0:0:0:0:
192,192,11990,1,0,0:0:0:0:
192,192,12152,1,0,0:0:0:0:
192,192,12314,1,0,0:0:0:0:
192,192,12477,128,0,12558:0:0:0:0:
320,192,12477,1,0,0:0:0:0:
192,192,12639,1,0,0:0:0:0:
192,192,12801,1,0,0:0:0:0:
448,192,12801,128,0,12882:0:0:0:0:
448,192,12963,1,0,0:0:0:0:
448,192,13125,1,0,0:0:0:0:
320,192,13125,128,0,13206:0:0:0:0:
320,192,13287,1,0,0:0:0:0:
320,192,13450,1,0,0:0:0:0:
320,192,13612,1,0,0:0:0:0:
192,192,13612,128,0,13693:0:0:0:0:
192,192,13774,1,0,0:0:0:0:
192,192,13936,1,0,0:0:0:0:
448,192,14098,1,0,0:0:0:0:
192,192,14098,1,0,0:0:0:0:
64,192,14098,128,0,14179:0:0:0:0:
64,192,14260,1,0,0:0:0:0:
320,192,14423,1,0,0:0:0:0:
64,192,14423,1,0,0:0:0:0:
64,192,14585,1,0,0:0:0:0:
64,192,14747,1,0,0:0:0:0:
64,192,14909,1,0,0:0:0:0:
448,192,14909,1,0,0:0:0:0:
320,192,14990,1,0,0:0:0:0:
192,192,15071,1,0,0:0:0:0:
64,192,15071,128,0,15152:0:0:0:0:
448,192,15152,1,0,0:0:0:0:
320,192,15233,1,0,0:0:0:0:
192,192,15233,128,0,15314:0:0:0:0:
64,192,15314,1,0,0:0:0:0:
448,192,15396,1,0,0:0:0:0:
320,192,15396,128,0,15477:0:0:0:0:
192,192,15477,1,0,0:0:0:0:
64,192,15558,1,0,0:0:0:0:
448,192,15558,128,0,15639:0:0:0:0:
320,192,15639,1,0,0:0:0:0:
448,192,15720,1,0,0:0:0:0:
192,192,15720,1,0,0:0:0:0:
64,192,15720,128,0,15801:0:0:0:0:
64,192,15882,1,0,0:0:0:0:
64,192,16044,1,0,0:0:0:0:
64,192,16206,1,0,0:0:0:0:
320,192,16206,1,0,0:0:0:0:
448,192,16206,128,0,16287:0:0:0:0:
448,192,16369,1,0,0:0:0:0:
192,192,16369,1,0,0:0:0:0:
64,192,16369,1,0,0:0:0:0:
64,192,16531,1,0,0:0:0:0:
64,192,16693,1,0,0:0:0:0:
64,192,16855,1,0,0:0:0:0:
320,192,16855,1,0,0:0:0:0:
64,192,17017,1,0,0:0:0:0:
64,192,17179,1,0,0:0:0:0:
64,192,17341,1,0,0:0:0:0:
320,192,17341,1,0,0:0:0:0:
64,192,17504,1,0,0:0:0:0:
64,192,17666,1,0,0:0:0:0:
448,192,17666,1,0,0:0:0:0:
320,192,17666,128,0,17747:0:0:0:0:
64,192,17828,1,0,0:0:0:0:
64,192,17990,1,0,0:0:0:0:
192,192,17990,128,0,18071:0:0:0:0:
64,192,18152,1,0,0:0:0:0:
320,192,18152,1,0,0:0:0:0:
320,192,18314,128,0,18396:0:0:0:0:
448,192,18314,1,0,0:0:0:0:
64,192,18314,1,0,0:0:0:0:
192,192,18314,1,0,0:0:0:0:
320,192,18477,1,0,0:0:0:0:
320,192,18639,1,0,0:0:0:0:
320,192,18801,1,0,0:0:0:0:
448,192,18801,128,0,18882:0:0:0:0:
64,192,18801,1,0,0:0:0:0:
192,192,18801,1,0,0:0:0:0:
448,192,18963,1,0,0:0:0:0:
448,192,19125,1,0,0:0:0:0:
320,192,19287,128,0,19369:0:0:0:0:
448,192,19287,1,0,0:0:0:0:
64,192,19287,1,0,0:0:0:0:
192,192,19287,1,0,0:0:0:0:
320,192,19450,1,0,0:0:0:0:
320,192,19612,1,0,0:0:0:0:
320,192,19774,1,0,0:0:0:0:
448,192,19936,1,0,0:0:0:0:
320,192,19936,1,0,0:0:0:0:
192,192,19936,1,0,0:0:0:0:
64,192,19936,1,0,0:0:0:0:
320,192,20098,1,0,0:0:0:0:
320,192,20260,1,0,0:0:0:0:
448,192,20260,1,0,0:0:0:0:
192,192,20260,128,0,20341:0:0:0:0:
64,192,20260,1,0,0:0:0:0:
192,192,20423,1,0,0:0:0:0:
64,192,20585,1,0,0:0:0:0:
192,192,20585,1,0,0:0:0:0:
320,192,20585,1,0,0:0:0:0:
448,192,20585,1,0,0:0:0:0:
192,192,20747,1,0,0:0:0:0:
448,192,20747,128,0,20828:0:0:0:0:
64,192,20828,1,0,0:0:0:0:
320,192,20828,128,0,20909:0:0:0:0:
448,192,20909,1,0,0:0:0:0:
192,192,20909,128,0,20990:0:0:0:0:
192,192,21071,1,0,0:0:0:0:
64,192,21071,1,0,0:0:0:0:
192,192,21233,1,0,0:0:0:0:
320,192,21233,1,0,0:0:0:0:
64,192,21233,1,0,0:0:0:0:
64,192,21396,1,0,0:0:0:0:
192,192,21396,1,0,0:0:0:0:
192,192,21558,1,0,0:0:0:0:
320,192,21558,1,0,0:0:0:0:
448,192,21558,1,0,0:0:0:0:
64,192,21720,1,0,0:0:0:0:
192,192,21720,1,0,0:0:0:0:
64,192,21882,128,0,21963:0:0:0:0:
448,192,21882,1,0,0:0:0:0:
320,192,21882,1,0,0:0:0:0:
448,192,22044,1,0,0:0:0:0:
192,192,22044,1,0,0:0:0:0:
64,192,22044,1,0,0:0:0:0:
448,192,22206,128,0,22287:0:0:0:0:
64,192,22206,1,0,0:0:0:0:
192,192,22206,1,0,0:0:0:0:
320,192,22287,1,0,0:0:0:0:
64,192,22369,1,0,0:0:0:0:
192,192,22369,1,0,0:0:0:0:
320,192,22450,1,0,0:0:0:0:
64,192,22531,1,0,0:0:0:0:
192,192,22531,1,0,0:0:0:0:
320,192,22612,1,0,0:0:0:0:
64,192,22693,128,0,22774:0:0:0:0:
448,192,22693,1,0,0:0:0:0:
192,192,22774,1,0,0:0:0:0:
448,192,22855,1,0,0:0:0:0:
320,192,22855,1,0,0:0:0:0:
64,192,22936,1,0,0:0:0:0:
192,192,22936,1,0,0:0:0:0:
448,192,23017,128,0,23098:0:0:0:0:
320,192,23017,1,0,0:0:0:0:
64,192,23098,1,0,0:0:0:0:
192,192,23098,1,0,0:0:0:0:
448,192,23179,1,0,0:0:0:0:
320,192,23179,1,0,0:0:0:0:
64,192,23260,1,0,0:0:0:0:
192,192,23260,1,0,0:0:0:0:
320,192,23341,128,0,23423:0:0:0:0:
448,192,23341,1,0,0:0:0:0:
192,192,23423,128,0,23504:0:0:0:0:
64,192,23423,1,0,0:0:0:0:
448,192,23504,128,0,23666:0:0:0:0:
320,192,23504,128,0,24152:0:0:0:0:
192,192,23666,128,0,23747:0:0:0:0:
192,192,23828,1,0,0:0:0:0:
64,192,23990,128,0,24152:0:0:0:0:
192,192,24152,128,0,24233:0:0:0:0:
192,192,24314,1,0,0:0:0:0:
448,192,24314,128,0,24396:0:0:0:0:
448,192,24477,1,0,0:0:0:0:
448,192,24639,1,0,0:0:0:0:
320,192,24639,128,0,24720:0:0:0:0:
448,192,24801,1,0,0:0:0:0:
192,192,24801,128,0,24882:0:0:0:0:
320,192,24801,1,0,0:0:0:0:
320,192,24882,1,0,0:0:0:0:
448,192,24882,1,0,0:0:0:0:
64,192,25044,1,0,0:0:0:0:
192,192,25044,1,0,0:0:0:0:
192,192,25125,1,0,0:0:0:0:
64,192,25125,1,0,0:0:0:0:
448,192,25287,1,0,0:0:0:0:
64,192,25287,128,0,25369:0:0:0:0:
320,192,25287,1,0,0:0:0:0:
448,192,25369,1,0,0:0:0:0:
320,192,25369,1,0,0:0:0:0:
448,192,25612,128,0,25774:0:0:0:0:
64,192,25612,1,0,0:0:0:0:
64,192,25693,1,0,0:0:0:0:
320,192,25774,1,0,0:0:0:0:
192,192,25774,1,0,0:0:0:0:
320,192,25936,128,0,26017:0:0:0:0:
64,192,25936,128,0,26017:0:0:0:0:
64,192,26098,1,0,0:0:0:0:
448,192,26098,128,0,26585:0:0:0:0:
192,192,26152,1,0,0:0:0:0:
320,192,26206,1,0,0:0:0:0:
64,192,26260,1,0,0:0:0:0:
192,192,26314,1,0,0:0:0:0:
320,192,26369,1,0,0:0:0:0:
64,192,26423,1,0,0:0:0:0:
192,192,26477,1,0,0:0:0:0:
320,192,26531,1,0,0:0:0:0:
192,192,26585,1,0,0:0:0:0:
64,192,26585,1,0,0:0:0:0:
64,192,26747,128,0,27071:0:0:0:0:
448,192,26747,1,0,0:0:0:0:
192,192,26747,1,0,0:0:0:0:
320,192,26909,1,0,0:0:0:0:
448,192,26909,1,0,0:0:0:0:
448,192,26990,1,0,0:0:0:0:
320,192,26990,1,0,0:0:0:0:
448,192,27071,128,0,27233:0:0:0:0:
320,192,27071,128,0,27233:0:0:0:0:
192,192,27233,1,0,0:0:0:0:
64,192,27233,1,0,0:0:0:0:
320,192,27314,1,0,0:0:0:0:
192,192,27396,1,0,0:0:0:0:
64,192,27396,1,0,0:0:0:0:
448,192,27396,1,0,0:0:0:0:
320,192,27477,1,0,0:0:0:0:
448,192,27558,1,0,0:0:0:0:
192,192,27558,128,0,27720:0:0:0:0:
64,192,27720,1,0,0:0:0:0:
448,192,27720,128,0,27882:0:0:0:0:
320,192,27801,1,0,0:0:0:0:
64,192,27882,128,0,27963:0:0:0:0:
192,192,27882,128,0,28044:0:0:0:0:
448,192,27963,1,0,0:0:0:0:
64,192,28044,1,0,0:0:0:0:
320,192,28044,1,0,0:0:0:0:
448,192,28125,1,0,0:0:0:0:
320,192,28206,1,0,0:0:0:0:
192,192,28206,1,0,0:0:0:0:
448,192,28287,1,0,0:0:0:0:
64,192,28369,1,0,0:0:0:0:
320,192,28369,1,0,0:0:0:0:
192,192,28450,1,0,0:0:0:0:
64,192,28531,1,0,0:0:0:0:
320,192,28531,1,0,0:0:0:0:
448,192,28531,1,0,0:0:0:0:
192,192,28612,128,0,28693:0:0:0:0:
320,192,28693,128,0,28855:0:0:0:0:
448,192,28693,128,0,28774:0:0:0:0:
64,192,28693,1,0,0:0:0:0:
192,192,28774,128,0,28936:0:0:0:0:
64,192,28855,128,0,29179:0:0:0:0:
448,192,28855,128,0,29179:0:0:0:0:
192,192,29179,1,0,0:0:0:0:
320,192,29179,128,0,29260:0:0:0:0:
448,192,29260,1,0,0:0:0:0:
192,192,29341,1,0,0:0:0:0:
320,192,29341,1,0,0:0:0:0:
64,192,29341,1,0,0:0:0:0:
448,192,29504,128,0,29747:0:0:0:0:
64,192,29504,1,0,0:0:0:0:
192,192,29504,1,0,0:0:0:0:
64,192,29666,1,0,0:0:0:0:
192,192,29666,128,0,29747:0:0:0:0:
320,192,29747,1,0,0:0:0:0:
192,192,29828,1,0,0:0:0:0:
64,192,29828,1,0,0:0:0:0:
448,192,29828,1,0,0:0:0:0:
320,192,29909,1,0,0:0:0:0:
64,192,29990,1,0,0:0:0:0:
448,192,29990,1,0,0:0:0:0:
64,192,30071,1,0,0:0:0:0:
320,192,30071,1,0,0:0:0:0:
192,192,30152,1,0,0:0:0:0:
64,192,30152,128,0,30314:0:0:0:0:
448,192,30152,128,0,30477:0:0:0:0:
320,192,30314,128,0,30477:0:0:0:0:
192,192,30477,1,0,0:0:0:0:
64,192,30477,1,0,0:0:0:0:
64,192,30558,1,0,0:0:0:0:
192,192,30558,1,0,0:0:0:0:
64,192,30639,1,0,0:0:0:0:
448,192,30639,1,0,0:0:0:0:
192,192,30639,128,0,30801:0:0:0:0:
320,192,30801,128,0,30882:0:0:0:0:
64,192,30801,128,0,31044:0:0:0:0:
448,192,30801,1,0,0:0:0:0:
448,192,31044,128,0,31125:0:0:0:0:
320,192,31044,128,0,31287:0:0:0:0:
192,192,31044,1,0,0:0:0:0:
448,192,31287,1,0,0:0:0:0:
192,192,31287,128,0,31774:0:0:0:0:
320,192,31341,1,0,0:0:0:0:
64,192,31396,1,0,0:0:0:0:
448,192,31450,1,0,0:0:0:0:
320,192,31504,1,0,0:0:0:0:
64,192,31558,1,0,0:0:0:0:
448,192,31612,1,0,0:0:0:0:
320,192,31666,1,0,0:0:0:0:
64,192,31720,1,0,0:0:0:0:
448,192,31774,1,0,0:0:0:0:
320,192,31774,1,0,0:0:0:0:
192,192,31855,1,0,0:0:0:0:
64,192,31936,128,0,32260:0:0:0:0:
320,192,31936,1,0,0:0:0:0:
448,192,31936,1,0,0:0:0:0:
448,192,32098,1,0,0:0:0:0:
320,192,32098,1,0,0:0:0:0:
320,192,32179,1,0,0:0:0:0:
448,192,32179,1,0,0:0:0:0:
320,192,32260,128,0,32423:0:0:0:0:
448,192,32260,128,0,32423:0:0:0:0:
192,192,32423,1,0,0:0:0:0:
64,192,32423,1,0,0:0:0:0:
320,192,32504,1,0,0:0:0:0:
448,192,32585,1,0,0:0:0:0:
64,192,32585,1,0,0:0:0:0:
320,192,32666,1,0,0:0:0:0:
192,192,32666,1,0,0:0:0:0:
64,192,32747,128,0,32909:0:0:0:0:
448,192,32747,1,0,0:0:0:0:
192,192,32909,1,0,0:0:0:0:
448,192,32909,128,0,32990:0:0:0:0:
64,192,32990,1,0,0:0:0:0:
320,192,32990,1,0,0:0:0:0:
64,192,33071,128,0,33233:0:0:0:0:
448,192,33071,1,0,0:0:0:0:
192,192,33071,1,0,0:0:0:0:
320,192,33152,1,0,0:0:0:0:
192,192,33233,1,0,0:0:0:0:
448,192,33233,1,0,0:0:0:0:
64,192,33396,1,0,0:0:0:0:
448,192,33396,128,0,33558:0:0:0:0:
320,192,33477,128,0,33639:0:0:0:0:
64,192,33558,128,0,33720:0:0:0:0:
192,192,33639,128,0,33801:0:0:0:0:
448,192,33720,1,0,0:0:0:0:
320,192,33720,1,0,0:0:0:0:
64,192,33801,128,0,33882:0:0:0:0:
320,192,33801,1,0,0:0:0:0:
448,192,33801,1,0,0:0:0:0:
192,192,33882,1,0,0:0:0:0:
448,192,33882,128,0,34206:0:0:0:0:
320,192,34044,1,0,0:0:0:0:
192,192,34044,1,0,0:0:0:0:
320,192,34206,1,0,0:0:0:0:
192,192,34206,1,0,0:0:0:0:
192,192,34369,128,0,34450:0:0:0:0:
64,192,34369,1,0,0:0:0:0:
320,192,34531,1,0,0:0:0:0:
192,192,34531,1,0,0:0:0:0:
320,192,34693,128,0,34774:0:0:0:0:
64,192,34693,1,0,0:0:0:0:
320,192,34855,1,0,0:0:0:0:
448,192,34855,1,0,0:0:0:0:
192,192,34936,1,0,0:0:0:0:
64,192,34936,1,0,0:0:0:0:
448,192,35017,128,0,35098:0:0:0:0:
320,192,35017,1,0,0:0:0:0:
192,192,35098,1,0,0:0:0:0:
64,192,35179,1,0,0:0:0:0:
192,192,35260,1,0,0:0:0:0:
320,192,35341,1,0,0:0:0:0:
64,192,35341,128,0,35423:0:0:0:0:
448,192,35341,1,0,0:0:0:0:
64,192,35504,1,0,0:0:0:0:
448,192,35504,128,0,35585:0:0:0:0:
320,192,35504,1,0,0:0:0:0:
64,192,35666,1,0,0:0:0:0:
192,192,35666,128,0,35909:0:0:0:0:
448,192,35666,1,0,0:0:0:0:
320,192,35666,128,0,35747:0:0:0:0:
64,192,35990,1,0,0:0:0:0:
448,192,35990,1,0,0:0:0:0:
320,192,36071,1,0,0:0:0:0:
64,192,36152,1,0,0:0:0:0:
192,192,36152,1,0,0:0:0:0:
448,192,36233,1,0,0:0:0:0:
320,192,36233,1,0,0:0:0:0:
192,192,36314,1,0,0:0:0:0:
64,192,36314,1,0,0:0:0:0:
320,192,36396,1,0,0:0:0:0:
448,192,36396,1,0,0:0:0:0:
64,192,36477,1,0,0:0:0:0:
320,192,36558,1,0,0:0:0:0:
448,192,36598,1,0,0:0:0:0:
192,192,36639,1,0,0:0:0:0:
64,192,36801,1,0,0:0:0:0:
320,192,36963,128,0,37125:0:0:0:0:
448,192,37125,1,0,0:0:0:0:
64,192,37125,128,0,37450:0:0:0:0:
448,192,37287,1,0,0:0:0:0:
320,192,37287,1,0,0:0:0:0:
448,192,37369,1,0,0:0:0:0:
320,192,37369,1,0,0:0:0:0:
448,192,37450,128,0,37612:0:0:0:0:
320,192,37450,128,0,37612:0:0:0:0:
192,192,37612,1,0,0:0:0:0:
64,192,37612,1,0,0:0:0:0:
320,192,37693,1,0,0:0:0:0:
448,192,37774,1,0,0:0:0:0:
64,192,37774,1,0,0:0:0:0:
192,192,37855,1,0,0:0:0:0:
64,192,37936,128,0,38098:0:0:0:0:
320,192,37936,1,0,0:0:0:0:
448,192,38098,128,0,38179:0:0:0:0:
192,192,38098,1,0,0:0:0:0:
320,192,38179,1,0,0:0:0:0:
64,192,38179,1,0,0:0:0:0:
64,192,38260,128,0,38423:0:0:0:0:
448,192,38260,1,0,0:0:0:0:
192,192,38260,1,0,0:0:0:0:
320,192,38341,1,0,0:0:0:0:
192,192,38423,1,0,0:0:0:0:
448,192,38423,1,0,0:0:0:0:
320,192,38585,1,0,0:0:0:0:
64,192,38585,1,0,0:0:0:0:
448,192,38666,1,0,0:0:0:0:
192,192,38747,1,0,0:0:0:0:
64,192,38747,1,0,0:0:0:0:
320,192,38828,1,0,0:0:0:0:
192,192,38909,1,0,0:0:0:0:
64,192,38909,1,0,0:0:0:0:
448,192,38909,1,0,0:0:0:0:
320,192,39017,128,0,39071:0:0:0:0:
192,192,39071,1,0,0:0:0:0:
64,192,39071,128,0,39558:0:0:0:0:
448,192,39071,128,0,39314:0:0:0:0:
192,192,39558,1,0,0:0:0:0:
448,192,39558,128,0,39720:0:0:0:0:
320,192,39558,128,0,39801:0:0:0:0:
192,192,39720,1,0,0:0:0:0:
64,192,39720,1,0,0:0:0:0:
448,192,39882,1,0,0:0:0:0:
320,192,39882,1,0,0:0:0:0:
64,192,39963,1,0,0:0:0:0:
320,192,40044,1,0,0:0:0:0:
192,192,40044,128,0,40287:0:0:0:0:
448,192,40125,1,0,0:0:0:0:
64,192,40206,128,0,40369:0:0:0:0:
320,192,40287,1,0,0:0:0:0:
192,192,40369,1,0,0:0:0:0:
448,192,40369,1,0,0:0:0:0:
192,192,40450,1,0,0:0:0:0:
320,192,40531,1,0,0:0:0:0:
448,192,40531,1,0,0:0:0:0:
192,192,40531,128,0,40693:0:0:0:0:
448,192,40693,128,0,40855:0:0:0:0:
64,192,40693,1,0,0:0:0:0:
192,192,40855,1,0,0:0:0:0:
64,192,40855,1,0,0:0:0:0:
448,192,40936,1,0,0:0:0:0:
320,192,40936,1,0,0:0:0:0:
64,192,41017,128,0,41666:0:0:0:0:
448,192,41017,1,0,0:0:0:0:
192,192,41017,1,0,0:0:0:0:
320,192,41179,1,0,0:0:0:0:
448,192,41179,1,0,0:0:0:0:
192,192,41179,128,0,41260:0:0:0:0:
448,192,41423,1,0,0:0:0:0:
192,192,41423,1,0,0:0:0:0:
320,192,41423,128,0,41504:0:0:0:0:
320,192,41666,1,0,0:0:0:0:
192,192,41666,1,0,0:0:0:0:
448,192,41666,128,0,41747:0:0:0:0:
64,192,41747,1,0,0:0:0:0:
448,192,41828,1,0,0:0:0:0:
320,192,41909,1,0,0:0:0:0:
192,192,41990,1,0,0:0:0:0:
448,192,41990,1,0,0:0:0:0:
64,192,41990,1,0,0:0:0:0:
448,192,42152,128,0,42477:0:0:0:0:
320,192,42152,1,0,0:0:0:0:
64,192,42152,128,0,42233:0:0:0:0:
320,192,42314,128,0,42477:0:0:0:0:
192,192,42477,1,0,0:0:0:0:
64,192,42477,1,0,0:0:0:0:
192,192,42639,1,0,0:0:0:0:
64,192,42639,1,0,0:0:0:0:
448,192,42720,1,0,0:0:0:0:
320,192,42720,1,0,0:0:0:0:
64,192,42801,1,0,0:0:0:0:
448,192,42882,1,0,0:0:0:0:
320,192,42882,1,0,0:0:0:0:
192,192,42963,128,0,43206:0:0:0:0:
64,192,42963,1,0,0:0:0:0:
320,192,43044,1,0,0:0:0:0:
64,192,43125,128,0,43287:0:0:0:0:
448,192,43125,1,0,0:0:0:0:
320,192,43206,128,0,43287:0:0:0:0:
448,192,43287,1,0,0:0:0:0:
192,192,43287,1,0,0:0:0:0:
192,192,43450,128,0,43612:0:0:0:0:
320,192,43450,128,0,43531:0:0:0:0:
64,192,43450,1,0,0:0:0:0:
448,192,43612,1,0,0:0:0:0:
320,192,43612,1,0,0:0:0:0:
64,192,43720,1,0,0:0:0:0:
192,192,43720,1,0,0:0:0:0:
320,192,43828,1,0,0:0:0:0:
192,192,43828,1,0,0:0:0:0:
320,192,43936,1,0,0:0:0:0:
448,192,43936,128,0,44044:0:0:0:0:
320,192,44044,1,0,0:0:0:0:
192,192,44044,1,0,0:0:0:0:
64,192,44152,1,0,0:0:0:0:
192,192,44152,1,0,0:0:0:0:
448,192,44260,128,0,44585:0:0:0:0:
320,192,44260,128,0,44341:0:0:0:0:
64,192,44341,128,0,44585:0:0:0:0:
320,192,44423,128,0,44504:0:0:0:0:
192,192,44423,128,0,44585:0:0:0:0:
320,192,44585,128,0,44747:0:0:0:0:
448,192,44909,128,0,44990:0:0:0:0:
320,192,44990,128,0,45071:0:0:0:0:
192,192,45071,128,0,45152:0:0:0:0:
64,192,45152,128,0,45233:0:0:0:0:
192,192,45233,1,0,0:0:0:0:
448,192,45233,128,0,45314:0:0:0:0:
320,192,45314,128,0,45396:0:0:0:0:
192,192,45396,128,0,45882:0:0:0:0:
448,192,45396,1,0,0:0:0:0:
64,192,45396,1,0,0:0:0:0:
448,192,45558,128,0,45639:0:0:0:0:
448,192,45882,1,0,0:0:0:0:
320,192,45882,1,0,0:0:0:0:
64,192,45882,1,0,0:0:0:0:
192,192,45963,1,0,0:0:0:0:
448,192,46044,1,0,0:0:0:0:
320,192,46044,128,0,46531:0:0:0:0:
64,192,46044,1,0,0:0:0:0:
192,192,46125,1,0,0:0:0:0:
448,192,46206,1,0,0:0:0:0:
192,192,46450,1,0,0:0:0:0:
448,192,46531,1,0,0:0:0:0:
64,192,46531,1,0,0:0:0:0:
320,192,46612,1,0,0:0:0:0:
192,192,46693,1,0,0:0:0:0:
64,192,46774,1,0,0:0:0:0:
192,192,46855,128,0,46936:0:0:0:0:
448,192,46855,1,0,0:0:0:0:
192,192,47017,1,0,0:0:0:0:
192,192,47179,1,0,0:0:0:0:
192,192,47341,1,0,0:0:0:0:
64,192,47341,128,0,47423:0:0:0:0:
64,192,47504,1,0,0:0:0:0:
192,192,47585,1,0,0:0:0:0:
320,192,47666,1,0,0:0:0:0:
192,192,47828,128,0,47909:0:0:0:0:
448,192,47828,1,0,0:0:0:0:
320,192,47909,1,0,0:0:0:0:
192,192,47990,1,0,0:0:0:0:
64,192,48071,1,0,0:0:0:0:
192,192,48152,1,0,0:0:0:0:
448,192,48314,1,0,0:0:0:0:
320,192,48396,1,0,0:0:0:0:
192,192,48477,1,0,0:0:0:0:
64,192,48558,1,0,0:0:0:0:
320,192,48639,128,0,48720:0:0:0:0:
192,192,48639,1,0,0:0:0:0:
448,192,48801,1,0,0:0:0:0:
320,192,48882,1,0,0:0:0:0:
448,192,48963,128,0,49044:0:0:0:0:
192,192,48963,1,0,0:0:0:0:
64,192,49044,1,0,0:0:0:0:
448,192,49125,1,0,0:0:0:0:
320,192,49206,1,0,0:0:0:0:
64,192,49287,128,0,49369:0:0:0:0:
192,192,49287,1,0,0:0:0:0:
320,192,49450,128,0,49531:0:0:0:0:
64,192,49450,1,0,0:0:0:0:
192,192,49531,1,0,0:0:0:0:
320,192,49612,1,0,0:0:0:0:
448,192,49693,1,0,0:0:0:0:
64,192,49774,1,0,0:0:0:0:
192,192,49855,1,0,0:0:0:0:
320,192,49936,1,0,0:0:0:0:
448,192,49936,128,0,50017:0:0:0:0:
64,192,50017,1,0,0:0:0:0:
192,192,50098,1,0,0:0:0:0:
320,192,50179,1,0,0:0:0:0:
448,192,50260,1,0,0:0:0:0:
64,192,50341,1,0,0:0:0:0:
320,192,50423,128,0,50504:0:0:0:0:
192,192,50423,1,0,0:0:0:0:
448,192,50585,1,0,0:0:0:0:
192,192,50585,1,0,0:0:0:0:
192,192,50747,1,0,0:0:0:0:
64,192,50747,1,0,0:0:0:0:
448,192,50909,128,0,50990:0:0:0:0:
64,192,50909,1,0,0:0:0:0:
320,192,50990,128,0,51071:0:0:0:0:
192,192,51071,128,0,51152:0:0:0:0:
64,192,51152,128,0,51233:0:0:0:0:
320,192,51233,128,0,51314:0:0:0:0:
64,192,51314,128,0,51396:0:0:0:0:
192,192,51396,128,0,51477:0:0:0:0:
448,192,51396,1,0,0:0:0:0:
320,192,51477,1,0,0:0:0:0:
448,192,51558,128,0,51639:0:0:0:0:
192,192,51558,1,0,0:0:0:0:
64,192,51639,1,0,0:0:0:0:
448,192,51720,1,0,0:0:0:0:
192,192,51720,1,0,0:0:0:0:
448,192,51882,1,0,0:0:0:0:
320,192,51882,1,0,0:0:0:0:
192,192,52044,128,0,52125:0:0:0:0:
448,192,52044,1,0,0:0:0:0:
64,192,52044,1,0,0:0:0:0:
64,192,52206,1,0,0:0:0:0:
192,192,52287,1,0,0:0:0:0:
320,192,52369,1,0,0:0:0:0:
448,192,52450,1,0,0:0:0:0:
192,192,52531,1,0,0:0:0:0:
320,192,52531,128,0,52612:0:0:0:0:
64,192,52693,1,0,0:0:0:0:
192,192,52774,1,0,0:0:0:0:
320,192,52855,1,0,0:0:0:0:
448,192,52936,1,0,0:0:0:0:
320,192,53017,1,0,0:0:0:0:
64,192,53017,128,0,53098:0:0:0:0:
192,192,53098,1,0,0:0:0:0:
64,192,53179,1,0,0:0:0:0:
448,192,53260,1,0,0:0:0:0:
192,192,53341,1,0,0:0:0:0:
320,192,53341,1,0,0:0:0:0:
64,192,53423,1,0,0:0:0:0:
448,192,53504,1,0,0:0:0:0:
192,192,53504,1,0,0:0:0:0:
320,192,53585,1,0,0:0:0:0:
64,192,53666,1,0,0:0:0:0:
192,192,53666,1,0,0:0:0:0:
320,192,53747,1,0,0:0:0:0:
192,192,53828,1,0,0:0:0:0:
448,192,53828,128,0,53909:0:0:0:0:
64,192,53909,1,0,0:0:0:0:
448,192,53990,1,0,0:0:0:0:
192,192,53990,1,0,0:0:0:0:
320,192,54071,1,0,0:0:0:0:
64,192,54152,1,0,0:0:0:0:
192,192,54152,1,0,0:0:0:0:
448,192,54233,1,0,0:0:0:0:
320,192,54314,1,0,0:0:0:0:
192,192,54396,1,0,0:0:0:0:
64,192,54477,1,0,0:0:0:0:
192,192,54558,1,0,0:0:0:0:
448,192,54639,1,0,0:0:0:0:
320,192,54639,128,0,54720:0:0:0:0:
448,192,54801,128,0,54882:0:0:0:0:
320,192,54882,128,0,54963:0:0:0:0:
192,192,54963,128,0,55044:0:0:0:0:
64,192,55044,128,0,55125:0:0:0:0:
192,192,55125,1,0,0:0:0:0:
448,192,55125,128,0,55206:0:0:0:0:
320,192,55206,128,0,55287:0:0:0:0:
64,192,55287,1,0,0:0:0:0:
192,192,55287,128,0,55369:0:0:0:0:
320,192,55369,128,0,55450:0:0:0:0:
448,192,55450,1,0,0:0:0:0:
192,192,55450,128,0,55531:0:0:0:0:
64,192,55531,128,0,55612:0:0:0:0:
192,192,55612,1,0,0:0:0:0:
448,192,55612,128,0,55693:0:0:0:0:
320,192,55693,128,0,55774:0:0:0:0:
448,192,55774,1,0,0:0:0:0:
192,192,55774,128,0,55855:0:0:0:0:
64,192,55855,128,0,55936:0:0:0:0:
448,192,55936,128,0,56017:0:0:0:0:
192,192,55936,128,0,56098:0:0:0:0:
320,192,56017,128,0,56098:0:0:0:0:
64,192,56098,1,0,0:0:0:0:
448,192,56098,128,0,56179:0:0:0:0:
320,192,56179,1,0,0:0:0:0:
192,192,56179,1,0,0:0:0:0:
448,192,56260,1,0,0:0:0:0:
64,192,56260,1,0,0:0:0:0:
320,192,56341,1,0,0:0:0:0:
192,192,56341,1,0,0:0:0:0:
448,192,56423,1,0,0:0:0:0:
64,192,56423,1,0,0:0:0:0:
192,192,56504,1,0,0:0:0:0:
320,192,56504,1,0,0:0:0:0:
64,192,56585,128,0,56639:0:0:0:0:
448,192,56639,128,0,56693:0:0:0:0:
320,192,56693,128,0,56747:0:0:0:0:
192,192,56747,128,0,56828:0:0:0:0:
64,192,56828,128,0,56909:0:0:0:0:
448,192,56909,128,0,56990:0:0:0:0:
320,192,56990,128,0,57071:0:0:0:0:
192,192,57071,128,0,57152:0:0:0:0:
64,192,57152,128,0,57233:0:0:0:0:
448,192,57233,128,0,57396:0:0:0:0:
320,192,57233,1,0,0:0:0:0:
192,192,57233,1,0,0:0:0:0:
64,192,57314,1,0,0:0:0:0:
192,192,57396,1,0,0:0:0:0:
320,192,57477,1,0,0:0:0:0:
448,192,57477,128,0,57639:0:0:0:0:
64,192,57558,1,0,0:0:0:0:
192,192,57639,1,0,0:0:0:0:
320,192,57720,1,0,0:0:0:0:
448,192,57720,128,0,57882:0:0:0:0:
64,192,57801,1,0,0:0:0:0:
192,192,57882,1,0,0:0:0:0:
320,192,57963,1,0,0:0:0:0:
448,192,57963,128,0,58125:0:0:0:0:
64,192,58044,1,0,0:0:0:0:
192,192,58125,1,0,0:0:0:0:
64,192,58206,1,0,0:0:0:0:
448,192,58206,128,0,58369:0:0:0:0:
320,192,58287,1,0,0:0:0:0:
192,192,58369,1,0,0:0:0:0:
64,192,58369,1,0,0:0:0:0:
192,192,58450,1,0,0:0:0:0:
64,192,58450,1,0,0:0:0:0:
448,192,58531,128,0,58693:0:0:0:0:
320,192,58531,1,0,0:0:0:0:
192,192,58612,1,0,0:0:0:0:
64,192,58693,1,0,0:0:0:0:
448,192,58774,128,0,58936:0:0:0:0:
320,192,58774,1,0,0:0:0:0:
192,192,58855,1,0,0:0:0:0:
64,192,58936,1,0,0:0:0:0:
320,192,59017,1,0,0:0:0:0:
448,192,59017,128,0,59179:0:0:0:0:
192,192,59098,1,0,0:0:0:0:
64,192,59179,1,0,0:0:0:0:
320,192,59260,1,0,0:0:0:0:
448,192,59260,128,0,59423:0:0:0:0:
192,192,59341,1,0,0:0:0:0:
64,192,59423,1,0,0:0:0:0:
320,192,59504,1,0,0:0:0:0:
448,192,59504,128,0,59666:0:0:0:0:
64,192,59585,1,0,0:0:0:0:
320,192,59666,1,0,0:0:0:0:
192,192,59666,1,0,0:0:0:0:
320,192,59747,1,0,0:0:0:0:
192,192,59747,1,0,0:0:0:0:
448,192,59828,128,0,59909:0:0:0:0:
64,192,59828,128,0,59990:0:0:0:0:
320,192,59909,1,0,0:0:0:0:
448,192,59990,1,0,0:0:0:0:
192,192,60071,1,0,0:0:0:0:
64,192,60071,128,0,60233:0:0:0:0:
320,192,60152,1,0,0:0:0:0:
448,192,60233,1,0,0:0:0:0:
192,192,60314,1,0,0:0:0:0:
64,192,60314,128,0,60477:0:0:0:0:
320,192,60396,1,0,0:0:0:0:
448,192,60477,1,0,0:0:0:0:
192,192,60558,1,0,0:0:0:0:
64,192,60558,128,0,60720:0:0:0:0:
320,192,60639,1,0,0:0:0:0:
448,192,60720,1,0,0:0:0:0:
320,192,60801,1,0,0:0:0:0:
64,192,60801,128,0,60963:0:0:0:0:
192,192,60882,1,0,0:0:0:0:
448,192,60963,1,0,0:0:0:0:
320,192,60963,1,0,0:0:0:0:
448,192,61044,1,0,0:0:0:0:
320,192,61044,1,0,0:0:0:0:
192,192,61125,1,0,0:0:0:0:
64,192,61125,128,0,61287:0:0:0:0:
448,192,61206,1,0,0:0:0:0:
320,192,61287,1,0,0:0:0:0:
192,192,61369,1,0,0:0:0:0:
64,192,61369,128,0,61531:0:0:0:0:
448,192,61450,1,0,0:0:0:0:
320,192,61531,1,0,0:0:0:0:
64,192,61612,1,0,0:0:0:0:
192,192,61612,1,0,0:0:0:0:
448,192,61693,1,0,0:0:0:0:
320,192,61693,1,0,0:0:0:0:
64,192,61774,1,0,0:0:0:0:
192,192,61774,1,0,0:0:0:0:
320,192,61855,1,0,0:0:0:0:
448,192,61855,1,0,0:0:0:0:
192,192,61936,1,0,0:0:0:0:
64,192,61936,1,0,0:0:0:0:
448,192,62017,1,0,0:0:0:0:
320,192,62017,1,0,0:0:0:0:
64,192,62098,1,0,0:0:0:0:
192,192,62139,1,0,0:0:0:0:
448,192,62179,1,0,0:0:0:0:
320,192,62220,1,0,0:0:0:0:
192,192,62260,1,0,0:0:0:0:
64,192,62260,1,0,0:0:0:0:
448,192,62341,1,0,0:0:0:0:
320,192,62341,1,0,0:0:0:0:
64,192,62423,1,0,0:0:0:0:
192,192,62423,1,0,0:0:0:0:
320,192,62504,1,0,0:0:0:0:
64,192,62585,128,0,62747:0:0:0:0:
448,192,62585,1,0,0:0:0:0:
192,192,62666,1,0,0:0:0:0:
448,192,62747,1,0,0:0:0:0:
320,192,62747,1,0,0:0:0:0:
64,192,62828,128,0,62909:0:0:0:0:
192,192,62828,1,0,0:0:0:0:
320,192,62909,1,0,0:0:0:0:
64,192,62990,128,0,63071:0:0:0:0:
448,192,62990,1,0,0:0:0:0:
192,192,63071,1,0,0:0:0:0:
320,192,63152,128,0,63233:0:0:0:0:
448,192,63152,1,0,0:0:0:0:
192,192,63233,128,0,63314:0:0:0:0:
64,192,63233,1,0,0:0:0:0:
448,192,63314,1,0,0:0:0:0:
320,192,63314,1,0,0:0:0:0:
64,192,63396,1,0,0:0:0:0:
192,192,63396,1,0,0:0:0:0:
320,192,63477,1,0,0:0:0:0:
448,192,63477,1,0,0:0:0:0:
192,192,63558,128,0,63720:0:0:0:0:
64,192,63558,1,0,0:0:0:0:
320,192,63639,128,0,63720:0:0:0:0:
448,192,63639,1,0,0:0:0:0:
64,192,63720,128,0,63801:0:0:0:0:
448,192,63801,128,0,63963:0:0:0:0:
320,192,63801,1,0,0:0:0:0:
64,192,63882,1,0,0:0:0:0:
192,192,63882,128,0,63963:0:0:0:0:
192,192,64044,1,0,0:0:0:0:
320,192,64044,128,0,64206:0:0:0:0:
64,192,64125,128,0,64206:0:0:0:0:
448,192,64125,1,0,0:0:0:0:
192,192,64206,128,0,64287:0:0:0:0:
448,192,64287,1,0,0:0:0:0:
320,192,64287,128,0,64450:0:0:0:0:
64,192,64369,128,0,64450:0:0:0:0:
448,192,64450,1,0,0:0:0:0:
192,192,64531,128,0,64693:0:0:0:0:
64,192,64531,1,0,0:0:0:0:
448,192,64612,1,0,0:0:0:0:
64,192,64693,128,0,64774:0:0:0:0:
320,192,64693,1,0,0:0:0:0:
448,192,64774,1,0,0:0:0:0:
192,192,64774,1,0,0:0:0:0:
64,192,64855,1,0,0:0:0:0:
320,192,64855,128,0,65017:0:0:0:0:
448,192,64936,1,0,0:0:0:0:
64,192,65017,1,0,0:0:0:0:
192,192,65017,1,0,0:0:0:0:
448,192,65098,1,0,0:0:0:0:
320,192,65098,1,0,0:0:0:0:
64,192,65179,1,0,0:0:0:0:
192,192,65179,1,0,0:0:0:0:
448,192,65260,1,0,0:0:0:0:
320,192,65260,1,0,0:0:0:0:
64,192,65341,128,0,65504:0:0:0:0:
320,192,65423,1,0,0:0:0:0:
192,192,65423,128,0,65504:0:0:0:0:
448,192,65504,1,0,0:0:0:0:
320,192,65585,128,0,65747:0:0:0:0:
448,192,65666,1,0,0:0:0:0:
192,192,65666,128,0,65747:0:0:0:0:
64,192,65747,1,0,0:0:0:0:
448,192,65828,1,0,0:0:0:0:
320,192,65828,1,0,0:0:0:0:
64,192,65909,1,0,0:0:0:0:
192,192,65909,1,0,0:0:0:0:
320,192,65990,1,0,0:0:0:0:
448,192,65990,1,0,0:0:0:0:
192,192,66031,1,0,0:0:0:0:
64,192,66071,1,0,0:0:0:0:
448,192,66112,1,0,0:0:0:0:
192,192,66152,1,0,0:0:0:0:
320,192,66152,1,0,0:0:0:0:
64,192,66193,1,0,0:0:0:0:
448,192,66233,1,0,0:0:0:0:
320,192,66274,1,0,0:0:0:0:
64,192,66314,1,0,0:0:0:0:
192,192,66314,1,0,0:0:0:0:
320,192,66396,1,0,0:0:0:0:
320,192,66477,1,0,0:0:0:0:
448,192,66558,1,0,0:0:0:0:
192,192,66558,1,0,0:0:0:0:
64,192,66558,1,0,0:0:0:0:
320,192,66639,1,0,0:0:0:0:
320,192,66720,1,0,0:0:0:0:
64,192,66801,1,0,0:0:0:0:
192,192,66801,1,0,0:0:0:0:
448,192,66801,1,0,0:0:0:0:
320,192,66882,1,0,0:0:0:0:
64,192,66963,1,0,0:0:0:0:
192,192,67044,1,0,0:0:0:0:
448,192,67125,1,0,0:0:0:0:
320,192,67125,1,0,0:0:0:0:
64,192,67206,1,0,0:0:0:0:
192,192,67206,1,0,0:0:0:0:
448,192,67287,1,0,0:0:0:0:
320,192,67287,1,0,0:0:0:0:
64,192,67369,1,0,0:0:0:0:
192,192,67369,1,0,0:0:0:0:
448,192,67450,1,0,0:0:0:0:
320,192,67450,1,0,0:0:0:0:
64,192,67531,1,0,0:0:0:0:
192,192,67531,1,0,0:0:0:0:
64,192,67612,128,0,67693:0:0:0:0:
448,192,67612,128,0,67855:0:0:0:0:
320,192,67612,128,0,67855:0:0:0:0:
192,192,67612,128,0,67774:0:0:0:0:
320,192,67936,1,0,0:0:0:0:
448,192,67936,1,0,0:0:0:0:
192,192,67936,128,0,68179:0:0:0:0:
64,192,68017,128,0,68179:0:0:0:0:
320,192,68179,128,0,68341:0:0:0:0:
448,192,68260,1,0,0:0:0:0:
64,192,68260,1,0,0:0:0:0:
192,192,68341,1,0,0:0:0:0:
448,192,68423,128,0,68504:0:0:0:0:
320,192,68423,1,0,0:0:0:0:
320,192,68585,128,0,68747:0:0:0:0:
192,192,68585,1,0,0:0:0:0:
64,192,68585,1,0,0:0:0:0:
448,192,68666,128,0,68747:0:0:0:0:
192,192,68747,128,0,68909:0:0:0:0:
448,192,68909,1,0,0:0:0:0:
320,192,68909,1,0,0:0:0:0:
64,192,68909,128,0,69071:0:0:0:0:
448,192,69071,128,0,69152:0:0:0:0:
64,192,69233,128,0,69477:0:0:0:0:
448,192,69233,1,0,0:0:0:0:
320,192,69233,1,0,0:0:0:0:
192,192,69314,128,0,69477:0:0:0:0:
320,192,69477,128,0,69720:0:0:0:0:
192,192,69558,1,0,0:0:0:0:
64,192,69558,1,0,0:0:0:0:
448,192,69639,128,0,69720:0:0:0:0:
192,192,69720,128,0,69801:0:0:0:0:
192,192,69882,1,0,0:0:0:0:
64,192,69882,1,0,0:0:0:0:
448,192,69882,128,0,70044:0:0:0:0:
320,192,69963,128,0,70044:0:0:0:0:
64,192,70044,128,0,70125:0:0:0:0:
192,192,70125,128,0,70206:0:0:0:0:
448,192,70206,1,0,0:0:0:0:
320,192,70206,128,0,70369:0:0:0:0:
64,192,70206,1,0,0:0:0:0:
448,192,70369,128,0,70450:0:0:0:0:
64,192,70531,128,0,70693:0:0:0:0:
448,192,70531,1,0,0:0:0:0:
320,192,70531,1,0,0:0:0:0:
192,192,70612,128,0,70693:0:0:0:0:
320,192,70774,128,0,70936:0:0:0:0:
192,192,70855,1,0,0:0:0:0:
64,192,70855,1,0,0:0:0:0:
448,192,71017,128,0,71098:0:0:0:0:
320,192,71179,128,0,71260:0:0:0:0:
192,192,71179,1,0,0:0:0:0:
64,192,71179,1,0,0:0:0:0:
448,192,71341,128,0,71423:0:0:0:0:
192,192,71341,128,0,71504:0:0:0:0:
64,192,71504,128,0,71666:0:0:0:0:
448,192,71504,1,0,0:0:0:0:
320,192,71504,1,0,0:0:0:0:
192,192,71666,1,0,0:0:0:0:
320,192,71747,128,0,71909:0:0:0:0:
448,192,71747,1,0,0:0:0:0:
64,192,71747,1,0,0:0:0:0:
192,192,71909,1,0,0:0:0:0:
64,192,71990,128,0,72071:0:0:0:0:
448,192,71990,128,0,72152:0:0:0:0:
320,192,71990,1,0,0:0:0:0:
192,192,72071,128,0,72152:0:0:0:0:
320,192,72152,128,0,72233:0:0:0:0:
64,192,72233,128,0,72314:0:0:0:0:
192,192,72233,1,0,0:0:0:0:
448,192,72233,128,0,72396:0:0:0:0:
320,192,72314,128,0,72396:0:0:0:0:
192,192,72396,128,0,72477:0:0:0:0:
64,192,72477,128,0,72558:0:0:0:0:
448,192,72477,1,0,0:0:0:0:
320,192,72477,128,0,72639:0:0:0:0:
192,192,72558,128,0,72639:0:0:0:0:
448,192,72639,1,0,0:0:0:0:
64,192,72639,1,0,0:0:0:0:
320,192,72720,1,0,0:0:0:0:
192,192,72720,1,0,0:0:0:0:
448,192,72801,128,0,72963:0:0:0:0:
64,192,72801,1,0,0:0:0:0:
320,192,72963,128,0,73125:0:0:0:0:
192,192,72963,1,0,0:0:0:0:
448,192,73044,128,0,73125:0:0:0:0:
192,192,73125,1,0,0:0:0:0:
64,192,73125,1,0,0:0:0:0:
448,192,73287,1,0,0:0:0:0:
192,192,73287,128,0,73450:0:0:0:0:
64,192,73450,128,0,73531:0:0:0:0:
320,192,73450,1,0,0:0:0:0:
448,192,73531,128,0,73774:0:0:0:0:
192,192,73612,1,0,0:0:0:0:
64,192,73774,128,0,73936:0:0:0:0:
320,192,73774,1,0,0:0:0:0:
192,192,73855,128,0,74017:0:0:0:0:
320,192,73936,128,0,74098:0:0:0:0:
448,192,74017,128,0,74098:0:0:0:0:
64,192,74098,128,0,74341:0:0:0:0:
192,192,74098,1,0,0:0:0:0:
192,192,74260,128,0,74341:0:0:0:0:
448,192,74260,1,0,0:0:0:0:
320,192,74341,128,0,74423:0:0:0:0:
64,192,74423,128,0,74585:0:0:0:0:
448,192,74423,1,0,0:0:0:0:
192,192,74423,1,0,0:0:0:0:
320,192,74585,1,0,0:0:0:0:
448,192,74585,128,0,74747:0:0:0:0:
192,192,74747,128,0,74828:0:0:0:0:
64,192,74747,1,0,0:0:0:0:
320,192,74828,128,0,74990:0:0:0:0:
448,192,74909,1,0,0:0:0:0:
64,192,74990,1,0,0:0:0:0:
448,192,75071,1,0,0:0:0:0:
320,192,75071,1,0,0:0:0:0:
192,192,75071,128,0,75233:0:0:0:0:
64,192,75233,1,0,0:0:0:0:
320,192,75233,128,0,75396:0:0:0:0:
448,192,75396,128,0,75639:0:0:0:0:
192,192,75396,1,0,0:0:0:0:
64,192,75396,1,0,0:0:0:0:
64,192,75558,128,0,75639:0:0:0:0:
192,192,75639,128,0,75720:0:0:0:0:
448,192,75720,1,0,0:0:0:0:
320,192,75720,128,0,75882:0:0:0:0:
64,192,75720,1,0,0:0:0:0:
192,192,75801,128,0,75882:0:0:0:0:
64,192,75882,1,0,0:0:0:0:
448,192,75882,128,0,76044:0:0:0:0:
320,192,75963,128,0,76044:0:0:0:0:
64,192,76044,128,0,76206:0:0:0:0:
320,192,76125,128,0,76287:0:0:0:0:
448,192,76206,1,0,0:0:0:0:
192,192,76206,1,0,0:0:0:0:
64,192,76287,128,0,76369:0:0:0:0:
448,192,76369,1,0,0:0:0:0:
320,192,76369,1,0,0:0:0:0:
192,192,76369,128,0,76450:0:0:0:0:
64,192,76450,128,0,76612:0:0:0:0:
320,192,76531,128,0,76612:0:0:0:0:
448,192,76612,128,0,76693:0:0:0:0:
320,192,76693,1,0,0:0:0:0:
64,192,76693,128,0,76774:0:0:0:0:
192,192,76693,1,0,0:0:0:0:
448,192,76774,128,0,76855:0:0:0:0:
64,192,76855,1,0,0:0:0:0:
320,192,76855,128,0,77017:0:0:0:0:
192,192,76936,128,0,77017:0:0:0:0:
64,192,77017,128,0,77098:0:0:0:0:
320,192,77098,128,0,77179:0:0:0:0:
448,192,77179,128,0,77260:0:0:0:0:
64,192,77179,1,0,0:0:0:0:
192,192,77179,1,0,0:0:0:0:
448,192,77341,128,0,77423:0:0:0:0:
192,192,77341,1,0,0:0:0:0:
64,192,77341,1,0,0:0:0:0:
320,192,77423,128,0,77504:0:0:0:0:
192,192,77504,128,0,77585:0:0:0:0:
64,192,77504,1,0,0:0:0:0:
448,192,77504,1,0,0:0:0:0:
192,192,77666,1,0,0:0:0:0:
64,192,77666,1,0,0:0:0:0:
448,192,77747,1,0,0:0:0:0:
320,192,77747,1,0,0:0:0:0:
192,192,77828,1,0,0:0:0:0:
64,192,77828,128,0,77909:0:0:0:0:
320,192,77909,128,0,77990:0:0:0:0:
448,192,77909,1,0,0:0:0:0:
64,192,77990,128,0,78233:0:0:0:0:
192,192,78152,128,0,78233:0:0:0:0:
320,192,78314,128,0,78477:0:0:0:0:
192,192,78314,1,0,0:0:0:0:
64,192,78314,1,0,0:0:0:0:
448,192,78396,128,0,78477:0:0:0:0:
64,192,78558,128,0,78720:0:0:0:0:
448,192,78639,1,0,0:0:0:0:
320,192,78639,1,0,0:0:0:0:
192,192,78720,128,0,78801:0:0:0:0:
448,192,78801,128,0,78963:0:0:0:0:
192,192,78963,1,0,0:0:0:0:
64,192,78963,1,0,0:0:0:0:
320,192,78963,128,0,79125:0:0:0:0:
448,192,79044,128,0,79125:0:0:0:0:
192,192,79125,128,0,79287:0:0:0:0:
64,192,79287,128,0,79369:0:0:0:0:
448,192,79287,1,0,0:0:0:0:
320,192,79287,1,0,0:0:0:0:
320,192,79450,128,0,79531:0:0:0:0:
192,192,79450,1,0,0:0:0:0:
448,192,79612,1,0,0:0:0:0:
320,192,79612,1,0,0:0:0:0:
64,192,79612,128,0,79774:0:0:0:0:
192,192,79693,128,0,79774:0:0:0:0:
448,192,79774,1,0,0:0:0:0:
320,192,79855,128,0,80017:0:0:0:0:
192,192,79936,1,0,0:0:0:0:
64,192,79936,1,0,0:0:0:0:
448,192,80098,128,0,80179:0:0:0:0:
448,192,80260,1,0,0:0:0:0:
320,192,80260,1,0,0:0:0:0:
64,192,80260,128,0,80423:0:0:0:0:
192,192,80341,128,0,80504:0:0:0:0:
320,192,80423,128,0,80585:0:0:0:0:
448,192,80504,128,0,80585:0:0:0:0:
64,192,80585,128,0,80747:0:0:0:0:
192,192,80585,1,0,0:0:0:0:
192,192,80747,128,0,80909:0:0:0:0:
448,192,80747,1,0,0:0:0:0:
64,192,80909,1,0,0:0:0:0:
320,192,80909,128,0,81071:0:0:0:0:
448,192,80990,128,0,81071:0:0:0:0:
192,192,81071,1,0,0:0:0:0:
192,192,81233,128,0,81396:0:0:0:0:
448,192,81233,1,0,0:0:0:0:
320,192,81233,1,0,0:0:0:0:
320,192,81396,128,0,81558:0:0:0:0:
192,192,81558,128,0,81720:0:0:0:0:
64,192,81558,1,0,0:0:0:0:
448,192,81558,1,0,0:0:0:0:
64,192,81720,128,0,81882:0:0:0:0:
320,192,81882,1,0,0:0:0:0:
192,192,81882,1,0,0:0:0:0:
448,192,81882,128,0,82044:0:0:0:0:
320,192,82044,128,0,82125:0:0:0:0:
448,192,82125,1,0,0:0:0:0:
64,192,82125,1,0,0:0:0:0:
192,192,82125,128,0,82287:0:0:0:0:
320,192,82287,128,0,82369:0:0:0:0:
192,192,82369,1,0,0:0:0:0:
64,192,82369,1,0,0:0:0:0:
448,192,82369,128,0,82531:0:0:0:0:
320,192,82450,128,0,82531:0:0:0:0:
192,192,82531,128,0,82612:0:0:0:0:
448,192,82612,1,0,0:0:0:0:
320,192,82612,1,0,0:0:0:0:
64,192,82612,128,0,82774:0:0:0:0:
192,192,82774,128,0,82855:0:0:0:0:
320,192,82855,1,0,0:0:0:0:
448,192,82855,1,0,0:0:0:0:
64,192,82896,1,0,0:0:0:0:
192,192,82936,1,0,0:0:0:0:
320,192,82977,1,0,0:0:0:0:
64,192,83017,128,0,83098:0:0:0:0:
448,192,83017,1,0,0:0:0:0:
192,192,83098,128,0,83179:0:0:0:0:
320,192,83179,128,0,83341:0:0:0:0:
448,192,83179,1,0,0:0:0:0:
64,192,83260,128,0,83423:0:0:0:0:
192,192,83341,128,0,83504:0:0:0:0:
448,192,83423,128,0,83585:0:0:0:0:
64,192,83504,128,0,83585:0:0:0:0:
320,192,83585,128,0,83828:0:0:0:0:
64,192,83747,128,0,83909:0:0:0:0:
192,192,83828,128,0,83990:0:0:0:0:
448,192,83909,128,0,84071:0:0:0:0:
64,192,83990,128,0,84071:0:0:0:0:
320,192,84071,128,0,84233:0:0:0:0:
192,192,84152,1,0,0:0:0:0:
448,192,84152,1,0,0:0:0:0:
64,192,84233,128,0,84396:0:0:0:0:
320,192,84314,1,0,0:0:0:0:
192,192,84314,128,0,84396:0:0:0:0:
448,192,84396,1,0,0:0:0:0:
192,192,84477,128,0,84558:0:0:0:0:
64,192,84477,1,0,0:0:0:0:
448,192,84558,128,0,84639:0:0:0:0:
320,192,84558,1,0,0:0:0:0:
64,192,84639,128,0,84720:0:0:0:0:
192,192,84639,1,0,0:0:0:0:
320,192,84720,128,0,84801:0:0:0:0:
448,192,84720,1,0,0:0:0:0:
192,192,84801,128,0,84882:0:0:0:0:
64,192,84801,1,0,0:0:0:0:
448,192,84882,128,0,84963:0:0:0:0:
320,192,84882,1,0,0:0:0:0:
64,192,84963,128,0,85044:0:0:0:0:
192,192,84963,1,0,0:0:0:0:
320,192,85044,128,0,85125:0:0:0:0:
448,192,85044,1,0,0:0:0:0:
64,192,85125,1,0,0:0:0:0:
192,192,85166,1,0,0:0:0:0:
320,192,85206,1,0,0:0:0:0:
448,192,85247,1,0,0:0:0:0:
64,192,85287,1,0,0:0:0:0:
192,192,85328,1,0,0:0:0:0:
320,192,85369,1,0,0:0:0:0:
448,192,85409,1,0,0:0:0:0:
64,192,85450,1,0,0:0:0:0:
192,192,85490,1,0,0:0:0:0:
320,192,85531,1,0,0:0:0:0:
448,192,85571,1,0,0:0:0:0:
192,192,85612,1,0,0:0:0:0:
64,192,85652,1,0,0:0:0:0:
448,192,85693,1,0,0:0:0:0:
320,192,85733,1,0,0:0:0:0:
192,192,85774,1,0,0:0:0:0:
64,192,85774,1,0,0:0:0:0:
192,192,85855,1,0,0:0:0:0:
320,192,85936,1,0,0:0:0:0:
320,192,86017,1,0,0:0:0:0:
192,192,86098,1,0,0:0:0:0:
192,192,86179,1,0,0:0:0:0:
320,192,86260,1,0,0:0:0:0:
320,192,86341,1,0,0:0:0:0:
64,192,86423,1,0,0:0:0:0:
64,192,86504,1,0,0:0:0:0:
448,192,86585,1,0,0:0:0:0:
448,192,86666,1,0,0:0:0:0:
64,192,86747,1,0,0:0:0:0:
64,192,86828,1,0,0:0:0:0:
448,192,86909,1,0,0:0:0:0:
448,192,86990,1,0,0:0:0:0:
320,192,87071,1,0,0:0:0:0:
192,192,87071,1,0,0:0:0:0:
320,192,87152,1,0,0:0:0:0:
192,192,87152,1,0,0:0:0:0:
64,192,87233,1,0,0:0:0:0:
320,192,87314,1,0,0:0:0:0:
448,192,87314,1,0,0:0:0:0:
448,192,87396,1,0,0:0:0:0:
320,192,87396,1,0,0:0:0:0:
448,192,87558,128,0,87639:0:0:0:0:
64,192,87558,1,0,0:0:0:0:
192,192,87558,1,0,0:0:0:0:
192,192,87639,1,0,0:0:0:0:
64,192,87639,1,0,0:0:0:0:
320,192,87720,128,0,87882:0:0:0:0:
448,192,87801,128,0,87882:0:0:0:0:
192,192,87882,1,0,0:0:0:0:
64,192,87882,1,0,0:0:0:0:
192,192,87963,1,0,0:0:0:0:
64,192,87963,1,0,0:0:0:0:
64,192,88044,1,0,0:0:0:0:
448,192,88044,1,0,0:0:0:0:
320,192,88044,1,0,0:0:0:0:
448,192,88206,128,0,88287:0:0:0:0:
320,192,88206,128,0,88287:0:0:0:0:
64,192,88206,128,0,88287:0:0:0:0:
64,192,88369,1,0,0:0:0:0:
192,192,88369,128,0,88450:0:0:0:0:
320,192,88369,1,0,0:0:0:0:
448,192,88369,1,0,0:0:0:0:
320,192,88531,128,0,88612:0:0:0:0:
64,192,88693,1,0,0:0:0:0:
448,192,88855,128,0,89017:0:0:0:0:
64,192,89017,1,0,0:0:0:0:
64,192,89341,1,0,0:0:0:0:
320,192,89341,128,0,89504:0:0:0:0:
64,192,89666,1,0,0:0:0:0:
448,192,89666,128,0,89747:0:0:0:0:
192,192,89828,128,0,89909:0:0:0:0:
64,192,89990,1,0,0:0:0:0:
448,192,90152,128,0,90233:0:0:0:0:
320,192,90233,128,0,90314:0:0:0:0:
448,192,90314,1,0,0:0:0:0:
192,192,90314,128,0,90396:0:0:0:0:
64,192,90396,128,0,90477:0:0:0:0:
448,192,90477,128,0,90558:0:0:0:0:
320,192,90558,128,0,90639:0:0:0:0:
448,192,90639,1,0,0:0:0:0:
192,192,90639,128,0,90720:0:0:0:0:
64,192,90720,128,0,90882:0:0:0:0:
448,192,90801,1,0,0:0:0:0:
192,192,90882,128,0,90963:0:0:0:0:
64,192,90963,1,0,0:0:0:0:
448,192,90963,1,0,0:0:0:0:
320,192,90963,128,0,91125:0:0:0:0:
64,192,91125,1,0,0:0:0:0:
448,192,91125,128,0,91206:0:0:0:0:
448,192,91287,1,0,0:0:0:0:
320,192,91450,128,0,91531:0:0:0:0:
192,192,91450,128,0,91612:0:0:0:0:
448,192,91612,1,0,0:0:0:0:
320,192,91774,128,0,91855:0:0:0:0:
448,192,91936,1,0,0:0:0:0:
64,192,91936,128,0,92098:0:0:0:0:
448,192,92098,128,0,92179:0:0:0:0:
448,192,92260,1,0,0:0:0:0:
64,192,92260,128,0,92341:0:0:0:0:
448,192,92423,128,0,92504:0:0:0:0:
448,192,92585,1,0,0:0:0:0:
192,192,92585,128,0,92666:0:0:0:0:
320,192,92666,128,0,92747:0:0:0:0:
192,192,92747,128,0,92828:0:0:0:0:
64,192,92828,128,0,92909:0:0:0:0:
192,192,92909,1,0,0:0:0:0:
448,192,92909,128,0,92990:0:0:0:0:
320,192,92990,128,0,93071:0:0:0:0:
192,192,93071,128,0,93152:0:0:0:0:
64,192,93152,128,0,93233:0:0:0:0:
448,192,93233,1,0,0:0:0:0:
320,192,93233,128,0,93314:0:0:0:0:
448,192,93396,128,0,93477:0:0:0:0:
192,192,93558,128,0,93639:0:0:0:0:
64,192,93558,1,0,0:0:0:0:
320,192,93558,1,0,0:0:0:0:
448,192,93558,1,0,0:0:0:0:
320,192,93720,128,0,93801:0:0:0:0:
448,192,93882,1,0,0:0:0:0:
320,192,93882,1,0,0:0:0:0:
192,192,94044,128,0,94125:0:0:0:0:
448,192,94206,1,0,0:0:0:0:
320,192,94206,1,0,0:0:0:0:
64,192,94369,128,0,94450:0:0:0:0:
448,192,94531,1,0,0:0:0:0:
320,192,94531,1,0,0:0:0:0:
192,192,94693,128,0,94774:0:0:0:0:
320,192,94855,1,0,0:0:0:0:
448,192,94855,1,0,0:0:0:0:
320,192,95017,128,0,95098:0:0:0:0:
64,192,95179,1,0,0:0:0:0:
192,192,95179,1,0,0:0:0:0:
448,192,95179,128,0,95260:0:0:0:0:
320,192,95260,128,0,95341:0:0:0:0:
192,192,95341,128,0,95423:0:0:0:0:
64,192,95423,128,0,95504:0:0:0:0:
192,192,95504,1,0,0:0:0:0:
448,192,95504,128,0,95585:0:0:0:0:
320,192,95585,128,0,95666:0:0:0:0:
192,192,95666,128,0,95747:0:0:0:0:
64,192,95747,128,0,95828:0:0:0:0:
192,192,95828,1,0,0:0:0:0:
320,192,95828,1,0,0:0:0:0:
448,192,95828,128,0,95990:0:0:0:0:
320,192,95990,1,0,0:0:0:0:
64,192,95990,1,0,0:0:0:0:
320,192,96152,128,0,96314:0:0:0:0:
192,192,96152,1,0,0:0:0:0:
64,192,96152,1,0,0:0:0:0:
448,192,96314,128,0,96477:0:0:0:0:
192,192,96314,1,0,0:0:0:0:
64,192,96314,1,0,0:0:0:0:
64,192,96477,1,0,0:0:0:0:
192,192,96477,1,0,0:0:0:0:
320,192,96639,128,0,96801:0:0:0:0:
192,192,96639,1,0,0:0:0:0:
64,192,96639,1,0,0:0:0:0:
192,192,96801,1,0,0:0:0:0:
64,192,96801,1,0,0:0:0:0:
448,192,96801,128,0,96963:0:0:0:0:
320,192,96963,128,0,97125:0:0:0:0:
64,192,96963,1,0,0:0:0:0:
192,192,96963,1,0,0:0:0:0:
192,192,97125,1,0,0:0:0:0:
64,192,97125,1,0,0:0:0:0:
192,192,97287,1,0,0:0:0:0:
64,192,97287,1,0,0:0:0:0:
448,192,97369,1,0,0:0:0:0:
320,192,97369,1,0,0:0:0:0:
192,192,97450,1,0,0:0:0:0:
64,192,97450,1,0,0:0:0:0:
448,192,97531,1,0,0:0:0:0:
320,192,97531,1,0,0:0:0:0:
64,192,97612,1,0,0:0:0:0:
192,192,97612,1,0,0:0:0:0:
320,192,97693,1,0,0:0:0:0:
64,192,97774,1,0,0:0:0:0:
192,192,97774,1,0,0:0:0:0:
448,192,97774,1,0,0:0:0:0:
320,192,97855,1,0,0:0:0:0:
64,192,97936,1,0,0:0:0:0:
448,192,97936,1,0,0:0:0:0:
192,192,98017,1,0,0:0:0:0:
64,192,98098,1,0,0:0:0:0:
448,192,98098,1,0,0:0:0:0:
320,192,98098,1,0,0:0:0:0:
192,192,98179,1,0,0:0:0:0:
64,192,98260,1,0,0:0:0:0:
448,192,98260,1,0,0:0:0:0:
320,192,98341,1,0,0:0:0:0:
448,192,98423,128,0,98666:0:0:0:0:
192,192,98423,128,0,98666:0:0:0:0:
64,192,98423,128,0,98747:0:0:0:0:
320,192,98747,1,0,0:0:0:0:
192,192,98747,1,0,0:0:0:0:
448,192,98747,128,0,98990:0:0:0:0:
64,192,98909,128,0,99071:0:0:0:0:
192,192,98990,128,0,99152:0:0:0:0:
448,192,99071,1,0,0:0:0:0:
320,192,99071,128,0,99233:0:0:0:0:
64,192,99152,128,0,99233:0:0:0:0:
448,192,99233,128,0,99639:0:0:0:0:
192,192,99233,1,0,0:0:0:0:
64,192,99396,128,0,99558:0:0:0:0:
192,192,99477,128,0,99639:0:0:0:0:
320,192,99558,128,0,99720:0:0:0:0:
64,192,99639,128,0,99801:0:0:0:0:
192,192,99720,128,0,99801:0:0:0:0:
448,192,99720,1,0,0:0:0:0:
320,192,99801,128,0,99882:0:0:0:0:
448,192,99882,128,0,100125:0:0:0:0:
192,192,99882,1,0,0:0:0:0:
64,192,99882,1,0,0:0:0:0:
320,192,99963,1,0,0:0:0:0:
64,192,100044,128,0,100206:0:0:0:0:
192,192,100125,128,0,100206:0:0:0:0:
320,192,100206,128,0,100369:0:0:0:0:
192,192,100369,1,0,0:0:0:0:
64,192,100369,1,0,0:0:0:0:
448,192,100369,128,0,100450:0:0:0:0:
320,192,100450,128,0,100612:0:0:0:0:
448,192,100531,128,0,100612:0:0:0:0:
192,192,100612,128,0,100693:0:0:0:0:
64,192,100693,128,0,100774:0:0:0:0:
448,192,100774,128,0,100855:0:0:0:0:
64,192,100855,128,0,101179:0:0:0:0:
320,192,100855,128,0,100936:0:0:0:0:
192,192,100936,128,0,101017:0:0:0:0:
448,192,101017,1,0,0:0:0:0:
320,192,101017,1,0,0:0:0:0:
192,192,101179,128,0,101341:0:0:0:0:
448,192,101341,128,0,101585:0:0:0:0:
64,192,101341,1,0,0:0:0:0:
320,192,101341,1,0,0:0:0:0:
64,192,101504,128,0,101666:0:0:0:0:
192,192,101585,128,0,101747:0:0:0:0:
448,192,101666,1,0,0:0:0:0:
320,192,101666,128,0,101828:0:0:0:0:
64,192,101747,128,0,101828:0:0:0:0:
448,192,101828,128,0,102233:0:0:0:0:
192,192,101828,1,0,0:0:0:0:
64,192,101990,128,0,102152:0:0:0:0:
192,192,102071,128,0,102233:0:0:0:0:
320,192,102152,128,0,102314:0:0:0:0:
64,192,102233,128,0,102396:0:0:0:0:
192,192,102314,128,0,102396:0:0:0:0:
448,192,102314,1,0,0:0:0:0:
320,192,102396,128,0,102477:0:0:0:0:
448,192,102477,128,0,102720:0:0:0:0:
192,192,102477,1,0,0:0:0:0:
64,192,102477,1,0,0:0:0:0:
320,192,102558,1,0,0:0:0:0:
64,192,102639,128,0,102801:0:0:0:0:
192,192,102720,128,0,102801:0:0:0:0:
448,192,102801,128,0,102963:0:0:0:0:
192,192,102963,1,0,0:0:0:0:
64,192,102963,1,0,0:0:0:0:
320,192,102963,128,0,103125:0:0:0:0:
192,192,103125,128,0,103369:0:0:0:0:
64,192,103125,1,0,0:0:0:0:
448,192,103125,128,0,103531:0:0:0:0:
64,192,103369,1,0,0:0:0:0:
320,192,103369,1,0,0:0:0:0:
192,192,103450,1,0,0:0:0:0:
192,192,103612,1,0,0:0:0:0:
64,192,103612,1,0,0:0:0:0:
320,192,103612,128,0,103666:0:0:0:0:
448,192,103666,128,0,103720:0:0:0:0:
64,192,103720,128,0,103774:0:0:0:0:
320,192,103774,1,0,0:0:0:0:
192,192,103774,128,0,103936:0:0:0:0:
448,192,103855,1,0,0:0:0:0:
320,192,103855,1,0,0:0:0:0:
64,192,103936,1,0,0:0:0:0:
448,192,103936,128,0,104179:0:0:0:0:
64,192,104098,128,0,104260:0:0:0:0:
192,192,104179,128,0,104341:0:0:0:0:
320,192,104260,128,0,104423:0:0:0:0:
448,192,104260,1,0,0:0:0:0:
64,192,104341,128,0,104423:0:0:0:0:
192,192,104423,1,0,0:0:0:0:
448,192,104423,128,0,104828:0:0:0:0:
64,192,104585,128,0,104747:0:0:0:0:
192,192,104666,128,0,104828:0:0:0:0:
320,192,104747,128,0,104909:0:0:0:0:
64,192,104828,128,0,104990:0:0:0:0:
448,192,104909,1,0,0:0:0:0:
192,192,104909,128,0,104990:0:0:0:0:
320,192,104990,128,0,105071:0:0:0:0:
64,192,105071,1,0,0:0:0:0:
192,192,105071,1,0,0:0:0:0:
448,192,105071,128,0,105314:0:0:0:0:
320,192,105152,1,0,0:0:0:0:
64,192,105233,128,0,105396:0:0:0:0:
192,192,105314,128,0,105396:0:0:0:0:
320,192,105396,128,0,105477:0:0:0:0:
320,192,105558,1,0,0:0:0:0:
448,192,105558,1,0,0:0:0:0:
192,192,105558,128,0,105639:0:0:0:0:
64,192,105639,128,0,105720:0:0:0:0:
448,192,105720,1,0,0:0:0:0:
192,192,105720,128,0,105882:0:0:0:0:
64,192,105882,128,0,106044:0:0:0:0:
192,192,105963,128,0,106044:0:0:0:0:
320,192,106044,1,0,0:0:0:0:
448,192,106044,128,0,106369:0:0:0:0:
192,192,106206,1,0,0:0:0:0:
64,192,106206,1,0,0:0:0:0:
320,192,106369,128,0,106531:0:0:0:0:
448,192,106531,1,0,0:0:0:0:
192,192,106531,128,0,106693:0:0:0:0:
448,192,106693,128,0,106747:0:0:0:0:
320,192,106747,128,0,106801:0:0:0:0:
448,192,106801,128,0,106855:0:0:0:0:
192,192,106855,1,0,0:0:0:0:
64,192,106855,1,0,0:0:0:0:
320,192,106855,128,0,107017:0:0:0:0:
448,192,107017,1,0,0:0:0:0:
192,192,107017,128,0,107341:0:0:0:0:
64,192,107341,128,0,107504:0:0:0:0:
448,192,107341,1,0,0:0:0:0:
320,192,107341,1,0,0:0:0:0:
192,192,107423,128,0,107504:0:0:0:0:
320,192,107504,1,0,0:0:0:0:
448,192,107504,1,0,0:0:0:0:
320,192,107585,1,0,0:0:0:0:
192,192,107666,1,0,0:0:0:0:
192,192,107747,1,0,0:0:0:0:
448,192,107828,1,0,0:0:0:0:
320,192,107828,1,0,0:0:0:0:
64,192,107828,1,0,0:0:0:0:
320,192,107909,1,0,0:0:0:0:
64,192,107990,1,0,0:0:0:0:
64,192,108071,1,0,0:0:0:0:
448,192,108152,1,0,0:0:0:0:
448,192,108233,1,0,0:0:0:0:
192,192,108314,1,0,0:0:0:0:
64,192,108314,1,0,0:0:0:0:
192,192,108396,1,0,0:0:0:0:
448,192,108477,1,0,0:0:0:0:
320,192,108477,1,0,0:0:0:0:
64,192,108477,1,0,0:0:0:0:
192,192,108558,1,0,0:0:0:0:
320,192,108639,128,0,108801:0:0:0:0:
448,192,108639,128,0,108801:0:0:0:0:
64,192,108639,1,0,0:0:0:0:
192,192,108801,1,0,0:0:0:0:
64,192,108801,1,0,0:0:0:0:
448,192,108882,1,0,0:0:0:0:
320,192,108882,1,0,0:0:0:0:
64,192,108963,1,0,0:0:0:0:
192,192,108963,1,0,0:0:0:0:
448,192,109044,1,0,0:0:0:0:
320,192,109044,1,0,0:0:0:0:
192,192,109125,128,0,109287:0:0:0:0:
64,192,109125,1,0,0:0:0:0:
64,192,109287,128,0,109450:0:0:0:0:
192,192,109369,128,0,109531:0:0:0:0:
448,192,109450,1,0,0:0:0:0:
320,192,109450,128,0,109612:0:0:0:0:
64,192,109531,128,0,109612:0:0:0:0:
192,192,109612,1,0,0:0:0:0:
448,192,109612,128,0,109855:0:0:0:0:
64,192,109774,128,0,109936:0:0:0:0:
192,192,109855,128,0,110017:0:0:0:0:
448,192,109936,1,0,0:0:0:0:
320,192,109936,128,0,110098:0:0:0:0:
64,192,110017,128,0,110098:0:0:0:0:
192,192,110098,128,0,110260:0:0:0:0:
448,192,110098,128,0,110504:0:0:0:0:
320,192,110179,128,0,110260:0:0:0:0:
64,192,110260,128,0,110423:0:0:0:0:
320,192,110423,128,0,110585:0:0:0:0:
64,192,110504,128,0,110585:0:0:0:0:
192,192,110585,128,0,110747:0:0:0:0:
448,192,110585,1,0,0:0:0:0:
448,192,110747,128,0,110909:0:0:0:0:
320,192,110747,1,0,0:0:0:0:
64,192,110747,1,0,0:0:0:0:
192,192,110828,128,0,110909:0:0:0:0:
320,192,110909,1,0,0:0:0:0:
64,192,110909,128,0,111152:0:0:0:0:
448,192,110990,128,0,111071:0:0:0:0:
320,192,111071,128,0,111152:0:0:0:0:
192,192,111152,128,0,111233:0:0:0:0:
448,192,111233,1,0,0:0:0:0:
64,192,111233,128,0,111314:0:0:0:0:
320,192,111233,128,0,111558:0:0:0:0:
192,192,111314,128,0,111396:0:0:0:0:
448,192,111396,1,0,0:0:0:0:
64,192,111396,1,0,0:0:0:0:
192,192,111558,128,0,111720:0:0:0:0:
64,192,111720,1,0,0:0:0:0:
320,192,111720,1,0,0:0:0:0:
448,192,111720,128,0,111963:0:0:0:0:
64,192,111882,128,0,112044:0:0:0:0:
192,192,111963,128,0,112125:0:0:0:0:
320,192,112044,128,0,112125:0:0:0:0:
448,192,112044,1,0,0:0:0:0:
64,192,112125,128,0,112206:0:0:0:0:
192,192,112206,128,0,112369:0:0:0:0:
320,192,112206,128,0,112369:0:0:0:0:
448,192,112206,128,0,112369:0:0:0:0:
320,192,112531,128,0,112693:0:0:0:0:
64,192,112531,128,0,112693:0:0:0:0:
192,192,112531,128,0,112693:0:0:0:0:
320,192,112855,128,0,113017:0:0:0:0:
448,192,112855,128,0,113179:0:0:0:0:
64,192,112855,128,0,113098:0:0:0:0:
192,192,113098,1,0,0:0:0:0:
192,192,113179,1,0,0:0:0:0:
320,192,113179,128,0,113260:0:0:0:0:
64,192,113179,1,0,0:0:0:0:
448,192,113260,128,0,113341:0:0:0:0:
64,192,113341,1,0,0:0:0:0:
320,192,113341,128,0,113423:0:0:0:0:
192,192,113423,128,0,113504:0:0:0:0:
320,192,113504,128,0,113585:0:0:0:0:
448,192,113504,1,0,0:0:0:0:
64,192,113585,1,0,0:0:0:0:
192,192,113585,128,0,113666:0:0:0:0:
320,192,113666,1,0,0:0:0:0:
448,192,113666,128,0,113747:0:0:0:0:
192,192,113747,128,0,113828:0:0:0:0:
448,192,113828,1,0,0:0:0:0:
320,192,113828,128,0,113909:0:0:0:0:
192,192,113909,1,0,0:0:0:0:
64,192,113909,128,0,113990:0:0:0:0:
448,192,113990,128,0,114071:0:0:0:0:
64,192,114071,1,0,0:0:0:0:
192,192,114071,128,0,114152:0:0:0:0:
320,192,114152,128,0,114314:0:0:0:0:
448,192,114152,1,0,0:0:0:0:
64,192,114233,128,0,114314:0:0:0:0:
192,192,114314,1,0,0:0:0:0:
448,192,114314,128,0,114558:0:0:0:0:
64,192,114477,128,0,114639:0:0:0:0:
192,192,114558,128,0,114720:0:0:0:0:
448,192,114639,1,0,0:0:0:0:
320,192,114639,128,0,114801:0:0:0:0:
64,192,114720,128,0,114882:0:0:0:0:
448,192,114801,128,0,115206:0:0:0:0:
192,192,114801,128,0,114882:0:0:0:0:
320,192,114963,1,0,0:0:0:0:
64,192,114963,128,0,115206:0:0:0:0:
192,192,115044,128,0,115206:0:0:0:0:
320,192,115125,128,0,115287:0:0:0:0:
448,192,115287,128,0,115450:0:0:0:0:
192,192,115287,1,0,0:0:0:0:
64,192,115287,1,0,0:0:0:0:
320,192,115369,128,0,115450:0:0:0:0:
64,192,115450,1,0,0:0:0:0:
192,192,115450,128,0,115612:0:0:0:0:
64,192,115612,128,0,115774:0:0:0:0:
448,192,115612,1,0,0:0:0:0:
320,192,115612,1,0,0:0:0:0:
192,192,115693,128,0,115774:0:0:0:0:
448,192,115774,1,0,0:0:0:0:
320,192,115774,128,0,116017:0:0:0:0:
192,192,115936,1,0,0:0:0:0:
64,192,115936,1,0,0:0:0:0:
448,192,116017,128,0,116098:0:0:0:0:
320,192,116098,1,0,0:0:0:0:
192,192,116098,128,0,116260:0:0:0:0:
64,192,116179,1,0,0:0:0:0:
320,192,116260,1,0,0:0:0:0:
448,192,116260,1,0,0:0:0:0:
192,192,116341,1,0,0:0:0:0:
64,192,116341,1,0,0:0:0:0:
448,192,116423,1,0,0:0:0:0:
320,192,116423,1,0,0:0:0:0:
192,192,116504,1,0,0:0:0:0:
64,192,116504,1,0,0:0:0:0:
448,192,116585,1,0,0:0:0:0:
320,192,116585,1,0,0:0:0:0:
64,192,116666,1,0,0:0:0:0:
192,192,116666,1,0,0:0:0:0:
448,192,116747,1,0,0:0:0:0:
320,192,116747,1,0,0:0:0:0:
64,192,116828,1,0,0:0:0:0:
192,192,116828,1,0,0:0:0:0:
448,192,116909,1,0,0:0:0:0:
320,192,116909,128,0,117071:0:0:0:0:
64,192,116990,1,0,0:0:0:0:
192,192,117071,1,0,0:0:0:0:
448,192,117071,128,0,117233:0:0:0:0:
64,192,117152,1,0,0:0:0:0:
192,192,117233,1,0,0:0:0:0:
320,192,117233,128,0,117287:0:0:0:0:
448,192,117287,128,0,117341:0:0:0:0:
320,192,117341,128,0,117396:0:0:0:0:
64,192,117396,1,0,0:0:0:0:
192,192,117396,128,0,117882:0:0:0:0:
320,192,117477,1,0,0:0:0:0:
448,192,117558,1,0,0:0:0:0:
64,192,117639,1,0,0:0:0:0:
320,192,117720,1,0,0:0:0:0:
448,192,117801,1,0,0:0:0:0:
64,192,117882,1,0,0:0:0:0:
448,192,117963,1,0,0:0:0:0:
64,192,118044,1,0,0:0:0:0:
192,192,118044,128,0,118206:0:0:0:0:
320,192,118125,1,0,0:0:0:0:
448,192,118206,1,0,0:0:0:0:
320,192,118247,1,0,0:0:0:0:
192,192,118287,1,0,0:0:0:0:
64,192,118328,1,0,0:0:0:0:
320,192,118369,1,0,0:0:0:0:
448,192,118409,1,0,0:0:0:0:
64,192,118450,1,0,0:0:0:0:
192,192,118490,1,0,0:0:0:0:
320,192,118531,1,0,0:0:0:0:
448,192,118571,1,0,0:0:0:0:
192,192,118612,1,0,0:0:0:0:
64,192,118652,1,0,0:0:0:0:
448,192,118693,1,0,0:0:0:0:
320,192,118733,1,0,0:0:0:0:
192,192,118774,1,0,0:0:0:0:
64,192,118814,1,0,0:0:0:0:
320,192,118855,1,0,0:0:0:0:
448,192,118896,1,0,0:0:0:0:
64,192,118936,1,0,0:0:0:0:
192,192,118977,1,0,0:0:0:0:
320,192,119017,1,0,0:0:0:0:
448,192,119058,1,0,0:0:0:0:
192,192,119098,1,0,0:0:0:0:
64,192,119139,1,0,0:0:0:0:
448,192,119179,1,0,0:0:0:0:
320,192,119220,1,0,0:0:0:0:
192,192,119260,1,0,0:0:0:0:
64,192,119301,1,0,0:0:0:0:
320,192,119341,1,0,0:0:0:0:
448,192,119382,1,0,0:0:0:0:
64,192,119423,1,0,0:0:0:0:
192,192,119463,1,0,0:0:0:0:
448,192,119504,1,0,0:0:0:0:
320,192,119504,128,0,119585:0:0:0:0:
320,192,119666,1,0,0:0:0:0:
320,192,119828,1,0,0:0:0:0:
320,192,119990,1,0,0:0:0:0:
448,192,119990,128,0,120071:0:0:0:0:
448,192,120152,1,0,0:0:0:0:
448,192,120314,1,0,0:0:0:0:
448,192,120477,1,0,0:0:0:0:
192,192,120477,128,0,120558:0:0:0:0:
192,192,120639,1,0,0:0:0:0:
192,192,120801,1,0,0:0:0:0:
192,192,120963,1,0,0:0:0:0:
192,192,121125,1,0,0:0:0:0:
192,192,121287,1,0,0:0:0:0:
448,192,121450,1,0,0:0:0:0:
192,192,121450,128,0,121531:0:0:0:0:
192,192,121612,1,0,0:0:0:0:
192,192,121774,1,0,0:0:0:0:
64,192,121774,128,0,121855:0:0:0:0:
64,192,121936,1,0,0:0:0:0:
64,192,122098,1,0,0:0:0:0:
320,192,122098,128,0,122179:0:0:0:0:
320,192,122260,1,0,0:0:0:0:
320,192,122423,1,0,0:0:0:0:
320,192,122585,1,0,0:0:0:0:
448,192,122585,128,0,122666:0:0:0:0:
448,192,122747,1,0,0:0:0:0:
448,192,122909,1,0,0:0:0:0:
448,192,123071,1,0,0:0:0:0:
192,192,123071,128,0,123152:0:0:0:0:
192,192,123233,1,0,0:0:0:0:
192,192,123396,1,0,0:0:0:0:
192,192,123558,1,0,0:0:0:0:
192,192,123720,1,0,0:0:0:0:
192,192,123882,1,0,0:0:0:0:
448,192,124044,1,0,0:0:0:0:
192,192,124044,128,0,124125:0:0:0:0:
192,192,124206,1,0,0:0:0:0:
192,192,124369,1,0,0:0:0:0:
64,192,124369,128,0,124450:0:0:0:0:
64,192,124531,1,0,0:0:0:0:
64,192,124693,1,0,0:0:0:0:
320,192,124693,128,0,124774:0:0:0:0:
320,192,124855,1,0,0:0:0:0:
320,192,125017,1,0,0:0:0:0:
320,192,125139,1,0,0:0:0:0:
64,192,125179,1,0,0:0:0:0:
448,192,125179,128,0,125260:0:0:0:0:
448,192,125341,1,0,0:0:0:0:
448,192,125504,1,0,0:0:0:0:
448,192,125666,1,0,0:0:0:0:
192,192,125666,128,0,125747:0:0:0:0:
192,192,125828,1,0,0:0:0:0:
192,192,125990,1,0,0:0:0:0:
320,192,125990,1,0,0:0:0:0:
192,192,126152,1,0,0:0:0:0:
192,192,126314,1,0,0:0:0:0:
192,192,126477,1,0,0:0:0:0:
320,192,126639,128,0,126720:0:0:0:0:
192,192,126639,1,0,0:0:0:0:
320,192,126801,1,0,0:0:0:0:
320,192,126963,1,0,0:0:0:0:
320,192,127125,1,0,0:0:0:0:
320,192,127247,1,0,0:0:0:0:
448,192,127287,128,0,127369:0:0:0:0:
448,192,127450,1,0,0:0:0:0:
448,192,127612,1,0,0:0:0:0:
448,192,127774,1,0,0:0:0:0:
448,192,127936,1,0,0:0:0:0:
448,192,128098,1,0,0:0:0:0:
448,192,128260,1,0,0:0:0:0:
448,192,128423,1,0,0:0:0:0:
320,192,128585,1,0,0:0:0:0:
320,192,128747,1,0,0:0:0:0:
320,192,128909,1,0,0:0:0:0:
320,192,129071,1,0,0:0:0:0:
320,192,129233,1,0,0:0:0:0:
320,192,129396,1,0,0:0:0:0:
320,192,129558,1,0,0:0:0:0:
320,192,129720,1,0,0:0:0:0:
320,192,129882,1,0,0:0:0:0:
