osu file format v14

[General]
AudioFilename: audio.mp3
AudioLeadIn: 0
PreviewTime: 100721
Countdown: 0
SampleSet: Soft
StackLeniency: 0.7
Mode: 2
LetterboxInBreaks: 0
WidescreenStoryboard: 1

[Editor]
Bookmarks: 5416,16083,26749,37416,48416,58749,69416,80083,90749,101416,112416,122749,130749
DistanceSpacing: 1
BeatDivisor: 4
GridSize: 32
TimelineZoom: 3.299998

[Metadata]
Title:Bleary Vagary
TitleUnicode:Bleary Vagary
Artist:Ashrount
ArtistUnicode:Ashrount
Creator:Jemzuu
Version:fayew's Overdose
Source:
Tags:featured artist ajamez nyarkoo fayew skill issue lol unlucky_w electronic instrumental drumstep dubstep drum'n'bass dnb j-core C97 Comiket Comic Market Zarusoba DesignWorks M∞ving 01 Moving 01 ZDWM-0001 Xect. Maverick SELDO Sugar Juggernaut.
BeatmapID:4063576
BeatmapSetID:1958376

[Difficulty]
HPDrainRate:5.5
CircleSize:3.6
OverallDifficulty:9.3
ApproachRate:9.3
SliderMultiplier:1.92
SliderTickRate:1

[Events]
//Background and Video events
0,0,"BG.jpg",0,0
//Break Periods
//Storyboard Layer 0 (Background)
//Storyboard Layer 1 (Fail)
//Storyboard Layer 2 (Pass)
//Storyboard Layer 3 (Foreground)
//Storyboard Layer 4 (Overlay)
//Storyboard Sound Samples

[TimingPoints]
-18,333.333333333333,4,2,1,5,1,0
-18,-30.5498981670061,4,2,1,5,0,0
2481,-30.5498981670061,4,2,1,15,0,0
2814,-30.5498981670061,4,2,1,20,0,0
3148,-30.5498981670061,4,2,1,25,0,0
3481,-30.5498981670061,4,2,1,30,0,0
3814,-30.5498981670061,4,2,1,35,0,0
4148,-30.5498981670061,4,2,1,40,0,0
4315,-30.5498981670061,4,2,1,5,0,0
4648,-30.5498981670061,4,2,1,50,0,0
5315,-21.0025203024363,4,2,3,40,0,0
15981,-21.0025203024363,4,2,3,70,0,0
16315,-21.0025203024363,4,2,3,50,0,0
18648,-21.0025203024363,4,2,3,60,0,0
18981,-21.0025203024363,4,2,3,55,0,0
21315,-21.0025203024363,4,2,3,40,0,0
21648,-21.0025203024363,4,2,3,45,0,0
21981,-21.0025203024363,4,2,3,50,0,0
22315,-21.0025203024363,4,2,3,55,0,0
22648,-21.0025203024363,4,2,3,60,0,0
22981,-21.0025203024363,4,2,3,65,0,0
23315,-21.0025203024363,4,2,3,70,0,0
23648,-21.0025203024363,4,2,3,75,0,0
23981,-21.0025203024363,4,2,3,80,0,0
24315,-21.0025203024363,4,2,3,82,0,0
24648,-21.0025203024363,4,2,3,84,0,0
24981,-21.0025203024363,4,2,3,86,0,0
25315,-21.0025203024363,4,2,3,30,0,0
26315,-17.7767243422612,4,2,3,80,0,0
26398,-17.7767243422612,4,2,3,45,0,0
26648,-23.0982445334155,4,2,3,40,0,0
29315,-23.0982445334155,4,2,3,45,0,0
29648,-23.0982445334155,4,2,3,50,0,0
31981,-21.0025203024363,4,2,2,55,0,0
32147,-21.0025203024363,4,2,3,55,0,0
32648,-21.0025203024363,4,2,3,60,0,0
33315,-21.0025203024363,4,2,2,65,0,0
33481,-21.0025203024363,4,2,3,65,0,0
33981,-21.0025203024363,4,2,3,70,0,0
34648,-21.0025203024363,4,2,2,75,0,0
34731,-21.0025203024363,4,2,3,75,0,0
34981,-21.0025203024363,4,2,3,78,0,0
35315,-21.0025203024363,4,2,2,81,0,0
35481,-21.0025203024363,4,2,3,81,0,0
35648,-21.0025203024363,4,2,3,84,0,0
35981,-21.0025203024363,4,2,1,60,0,0
36981,-21.0025203024363,4,2,1,50,0,0
37315,-16.7478004555402,4,2,1,80,0,0
37648,-19.5812229126416,4,2,1,70,0,0
37814,-19.5812229126416,4,2,1,55,0,0
37981,-19.5812229126416,4,2,1,65,0,0
38315,-19.5812229126416,4,2,1,70,0,0
38481,-19.5812229126416,4,2,1,60,0,0
38648,-19.5812229126416,4,2,1,75,0,0
39315,-19.5812229126416,4,2,1,65,0,0
39815,-19.5812229126416,4,2,1,60,0,0
39981,-17.7767243422612,4,2,1,50,0,0
40315,-19.5812229126416,4,2,1,65,0,0
40981,-19.5812229126416,4,2,1,70,0,0
41147,-19.5812229126416,4,2,1,75,0,0
41315,-19.5812229126416,4,2,1,65,0,0
41814,-19.5812229126416,4,2,1,55,0,0
41981,-19.5812229126416,4,2,1,60,0,0
42315,-19.5812229126416,4,2,1,70,0,0
42648,-16.7478004555402,4,2,1,80,0,0
42981,-19.5812229126416,4,2,1,65,0,0
44147,-19.5812229126416,4,2,1,70,0,0
44315,-19.5812229126416,4,2,1,75,0,0
44981,-19.5812229126416,4,2,1,55,0,0
45147,-19.5812229126416,4,2,1,60,0,0
45315,-17.7767243422612,4,2,1,50,0,0
45648,-19.5812229126416,4,2,1,50,0,0
45981,-19.5812229126416,4,2,1,55,0,0
46315,-19.5812229126416,4,2,1,60,0,0
46481,-19.5812229126416,4,2,1,65,0,0
46648,-19.5812229126416,4,2,1,70,0,0
46981,-19.5812229126416,4,2,1,50,0,0
47148,-19.5812229126416,4,2,1,75,0,0
47398,-19.5812229126416,4,2,1,50,0,0
47481,-19.5812229126416,4,2,1,80,0,0
47815,-19.5812229126416,4,2,2,30,0,0
47981,-16.7478004555402,4,2,1,80,0,0
48315,-18.9403505227537,4,2,2,85,0,0
48398,-18.9403505227537,4,2,1,85,0,0
48481,-18.9403505227537,4,2,1,65,0,0
48648,-18.9403505227537,4,2,1,70,0,0
49147,-18.9403505227537,4,2,1,60,0,0
49315,-18.9403505227537,4,2,1,75,0,0
49981,-18.9403505227537,4,2,1,65,0,0
50481,-18.9403505227537,4,2,1,70,0,0
50648,-17.7767243422612,4,2,1,50,0,0
50981,-18.9403505227537,4,2,1,65,0,0
51648,-18.9403505227537,4,2,1,70,0,0
51814,-18.9403505227537,4,2,1,75,0,0
51981,-18.9403505227537,4,2,1,60,0,0
52315,-18.9403505227537,4,2,1,65,0,0
52481,-18.9403505227537,4,2,1,55,0,0
52648,-18.9403505227537,4,2,1,75,0,0
52981,-18.9403505227537,4,2,2,80,0,0
53315,-18.9403505227537,4,2,1,85,0,0
53648,-18.9403505227537,4,2,1,60,0,0
54814,-18.9403505227537,4,2,1,65,0,0
55981,-18.9403505227537,4,2,1,70,0,0
56315,-18.9403505227537,4,2,1,75,0,0
56648,-18.9403505227537,4,2,1,80,0,0
56981,-18.9403505227537,4,2,1,85,0,0
57315,-18.9403505227537,4,2,1,50,0,0
57648,-18.9403505227537,4,2,1,40,0,0
57981,-18.9403505227537,4,2,1,30,0,0
58315,-17.7767243422612,4,2,1,45,0,0
58648,-13.599274705349,4,2,1,85,0,0
59148,-13.599274705349,4,2,1,65,0,0
59315,-13.599274705349,4,2,1,50,0,0
59648,-13.599274705349,4,2,1,80,0,0
59981,-13.599274705349,4,2,1,60,0,0
60315,-18.9403505227537,4,2,1,60,0,0
61315,-13.599274705349,4,2,1,85,0,0
61815,-13.599274705349,4,2,1,65,0,0
61981,-13.599274705349,4,2,1,50,0,0
62315,-13.599274705349,4,2,1,80,0,0
62481,-13.599274705349,4,2,1,60,0,0
62648,-18.9403505227537,4,2,1,50,0,0
62815,-18.9403505227537,4,2,1,60,0,0
63981,-13.599274705349,4,2,1,85,0,0
64481,-13.599274705349,4,2,1,65,0,0
64648,-13.599274705349,4,2,1,50,0,0
64981,-13.599274705349,4,2,1,80,0,0
65315,-18.9403505227537,4,2,1,80,0,0
66648,-12.7036823740642,4,2,1,85,0,0
67148,-12.7036823740642,4,2,1,65,0,0
67315,-18.9403505227537,4,2,1,50,0,0
67648,-18.9403505227537,4,2,1,80,0,0
67981,-18.9403505227537,4,2,1,60,0,0
68648,-18.9403505227537,4,2,1,70,0,0
68981,-18.9403505227537,4,2,1,50,0,0
69231,-18.9403505227537,4,2,1,5,0,0
69315,-13.599274705349,4,2,1,85,0,0
69481,-13.599274705349,4,2,1,70,0,0
69815,-19.2554557124519,4,2,1,70,0,0
70648,-19.2554557124519,4,2,1,75,0,0
71315,-19.2554557124519,4,2,1,70,0,0
71815,-19.2554557124519,4,2,1,60,0,0
71981,-19.2554557124519,4,2,1,50,0,0
72315,-19.2554557124519,4,2,1,70,0,0
72981,-19.2554557124519,4,2,1,75,0,0
73147,-19.2554557124519,4,2,1,70,0,0
73315,-19.2554557124519,4,2,1,60,0,0
73648,-19.2554557124519,4,2,1,70,0,0
73815,-19.2554557124519,4,2,1,50,0,0
73981,-19.2554557124519,4,2,1,75,0,0
74314,-19.2554557124519,4,2,2,80,0,0
74648,-13.599274705349,4,2,1,85,0,0
74814,-13.599274705349,4,2,1,60,0,0
75148,-19.2554557124519,4,2,1,60,0,0
75315,-19.2554557124519,4,2,1,65,0,0
75981,-19.2554557124519,4,2,1,70,0,0
76648,-19.2554557124519,4,2,1,75,0,0
77315,-19.2554557124519,4,2,2,60,0,0
77648,-19.2554557124519,4,2,2,65,0,0
77981,-19.2554557124519,4,2,2,70,0,0
78315,-19.2554557124519,4,2,2,75,0,0
78648,-19.2554557124519,4,2,1,40,0,0
79648,-21.0025203024363,4,2,1,40,0,0
79981,-21.7934561515662,4,2,1,35,0,0
82648,-32.7082424771042,4,2,1,35,0,0
83981,-21.7934561515662,4,2,1,35,0,0
85815,-100,4,2,1,35,0,0
86148,-21.7934561515662,4,2,1,35,0,0
90648,-21.0025203024363,4,2,1,60,0,0
90981,-21.0025203024363,4,2,1,40,0,0
93315,-21.0025203024363,4,2,1,45,0,0
95981,-21.0025203024363,4,2,2,50,0,0
98648,-21.0025203024363,4,2,2,55,0,0
98981,-21.0025203024363,4,2,2,60,0,0
99315,-21.0025203024363,4,2,2,65,0,0
99648,-21.0025203024363,4,2,2,80,0,0
99981,-17.7767243422612,4,2,2,35,0,0
100148,-17.7767243422612,4,2,1,35,0,0
100981,-21.0025203024363,4,2,2,40,0,0
101315,-17.7767243422612,4,2,1,50,0,1
101648,-17.7767243422612,4,2,2,75,0,1
103648,-17.7767243422612,4,2,2,80,0,1
103981,-17.7767243422612,4,2,2,85,0,1
104315,-17.7767243422612,4,2,2,80,0,1
104648,-17.7767243422612,4,2,2,70,0,1
104981,-17.7767243422612,4,2,2,60,0,1
105315,-17.7767243422612,4,2,2,75,0,1
106648,-17.7767243422612,4,2,2,60,0,1
106981,-17.7767243422612,4,2,2,75,0,1
108648,-17.7767243422612,4,2,2,80,0,1
109315,-17.7767243422612,4,2,2,85,0,1
109648,-17.7767243422612,4,2,2,75,0,1
109981,-17.7767243422612,4,2,2,65,0,1
110315,-17.7767243422612,4,2,2,75,0,1
110648,-71.4285714285714,4,2,2,80,0,1
111148,-71.4285714285714,4,2,2,75,0,1
111648,-17.7767243422612,4,2,2,70,0,1
111981,-17.7767243422612,4,2,2,50,0,0
112315,-17.7767243422612,4,2,2,75,0,1
114315,-17.7767243422612,4,2,2,80,0,1
114648,-17.7767243422612,4,2,2,75,0,1
114981,-17.7767243422612,4,2,2,80,0,1
115315,-17.7767243422612,4,2,2,70,0,1
115648,-17.7767243422612,4,2,2,60,0,1
115981,-17.7767243422612,4,2,2,80,0,1
117315,-17.7767243422612,4,2,2,85,0,1
119981,-17.7767243422612,4,2,2,65,0,1
120314,-17.7767243422612,4,2,2,70,0,1
120647,-17.7767243422612,4,2,2,75,0,1
120981,-17.7767243422612,4,2,2,80,0,1
121315,-17.7767243422612,4,2,2,60,0,0
121398,-17.7767243422612,4,2,3,60,0,0
121648,-17.7767243422612,4,2,3,50,0,0
121981,-17.7767243422612,4,2,3,40,0,0
122315,-17.7767243422612,4,2,3,50,0,0
122648,-23.0982445334155,4,2,2,65,0,0
125314,-23.0982445334155,4,2,2,5,0,0

[Colours]
Combo1 : 192,192,192
Combo2 : 89,172,255
Combo3 : 170,170,255
Combo4 : 255,179,102

[HitObjects]
256,192,2315,12,0,4315,2:0:0:0:
208,192,4648,5,2,2:0:0:0:
304,192,4981,1,2,2:0:0:0:
32,192,5315,6,0,B|45:-11|45:-11|36:193|36:193|94:-2|94:-2|143:297|143:297,1,914.176,2|8,3:0|3:0,3:0:0:0:
247,72,5815,2,0,B|280:273|280:273|304:71|304:71|283:274|283:274|223:-23|223:-23,1,914.176,2|8,3:0|3:0,3:0:0:0:
127,193,6315,2,0,L|138:372|138:372|136:94|136:94,1,457.088,2|0,3:0|3:0,3:0:0:0:
273,318,6648,6,0,B|326:96|326:96|355:323|355:323|371:95|371:95|363:323|363:323|342:145|342:145|300:420|300:420,1,1371.264,0|0,3:0|3:0,3:0:0:0:
241,92,7315,2,0,L|295:289|295:289|338:90|338:90|383:289|383:289|433:-9|433:-9,1,914.176,2|8,3:0|3:0,3:0:0:0:
210,218,7981,6,0,L|170:18|170:18|121:216|121:216|100:13|100:13|18:304|18:304,1,914.176,2|8,3:0|3:0,3:0:0:0:
114,274,8481,2,0,B|156:74|156:74|178:277|178:277|216:77|216:77|218:380|218:380,1,914.176,2|8,3:0|3:0,3:0:0:0:
120,103,8981,1,2,3:0:0:0:
361,58,9315,5,0,3:0:0:0:
402,84,9398,1,0,3:0:0:0:
432,119,9481,1,0,3:0:0:0:
447,164,9565,1,0,3:0:0:0:
445,212,9648,1,8,3:0:0:0:
427,256,9731,1,0,3:0:0:0:
394,290,9815,1,0,3:0:0:0:
351,311,9898,1,0,3:0:0:0:
244,325,9981,5,2,3:0:0:0:
425,335,10315,1,2,3:0:0:0:
169,343,10648,6,0,B|112:147|112:147|115:351|115:351|130:148|130:148|178:447|178:447,1,914.176,2|8,3:0|3:0,3:0:0:0:
288,258,11148,2,0,B|297:54|297:54|246:251|246:251|221:49|221:49|169:347|169:347,1,914.176,2|8,3:0|3:0,3:0:0:0:
75,158,11648,1,2,3:0:0:0:
371,335,11981,6,0,B|354:107|354:107|379:334|379:334|348:108|348:108|312:334|312:334|272:159|272:159|231:434|231:434,1,1371.264,0|0,3:0|3:0,3:0:0:0:
136,110,12648,2,0,B|107:312|107:312|87:109|87:109|106:312|106:312|146:12|146:12,1,914.176,2|8,3:0|3:0,3:0:0:0:
428,331,13315,6,0,L|377:108|377:108|345:334|345:334|278:115|278:115|236:340|236:340|207:163|207:163|140:433|140:433,1,1371.264,2|2,3:0|3:0,3:0:0:0:
122,288,13981,2,0,L|165:114|165:114|218:387|218:387,1,457.088,0|8,3:0|3:0,3:0:0:0:
217,279,14315,2,0,L|170:106|170:106|121:380|121:380,1,457.088,0|0,3:0|3:0,3:0:0:0:
295,340,14648,6,0,L|324:163|324:163|391:433|391:433,1,457.088,2|0,3:0|3:0,3:0:0:0:
390,347,14981,2,0,L|345:174|345:174|294:447|294:447,1,457.088,8|2,3:0|3:0,3:0:0:0:
193,348,15315,2,0,L|190:169|190:169|183:447|183:447,1,457.088,2|8,3:0|3:0,3:0:0:0:
295,235,15648,2,0,L|327:59|327:59|391:329|391:329,1,457.088,2|0,3:0|3:0,3:0:0:0:
26,127,15981,6,0,L|28:306|28:306|19:28|19:28,1,457.088,14|8,2:1|2:1,2:0:0:0:
132,239,16315,1,8,2:0:0:0:
260,332,16481,2,0,B|224:131|224:131|159:324|159:324|151:120|151:120|129:422|129:422,1,914.176,0|8,2:0|2:1,2:0:0:0:
225,229,16981,2,0,L|187:54|187:54|129:326|129:326,1,457.088,10|0,2:0|2:0,2:0:0:0:
177,224,17231,1,8,2:1:0:0:
344,162,17315,6,0,L|367:340|367:340|440:72|440:72,1,457.088,8|8,2:1|2:1,2:0:0:0:
336,243,17648,2,0,B|308:41|308:41|234:231|234:231|236:27|236:27|235:330|235:330,1,914.176,8|2,2:0|2:0,2:0:0:0:
331,122,18148,1,8,2:1:0:0:
223,99,18315,2,0,L|175:322|175:322|223:99|223:99,2,228.544,8|8|0,2:0|2:1|2:0,2:0:0:0:
469,88,18648,6,0,L|471:267|471:267|467:-11|467:-11,1,457.088,10|8,2:1|2:1,2:0:0:0:
349,271,18981,2,0,B|383:70|383:70|429:269|429:269|438:65|438:65|448:367|448:367,1,914.176,8|2,2:0|2:0,2:0:0:0:
351,123,19481,1,8,2:1:0:0:
248,177,19648,2,0,L|297:349|297:349|344:75|344:75,1,457.088,8|0,2:0|2:0,2:0:0:0:
345,122,19898,1,8,2:1:0:0:
145,118,19981,6,0,L|166:296|166:296|161:18|161:18,1,457.088,10|8,2:1|2:1,2:0:0:0:
279,260,20315,2,0,L|322:86|322:86|375:359|375:359,1,457.088,10|8,2:0|2:1,2:0:0:0:
266,323,20648,2,0,L|218:100|218:100|266:323|266:323,2,228.544,2|8|0,2:0|2:1|2:0,2:0:0:0:
383,314,20981,2,0,B|421:139|421:139|408:417|408:417,1,457.088,10|10,2:0|2:0,2:0:0:0:
361,211,21231,1,8,2:1:0:0:
143,282,21315,6,0,L|109:106|109:106|47:377|47:377,1,457.088,10|8,2:0|2:1,2:0:0:0:
157,229,21648,2,0,L|114:55|114:55|61:328|61:328,1,457.088,8|10,2:0|2:1,2:0:0:0:
299,312,21981,2,0,L|336:137|336:137|395:409|395:409,1,457.088,8|8,2:0|2:1,2:0:0:0:
287,331,22315,2,0,L|250:156|250:156|191:428|191:428,1,457.088,10|8,2:0|2:1,2:0:0:0:
454,150,22648,6,0,L|437:328|437:328|452:50|452:50,1,457.088,8|8,2:0|2:1,2:0:0:0:
336,314,22981,2,0,L|376:139|376:139|432:411|432:411,1,457.088,8|8,2:0|2:1,2:0:0:0:
182,243,23315,2,0,L|206:65|206:65|278:333|278:333,1,457.088,8|8,2:0|2:1,2:0:0:0:
436,303,23648,2,0,L|410:126|410:126|340:395|340:395,1,457.088,8|8,2:0|2:1,2:0:0:0:
108,307,23981,6,0,L|60:84|60:84|108:307|108:307|60:84|60:84,3,228.544,10|8|8|8,2:0|2:0|2:0|2:0,2:0:0:0:
245,302,24315,1,8,2:0:0:0:
284,277,24398,1,8,2:0:0:0:
287,230,24481,1,8,2:0:0:0:
252,201,24565,1,8,2:0:0:0:
102,174,24648,2,0,L|54:-49|54:-49,1,228.544,8|8,2:0|2:0,2:0:0:0:
102,174,24815,2,0,L|150:-49|150:-49,1,228.544,8|8,2:0|2:0,2:0:0:0:
328,190,24981,1,8,2:0:0:0:
280,185,25065,1,8,2:0:0:0:
232,181,25148,1,8,2:0:0:0:
184,176,25231,1,8,2:0:0:0:
448,192,25315,5,10,2:1:0:0:
256,192,25481,12,8,26148,2:3:0:0:
192,336,26315,6,0,L|120:76|120:76,1,270.016,10|8,2:0|2:0,2:0:0:0:
192,256,26481,2,0,L|192:-14|192:-14,1,270.016,8|8,2:0|2:0,2:0:0:0:
432,320,26648,6,0,B|443:135|443:135|446:320|446:320|449:135|449:135|403:406|403:406,1,831.232000000001,14|8,2:3|2:3,2:0:0:0:
272,176,27315,2,0,L|233:380|233:380|200:175|200:175|239:17|239:17|272:268|272:268,2,415.616,2|10|2,2:0|2:3|2:0,2:0:0:0:
160,320,27981,6,0,L|194:161|194:161|232:411|232:411,1,415.616,10|2,2:3|2:0,2:0:0:0:
256,256,28315,1,0,2:0:0:0:
352,240,28481,1,2,2:0:0:0:
240,208,28648,2,0,L|230:371|230:371|168:126|168:126,1,415.616,8|0,2:3|2:0,2:0:0:0:
256,208,28981,2,0,L|282:369|282:369|328:121|328:121,1,415.616,0|0,2:0|2:0,2:0:0:0:
164,316,29315,6,0,B|140:132|140:132|141:317|141:317|143:132|143:132|166:406|166:406,1,831.232000000001,10|10,2:3|2:3,2:0:0:0:
251,201,29815,1,0,2:0:0:0:
148,203,29981,2,0,L|137:366|137:366|136:113|136:113,1,415.616,0|2,2:0|2:0,2:0:0:0:
37,108,30315,1,2,2:0:0:0:
125,136,30481,1,0,2:0:0:0:
298,93,30648,6,0,L|327:253|327:253|370:4|370:4,1,415.616,10|2,2:3|2:0,2:0:0:0:
373,133,30981,1,0,2:0:0:0:
447,145,31148,2,0,L|424:306|424:306|375:58|375:58,1,415.616,2|0,2:0|2:0,2:0:0:0:
264,141,31481,1,0,2:0:0:0:
368,154,31648,2,0,L|408:312|408:312|440:61|440:61,1,415.616,2|0,2:0|2:0,2:0:0:0:
161,343,31981,6,0,L|131:166|131:166|65:436|65:436,1,457.088,14|8,2:1|2:1,2:0:0:0:
174,352,32315,2,0,L|141:176|141:176|78:447|78:447,1,457.088,10|10,2:0|2:1,2:0:0:0:
318,318,32648,2,0,L|366:145|366:145|414:419|414:419,1,457.088,8|10,2:0|2:1,2:0:0:0:
294,303,32981,2,0,L|257:128|257:128|198:400|198:400,1,457.088,10|8,2:0|2:1,2:0:0:0:
483,156,33315,6,0,L|494:335|494:335|477:58|477:58,1,457.088,14|10,2:1|2:1,2:0:0:0:
381,176,33648,2,0,L|380:355|380:355|380:77|380:77,1,457.088,8|10,2:0|2:1,2:0:0:0:
129,329,33981,6,0,L|152:151|152:151|225:419|225:419,1,457.088,8|10,2:0|2:1,2:0:0:0:
130,322,34315,2,0,L|102:145|102:145|34:414|34:414,1,457.088,10|8,2:0|2:1,2:0:0:0:
339,308,34648,6,0,L|348:80|348:80,1,228.544,14|8,2:1|2:1,2:0:0:0:
411,250,34815,2,0,L|420:22|420:22,1,228.544,8|8,2:0|2:1,2:0:0:0:
266,232,34981,6,0,L|257:4|257:4,1,228.544,10|8,2:0|2:1,2:0:0:0:
194,174,35148,2,0,L|185:-54|185:-54,1,228.544,10|8,2:0|2:1,2:0:0:0:
367,108,35315,6,0,L|415:331|415:331,1,228.544,14|8,2:1|2:0,2:0:0:0:
257,184,35481,2,0,L|209:-39|209:-39,1,228.544,10|8,2:0|2:0,2:0:0:0:
367,108,35648,2,0,L|415:331|415:331,1,228.544,10|8,2:0|2:0,2:0:0:0:
257,184,35815,2,0,L|209:-39|209:-39,1,228.544,10|8,2:0|2:0,2:0:0:0:
367,108,35981,6,0,B|404:334|404:334|399:106|399:106|433:332|433:332|396:106|396:106|343:328|343:328|333:100|333:100|283:323|283:323|225:102|225:102|190:244|190:244|170:99|170:99|181:245|181:245|173:0|173:0,1,2513.984,10|0,1:3|1:0,1:0:0:0:
431,120,36981,1,10,2:1:0:0:
440,123,37315,6,0,L|401:303|401:303|338:130|338:130|270:301|270:301|195:3|195:3,1,859.8144,10|0,1:3|1:0,1:0:0:0:
399,308,37648,6,0,L|354:121|354:121|284:411|284:411,1,490.2656,14|2,1:3|1:0,1:0:0:0:
225,302,37898,1,0,1:0:0:0:
416,224,37981,5,10,1:3:0:0:
464,192,38065,1,2,1:0:0:0:
416,176,38148,1,2,1:0:0:0:
265,165,38315,2,0,L|310:352|310:352|380:62|380:62,1,490.2656,10|2,1:3|1:0,1:0:0:0:
81,347,38648,6,0,L|86:155|86:155|78:453|78:453,1,490.2656,14|0,1:2|1:0,1:0:0:0:
238,201,38981,2,0,L|224:9|224:9|243:306|243:306,1,490.2656,14|0,1:2|1:0,1:0:0:0:
399,37,39315,2,0,L|428:156|428:156|399:275|399:275,2,122.5664,10|0|0,1:3|1:0|1:0,1:0:0:0:
312,67,39481,2,0,L|283:186|283:186|312:305|312:305,2,122.5664,10|0|0,1:3|1:0|1:0,1:0:0:0:
421,110,39648,6,0,L|425:233|425:233|421:356|421:356,2,122.5664,10|0|0,1:3|1:0|1:0,1:0:0:0:
329,97,39815,2,0,L|271:335|271:335,1,245.1328,10|0,1:3|1:0,1:0:0:0:
95,178,39981,6,0,B|99:351|99:351|141:183|141:183|159:11|159:11|250:286|250:286,1,810.048,14|0,1:2|1:0,1:0:0:0:
430,285,40315,2,0,L|434:40|434:40,1,245.1328,10|0,1:3|1:0,1:0:0:0:
249,238,40481,1,2,1:0:0:0:
221,231,40523,1,2,1:0:0:0:
200,211,40565,1,2,1:0:0:0:
192,184,40606,1,0,1:0:0:0:
200,156,40648,1,10,1:3:0:0:
220,136,40690,1,0,1:0:0:0:
247,129,40731,1,0,1:0:0:0:
337,123,40815,1,2,1:0:0:0:
211,260,40981,2,0,L|181:70|181:70|96:356|96:356,1,490.2656,10|0,1:3|1:0,1:0:0:0:
374,330,41315,6,0,B|400:140|400:140|403:438|403:438,1,490.2656,14|2,1:2|1:0,1:0:0:0:
345,216,41565,1,2,1:0:0:0:
198,197,41648,2,0,L|259:379|259:379|313:86|313:86,1,490.2656,10|2,1:3|1:0,1:0:0:0:
69,315,41981,6,0,L|60:70|60:70,1,245.1328,14|0,1:3|1:0,1:0:0:0:
129,239,42148,2,0,L|138:-6|138:-6,1,245.1328,2|0,1:0|1:0,1:0:0:0:
315,240,42315,6,0,L|324:-5|324:-5,1,245.1328,14|0,1:3|1:0,1:0:0:0:
255,164,42481,2,0,L|246:-81|246:-81,1,245.1328,2|0,1:0|1:0,1:0:0:0:
442,89,42648,6,0,L|401:268|401:268|348:92|348:92|291:267|291:267|197:-26|197:-26,1,859.8144,14|0,1:3|1:0,1:0:0:0:
48,182,42981,6,0,L|37:304|37:304|48:182|48:182,2,122.5664,10|0|0,1:3|1:0|1:0,1:0:0:0:
148,141,43148,2,0,L|177:260|177:260|148:379|148:379,2,122.5664,2|0|0,1:0|1:0|1:0,1:0:0:0:
35,151,43315,5,10,1:3:0:0:
30,179,43356,1,0,1:0:0:0:
31,208,43398,1,0,1:0:0:0:
37,236,43440,1,0,1:0:0:0:
48,262,43481,1,2,1:0:0:0:
190,320,43648,2,0,L|143:134|143:134|75:424|75:424,1,490.2656,10|2,1:3|1:0,1:0:0:0:
336,320,43981,6,0,L|391:136|391:136|451:428|451:428,1,490.2656,10|0,1:3|1:0,1:0:0:0:
400,272,44231,1,0,1:0:0:0:
256,304,44315,2,0,L|256:181|256:181|256:58|256:58,2,122.5664,10|0|0,1:3|1:0|1:0,1:0:0:0:
320,272,44481,1,2,1:0:0:0:
88,320,44648,6,0,L|30:82|30:82,1,245.1328,10|2,1:3|1:0,1:0:0:0:
200,240,44815,2,0,L|258:2|258:2,1,245.1328,2|2,1:0|1:0,1:0:0:0:
59,320,44981,2,0,B|14:133|14:133|50:429|50:429,1,490.2656,8|0,1:3|1:0,1:0:0:0:
106,207,45231,1,2,1:0:0:0:
256,192,45315,6,0,L|293:361|293:361|357:200|357:200|380:28|380:28|472:303|472:303,1,810.048,10|0,1:3|1:0,1:0:0:0:
256,288,45648,2,0,L|227:169|227:169|256:50|256:50,2,122.5664,8|0|0,1:3|1:0|1:0,1:0:0:0:
336,288,45815,2,0,L|345:166|345:166|336:44|336:44,2,122.5664,2|2|2,1:0|1:0|1:0,1:0:0:0:
160,336,45981,6,0,L|123:147|123:147|45:435|45:435,1,490.2656,10|8,1:3|1:3,1:0:0:0:
176,272,46315,1,10,1:3:0:0:
118,272,46398,1,0,1:0:0:0:
60,272,46481,1,2,1:0:0:0:
416,320,46648,6,0,B|457:168|457:168|477:12|477:12|472:169|472:169|422:-89|422:-89,1,735.3984,14|0,1:3|1:0,1:0:0:0:
256,192,46981,1,0,1:0:0:0:
256,192,47148,2,0,L|291:345|291:345|337:195|337:195|349:38|349:38|429:289|429:289,1,735.3984,14|0,1:3|1:0,1:0:0:0:
240,304,47481,2,0,B|200:152|200:152|173:307|173:307|190:151|190:151|248:408|248:408,1,735.3984,14|0,1:3|1:0,1:0:0:0:
400,192,47815,1,10,1:2:0:0:
400,192,47981,6,0,L|361:372|361:372|298:199|298:199|230:28|230:28|155:327|155:327,1,859.8144,10|0,1:3|1:0,1:0:0:0:
304,208,48315,6,0,L|368:20|368:20|429:322|429:322,1,506.8544,14|2,1:0|1:0,1:0:0:0:
366,219,48565,1,0,1:0:0:0:
208,320,48648,6,0,L|146:74|146:74|208:320|208:320,2,253.4272,8|2|2,1:3|1:0|1:0,1:0:0:0:
336,272,48981,2,0,L|303:76|303:76|211:370|211:370,1,506.8544,10|2,1:0|1:0,1:0:0:0:
144,272,49231,1,0,1:0:0:0:
336,336,49315,5,14,1:2:0:0:
363,321,49356,1,0,1:0:0:0:
381,295,49398,1,0,1:0:0:0:
386,265,49440,1,0,1:0:0:0:
378,235,49481,1,0,1:0:0:0:
320,208,49565,1,0,1:0:0:0:
240,208,49648,5,14,1:0:0:0:
212,193,49690,1,0,1:0:0:0:
194,167,49731,1,0,1:0:0:0:
189,137,49773,1,0,1:0:0:0:
197,107,49815,1,0,1:0:0:0:
256,80,49898,1,0,1:0:0:0:
416,80,49981,6,0,L|478:326|478:326,1,253.4272,10|0,1:3|1:0,1:0:0:0:
480,144,50148,2,0,L|418:-102|418:-102,1,253.4272,10|0,1:3|1:0,1:0:0:0:
256,240,50315,2,0,L|195:51|195:51|131:352|131:352,1,506.8544,10|10,1:0|1:3,1:0:0:0:
192,256,50565,1,0,1:0:0:0:
368,336,50648,6,0,L|315:171|315:171|293:343|293:343|225:184|225:184|152:465|152:465,1,810.048,10|0,1:3|1:0,1:0:0:0:
304,336,50981,2,0,L|352:143|352:143|429:441|429:441,1,506.8544,10|2,1:0|1:0,1:0:0:0:
368,304,51231,1,2,1:0:0:0:
192,272,51315,2,0,L|130:26|130:26|192:272|192:272,2,253.4272,10|0|2,1:3|1:0|1:0,1:0:0:0:
320,224,51648,2,0,L|263:34|263:34|195:335|195:335,1,506.8544,14|0,1:0|1:0,1:0:0:0:
464,80,51981,6,0,L|478:278|478:278|464:-30|464:-30,1,506.8544,14|2,1:2|1:0,1:0:0:0:
400,208,52231,1,2,1:0:0:0:
256,192,52315,2,0,L|210:385|210:385|131:87|131:87,1,506.8544,10|2,1:0|1:0,1:0:0:0:
192,224,52565,1,2,1:0:0:0:
400,320,52648,6,0,L|400:121|400:121|400:429|400:429,1,506.8544,14|2,1:3|1:0,1:0:0:0:
160,128,52981,2,0,L|202:322|202:322|285:25|285:25,1,506.8544,14|2,1:0|1:0,1:0:0:0:
32,320,53315,6,0,B|37:157|37:157|25:319|25:319|51:158|51:158|101:426|101:426,1,760.2816,14|0,1:3|1:0,1:0:0:0:
272,176,53648,2,0,L|321:369|321:369|397:70|397:70,1,506.8544,14|10,1:0|1:0,1:0:0:0:
272,224,53981,2,0,L|229:30|229:30|147:327|147:327,1,506.8544,10|10,1:0|1:0,1:0:0:0:
396,176,54315,2,0,L|397:375|397:375|396:67|396:67,1,506.8544,14|10,1:0|1:0,1:0:0:0:
332,320,54565,1,0,1:0:0:0:
160,320,54648,6,0,L|83:79|83:79|35:328|35:328|47:130|47:130|160:417|160:417,2,506.8544,8|10|14,1:0|1:0|1:0,1:0:0:0:
304,320,55148,1,10,1:0:0:0:
64,320,55315,1,10,1:0:0:0:
40,256,55398,1,2,1:0:0:0:
64,195,55481,1,10,1:0:0:0:
144,176,55565,1,2,1:0:0:0:
288,224,55648,2,0,L|254:28|254:28|163:322|163:322,1,506.8544,14|10,1:0|1:0,1:0:0:0:
400,320,55981,6,0,L|462:74|462:74,1,253.4272,14|8,1:0|1:0,1:0:0:0:
464,256,56148,2,0,L|402:10|402:10,1,253.4272,8|8,1:0|1:0,1:0:0:0:
224,256,56315,2,0,L|224:3|224:3,1,253.4272,14|8,1:0|1:0,1:0:0:0:
288,176,56481,2,0,L|288:-77|288:-77,1,253.4272,10|8,1:0|1:0,1:0:0:0:
112,96,56648,2,0,L|50:342|50:342,1,253.4272,14|8,1:0|1:0,1:0:0:0:
240,160,56815,2,0,L|302:-86|302:-86,1,253.4272,10|8,1:0|1:0,1:0:0:0:
112,320,56981,2,0,L|112:67|112:67,1,253.4272,14|8,1:0|1:0,1:0:0:0:
184,262,57148,2,0,L|233:13|233:13,1,253.4272,10|8,1:0|1:0,1:0:0:0:
400,320,57315,5,10,1:3:0:0:
428,320,57398,1,2,1:0:0:0:
400,320,57481,1,2,1:0:0:0:
450,290,57565,1,2,1:0:0:0:
400,320,57648,1,2,1:0:0:0:
462,254,57731,1,0,1:0:0:0:
400,320,57815,1,2,1:0:0:0:
461,216,57898,1,2,1:0:0:0:
400,320,57981,1,2,1:0:0:0:
448,181,58065,1,2,1:0:0:0:
400,320,58148,1,2,1:0:0:0:
425,153,58231,1,2,1:0:0:0:
400,320,58315,6,0,L|378:148|378:148|309:307|309:307|275:137|275:137|216:421|216:421,1,810.048,14|0,1:0|1:0,1:0:0:0:
400,192,58648,6,0,B|443:-158|443:-158|448:195|448:195|461:-158|461:-158|397:189|397:189|299:-70|299:-70|157:335|157:335,1,2117.76,14|8,1:3|1:3,1:0:0:0:
392,192,59315,1,8,1:0:0:0:
392,192,59648,6,0,L|296:-68|296:-68|152:336|152:336,1,705.92,14|2,1:3|1:0,1:0:0:0:
141,196,59981,5,2,1:0:0:0:
110,202,60023,1,0,1:0:0:0:
89,224,60065,1,0,1:0:0:0:
82,254,60106,1,0,1:0:0:0:
92,283,60148,1,0,1:0:0:0:
116,302,60190,1,0,1:0:0:0:
147,305,60231,1,0,1:0:0:0:
234,309,60315,2,0,L|266:113|266:113|359:407|359:407,1,506.8544,10|0,1:3|1:0,1:0:0:0:
128,344,60648,6,0,L|115:146|115:146|124:454|124:454,1,506.8544,10|2,1:0|1:0,1:0:0:0:
198,194,60898,1,0,1:0:0:0:
386,196,60981,2,0,L|344:353|344:353|298:197|298:197|272:36|272:36|199:298|199:298,1,760.2816,2|0,1:0|1:0,1:0:0:0:
32,368,61315,6,0,B|24:15|24:15|47:367|47:367|50:14|50:14|32:367|32:367|123:106|123:106|272:509|272:509,1,2117.76,14|8,1:3|1:3,1:0:0:0:
32,112,61981,2,0,L|32:-165|32:-165|32:264|32:264,1,705.92,8|8,1:0|1:3,1:0:0:0:
272,352,62315,6,0,L|168:96|168:96|32:503|32:503,1,705.92,14|2,1:3|1:0,1:0:0:0:
272,336,62648,6,0,L|272:83|272:83,1,253.4272,2|2,1:0|1:0,1:0:0:0:
206,127,62815,2,0,L|271:372|271:372,1,253.4272,2|2,1:0|1:0,1:0:0:0:
96,274,62981,2,0,L|30:29|30:29,1,253.4272,10|0,1:3|1:0,1:0:0:0:
224,128,63148,1,10,1:3:0:0:
224,185,63189,1,0,0:0:0:0:
224,242,63231,1,0,0:0:0:0:
384,96,63315,5,10,1:0:0:0:
480,96,63481,1,8,1:3:0:0:
224,256,63648,2,0,L|162:10|162:10,1,253.4272,8|2,1:3|1:0,1:0:0:0:
153,231,63815,2,0,L|215:-15|215:-15,1,253.4272,10|2,1:3|1:0,1:0:0:0:
464,352,63981,6,0,B|375:10|375:10|255:342|255:342|151:5|151:5|40:340|40:340|118:74|118:74|280:472|280:472,1,2117.76,14|8,1:3|1:3,1:0:0:0:
40,352,64648,5,8,1:0:0:0:
40,352,64981,5,14,1:3:0:0:
102,350,65065,1,2,1:0:0:0:
164,349,65148,1,2,1:0:0:0:
227,348,65231,1,2,1:0:0:0:
75,276,65315,6,0,L|13:30|13:30|75:276|75:276,2,253.4272,2|2|2,1:0|1:0|1:0,1:0:0:0:
223,290,65648,1,10,1:3:0:0:
90,198,65815,2,0,L|152:-48|152:-48,1,253.4272,2|2,1:0|1:0,1:0:0:0:
356,251,65981,5,8,1:0:0:0:
418,255,66065,1,2,1:0:0:0:
356,251,66148,1,10,1:3:0:0:
218,303,66315,1,2,1:0:0:0:
155,304,66398,1,2,1:0:0:0:
151,293,66481,1,10,1:3:0:0:
213,291,66565,1,2,1:0:0:0:
464,352,66648,6,0,B|347:-7|347:-7|257:360|257:360|158:-5|158:-5|42:355|42:355|145:77|145:77|310:506|310:506,1,2267.0592,14|14,1:3|1:3,1:0:0:0:
40,352,67315,2,0,L|43:153|43:153|40:461|40:461,1,506.8544,8|8,1:0|1:3,1:0:0:0:
340,72,67648,6,0,L|297:266|297:266|215:-31|215:-31,1,506.8544,14|2,1:3|1:0,1:0:0:0:
364,96,67981,2,0,B|401:319|401:319|446:97|446:97|411:320|411:320|367:-13|367:-13,1,1013.7088,2|10,1:0|1:3,1:0:0:0:
232,264,68481,2,0,L|170:18|170:18,1,253.4272,2|2,1:0|1:0,1:0:0:0:
338,335,68648,5,10,1:0:0:0:
366,310,68690,1,2,1:0:0:0:
357,275,68731,1,2,1:0:0:0:
387,252,68773,1,2,1:0:0:0:
376,216,68815,1,10,1:3:0:0:
131,144,68981,2,0,L|183:298|183:298|212:138|212:138|237:299|237:299|318:39|318:39,1,760.2816,2|0,1:0|1:0,1:0:0:0:
68,336,69315,6,0,L|157:74|157:74|308:476|308:476,1,705.92,14|0,1:3|1:0,1:0:0:0:
332,240,69648,1,10,1:0:0:0:
101,244,69815,2,0,B|77:50|77:50|89:353|89:353,1,498.56,2|2,1:0|1:0,1:0:0:0:
165,136,70065,1,2,1:0:0:0:
339,174,70148,2,0,L|286:362|286:362|219:66|219:66,1,498.56,10|10,1:3|1:0,1:0:0:0:
361,135,70481,1,2,1:0:0:0:
130,304,70648,6,0,L|68:63|68:63|10:305|10:305|43:112|43:112|130:402|130:402,2,498.56,10|10|10,1:3|1:3|1:0,1:0:0:0:
281,289,71148,2,0,L|290:165|290:165|281:41|281:41,2,124.64,0|0|0,1:0|1:0|1:0,1:0:0:0:
127,348,71315,6,0,L|67:106|67:106,1,249.28,2|0,1:0|1:0,1:0:0:0:
245,295,71481,2,0,L|305:53|305:53,1,249.28,10|0,2:0|1:0,1:0:0:0:
225,266,71648,2,0,L|214:17|214:17,1,249.28,10|0,1:0|1:0,1:0:0:0:
393,182,71815,2,0,L|453:-60|453:-60,1,249.28,2|0,1:0|1:0,1:0:0:0:
219,339,71981,6,0,L|169:150|169:150|100:445|100:445,1,498.56,10|0,1:3|1:0,1:0:0:0:
156,301,72231,1,0,1:0:0:0:
334,278,72315,1,10,1:0:0:0:
204,223,72481,2,0,B|252:6|252:6|295:224|295:224|351:9|351:9|380:338|380:338,1,997.12,2|10,1:0|1:3,1:0:0:0:
132,279,72981,2,0,L|138:84|138:84|125:387|125:387,1,498.56,10|2,1:0|1:0,1:0:0:0:
376,301,73315,6,0,L|322:113|322:113|256:409|256:409,1,498.56,10|10,1:3|1:3,1:0:0:0:
416,228,73648,1,10,1:0:0:0:
250,256,73815,2,0,L|190:14|190:14,1,249.28,2|10,1:0|1:3,1:0:0:0:
362,347,73981,6,0,L|426:162|426:162|482:460|482:460,1,498.56,6|10,1:3|1:3,1:0:0:0:
300,310,74231,2,0,L|240:68|240:68,1,249.28,0|14,1:0|1:0,1:0:0:0:
369,250,74481,1,2,1:0:0:0:
112,270,74648,6,0,L|218:14|218:14|352:422|352:422,1,705.92,14|8,1:3|1:3,1:0:0:0:
380,151,74981,1,14,1:0:0:0:
261,98,75148,2,0,L|201:340|201:340,1,249.28,8|10,1:3|1:3,1:0:0:0:
388,170,75315,6,0,L|333:358|333:358|268:62|268:62,1,498.56,10|8,1:3|1:3,1:0:0:0:
147,165,75648,1,14,1:0:0:0:
278,215,75815,2,0,L|338:-27|338:-27,1,249.28,8|10,1:3|1:3,1:0:0:0:
98,350,75981,5,14,1:3:0:0:
147,243,76148,1,10,1:3:0:0:
254,194,76315,1,14,1:0:0:0:
128,225,76481,2,0,L|68:-17|68:-17,1,249.28,10|10,1:3|1:3,1:0:0:0:
314,341,76648,6,0,L|301:146|301:146|300:449|300:449,1,498.56,10|10,1:3|1:3,1:0:0:0:
173,178,76981,1,14,1:0:0:0:
317,184,77148,2,0,L|377:-58|377:-58,1,249.28,10|8,1:3|1:3,1:0:0:0:
170,336,77315,6,0,L|110:94|110:94,1,249.28,14|8,1:0|1:0,1:0:0:0:
110,337,77481,2,0,L|170:95|170:95,1,249.28,8|8,1:0|1:0,1:0:0:0:
347,309,77648,1,14,1:0:0:0:
287,308,77731,1,8,1:0:0:0:
227,307,77815,1,8,1:0:0:0:
167,306,77898,1,8,1:0:0:0:
359,306,77981,2,0,L|352:57|352:57,1,249.28,14|8,1:0|1:0,1:0:0:0:
276,226,78148,2,0,L|269:-23|269:-23,1,249.28,8|8,1:0|1:0,1:0:0:0:
425,114,78315,1,14,1:0:0:0:
477,135,78398,1,8,1:0:0:0:
480,192,78481,1,8,1:0:0:0:
429,218,78565,1,8,1:0:0:0:
148,357,78648,5,14,1:3:0:0:
107,329,78731,1,8,1:0:0:0:
152,296,78815,1,2,1:0:0:0:
115,269,78898,1,2,1:0:0:0:
165,236,78981,1,10,1:0:0:0:
132,210,79065,1,0,1:0:0:0:
185,179,79148,1,2,1:0:0:0:
157,154,79231,1,10,1:0:0:0:
214,125,79315,1,0,1:0:0:0:
189,102,79398,1,10,1:0:0:0:
250,76,79481,1,2,1:0:0:0:
229,56,79565,1,2,1:0:0:0:
397,71,79648,6,0,B|416:216|416:216|440:361|440:361|454:215|454:215|398:454|398:454,1,685.632,14|0,1:0|1:0,1:0:0:0:
110,356,79981,6,0,B|74:163|74:163|78:359|78:359|86:163|86:163|120:453|120:453,1,880.9984,14|0,1:3|1:0,1:0:0:0:
234,195,80481,2,0,L|197:2|197:2|140:190|140:190|107:384|107:384|62:96|62:96,1,880.9984,2|0,1:0|1:0,1:0:0:0:
54,142,80981,1,2,1:0:0:0:
320,314,81315,6,0,B|349:96|349:96|371:315|371:315|412:99|412:99|397:319|397:319|372:124|372:124|375:320|375:320|309:135|309:135|272:424|272:424,1,1761.9968,2|2,1:0|1:0,1:0:0:0:
146,121,82315,1,0,1:0:0:0:
148,154,82481,1,0,1:0:0:0:
323,315,82648,6,0,B|363:174|363:174|398:31|398:31|425:175|425:175|440:321|440:321|443:174|443:174|433:28|433:28|411:173|411:173|379:316|379:316|341:174|341:174|301:33|301:33|261:174|261:174|229:317|229:317|208:188|208:188|194:58|194:58|191:189|191:189|207:383|207:383,1,2348.03204478516,2|0,1:0|1:0,1:0:0:0:
263,145,84065,1,0,1:0:0:0:
294,174,84148,1,0,1:0:0:0:
337,167,84231,1,0,1:0:0:0:
358,130,84315,1,0,1:0:0:0:
343,90,84398,1,0,1:0:0:0:
301,77,84481,1,0,1:0:0:0:
266,101,84565,1,0,1:0:0:0:
178,134,84648,2,0,L|145:352|145:352|112:134|112:134|108:307|108:307|178:48|178:48,2,440.499197535456,2|0|0,1:0|1:0|1:0,1:0:0:0:
441,171,85315,6,0,B|454:367|454:367|461:171|461:171|462:367|462:367|417:79|417:79,1,880.9984,2|0,1:0|1:0,1:0:0:0:
328,338,85815,2,0,L|494:226,1,192,2|0,0:0|0:0,0:0:0:0:
399,295,86315,1,0,1:0:0:0:
138,344,86648,6,0,L|124:172|124:172|148:439|148:439,1,440.4992,0|0,1:0|1:0,1:0:0:0:
218,212,86981,1,0,1:0:0:0:
128,186,87148,1,0,1:0:0:0:
225,166,87315,2,0,L|277:380|277:380|311:162|311:162|294:334|294:334|225:75|225:75,2,440.4992,2|0|0,1:0|1:0|1:0,1:0:0:0:
139,185,87815,1,2,1:0:0:0:
353,279,87981,6,0,L|340:107|340:107|362:374|362:374,1,440.4992,2|0,1:0|1:0,1:0:0:0:
470,157,88315,1,0,1:0:0:0:
361,193,88481,2,0,L|341:365|341:365|352:97|352:97,1,440.4992,2|0,1:0|1:0,1:0:0:0:
244,315,88815,1,0,1:0:0:0:
352,278,88981,2,0,L|352:105|352:105|361:373|361:373,1,440.4992,0|0,1:0|1:0,1:0:0:0:
173,151,89315,5,2,1:0:0:0:
130,151,89398,1,0,1:0:0:0:
93,173,89481,1,0,1:0:0:0:
73,210,89565,1,0,1:0:0:0:
74,253,89648,1,0,1:0:0:0:
96,290,89731,1,0,1:0:0:0:
133,310,89815,1,2,1:0:0:0:
176,309,89898,1,0,1:0:0:0:
274,287,89981,6,0,L|243:117|243:117|188:379|188:379,1,440.4992,2|0,1:0|1:0,1:0:0:0:
79,244,90315,2,0,L|87:72|87:72|75:340|75:340,1,440.4992,0|2,1:0|1:0,1:0:0:0:
360,312,90648,6,0,L|308:115|308:115|277:317|277:317|243:116|243:116|168:409|168:409,1,914.176,14|8,1:3|1:0,1:0:0:0:
171,338,91315,2,0,L|224:141|224:141|242:344|242:344|295:147|295:147|363:442|363:442,1,914.176,8|8,1:3|1:0,1:0:0:0:
125,347,91981,6,0,B|77:149|77:149|41:350|41:350|56:147|56:147|84:448|84:448,1,914.176,8|8,1:3|1:0,1:0:0:0:
275,204,92648,2,0,B|221:7|221:7|197:209|197:209|153:10|153:10|84:305|84:305,1,914.176,10|8,1:3|1:0,1:0:0:0:
390,343,93315,6,0,B|399:139|399:139|415:342|415:342|388:140|388:140|371:442|371:442,1,914.176,10|8,1:3|1:0,1:0:0:0:
261,207,93815,1,2,1:0:0:0:
371,214,93981,2,0,L|377:35|377:35|356:312|356:312,1,457.088,8|0,1:3|1:0,1:0:0:0:
261,207,94315,2,0,L|266:28|266:28|279:306|279:306,1,457.088,8|0,1:0|1:0,1:0:0:0:
440,330,94648,6,0,L|373:111|373:111|344:338|344:338|353:159|353:159|440:423|440:423,2,457.088,10|0|8,1:3|1:0|1:0,1:0:0:0:
294,328,95148,2,0,L|250:154|250:154|198:427|198:427,1,457.088,2|8,1:0|1:3,1:0:0:0:
180,265,95481,1,0,1:0:0:0:
340,190,95648,2,0,L|394:361|394:361|436:86|436:86,1,457.088,10|8,1:0|1:3,1:0:0:0:
139,337,95981,6,0,L|143:158|143:158|134:436|134:436,1,457.088,14|10,1:0|1:0,1:0:0:0:
232,190,96315,2,0,L|186:363|186:363|136:90|136:90,1,457.088,10|10,1:0|1:0,1:0:0:0:
184,191,96565,1,10,1:3:0:0:
363,218,96648,2,0,L|378:39|378:39|352:316|352:316,1,457.088,14|14,1:0|1:0,1:0:0:0:
234,263,96981,1,10,1:0:0:0:
351,330,97148,2,0,L|399:107|399:107,1,228.544,10|10,1:0|1:3,1:0:0:0:
143,350,97315,6,0,L|119:172|119:172|47:440|47:440,1,457.088,14|10,1:0|1:0,1:0:0:0:
70,268,97523,1,0,1:0:0:0:
93,333,97565,2,0,L|117:221|117:221,1,114.272,10|0,1:3|1:0,1:0:0:0:
256,256,97648,5,14,1:0:0:0:
320,256,97731,2,0,L|320:27|320:27,1,228.544,10|10,1:3|1:0,1:0:0:0:
256,304,97898,1,10,1:3:0:0:
80,272,97981,6,0,L|56:384|56:384|80:272|80:272,2,114.272,14|10|10,1:0|1:0|1:3,1:0:0:0:
224,272,98148,2,0,L|272:49|272:49,1,228.544,14|8,1:0|1:3,1:0:0:0:
128,192,98315,6,0,L|104:304|104:304|128:192|128:192,2,114.272,14|0|10,1:0|1:0|1:0,1:0:0:0:
384,192,98481,2,0,L|408:304|408:304|384:192|384:192,2,114.272,10|0|10,1:0|1:0|1:0,1:0:0:0:
160,336,98648,6,0,L|128:187|128:187|160:38|160:38,2,152.362666666667,10|0|0,1:0|1:0|1:0,1:0:0:0:
304,304,98815,2,0,L|336:155|336:155|304:6|304:6,2,152.362666666667,8|0|0,1:0|1:0|1:0,1:0:0:0:
160,304,98981,5,14,1:0:0:0:
131,290,99037,1,0,1:0:0:0:
113,264,99093,1,0,1:0:0:0:
113,232,99148,1,8,1:0:0:0:
130,206,99204,1,0,1:0:0:0:
158,192,99259,1,0,1:0:0:0:
288,187,99315,5,10,1:0:0:0:
314,158,99370,1,0,1:0:0:0:
321,120,99426,1,0,1:0:0:0:
308,84,99481,1,10,1:0:0:0:
277,61,99537,1,0,1:0:0:0:
239,57,99592,1,0,1:0:0:0:
400,304,99648,5,10,1:0:0:0:
403,272,99704,1,0,1:0:0:0:
394,241,99759,1,0,1:0:0:0:
376,215,99815,1,10,1:0:0:0:
349,198,99870,1,0,1:0:0:0:
318,191,99926,1,0,1:0:0:0:
112,192,99981,6,0,L|49:-71|49:-71,1,270.016,10|10,1:0|1:0,1:0:0:0:
112,192,100148,2,0,L|112:-78|112:-78,1,270.016,8|8,1:3|1:3,1:0:0:0:
256,256,100315,2,0,L|328:-4|328:-4|256:256|256:256,2,270.016,10|10|8,1:0|1:0|1:3,1:0:0:0:
112,256,100565,1,10,1:0:0:0:
256,256,100648,5,8,1:0:0:0:
318,224,100731,1,8,1:0:0:0:
339,157,100815,1,10,1:3:0:0:
305,96,100898,1,10,1:3:0:0:
128,80,100981,6,0,L|80:303|80:303,1,228.544,14|10,1:0|1:0,1:0:0:0:
272,160,101148,2,0,L|320:383|320:383,1,228.544,8|8,1:3|1:3,1:0:0:0:
107,282,101315,6,0,B|61:115|61:115|30:286|30:286|40:113|40:113|116:393|116:393,1,810.048,14|0,1:3|1:0,1:0:0:0:
336,256,101648,2,0,L|408:-4|408:-4,1,270.016,14|2,1:0|1:0,1:0:0:0:
240,304,101815,2,0,L|168:44|168:44,1,270.016,2|2,1:2|1:0,1:0:0:0:
368,288,101981,6,0,L|440:28|440:28|368:288|368:288,2,270.016,10|0|2,1:3|1:0|1:2,1:0:0:0:
208,240,102315,2,0,L|258:34|258:34|352:349|352:349,1,540.032,10|2,1:0|1:2,1:0:0:0:
80,320,102648,6,0,B|53:110|53:110|81:437|81:437,1,540.032,10|2,1:3|1:2,1:0:0:0:
256,176,102898,2,0,L|328:-84|328:-84|256:176|256:176,2,270.016,2|10|0,1:0|1:0|1:0,1:0:0:0:
112,272,103148,2,0,L|40:12|40:12,1,270.016,2|0,1:2|1:0,1:0:0:0:
256,320,103315,5,10,1:3:0:0:
320,320,103398,2,0,B|370:114|370:114|343:441|343:441,1,540.032,2|2,1:0|1:0,1:0:0:0:
176,192,103648,2,0,L|104:-68|104:-68|176:192|176:192,2,270.016,10|0|2,1:0|1:0|1:2,1:0:0:0:
416,288,103981,6,0,L|356:125|356:125|321:295|321:295|259:133|259:133|200:417|200:417,1,810.048,14|0,1:3|1:0,1:0:0:0:
368,336,104315,2,0,L|440:76|440:76,1,270.016,10|2,1:0|1:0,1:0:0:0:
368,288,104481,2,0,L|296:28|296:28,1,270.016,2|2,1:2|1:0,1:0:0:0:
496,256,104648,6,0,L|496:-14|496:-14,1,270.016,10|2,1:3|1:0,1:0:0:0:
416,160,104815,2,0,L|344:-100|344:-100,1,270.016,2|2,1:2|1:0,1:0:0:0:
176,320,104981,1,10,1:0:0:0:
182,249,105065,1,2,1:0:0:0:
225,192,105148,1,2,1:2:0:0:
291,167,105231,1,2,1:0:0:0:
96,336,105315,6,0,L|91:124|91:124|96:452|96:452,1,540.032,14|10,1:3|1:0,1:0:0:0:
256,192,105565,2,0,L|262:-20|262:-20|256:308|256:308,1,540.032,14|10,1:3|1:0,1:0:0:0:
416,336,105815,2,0,L|416:66|416:66,1,270.016,14|2,1:3|1:0,1:0:0:0:
256,352,105981,5,10,1:0:0:0:
187,342,106065,1,2,1:0:0:0:
156,280,106148,1,10,1:3:0:0:
190,219,106231,1,2,1:0:0:0:
336,207,106315,5,14,1:0:0:0:
192,207,106398,1,10,1:0:0:0:
48,207,106481,1,10,1:0:0:0:
192,191,106565,1,10,1:0:0:0:
336,162,106648,5,8,1:3:0:0:
376,209,106689,1,8,1:3:0:0:
393,269,106731,1,8,1:3:0:0:
382,331,106773,1,8,1:3:0:0:
346,382,106814,1,8,1:3:0:0:
250,331,106898,1,8,1:3:0:0:
77,324,106981,6,0,L|87:54|87:54,1,270.016,14|0,1:0|1:0,1:0:0:0:
163,242,107148,2,0,L|173:-28|173:-28,1,270.016,2|2,1:2|1:0,1:0:0:0:
339,136,107315,2,0,L|393:341|393:341|483:25|483:25,1,540.032,10|2,1:3|1:2,1:0:0:0:
274,234,107565,2,0,L|202:-26|202:-26|274:234|274:234,2,270.016,2|10|0,1:0|1:0|1:0,1:0:0:0:
432,256,107815,1,2,1:2:0:0:
192,336,107981,6,0,L|120:76|120:76,1,270.016,14|0,1:3|1:0,1:0:0:0:
192,288,108148,2,0,L|264:28|264:28,1,270.016,2|0,1:2|1:0,1:0:0:0:
64,304,108315,6,0,L|75:93|75:93|64:421|64:421,1,540.032,10|2,1:0|1:2,1:0:0:0:
256,192,108565,1,2,1:0:0:0:
320,192,108648,2,0,L|248:-7|248:-7|176:313|176:313,1,540.032,8|2,1:3|1:2,1:0:0:0:
416,288,108981,2,0,L|488:28|488:28,1,270.016,10|0,1:0|1:0,1:0:0:0:
304,256,109148,2,0,L|232:-4|232:-4,1,270.016,10|0,1:2|1:0,1:0:0:0:
432,336,109315,5,14,1:3:0:0:
435,265,109398,1,2,1:0:0:0:
395,206,109481,1,2,1:2:0:0:
327,184,109565,1,2,1:0:0:0:
176,240,109648,2,0,L|104:-20|104:-20,1,270.016,10|2,1:0|1:0,1:0:0:0:
176,288,109815,2,0,L|248:28|248:28,1,270.016,2|2,1:2|1:0,1:0:0:0:
416,352,109981,6,0,L|416:82|416:82,1,270.016,10|2,1:3|1:0,1:0:0:0:
240,256,110148,2,0,L|168:-4|168:-4,1,270.016,10|2,1:2|1:0,1:0:0:0:
400,192,110315,1,10,1:0:0:0:
256,192,110398,1,10,1:0:0:0:
112,192,110481,1,10,1:2:0:0:
256,192,110565,1,10,1:0:0:0:
400,192,110648,6,0,L|402:40,1,134.399995898438,14|0,1:0|0:0,0:0:0:0:
237,354,110898,2,0,L|80:349,1,134.399995898438,10|0,1:0|0:0,0:0:0:0:
262,302,111148,2,0,L|421:270,1,134.399995898438,14|0,1:0|0:0,0:0:0:0:
208,320,111398,2,0,L|197:168,1,134.399995898438,10|0,1:0|0:0,0:0:0:0:
400,192,111648,5,14,1:0:0:0:
458,157,111731,1,2,1:0:0:0:
453,88,111815,1,14,1:0:0:0:
390,62,111898,1,10,1:3:0:0:
208,320,111981,6,0,L|161:153|161:153|134:324|134:324|126:151|126:151|64:434|64:434,1,810.048,10|0,1:3|1:0,1:0:0:0:
304,320,112315,5,14,1:0:0:0:
372,314,112398,1,0,1:0:0:0:
400,251,112481,1,2,1:2:0:0:
360,196,112565,1,2,1:0:0:0:
208,192,112648,1,10,1:3:0:0:
136,192,112731,1,0,1:0:0:0:
64,192,112815,1,2,1:2:0:0:
224,272,112981,2,0,L|269:65|269:65|368:378|368:378,1,540.032,10|2,1:0|1:2,1:0:0:0:
80,336,113315,6,0,B|45:127|45:127|97:451|97:451,1,540.032,10|2,1:3|1:2,1:0:0:0:
256,208,113565,2,0,L|328:-52|328:-52|256:208|256:208,2,270.016,2|8|0,1:0|1:0|1:0,1:0:0:0:
112,176,113815,1,2,1:2:0:0:
384,256,113981,5,10,1:3:0:0:
448,256,114065,2,0,B|463:45|463:45|431:372|431:372,1,540.032,0|0,1:0|1:0,1:0:0:0:
272,176,114315,2,0,L|200:-84|200:-84,1,270.016,10|0,1:0|1:0,1:0:0:0:
272,224,114481,2,0,L|344:-36|344:-36,1,270.016,10|0,1:2|1:0,1:0:0:0:
192,344,114648,6,0,B|137:180|137:180|116:8|116:8|131:181|131:181|174:-106|174:-106,1,810.048,14|0,1:3|1:0,1:0:0:0:
344,224,114981,1,10,1:0:0:0:
370,161,115065,1,2,1:0:0:0:
327,108,115148,1,2,1:2:0:0:
260,123,115231,1,2,1:0:0:0:
424,208,115315,2,0,L|440:-62|440:-62|424:208|424:208,2,270.016,10|2|2,1:3|1:0|1:2,1:0:0:0:
352,224,115565,1,2,1:0:0:0:
184,328,115648,1,10,1:0:0:0:
193,257,115731,1,2,1:0:0:0:
240,204,115815,1,2,1:2:0:0:
309,187,115898,1,2,1:0:0:0:
96,320,115981,6,0,L|96:50|96:50|96:320|96:320,2,270.016,14|2|10,1:3|1:0|1:0,1:0:0:0:
256,336,116231,2,0,L|256:66|256:66|256:336|256:336,2,270.016,14|2|10,1:3|1:0|1:0,1:0:0:0:
416,304,116481,2,0,L|416:34|416:34,1,270.016,14|2,1:3|1:0,1:0:0:0:
256,192,116648,5,14,1:3:0:0:
112,192,116731,1,10,1:3:0:0:
256,192,116815,1,10,1:3:0:0:
292,192,116856,1,8,1:3:0:0:
256,192,116898,1,10,1:3:0:0:
112,288,116981,2,0,L|40:28|40:28,1,270.016,14|10,1:0|1:0,1:0:0:0:
224,256,117148,2,0,L|296:-4|296:-4,1,270.016,10|10,1:2|1:0,1:0:0:0:
124,348,117315,6,0,L|178:143|178:143|268:459|268:459,1,540.032,14|14,1:0|1:2,1:0:0:0:
121,337,117648,2,0,L|118:125|118:125|103:453|103:453,1,540.032,10|10,1:0|1:2,1:0:0:0:
233,201,117981,2,0,L|253:-10|253:-10|251:318|251:318,1,540.032,10|10,1:0|1:2,1:0:0:0:
400,36,118315,1,10,1:0:0:0:
458,72,118398,1,10,1:0:0:0:
463,142,118481,1,10,1:2:0:0:
411,187,118565,1,10,1:0:0:0:
234,243,118648,6,0,L|185:37|185:37|90:351|90:351,1,540.032,14|14,1:0|1:2,1:0:0:0:
250,255,118981,2,0,L|251:43|251:43|269:371|269:371,1,540.032,10|10,1:0|1:2,1:0:0:0:
131,187,119315,2,0,L|109:-24|109:-24|112:304|112:304,1,540.032,10|10,1:0|1:2,1:0:0:0:
287,87,119648,1,10,1:0:0:0:
352,100,119731,1,10,1:0:0:0:
356,166,119815,1,10,1:2:0:0:
293,187,119898,1,10,1:0:0:0:
112,192,119981,6,0,L|49:-71|49:-71|112:192|112:192,2,270.016,14|10|10,1:0|1:0|1:2,1:0:0:0:
256,192,120231,2,0,L|256:-78|256:-78|256:192|256:192,2,270.016,10|10|10,1:0|1:0|1:0,1:0:0:0:
400,192,120481,2,0,L|462:-71|462:-71|400:192|400:192,2,270.016,10|10|10,1:2|1:0|1:0,1:0:0:0:
256,192,120731,2,0,L|256:-78|256:-78|256:192|256:192,2,270.016,10|10|10,1:0|1:2|1:0,1:0:0:0:
400,192,120981,2,0,L|472:-68|472:-68,1,270.016,10|10,1:0|1:0,1:0:0:0:
256,192,121148,2,0,L|184:-68|184:-68,1,270.016,10|10,1:2|1:0,1:0:0:0:
337,330,121315,5,14,1:3:0:0:
380,310,121398,1,2,2:0:0:0:
413,276,121481,1,2,2:0:0:0:
430,231,121565,1,2,2:0:0:0:
429,184,121648,1,2,2:0:0:0:
409,140,121731,1,2,2:0:0:0:
374,108,121815,1,2,2:0:0:0:
330,91,121898,1,2,2:0:0:0:
401,51,121981,5,2,2:0:0:0:
430,57,122037,1,2,2:0:0:0:
458,73,122093,1,2,2:0:0:0:
481,95,122148,1,2,2:0:0:0:
496,124,122204,1,2,2:0:0:0:
501,155,122259,1,2,2:0:0:0:
499,187,122315,1,2,2:0:0:0:
488,216,122370,1,2,2:0:0:0:
469,241,122426,1,2,2:0:0:0:
442,260,122481,1,2,2:0:0:0:
412,271,122537,1,2,2:0:0:0:
379,271,122593,1,2,2:0:0:0:
240,384,122648,6,0,B|211:178|211:178|156:378|156:378|151:170|151:170|115:375|115:375|79:170|79:170|69:378|69:378|68:170|68:170|68:378|68:378|74:170|74:170|99:376|99:376|120:169|120:169|126:377|126:377|164:173|164:173|191:379|191:379|222:174|222:174|256:379|256:379|273:172|273:172|332:371|332:371|361:165|361:165|387:371|387:371|404:164|404:164|412:372|412:372|424:165|424:165|444:372|444:372|443:164|443:164|420:371|420:371|432:164|432:164|397:369|397:369|376:185|376:185|346:2|346:2|319:185|319:185|271:-86|271:-86,1,6649.856,14|0,1:3|1:0,1:0:0:0:
