osu file format v14

[General]
AudioFilename: audio.ogg
AudioLeadIn: 0
PreviewTime: 87257
Countdown: 0
SampleSet: Drum
StackLeniency: 0.7
Mode: 0
LetterboxInBreaks: 0
WidescreenStoryboard: 1

[Editor]
Bookmarks: 1509,7491,13846,25435,35902,47865,62818,69547,81509,86837,87491,89547,110668,120388
DistanceSpacing: 1.2
BeatDivisor: 2
GridSize: 32
TimelineZoom: 1.299999

[Metadata]
Title:AureoLe ~for Triumph~
TitleUnicode:AμreoLe ~for Triumph~
Artist:Ashrount
ArtistUnicode:Ashrount
Creator:R3m
Version:honne's NOVICE
Source:SOUND VOLTEX EXCEED GEAR
Tags:SDVX EG 10th KAC オリジナル楽曲コンテスト konami bemani arcade championship winner original song contest HEXA DIVER FLOOR Aim Cup speedcore electronic instrumental video game アウグスト=ヴェルテックス August Vertex すえ×アユタ Nymphe Altai Twiggykun Ilay SaltyLucario Cynplytholowazy LeCandy NeroXx bluirre honne Vermasium symphonic saltking salty
BeatmapID:3605783
BeatmapSetID:1712395

[Difficulty]
HPDrainRate:3
CircleSize:3
OverallDifficulty:4
ApproachRate:6
SliderMultiplier:0.5
SliderTickRate:1

[Events]
//Background and Video events
0,0,"bg1.jpg",0,0
//Break Periods
//Storyboard Layer 0 (Background)
//Storyboard Layer 1 (Fail)
//Storyboard Layer 2 (Pass)
//Storyboard Layer 3 (Foreground)
//Storyboard Layer 4 (Overlay)
//Storyboard Sound Samples

[TimingPoints]
1494,186.915887850467,4,3,27,70,1,0
1494,-100,4,3,27,70,0,0
7101,-100,4,3,27,50,0,0
7288,-100,4,3,27,60,0,0
7475,-90.9090909090909,4,3,1,70,0,0
7849,-90.9090909090909,4,3,27,70,0,0
13830,-90.9090909090909,4,3,1,70,0,0
16447,-90.9090909090909,4,3,27,70,0,0
18877,-90.9090909090909,4,3,10,70,0,0
19437,-90.9090909090909,4,3,27,70,0,0
25045,-90.9090909090909,4,3,27,70,0,0
25419,-90.9090909090909,4,3,1,70,0,0
28036,-90.9090909090909,4,3,27,70,0,0
28409,-90.9090909090909,4,3,1,70,0,0
29905,-90.9090909090909,4,3,27,70,0,0
30652,-90.9090909090909,4,3,27,70,0,0
31400,-90.9090909090909,4,3,27,70,0,0
35325,-90.9090909090909,4,3,27,35,0,0
35886,-90.9090909090909,4,3,27,70,0,0
47942,-90.9090909090909,4,3,27,44,0,0
50839,-83.3333333333333,4,3,27,70,0,0
53830,-76.9230769230769,4,3,27,70,0,0
54951,-76.9230769230769,4,3,27,70,0,0
55325,-76.9230769230769,4,3,27,70,0,0
55886,-76.9230769230769,4,3,1,70,0,0
56260,-76.9230769230769,4,3,10,70,0,0
56447,-76.9230769230769,4,3,27,70,0,0
56821,-83.3333333333333,4,3,27,70,0,0
59531,-83.3333333333333,4,3,27,50,0,0
59811,-76.9230769230769,4,3,27,70,0,0
59998,-76.9230769230769,4,3,50,70,0,0
60185,-76.9230769230769,4,3,51,70,0,0
60372,-76.9230769230769,4,3,27,70,0,0
60559,-76.9230769230769,4,3,27,70,0,0
62054,-76.9230769230769,4,3,27,70,0,0
62241,-76.9230769230769,4,3,50,70,0,0
62428,-76.9230769230769,4,3,27,40,0,0
62740,-76.9230769230769,4,3,1,5,0,0
62802,-83.3333333333333,4,3,27,70,0,0
63923,-83.3333333333333,4,3,27,50,0,0
64110,-83.3333333333333,4,3,27,60,0,0
64297,-83.3333333333333,4,3,27,70,0,0
65419,-83.3333333333333,4,3,27,50,0,0
65606,-83.3333333333333,4,3,27,60,0,0
65793,-83.3333333333333,4,3,27,70,0,0
69344,-83.3333333333333,4,3,27,70,0,0
69531,-86.9565217391304,4,3,3,70,0,0
70279,-86.9565217391304,4,3,4,50,0,0
70652,-86.9565217391304,4,3,1,70,0,0
71774,-86.9565217391304,4,3,1,50,0,0
72148,-86.9565217391304,4,3,4,70,0,0
73082,-86.9565217391304,4,3,4,50,0,0
73269,-86.9565217391304,4,3,2,50,0,0
73643,-86.9565217391304,4,3,1,50,0,0
74017,-86.9565217391304,4,3,2,70,0,0
74203,-86.9565217391304,4,3,1,70,0,0
74578,-86.9565217391304,4,3,4,50,0,0
74765,-86.9565217391304,4,3,2,70,0,0
75138,-86.9565217391304,4,3,4,70,0,0
75512,-86.9565217391304,4,3,3,70,0,0
76072,-86.9565217391304,4,3,4,70,0,0
76260,-86.9565217391304,4,3,2,70,0,0
76821,-86.9565217391304,4,3,4,70,0,0
77008,-86.9565217391304,4,3,2,70,0,0
77568,-86.9565217391304,4,3,4,70,0,0
77755,-86.9565217391304,4,3,27,70,0,0
81493,-86.9565217391304,4,3,1,70,0,0
84484,-86.9565217391304,4,3,27,70,0,0
87288,-86.9565217391304,4,3,27,45,0,0
87475,-83.3333333333333,4,3,1,70,0,0
87755,-83.3333333333333,4,3,27,70,0,0
99437,-83.3333333333333,4,3,1,70,0,0
99718,-83.3333333333333,4,3,27,70,0,0
111400,-83.3333333333333,4,3,1,70,0,0
111774,-83.3333333333333,4,3,1,70,0,0
112896,-83.3333333333333,4,3,27,70,0,0
117381,-83.3333333333333,4,3,1,70,0,0

[Colours]
Combo1 : 253,143,91
Combo2 : 135,142,228
Combo3 : 243,143,151
Combo4 : 225,175,100
Combo5 : 238,83,83

[HitObjects]
156,135,1493,5,6,1:0:0:0:
156,135,1680,1,6,1:0:0:0:
492,288,2802,1,0,1:0:0:0:
492,288,2989,5,6,1:0:0:0:
492,288,3176,2,0,B|438:291|438:291|427:301|427:301|363:304,1,125,6|0,1:0|1:0,0:0:0:0:
300,358,3923,1,4,1:0:0:0:
300,358,4110,2,0,B|246:361,1,50,4|2,1:0|1:0,0:0:0:0:
215,370,4484,5,6,1:0:0:0:
215,370,4671,1,6,1:0:0:0:
26,229,5419,1,4,1:0:0:0:
26,229,5606,2,0,L|18:164,1,50,0|0,1:0|1:0,0:0:0:0:
16,142,5979,5,6,1:0:0:0:
65,66,6260,1,6,1:0:0:0:
152,85,6540,1,6,1:0:0:0:
215,21,6821,1,6,1:0:0:0:
292,67,7101,2,0,B|301:93|301:93|288:130,1,50
279,152,7475,6,0,B|328:142|328:142|343:147|343:147|392:136,1,110.000003356934,4|6,1:0|1:0,0:0:0:0:
481,167,8129,1,6,1:0:0:0:
511,73,8409,1,6,1:0:0:0:
417,43,8690,1,6,1:0:0:0:
387,137,8970,6,0,B|377:167|377:167|381:210|381:210|369:248,1,110.000003356934,6|6,1:0|1:0,0:0:0:0:
332,335,9624,1,6,1:0:0:0:
238,365,9904,1,14,1:0:0:0:
171,291,10185,1,14,1:0:0:0:
215,202,10465,6,0,B|208:186|208:186|272:138|272:138|261:116,1,110.000003356934,14|0,1:0|1:0,0:0:0:0:
144,76,11213,2,0,B|131:129,1,55.0000016784668,6|0,1:0|1:0,0:0:0:0:
118,169,11587,1,6,1:0:0:0:
78,180,11774,1,0,1:0:0:0:
39,193,11961,5,0,1:0:0:0:
39,193,12708,2,0,B|47:246|43:193|49:248,1,55.0000016784668,6|8,1:0|0:0,0:0:0:0:
52,288,13082,2,0,B|7:320|49:286|5:319,2,55.0000016784668,6|8|4,1:0|0:0|1:0,0:0:0:0:
183,325,13830,6,0,B|208:215,1,110.000003356934,4|0,1:0|1:0,0:0:0:0:
223,180,14391,1,0,1:0:0:0:
259,159,14578,1,0,1:0:0:0:
301,160,14765,1,0,1:0:0:0:
352,38,15138,1,0,1:0:0:0:
352,38,15325,2,0,L|414:71,1,55.0000016784668,0|0,1:0|1:0,0:0:0:0:
442,72,15699,2,0,L|458:139,1,55.0000016784668,0|0,1:0|1:0,0:0:0:0:
482,159,16073,2,0,L|451:221,1,55.0000016784668,0|0,1:0|1:0,0:0:0:0:
467,246,16447,5,6,1:0:0:0:
213,173,17194,2,0,B|176:166|176:166|151:187|151:187|98:194,1,110.000003356934,6|10,1:0|1:0,0:0:0:0:
79,217,17755,1,0,1:0:0:0:
79,217,17942,2,0,B|68:243|68:243|74:273,1,55.0000016784668,4|0,1:0|1:0,0:0:0:0:
98,303,18316,2,0,B|124:309|124:309|153:298,1,55.0000016784668,0|0,1:0|1:0,0:0:0:0:
182,272,18690,1,6,1:0:0:0:
182,272,18877,6,0,B|210:271|231:285|213:275|237:285|253:320,1,82.5000025177003
316,383,19437,6,0,B|426:358,1,110.000003356934,6|0,1:0|1:0,0:0:0:0:
455,332,19998,1,0,1:0:0:0:
455,332,20185,2,0,B|470:266,1,55.0000016784668,0|0,1:0|1:0,0:0:0:0:
458,237,20559,2,0,B|473:171,1,55.0000016784668,0|0,1:0|1:0,0:0:0:0:
498,152,20933,1,6,1:0:0:0:
459,26,21306,2,0,L|392:42,1,55.0000016784668,0|0,1:0|1:0,0:0:0:0:
371,64,21680,2,0,L|304:56,1,55.0000016784668,0|0,1:0|1:0,0:0:0:0:
280,80,22054,2,0,L|239:42,1,55.0000016784668,0|0,1:0|1:0,0:0:0:0:
198,37,22428,5,6,1:0:0:0:
100,23,22708,1,6,1:0:0:0:
50,109,22989,1,0,1:0:0:0:
50,109,23176,5,6,1:0:0:0:
108,188,23456,1,6,1:0:0:0:
59,275,23736,1,0,1:0:0:0:
59,275,23923,6,0,L|73:343,1,55.0000016784668,6|0,1:0|1:0,0:0:0:0:
106,352,24297,2,0,L|174:338,1,55.0000016784668,0|0,1:0|1:0,0:0:0:0:
198,358,24671,1,6,1:0:0:0:
223,235,25045,1,0,0:0:0:0:
223,235,25232,1,0,0:0:0:0:
223,235,25419,6,0,B|160:160|43:199|-44:191|-37:348|65:339|144:318|248:174|106:63|193:45|222:163|135:166|25:240|-31:182|-57:26|-53:-1|89:-61|94:54,1,770.000023498536,4|10,1:0|0:0,2:0:0:0:
216,85,28409,6,0,L|293:96,1,55.0000016784668,4|0,1:0|1:0,0:0:0:0:
310,101,28783,2,0,L|392:59,1,82.5000025177003,0|0,1:0|1:0,0:0:0:0:
430,62,29251,1,0,1:0:0:0:
430,62,29437,2,0,L|469:127,1,55.0000016784668,0|0,1:0|1:0,0:0:0:0:
420,201,29905,6,0,B|356:238|356:238|343:285,1,110.000003356934,6|0,1:0|1:0,0:0:0:0:
342,317,30465,1,0,1:0:0:0:
342,317,30652,5,8,0:0:0:0:
269,384,30933,1,8,0:0:0:0:
185,345,31213,1,8,0:0:0:0:
185,345,31400,6,0,L|169:236,1,110.000003356934,6|0,1:0|1:0,0:0:0:0:
142,205,31961,1,0,1:0:0:0:
110,178,32148,2,0,L|99:101,1,55.0000016784668,0|0,1:0|1:0,0:0:0:0:
75,93,32522,2,0,L|64:16,1,55.0000016784668,0|0,1:0|1:0,0:0:0:0:
99,12,32895,6,0,B|172:1|172:1|211:30,1,110.000003356934,6|0,1:0|1:0,0:0:0:0:
313,113,33643,1,0,0:0:0:0:
313,113,33830,1,0,1:0:0:0:
313,113,34017,2,0,L|323:186,1,55.0000016784668,0|0,1:0|1:0,0:0:0:0:
327,209,34391,5,6,1:0:0:0:
418,245,34671,1,6,1:0:0:0:
471,163,34951,1,6,1:0:0:0:
471,163,35138,5,2,1:0:0:0:
256,320,35886,6,0,L|186:305,1,55.0000016784668,6|0,1:0|1:0,0:0:0:0:
161,303,36260,1,0,1:0:0:0:
82,365,36540,1,2,1:0:0:0:
14,301,36821,1,0,1:0:0:0:
14,301,37008,2,0,L|32:224,1,55.0000016784668,0|0,1:0|1:0,0:0:0:0:
38,208,37381,6,0,L|108:193,1,55.0000016784668,6|0,1:0|1:0,0:0:0:0:
133,191,37755,2,0,L|174:114,1,82.5000025177003,0|4,1:0|1:0,0:0:0:0:
269,155,38316,1,0,1:0:0:0:
269,155,38503,2,0,P|296:153|322:168,1,55.0000016784668,0|0,1:0|0:0,0:0:0:0:
343,201,38877,6,0,L|358:271,1,55.0000016784668,6|0,1:0|1:0,0:0:0:0:
364,296,39251,1,0,1:0:0:0:
455,332,39531,1,2,1:0:0:0:
498,243,39811,1,0,1:0:0:0:
498,243,39998,2,0,L|483:174,1,55.0000016784668,0|0,1:0|1:0,0:0:0:0:
502,151,40372,6,0,L|487:82,1,55.0000016784668,6|0,1:0|1:0,0:0:0:0:
500,61,40746,1,0,1:0:0:0:
409,21,41026,1,4,1:0:0:0:
328,78,41307,1,0,1:0:0:0:
328,78,41493,2,0,P|301:84|273:74,1,55.0000016784668,0|0,1:0|0:0,0:0:0:0:
252,41,41867,6,0,L|173:49,1,55.0000016784668,6|8,1:0|1:0,0:0:0:0:
157,51,42241,1,0,1:0:0:0:
60,28,42522,1,2,1:0:0:0:
36,124,42802,1,8,1:0:0:0:
36,124,42989,2,0,L|106:144,1,55.0000016784668,0|8,1:0|1:0,0:0:0:0:
128,155,43363,6,0,L|136:234,1,55.0000016784668,6|8,1:0|1:0,0:0:0:0:
138,250,43737,1,0,1:0:0:0:
231,281,44017,2,0,B|269:293|269:293|274:297|274:297|326:312,1,82.5000025177003,2|8,1:0|1:0,1:0:0:0:
349,296,44484,1,0,1:0:0:0:
372,261,44671,1,8,1:0:0:0:
354,223,44858,6,0,L|278:198,1,55.0000016784668,6|8,1:0|1:0,0:0:0:0:
263,192,45232,1,0,1:0:0:0:
253,93,45512,1,2,1:0:0:0:
349,69,45793,1,8,1:0:0:0:
349,69,45979,2,0,L|425:93,1,55.0000016784668,0|8,1:0|1:0,0:0:0:0:
442,95,46353,6,0,L|466:171,1,55.0000016784668,6|8,1:0|1:0,0:0:0:0:
471,187,46727,1,0,1:0:0:0:
383,233,47008,1,2,1:0:0:0:
415,331,47288,1,8,1:0:0:0:
415,331,47475,2,0,L|467:348,1,55.0000016784668,0|8,1:0|1:0,0:0:0:0:
507,364,47849,5,2,1:0:0:0:
256,192,47942,12,0,50092,1:0:0:0:
256,192,50839,6,0,B|198:206|198:206|171:264,1,119.999996337891,6|0,1:0|1:0,0:0:0:0:
160,307,51400,1,0,1:0:0:0:
160,307,51587,2,0,L|92:322,1,59.9999981689454,0|0,1:0|1:0,0:0:0:0:
62,298,51961,2,0,L|47:230,1,59.9999981689454,0|0,1:0|1:0,0:0:0:0:
71,200,52335,5,6,1:0:0:0:
213,184,52708,2,0,L|281:169,1,59.9999981689454,0|0,1:0|1:0,0:0:0:0:
316,180,53082,1,2,1:0:0:0:
340,141,53269,1,0,1:0:0:0:
352,97,53456,2,0,L|344:64,1,29.9999990844727,0|12,1:0|1:0,0:0:0:0:
447,28,53830,6,0,B|443:98|499:79|492:156,1,129.999994049073,4|8,1:0|1:0,0:0:0:0:
462,169,54391,1,0,0:0:0:0:
462,169,54578,2,0,P|403:192|387:215,2,64.9999970245363,2|2|8,1:0|0:0|1:0,0:0:0:0:
493,308,55325,2,0,P|461:290|362:293,1,129.999994049073,4|8,1:0|1:0,0:0:0:0:
346,323,55886,1,2,0:0:0:0:
346,323,56073,6,0,B|306:352|280:341|280:341,1,64.9999970245363,0|0,1:0|0:0,0:0:0:0:
248,354,56447,2,0,B|202:334|199:305|199:305,1,64.9999970245363,8|2,1:0|1:0,0:0:0:0:
172,284,56821,5,6,1:0:0:0:
243,159,57194,2,0,L|234:86,1,59.9999981689454,0|0,1:0|1:0,0:0:0:0:
231,55,57568,1,0,1:0:0:0:
91,23,57942,1,0,1:0:0:0:
50,42,58129,1,0,1:0:0:0:
8,62,58316,5,6,1:0:0:0:
79,186,58690,1,0,1:0:0:0:
73,231,58877,1,0,1:0:0:0:
65,275,59064,2,0,B|77:294|77:294|163:318,1,89.9999972534181,2|2,1:0|1:0,1:0:0:0:
177,341,59531,1,12,1:0:0:0:
283,357,59811,6,0,B|366:326|366:326|421:309|404:347|475:319,1,194.999991073609,4|4,1:0|1:0,0:0:0:0:
497,285,60559,1,14,1:0:0:0:
436,195,60839,1,0,0:0:0:0:
479,94,61120,1,2,1:0:0:0:
479,94,61307,5,4,1:0:0:0:
401,17,61587,1,4,1:0:0:0:
307,76,61867,1,2,1:0:0:0:
307,76,62054,6,0,B|295:105|295:105|289:116|257:104|267:102|230:88|193:112|193:112,1,129.999994049073,12|0,1:0|1:0,0:0:0:0:
65,167,62802,6,0,B|81:225|81:225|149:247,1,119.999996337891,6|4,1:0|1:0,0:0:0:0:
236,200,63456,1,4,1:0:0:0:
343,233,63736,1,4,1:0:0:0:
343,233,63923,6,0,B|326:291,1,59.9999981689454
343,329,64297,5,2,1:0:0:0:
207,376,64671,1,2,1:0:0:0:
127,304,64951,2,0,B|69:287|69:287|55:244,1,89.9999972534181,6|4,1:0|1:0,0:0:0:0:
77,217,65418,6,0,B|135:200,1,59.9999981689454
178,214,65793,5,4,1:0:0:0:
320,231,66166,1,0,1:0:0:0:
337,89,66540,1,4,1:0:0:0:
195,72,66914,1,0,1:0:0:0:
178,214,67288,2,0,L|170:286,1,59.9999981689454,4|4,1:0|1:0,0:0:0:0:
132,297,67662,2,0,L|60:289,1,59.9999981689454,4|4,1:0|1:0,0:0:0:0:
35,314,68036,5,0,1:0:0:0:
448,32,69344,1,10,0:0:0:0:
448,32,69531,6,0,P|322:38|311:123,1,230.000004386902,14|2,1:0|1:0,0:0:0:0:
407,233,70652,1,0,2:0:0:0:
407,233,70839,1,0,2:0:0:0:
407,233,71026,6,0,B|260:242|319:293|196:318,1,230.000004386902,8|8,2:0|2:0,0:0:0:0:
60,307,72148,1,2,1:0:0:0:
20,175,72522,6,0,B|-4:133|-5:65|81:32|89:81,1,172.500003290176,2|2,1:0|1:0,0:0:0:0:
124,93,73269,2,0,P|128:151|137:207,1,115.000002193451,10|8,1:0|2:0,0:0:0:0:
159,345,74017,6,0,P|191:339|221:339,1,57.5000010967255,10|0,1:0|2:0,0:0:0:0:
354,346,74578,1,2,1:0:0:0:
354,346,74765,2,0,P|390:293|368:243,1,115.000002193451,10|2,1:0|1:0,0:0:0:0:
261,184,75512,6,0,B|229:185|206:200|206:200|159:141|198:85,1,172.500003290176,14|2,1:0|1:0,0:0:0:0:
227,67,76260,1,6,1:0:0:0:
437,40,76821,1,2,1:0:0:0:
437,40,77008,6,0,P|448:104|474:211,1,172.500003290176,14|2,1:0|1:0,0:0:0:0:
493,247,77755,1,14,1:0:0:0:
442,337,78036,1,6,1:0:0:0:
341,312,78316,1,4,1:0:0:0:
341,312,78503,6,0,P|311:269|249:244,1,115.000002193451,6|0,1:0|1:0,0:0:0:0:
232,213,79064,1,0,1:0:0:0:
232,213,79251,2,0,P|195:216|168:227,1,57.5000010967255,6|0,1:0|1:0,0:0:0:0:
134,223,79624,1,0,1:0:0:0:
44,328,79998,6,0,B|30:243|30:243|24:236|24:236|9:153,1,172.500003290176,6|0,1:0|1:0,0:0:0:0:
9,117,80746,2,0,B|78:110|78:110|111:133|111:133|179:125,1,172.500003290176,6|0,1:0|1:0,0:0:0:0:
210,102,81493,6,0,B|344:107|394:204|399:217|399:217|412:179|398:212|400:114|505:23|505:23|376:41|355:55|299:112|299:112|316:173|269:232,1,805.000015354157,4|0,0:0|0:0,0:0:0:0:
150,276,84484,5,6,1:0:0:0:
150,276,85232,1,6,1:0:0:0:
150,276,85979,5,6,1:0:0:0:
51,242,86260,1,6,1:0:0:0:
47,139,86540,1,6,1:0:0:0:
47,139,86727,5,4,1:0:0:0:
248,206,87288,1,0,0:0:0:0:
248,206,87475,6,0,P|251:256|252:300,1,89.9999972534181,4|2,1:0|0:0,0:0:0:0:
347,358,88036,1,8,1:0:0:0:
347,358,88222,2,0,P|397:361|441:362,1,89.9999972534181,0|2,1:0|0:0,0:0:0:0:
511,284,88783,1,8,1:0:0:0:
511,284,88970,2,0,B|490:244|490:244|503:198,1,89.9999972534181,0|2,1:0|0:0,0:0:0:0:
480,99,89531,1,8,1:0:0:0:
480,99,89717,2,0,L|414:88,1,59.9999981689454,0|8,1:0|1:0,0:0:0:0:
391,59,90092,2,0,L|325:48,1,59.9999981689454,0|8,1:0|1:0,0:0:0:0:
301,17,90465,5,0,1:0:0:0:
211,77,90746,1,2,0:0:0:0:
122,15,91026,1,8,1:0:0:0:
122,15,91213,2,0,P|71:22|16:32,1,89.9999972534181,0|2,1:0|0:0,0:0:0:0:
5,137,91774,1,8,1:0:0:0:
5,137,91961,2,0,P|27:184|6:240,1,89.9999972534181,0|2,1:0|0:0,0:0:0:0:
45,330,92522,1,8,1:0:0:0:
45,330,92708,2,0,L|121:346,1,59.9999981689454,0|8,1:0|1:0,0:0:0:0:
139,366,93082,2,0,L|215:350,1,59.9999981689454,0|8,1:0|1:0,0:0:0:0:
227,319,93456,5,4,1:0:0:0:
332,298,93736,1,6,1:0:0:0:
311,193,94017,1,12,1:0:0:0:
311,193,94204,5,4,1:0:0:0:
290,88,94484,1,4,1:0:0:0:
185,109,94765,1,12,1:0:0:0:
185,109,94951,6,0,P|137:117|86:58,1,119.999996337891,4|0,1:0|1:0,0:0:0:0:
109,37,95512,1,8,1:0:0:0:
109,37,95699,2,0,L|198:22,1,89.9999972534181,6|4,1:0|1:0,0:0:0:0:
290,88,96260,1,12,1:0:0:0:
290,88,96447,6,0,L|379:73,2,89.9999972534181,4|2|8,1:0|1:0|1:0,0:0:0:0:
265,121,97194,2,0,L|275:183,1,59.9999981689454,6|8,1:0|1:0,0:0:0:0:
306,209,97568,2,0,L|316:271,1,59.9999981689454,0|8,1:0|1:0,0:0:0:0:
348,294,97942,5,6,1:0:0:0:
268,366,98222,1,6,1:0:0:0:
176,307,98503,1,14,1:0:0:0:
176,307,98690,6,0,P|141:276|84:260,1,89.9999972534181,12|12,1:0|1:0,0:0:0:0:
56,259,99157,1,14,1:0:0:0:
24,155,99437,6,0,P|54:118|85:75,1,89.9999972534181,4|2,1:0|0:0,0:0:0:0:
184,57,99998,1,8,1:0:0:0:
184,57,100185,1,0,1:0:0:0:
266,127,100465,1,2,1:2:0:0:
371,91,100746,1,8,1:0:0:0:
371,91,100933,2,0,P|388:46|409:-2,1,89.9999972534181,0|2,1:0|1:0,0:0:0:0:
510,46,101493,1,8,1:0:0:0:
510,46,101680,2,0,P|498:77|483:111,1,59.9999981689454,0|8,1:0|1:0,0:0:0:0:
481,144,102054,2,0,P|492:175|507:209,1,59.9999981689454,0|8,0:0|1:0,0:0:0:0:
492,241,102428,5,0,1:0:0:0:
443,337,102708,1,2,0:0:0:0:
338,360,102989,1,8,1:0:0:0:
338,360,103176,2,0,P|269:307|253:296,1,89.9999972534181,0|2,1:0|0:0,0:0:0:0:
159,292,103736,1,8,1:0:0:0:
159,292,103923,2,0,P|81:332|64:340,2,89.9999972534181,0|2|8,1:0|1:0|1:0,0:0:0:0:
170,251,104671,2,0,P|177:190|178:177,1,59.9999981689454,0|8,1:0|1:0,0:0:0:0:
154,156,105045,2,0,P|93:149|80:148,1,59.9999981689454,0|8,1:0|1:0,0:0:0:0:
64,179,105419,5,4,1:0:0:0:
9,86,105699,1,6,1:0:0:0:
91,16,105979,1,12,1:0:0:0:
91,16,106166,5,4,1:0:0:0:
178,78,106446,1,6,1:0:0:0:
271,21,106726,1,12,1:0:0:0:
271,21,106914,6,0,B|345:42|296:59|396:86,1,119.999996337891,4|0,1:0|1:0,0:0:0:0:
412,108,107475,1,8,1:0:0:0:
412,108,107662,2,0,P|395:151|382:192,1,89.9999972534181,4|6,1:0|1:0,0:0:0:0:
300,262,108222,1,12,1:0:0:0:
300,262,108409,6,0,L|326:318,1,59.9999981689454,4|8,1:0|1:0,0:0:0:0:
360,342,108783,2,0,L|421:347,1,59.9999981689454,0|8,1:0|1:0,0:0:0:0:
460,336,109157,1,4,1:0:0:0:
512,242,109437,1,2,1:0:0:0:
460,148,109718,1,8,1:0:0:0:
460,148,109905,6,0,B|359:153|256:169|256:169|291:134,1,239.999992675781,4|0,1:0|1:0,0:0:0:0:
280,144,111400,6,0,B|238:186|238:186|174:179,1,119.999996337891,4|0,1:0|1:0,0:0:0:0:
143,209,111961,1,0,1:0:0:0:
143,209,112148,2,0,B|136:272,1,59.9999981689454,0|0,1:0|1:0,0:0:0:0:
102,298,112522,2,0,B|38:304,1,59.9999981689454,0|0,1:0|1:0,0:0:0:0:
0,316,112896,5,6,1:0:0:0:
13,172,113269,2,0,B|19:108,1,59.9999981689454,0|0,1:0|1:0,0:0:0:0:
51,80,113643,2,0,B|146:69,1,89.9999972534181,6|6,1:0|1:0,1:0:0:0:
247,83,114204,1,10,0:0:0:0:
279,51,114391,6,0,B|324:82|324:82|334:147|334:147|288:184|288:184|264:260,1,239.999992675781,4|6,1:0|1:0,0:0:0:0:
328,373,115512,1,0,1:0:0:0:
367,357,115699,1,0,1:0:0:0:
411,354,115886,6,0,B|450:366|450:366|476:285,2,119.999996337891,4|4|14,1:0|1:0|1:0,0:0:0:0:
354,268,116914,1,10,1:0:0:0:
354,268,117101,1,14,1:0:0:0:
246,264,117381,6,0,B|127:261|40:368|40:368|123:252|37:146|37:146|126:269|241:182|241:182|178:74|76:91|76:91|85:135,1,959.999970703126,4|0,1:0|0:0,0:0:0:0:
