osu file format v14

[General]
AudioFilename: audio.ogg
AudioLeadIn: 0
PreviewTime: 87257
Countdown: 0
SampleSet: Drum
StackLeniency: 0.4
Mode: 0
LetterboxInBreaks: 0
WidescreenStoryboard: 1

[Editor]
Bookmarks: 1509,13472,25435,35902,50855,62818,69547,81509,87491,99453,111416,120388
DistanceSpacing: 4.6
BeatDivisor: 4
GridSize: 32
TimelineZoom: 2.699999

[Metadata]
Title:AureoLe ~for Triumph~
TitleUnicode:AμreoLe ~for Triumph~
Artist:Ashrount
ArtistUnicode:Ashrount
Creator:R3m
Version:Twiggykun's HEAVENLY
Source:SOUND VOLTEX EXCEED GEAR
Tags:SDVX EG 10th KAC オリジナル楽曲コンテスト konami bemani arcade championship winner original song contest HEXA DIVER FLOOR Aim Cup speedcore electronic instrumental video game アウグスト=ヴェルテックス August Vertex すえ×アユタ Nymphe Altai Twiggykun Ilay SaltyLucario Cynplytholowazy LeCandy NeroXx bluirre honne Vermasium symphonic saltking salty
BeatmapID:3674037
BeatmapSetID:1712395

[Difficulty]
HPDrainRate:4.3
CircleSize:4
OverallDifficulty:10
ApproachRate:10
SliderMultiplier:2.1
SliderTickRate:1

[Events]
//Background and Video events
0,0,"bg3.jpg",0,0
//Break Periods
2,81693,84034
//Storyboard Layer 0 (Background)
//Storyboard Layer 1 (Fail)
//Storyboard Layer 2 (Pass)
//Storyboard Layer 3 (Foreground)
//Storyboard Layer 4 (Overlay)
//Storyboard Sound Samples

[TimingPoints]
1494,186.915887850467,4,3,27,70,1,0
1634,-100,4,3,27,5,0,0
1680,-100,4,3,27,70,0,0
1821,-100,4,3,27,5,0,0
1867,-133.333333333333,4,3,1,70,0,0
2989,-100,4,3,27,70,0,0
3129,-100,4,3,1,5,0,0
3176,-100,4,3,27,70,0,0
3316,-100,4,3,1,5,0,0
3363,-133.333333333333,4,3,1,70,0,0
3923,-66.6666666666667,4,3,27,70,0,0
4297,-133.333333333333,4,3,1,70,0,0
4484,-100,4,3,27,70,0,0
4624,-100,4,3,27,5,0,0
4671,-100,4,3,27,70,0,0
4811,-100,4,3,27,5,0,0
4858,-133.333333333333,4,3,1,70,0,0
5372,-133.333333333333,4,3,1,5,0,0
5419,-133.333333333333,4,3,27,70,0,0
5979,-66.6666666666667,4,3,27,70,0,0
6120,-66.6666666666667,4,3,1,5,0,0
6166,-66.6666666666667,4,3,27,70,0,0
6400,-66.6666666666667,4,3,1,5,0,0
6447,-66.6666666666667,4,3,27,70,0,0
6680,-66.6666666666667,4,3,1,5,0,0
6727,-66.6666666666667,4,3,27,70,0,0
6961,-66.6666666666667,4,3,1,5,0,0
7008,-66.6666666666667,4,3,27,40,0,0
7475,-50,4,3,1,70,0,0
7615,-50,4,3,1,5,0,0
7662,-50,4,3,27,70,0,0
8409,-100,4,3,27,70,0,0
8690,-100,4,3,27,70,0,0
8970,-50,4,3,27,70,0,0
9110,-50,4,3,27,5,0,0
9157,-50,4,3,27,70,0,0
9905,-100,4,3,27,70,0,0
12708,-100,4,3,27,70,0,0
13830,-100,4,3,1,70,0,0
14204,-66.6666666666667,4,3,1,70,0,0
14344,-66.6666666666667,4,3,1,5,0,0
14391,-66.6666666666667,4,3,1,70,0,0
14531,-66.6666666666667,4,3,1,5,0,0
14578,-66.6666666666667,4,3,1,70,0,0
14718,-66.6666666666667,4,3,1,5,0,0
14765,-66.6666666666667,4,3,1,70,0,0
15279,-66.6666666666667,4,3,1,5,0,0
15325,-66.6666666666667,4,3,1,70,0,0
15465,-66.6666666666667,4,3,1,5,0,0
15512,-66.6666666666667,4,3,1,70,0,0
15652,-66.6666666666667,4,3,1,5,0,0
15699,-66.6666666666667,4,3,1,70,0,0
16447,-66.6666666666667,4,3,27,70,0,0
16587,-66.6666666666667,4,3,27,5,0,0
16634,-66.6666666666667,4,3,27,70,0,0
16727,-200,4,3,27,70,0,0
16867,-200,4,3,27,5,0,0
16914,-200,4,3,27,70,0,0
17054,-200,4,3,27,5,0,0
17101,-66.6666666666667,4,3,1,70,0,0
17194,-66.6666666666667,4,3,27,70,0,0
17708,-66.6666666666667,4,3,27,5,0,0
17755,-66.6666666666667,4,3,27,70,0,0
18877,-200,4,3,10,70,0,0
19110,-200,4,3,1,5,0,0
19157,-200,4,3,10,70,0,0
19391,-200,4,3,1,5,0,0
19437,-200,4,3,27,70,0,0
19624,-66.6666666666667,4,3,27,70,0,0
19765,-66.6666666666667,4,3,27,5,0,0
19811,-66.6666666666667,4,3,27,70,0,0
19951,-66.6666666666667,4,3,27,5,0,0
19998,-66.6666666666667,4,3,27,70,0,0
20185,-66.6666666666667,4,3,1,70,0,0
20325,-66.6666666666667,4,3,1,5,0,0
20372,-66.6666666666667,4,3,1,70,0,0
20512,-66.6666666666667,4,3,1,5,0,0
20559,-66.6666666666667,4,3,1,70,0,0
20746,-66.6666666666667,4,3,27,70,0,0
21821,-66.6666666666667,4,3,27,5,0,0
21867,-66.6666666666667,4,3,27,70,0,0
22008,-66.6666666666667,4,3,27,5,0,0
22054,-66.6666666666667,4,3,27,70,0,0
22194,-66.6666666666667,4,3,27,5,0,0
22241,-66.6666666666667,4,3,27,70,0,0
22708,-100,4,3,27,70,0,0
23176,-66.6666666666667,4,3,27,70,0,0
23316,-66.6666666666667,4,3,27,5,0,0
23363,-66.6666666666667,4,3,27,70,0,0
23456,-100,4,3,27,70,0,0
23923,-66.6666666666667,4,3,27,70,0,0
25045,-200,4,3,1,70,0,0
25419,-500,4,3,1,70,0,0
28409,-66.6666666666667,4,3,1,70,0,0
28550,-66.6666666666667,4,3,1,5,0,0
28596,-66.6666666666667,4,3,1,70,0,0
28736,-66.6666666666667,4,3,1,5,0,0
28783,-66.6666666666667,4,3,1,70,0,0
29905,-66.6666666666667,4,3,27,70,0,0
30652,-200,4,3,1,70,0,0
30886,-200,4,3,1,5,0,0
30933,-200,4,3,1,70,0,0
31166,-200,4,3,1,5,0,0
31213,-200,4,3,1,70,0,0
31353,-200,4,3,1,5,0,0
31400,-66.6666666666667,4,3,27,70,0,0
31540,-66.6666666666667,4,3,27,5,0,0
31587,-66.6666666666667,4,3,27,70,0,0
31727,-66.6666666666667,4,3,27,5,0,0
31774,-66.6666666666667,4,3,27,70,0,0
31914,-66.6666666666667,4,3,27,5,0,0
31961,-66.6666666666667,4,3,27,70,0,0
32475,-66.6666666666667,4,3,27,5,0,0
32522,-66.6666666666667,4,3,27,70,0,0
32662,-66.6666666666667,4,3,27,5,0,0
32708,-66.6666666666667,4,3,27,70,0,0
33036,-66.6666666666667,4,3,27,5,0,0
33082,-66.6666666666667,4,3,27,70,0,0
33222,-66.6666666666667,4,3,27,5,0,0
33269,-66.6666666666667,4,3,27,70,0,0
34578,-66.6666666666667,4,3,1,70,0,0
34671,-66.6666666666667,4,3,27,70,0,0
35839,-66.6666666666667,4,3,27,5,0,0
35886,-66.6666666666667,4,3,27,70,0,0
37148,-66.6666666666667,4,3,27,5,0,0
37194,-66.6666666666667,4,3,27,70,0,0
38503,-200,4,3,1,70,0,0
38643,-200,4,3,1,5,0,0
38690,-200,4,3,1,70,0,0
38830,-200,4,3,1,5,0,0
38877,-66.6666666666667,4,3,27,70,0,0
40138,-66.6666666666667,4,3,27,5,0,0
40185,-66.6666666666667,4,3,27,70,0,0
41166,-66.6666666666667,4,3,27,5,0,0
41213,-66.6666666666667,4,3,27,70,0,0
41493,-100,4,3,27,50,0,0
41680,-100,4,3,27,60,0,0
41867,-66.6666666666667,4,3,27,70,0,0
43129,-66.6666666666667,4,3,27,5,0,0
43176,-66.6666666666667,4,3,27,70,0,0
44671,-100,4,3,27,70,0,0
44765,-100,4,3,27,5,0,0
44858,-66.6666666666667,4,3,27,70,0,0
46120,-66.6666666666667,4,3,27,5,0,0
46166,-66.6666666666667,4,3,27,70,0,0
47849,-100,4,3,27,70,0,0
48098,-100,4,3,27,44,0,0
48160,-100,4,3,27,70,0,0
50793,-100,4,3,27,5,0,0
50839,-66.6666666666667,4,3,27,70,0,0
53550,-100,4,3,27,70,0,0
53783,-100,4,3,27,5,0,0
53830,-100,4,3,27,70,0,0
54110,-100,4,3,27,35,0,0
54204,-100,4,3,1,70,0,0
54437,-100,4,3,1,5,0,0
54484,-100,4,3,10,70,0,0
54578,-100,4,3,27,70,0,0
54951,-100,4,3,1,70,0,0
55138,-100,4,3,10,70,0,0
55232,-100,4,3,1,70,0,0
55325,-66.6666666666667,4,3,27,70,0,0
55606,-100,4,3,10,70,0,0
55699,-100,4,3,1,70,0,0
56166,-100,4,3,10,70,0,0
56447,-100,4,3,1,70,0,0
56727,-100,4,3,27,70,0,0
56821,-66.6666666666667,4,3,27,70,0,0
59531,-100,4,3,27,50,0,0
59718,-100,4,3,27,5,0,0
59811,-100,4,3,27,70,0,0
59998,-100,4,3,50,70,0,0
60185,-100,4,3,51,70,0,0
60279,-100,4,3,1,5,0,0
60372,-100,4,3,27,70,0,0
60559,-100,4,3,27,70,0,0
61493,-100,4,3,10,70,0,0
61587,-100,4,3,27,70,0,0
61774,-100,4,3,10,70,0,0
61867,-100,4,3,1,70,0,0
62054,-100,4,3,27,70,0,0
62428,-333.333333333333,4,3,1,40,0,0
62802,-66.6666666666667,4,3,27,70,0,0
64297,-66.6666666666667,4,3,27,70,0,0
65793,-66.6666666666667,4,3,27,70,0,0
68783,-66.6666666666667,4,3,27,45,0,0
68877,-100,4,3,27,54,0,0
69017,-100,4,3,27,5,0,0
69064,-100,4,3,27,54,0,0
69297,-100,4,3,27,5,0,0
69344,-66.6666666666667,4,3,1,70,0,0
69484,-66.6666666666667,4,3,1,5,0,0
69531,-100,4,3,3,70,0,0
69593,-100,4,3,1,70,0,0
70279,-100,4,3,4,50,0,0
70341,-100,4,3,1,70,0,0
71587,-100,4,3,4,70,0,0
71649,-100,4,3,1,70,0,0
71774,-100,4,3,1,50,0,0
71836,-100,4,3,1,70,0,0
72148,-100,4,3,4,70,0,0
72210,-100,4,3,1,70,0,0
72522,-100,4,3,4,70,0,0
72584,-100,4,3,1,70,0,0
73082,-100,4,3,4,50,0,0
73145,-100,4,3,1,70,0,0
73269,-100,4,3,2,50,0,0
73332,-100,4,3,1,70,0,0
73643,-100,4,3,1,50,0,0
73705,-100,4,3,1,70,0,0
74017,-100,4,3,2,70,0,0
74079,-100,4,3,1,70,0,0
74578,-100,4,3,4,50,0,0
74640,-100,4,3,1,70,0,0
74765,-100,4,3,2,70,0,0
74827,-100,4,3,1,70,0,0
75138,-100,4,3,4,70,0,0
75201,-100,4,3,1,70,0,0
75512,-100,4,3,3,70,0,0
75574,-100,4,3,1,70,0,0
76073,-100,4,3,4,70,0,0
76166,-100,4,3,1,70,0,0
76260,-100,4,3,2,70,0,0
76322,-100,4,3,1,70,0,0
76821,-100,4,3,4,70,0,0
76914,-100,4,3,1,70,0,0
77008,-100,4,3,2,70,0,0
77194,-100,4,3,1,50,0,0
77257,-100,4,3,1,70,0,0
77568,-100,4,3,4,70,0,0
77662,-100,4,3,1,70,0,0
77755,-100,4,3,27,70,0,0
78503,-66.6666666666667,4,3,27,70,0,0
79998,-66.6666666666667,4,3,27,70,0,0
80045,-66.6666666666667,4,3,27,5,0,0
80092,-66.6666666666667,4,3,27,70,0,0
80138,-66.6666666666667,4,3,27,5,0,0
80185,-66.6666666666667,4,3,27,70,0,0
80232,-66.6666666666667,4,3,27,5,0,0
80279,-66.6666666666667,4,3,27,70,0,0
80325,-66.6666666666667,4,3,27,5,0,0
80372,-66.6666666666667,4,3,27,70,0,0
80419,-66.6666666666667,4,3,27,5,0,0
80465,-66.6666666666667,4,3,27,70,0,0
80512,-66.6666666666667,4,3,27,5,0,0
80559,-66.6666666666667,4,3,27,70,0,0
80606,-66.6666666666667,4,3,27,5,0,0
80652,-66.6666666666667,4,3,27,70,0,0
80699,-66.6666666666667,4,3,27,70,0,0
80746,-66.6666666666667,4,3,27,70,0,0
81120,-100,4,3,27,70,0,0
81493,-100,4,3,1,70,0,0
84484,-200,4,3,27,70,0,0
85979,-100,4,3,27,70,0,0
86540,-66.6666666666667,4,3,27,70,0,0
86680,-66.6666666666667,4,3,27,5,0,0
86727,-500,4,3,27,70,0,0
87194,-500,4,3,27,5,0,0
87288,-500,4,3,27,45,0,0
87381,-500,4,3,27,60,0,0
87475,-66.6666666666667,4,3,1,70,0,0
87568,-66.6666666666667,4,3,27,70,0,0
92895,-100,4,3,27,70,0,0
93082,-66.6666666666667,4,3,27,70,0,0
93596,-66.6666666666667,4,3,27,5,0,0
93643,-66.6666666666667,4,3,27,70,0,0
93877,-66.6666666666667,4,3,27,5,0,0
93923,-66.6666666666667,4,3,27,70,0,0
94344,-66.6666666666667,4,3,27,5,0,0
94391,-66.6666666666667,4,3,27,70,0,0
94624,-66.6666666666667,4,3,27,5,0,0
94671,-66.6666666666667,4,3,27,70,0,0
95839,-66.6666666666667,4,3,27,5,0,0
95886,-66.6666666666667,4,3,27,70,0,0
96120,-66.6666666666667,4,3,27,5,0,0
96166,-66.6666666666667,4,3,27,70,0,0
97942,-100,4,3,27,70,0,0
98503,-66.6666666666667,4,3,27,70,0,0
99110,-66.6666666666667,4,3,27,5,0,0
99157,-133.333333333333,4,3,27,70,0,0
99391,-133.333333333333,4,3,27,5,0,0
99437,-66.6666666666667,4,3,1,70,0,0
99531,-66.6666666666667,4,3,27,70,0,0
102101,-66.6666666666667,4,3,27,5,0,0
102148,-66.6666666666667,4,3,27,70,0,0
104064,-66.6666666666667,4,3,27,5,0,0
104110,-66.6666666666667,4,3,27,70,0,0
104344,-66.6666666666667,4,3,27,5,0,0
104391,-66.6666666666667,4,3,27,70,0,0
105372,-66.6666666666667,4,3,27,5,0,0
105419,-66.6666666666667,4,3,27,70,0,0
105652,-66.6666666666667,4,3,27,5,0,0
105699,-66.6666666666667,4,3,27,70,0,0
106400,-66.6666666666667,4,3,27,5,0,0
106447,-66.6666666666667,4,3,27,70,0,0
108363,-66.6666666666667,4,3,27,5,0,0
108409,-66.6666666666667,4,3,27,70,0,0
110279,-100,4,3,27,70,0,0
110652,-500,4,3,27,70,0,0
111353,-500,4,3,27,5,0,0
111400,-500,4,3,1,70,0,0
111493,-500,4,3,27,70,0,0
112148,-66.6666666666667,4,3,27,70,0,0
114204,-133.333333333333,4,3,27,70,0,0
114344,-133.333333333333,4,3,27,5,0,0
114391,-66.6666666666667,4,3,27,70,0,0
117335,-66.6666666666667,4,3,27,5,0,0
117381,-66.6666666666667,4,3,1,70,0,0
120372,-66.6666666666667,4,3,1,5,0,0

[Colours]
Combo1 : 254,129,118
Combo2 : 252,119,39
Combo3 : 255,197,74
Combo4 : 254,92,80

[HitObjects]
86,275,1493,6,0,P|148:292|181:407,1,157.5,6|0,1:0|0:0,0:0:0:0:
196,363,1680,2,0,P|162:291|90:265,1,157.5,6|0,1:0|0:0,0:0:0:0:
0,182,1867,6,0,L|12:88,1,78.7500030040742
106,9,2054,2,0,L|118:103,1,78.7500030040742
211,151,2241,1,0,0:0:0:0:
225,143,2335,1,0,0:0:0:0:
233,133,2428,2,0,P|247:84|228:29,1,78.7500030040742
335,24,2615,2,0,P|370:60|427:71,1,78.7500030040742
502,83,2802,2,0,L|497:119,6,19.6875007510186,0|0|0|0|0|0|0,1:0|0:0|1:0|0:0|1:0|0:0|1:0,0:0:0:0:
484,186,2989,6,0,B|415:219|415:219|349:172,1,157.5,6|0,1:0|0:0,0:0:0:0:
349,183,3176,2,0,B|414:230|414:230|483:196,1,157.5,6|0,1:0|0:0,0:0:0:0:
499,301,3363,6,0,P|461:341|459:383,1,78.7500030040742
361,365,3550,1,0,0:0:0:0:
359,355,3643,2,0,P|353:316|328:287,1,78.7500030040742,0|0,1:0|0:0,0:0:0:0:
198,286,3830,1,0,1:0:0:0:
198,286,3877,1,0,1:0:0:0:
198,286,3923,6,0,B|174:330|174:330|53:351,1,157.5,4|0,1:0|0:0,0:0:0:0:
4,148,4110,2,0,B|28:104|28:104|149:83,1,157.5,4|0,1:0|0:0,0:0:0:0:
196,38,4297,2,0,L|199:5,6,19.6875007510186,2|0|0|0|0|0|0,1:0|0:0|1:0|0:0|1:0|0:0|1:0,0:0:0:0:
273,10,4484,6,0,P|318:55|327:158,1,157.5,6|0,1:0|0:0,0:0:0:0:
346,147,4671,2,0,P|363:85|447:25,1,157.5,6|0,1:0|0:0,0:0:0:0:
494,92,4858,6,0,L|508:178,1,78.7500030040742
433,310,5045,2,0,L|419:224,1,78.7500030040742
336,358,5232,6,0,L|212:374,1,118.125004506111
108,384,5419,1,4,1:0:0:0:
108,384,5465,1,0,1:0:0:0:
108,384,5512,1,0,1:0:0:0:
108,384,5559,1,0,0:0:0:0:
108,384,5606,5,0,1:0:0:0:
3,349,5699,1,0,1:0:0:0:
3,239,5793,1,0,1:0:0:0:
110,207,5886,1,0,1:0:0:0:
172,294,5979,6,0,B|215:278|223:222|223:222|275:298|225:361,1,236.250009012223,6|0,1:0|0:0,0:0:0:0:
346,384,6166,1,0,1:0:0:0:
346,384,6213,1,0,1:0:0:0:
346,384,6260,2,0,L|315:146,1,236.250009012223,6|0,1:0|0:0,0:0:0:0:
431,202,6447,1,0,1:0:0:0:
431,202,6493,1,0,1:0:0:0:
431,202,6540,6,0,B|390:262|449:333|449:333|452:277|494:258,1,236.250009012223,6|0,1:0|0:0,0:0:0:0:
510,95,6727,1,0,1:0:0:0:
510,95,6774,1,0,1:0:0:0:
510,95,6821,2,0,P|390:99|324:11,1,236.250009012223,6|0,1:0|0:0,0:0:0:0:
218,51,7008,1,0,1:0:0:0:
218,51,7054,1,0,1:0:0:0:
218,51,7101,1,0,0:0:0:0:
213,48,7475,6,0,B|230:174|230:174|277:207|277:207|294:345,1,315,4|0,1:0|0:0,0:0:0:0:
294,351,7662,2,0,P|259:351|218:375,4,52.5,0|0|0|0|0,1:0|0:0|1:0|0:0|1:0,0:0:0:0:
42,251,7849,5,6,1:0:0:0:
157,270,7942,1,0,1:0:0:0:
137,384,8036,1,0,1:0:0:0:
23,364,8129,2,0,L|2:137,1,210,6|0,1:0|0:0,0:0:0:0:
45,36,8316,5,8,0:0:0:0:
45,36,8409,2,0,B|74:83|74:83|150:94,1,105,6|0,1:0|0:0,0:0:0:0:
305,55,8596,5,8,0:0:0:0:
305,55,8689,2,0,B|343:14|343:14|420:19,1,105,6|0,1:0|0:0,0:0:0:0:
465,254,8877,5,8,0:0:0:0:
479,120,8970,2,0,B|530:180|530:180|291:152,1,315,6|0,1:0|0:0,0:0:0:0:
281,151,9157,2,0,L|270:211,4,52.5,0|0|0|0|0,1:0|0:0|1:0|0:0|1:0,0:0:0:0:
245,384,9344,5,6,1:0:0:0:
360,365,9437,1,0,1:0:0:0:
340,251,9531,1,0,1:0:0:0:
225,271,9624,2,0,B|135:262|135:262|100:281|100:281|5:269,1,210,6|0,1:0|0:0,0:0:0:0:
156,91,9811,5,8,1:0:0:0:
156,91,9858,1,8,1:0:0:0:
156,91,9905,2,0,B|192:132|192:132|180:208,1,105,14|0,1:0|0:0,0:0:0:0:
50,361,10092,5,8,1:0:0:0:
50,361,10138,1,8,1:0:0:0:
50,361,10186,2,0,B|13:319|13:319|25:243,1,105,14|0,1:0|0:0,0:0:0:0:
51,119,10372,2,0,L|64:46,1,52.5,8|8,1:0|1:0,0:0:0:0:
238,5,10465,5,14,1:0:0:0:
252,72,10527,1,0,1:0:0:0:
298,123,10589,1,0,1:0:0:0:
362,146,10651,1,0,1:0:0:0:
432,135,10714,1,0,1:0:0:0:
486,92,10776,1,0,1:0:0:0:
512,29,10839,5,0,1:0:0:0:
445,43,10901,1,0,1:0:0:0:
393,88,10963,1,0,1:0:0:0:
370,153,11025,1,0,1:0:0:0:
382,222,11088,1,0,1:0:0:0:
425,276,11150,1,0,1:0:0:0:
487,302,11213,6,0,L|496:378,7,52.5,6|0|0|0|0|0|0|0,1:0|1:0|1:0|1:0|1:0|1:0|1:0|1:0,0:0:0:0:
403,355,11587,6,0,L|407:380,14,26.25,6|0|0|0|0|0|0|0|0|0|0|0|0|0|0,1:0|1:0|1:0|1:0|1:0|1:0|1:0|1:0|1:0|1:0|1:0|1:0|1:0|1:0|1:0,1:0:0:0:
319,384,11961,5,0,1:0:0:0:
319,384,12708,6,0,B|245:358|162:376|162:376|138:282|82:233,1,315,6|0,1:0|0:0,0:0:0:0:
387,52,13082,6,0,B|402:129|459:192|459:192|390:260|375:333,1,315,6|0,1:0|0:0,0:0:0:0:
67,151,13456,5,4,1:0:0:0:
67,151,13830,5,4,1:0:0:0:
161,6,13924,1,0,1:0:0:0:
169,176,14017,1,0,1:0:0:0:
62,44,14111,1,0,1:0:0:0:
225,88,14204,6,0,P|325:77|452:-1,1,236.250009012223,0|0,1:0|0:0,0:0:0:0:
510,73,14391,2,0,P|469:165|473:314,1,236.250009012223,0|0,1:0|0:0,0:0:0:0:
397,370,14578,2,0,B|308:361|308:361|253:329|253:329|146:321,1,236.250009012223,0|0,1:0|0:0,0:0:0:0:
34,314,14765,1,0,1:0:0:0:
34,314,14858,1,0,1:0:0:0:
34,314,14951,1,0,1:0:0:0:
295,259,15138,6,0,B|303:138|303:138|200:69,1,236.250009012223,0|0,1:0|0:0,0:0:0:0:
116,62,15325,2,0,B|7:115|7:115|-1:238,1,236.250009012223,0|0,1:0|0:0,0:0:0:0:
34,314,15512,2,0,B|134:381|134:381|245:327,1,236.250009012223,0|0,1:0|0:0,0:0:0:0:
382,236,15699,5,0,1:0:0:0:
497,320,15793,2,0,L|505:363,8,39.3750015020371,0|0|0|0|0|0|0|0|0,1:0|0:0|1:0|0:0|1:0|0:0|1:0|0:0|1:0,0:0:0:0:
382,236,16073,1,0,1:0:0:0:
353,163,16167,1,0,1:0:0:0:
367,87,16260,1,0,1:0:0:0:
420,30,16354,1,0,1:0:0:0:
497,11,16447,6,0,B|479:119|479:119|486:130|486:130|464:267,1,236.250009012223,6|0,1:0|0:0,0:0:0:0:
403,328,16634,1,0,1:0:0:0:
391,332,16727,6,0,P|356:356|324:402,1,78.75,0|0,1:0|0:0,0:0:0:0:
244,364,16914,2,0,P|239:321|216:270,1,78.75,10|0,1:0|0:0,0:0:0:0:
212,279,17101,2,0,L|166:284,2,39.3750015020371,0|0|0,1:0|0:0|1:0,0:0:0:0:
90,288,17194,5,6,1:0:0:0:
0,89,17319,1,0,1:0:0:0:
228,114,17444,1,0,1:0:0:0:
87,301,17568,2,0,L|119:45,1,236.250009012223,10|0,1:0|0:0,0:0:0:0:
275,13,17755,1,0,1:0:0:0:
275,13,17802,1,0,1:0:0:0:
275,13,17849,1,0,1:0:0:0:
275,13,17895,1,0,1:0:0:0:
275,13,17942,5,4,1:0:0:0:
383,24,18035,1,0,1:0:0:0:
406,132,18128,1,0,1:0:0:0:
310,186,18222,1,0,1:0:0:0:
228,114,18316,5,0,1:0:0:0:
247,109,18362,1,0,1:0:0:0:
266,105,18409,1,0,1:0:0:0:
285,100,18456,1,0,1:0:0:0:
304,96,18502,1,0,1:0:0:0:
480,56,18596,1,0,1:0:0:0:
426,233,18690,6,0,B|439:302|439:302|459:317|459:317|471:382,1,157.500006008148,6|0,1:0|0:0,0:0:0:0:
244,311,18877,6,0,P|179:327|140:381,1,131.25
25,341,19157,2,0,P|89:337|141:375,1,131.25
141,375,19437,5,6,1:0:0:0:
129,253,19531,1,0,1:0:0:0:
113,128,19624,2,0,B|93:18|0:11|0:11|27:20|46:64,1,236.250009012223,0|0,1:0|0:0,0:0:0:0:
8,233,19811,2,0,L|251:197,1,236.250009012223,0|0,1:0|0:0,0:0:0:0:
433,168,19998,5,0,1:0:0:0:
489,205,20060,5,0,1:0:0:0:
512,270,20122,5,0,1:0:0:0:
488,335,20185,6,0,P|373:343|225:401,1,236.250009012223,0|0,1:0|0:0,0:0:0:0:
202,311,20372,2,0,P|252:207|275:50,1,236.250009012223,0|0,1:0|0:0,0:0:0:0:
359,69,20559,1,0,1:0:0:0:
359,69,20652,1,0,1:0:0:0:
359,69,20746,1,0,1:0:0:0:
183,113,20933,5,6,1:0:0:0:
134,16,21026,1,0,1:0:0:0:
24,33,21119,1,0,1:0:0:0:
8,142,21213,1,0,1:0:0:0:
105,186,21307,5,0,1:0:0:0:
107,204,21353,1,0,1:0:0:0:
110,223,21400,1,0,1:0:0:0:
112,242,21447,1,0,1:0:0:0:
116,261,21493,1,0,1:0:0:0:
86,384,21587,1,0,1:0:0:0:
206,351,21680,6,0,B|330:373|330:373|417:301,1,236.250009012223,0|0,1:0|0:0,0:0:0:0:
450,180,21867,2,0,B|407:61|407:61|301:22,1,236.250009012223,0|0,1:0|0:0,0:0:0:0:
179,56,22054,2,0,B|97:152|97:152|116:263,1,236.250009012223,0|0,1:0|0:0,0:0:0:0:
261,271,22241,1,0,1:0:0:0:
122,283,22335,1,0,1:0:0:0:
261,271,22428,6,0,B|269:197|269:197|273:192|273:192|283:103,1,157.500006008148,6|0,1:0|0:0,0:0:0:0:
24,18,22615,1,0,1:0:0:0:
24,18,22708,2,0,L|33:101,4,52.5,6|0|0|0|0,1:0|1:0|1:0|1:0|1:0,0:0:0:0:
56,332,22989,1,0,1:0:0:0:
45,213,23083,1,0,1:0:0:0:
56,332,23175,6,0,P|148:341|204:394,1,157.500006008148,6|0,1:0|0:0,0:0:0:0:
409,368,23362,1,0,1:0:0:0:
409,368,23456,2,0,L|418:285,4,52.5,6|0|0|0|0,1:0|1:0|1:0|1:0|1:0,0:0:0:0:
492,146,23737,1,0,1:0:0:0:
389,203,23830,1,0,1:0:0:0:
389,203,23877,1,0,1:0:0:0:
389,203,23923,6,0,B|318:238|318:238|309:316,1,157.500006008148,6|0,1:0|0:0,0:0:0:0:
193,75,24110,2,0,B|259:118|259:118|330:86,1,157.500006008148,0|0,1:0|0:0,0:0:0:0:
180,309,24297,2,2,B|183:229|183:229|121:183,1,157.500006008148,0|0,1:0|0:0,0:0:0:0:
24,138,24484,5,0,1:0:0:0:
5,245,24578,1,0,1:0:0:0:
24,138,24671,5,6,1:0:0:0:
29,236,24765,1,0,1:0:0:0:
24,138,24858,5,0,1:0:0:0:
53,229,24951,1,0,1:0:0:0:
24,138,25045,6,0,B|30:83,3,52.5
40,11,25419,6,0,B|157:21|157:72|157:121|305:118,1,294,4|0,1:0|0:0,0:0:0:0:
431,4,26914,6,0,B|372:56|372:56|425:117|425:117|486:64|486:64|451:23|451:23,1,294
340,147,28409,6,0,B|419:235|419:235|507:158,1,236.250009012223,4|0,1:0|0:0,0:0:0:0:
499,277,28596,2,0,B|411:354|411:354|331:265,1,236.250009012223,0|0,1:0|0:0,0:0:0:0:
319,258,28783,1,0,1:0:0:0:
172,350,28877,2,0,L|-13:372,1,157.500006008148,0|0,1:0|0:0,0:0:0:0:
36,225,29064,2,0,L|42:181,4,39.3750015020371,0|0|0|0|0,1:0|0:0|1:0|0:0|1:0,0:0:0:0:
217,113,29251,2,0,P|206:185|123:227,1,157.500006008148,0|0,1:0|0:0,0:0:0:0:
14,79,29437,5,0,1:0:0:0:
108,7,29531,1,0,1:0:0:0:
122,119,29624,1,0,1:0:0:0:
138,226,29718,1,0,1:0:0:0:
156,220,29764,1,0,1:0:0:0:
176,220,29811,1,0,1:0:0:0:
195,225,29858,1,0,1:0:0:0:
212,235,29904,5,6,1:0:0:0:
223,340,29999,1,0,1:0:0:0:
332,359,30093,1,0,1:0:0:0:
382,259,30186,1,0,1:0:0:0:
305,183,30279,5,0,1:0:0:0:
307,163,30325,1,0,1:0:0:0:
309,143,30372,1,0,1:0:0:0:
312,124,30419,1,0,1:0:0:0:
314,104,30465,1,0,1:0:0:0:
326,2,30559,1,0,1:0:0:0:
456,162,30652,6,0,B|436:226|436:226|380:258,1,131.25,8|0,0:0|0:0,0:0:0:0:
212,235,30933,2,0,B|167:184|167:184|170:119,1,131.25,8|0,0:0|0:0,0:0:0:0:
326,2,31213,2,0,P|324:32|317:3,1,78.75,8|0,0:0|0:0,0:0:0:0:
314,104,31400,6,0,L|286:348,1,236.250009012223,6|0,1:0|0:0,0:0:0:0:
200,375,31587,2,0,P|138:281|23:239,1,236.250009012223,0|0,1:0|0:0,0:0:0:0:
32,148,31774,2,0,P|143:141|237:63,1,236.250009012223,0|0,1:0|0:0,0:0:0:0:
175,0,31961,1,0,1:0:0:0:
203,216,32054,1,0,1:0:0:0:
406,93,32148,5,0,1:0:0:0:
425,89,32194,1,0,1:0:0:0:
444,88,32241,1,0,1:0:0:0:
458,96,32288,1,0,1:0:0:0:
471,106,32335,2,0,B|510:223|510:223|432:313,1,236.250009012223,0|0,1:0|0:0,0:0:0:0:
361,346,32522,2,0,B|239:322|239:322|200:209,1,236.250009012223,0|0,1:0|0:0,0:0:0:0:
266,98,32708,1,0,1:0:0:0:
175,0,32802,1,0,1:0:0:0:
51,56,32895,6,0,L|23:300,1,236.250009012223,6|0,1:0|0:0,0:0:0:0:
99,378,33082,2,0,L|127:134,1,236.250009012223,0|0,1:0|0:0,0:0:0:0:
202,215,33269,2,0,B|278:182|278:182|350:235,2,157.500006008148,0|0|0,1:0|1:0|0:0,0:0:0:0:
267,283,33550,1,0,1:0:0:0:
286,102,33643,5,0,0:0:0:0:
265,299,33736,2,0,L|260:346,8,39.3750015020371,0|0|0|0|0|0|0|0|0,1:0|1:0|1:0|1:0|1:0|1:0|1:0|1:0|1:0,1:0:0:0:
395,359,34017,5,0,1:0:0:0:
461,247,34110,1,0,1:0:0:0:
369,145,34204,1,0,1:0:0:0:
369,145,34251,1,0,1:0:0:0:
369,145,34297,1,0,1:0:0:0:
244,205,34391,6,0,L|282:197,8,39.3750015020371,6|0|0|0|0|0|0|0|0,1:0|0:0|1:0|0:0|1:0|0:0|1:0|0:0|1:0,0:0:0:0:
260,338,34671,2,0,L|265:299,8,39.3750015020371,6|0|0|0|0|0|0|0|0,1:0|0:0|1:0|0:0|1:0|0:0|1:0|0:0|1:0,0:0:0:0:
395,359,34951,1,6,1:0:0:0:
461,247,35044,1,0,1:0:0:0:
464,227,35091,1,0,1:0:0:0:
467,208,35137,1,2,1:0:0:0:
256,192,35185,12,0,35839,0:0:0:0:
236,357,35886,6,0,P|148:354|77:374,1,157.500006008148,4|2,1:0|0:0,0:0:0:0:
6,279,36073,2,0,P|51:204|69:132,1,157.500006008148,0|2,1:0|0:0,0:0:0:0:
188,120,36260,2,0,P|229:196|282:248,1,157.500006008148,0|2,1:0|0:0,0:0:0:0:
389,228,36447,5,0,1:0:0:0:
381,0,36540,2,0,P|293:-2|222:17,1,157.500006008148,2|0,1:0|0:0,0:0:0:0:
188,120,36727,5,2,1:0:0:0:
389,228,36821,2,0,P|434:153|452:81,1,157.500006008148,0|2,1:0|0:0,0:0:0:0:
275,95,37008,2,0,B|286:132|323:157|323:157|348:127|357:88|357:88|314:78|275:95,1,236.250009012223,0|0,1:0|0:0,0:0:0:0:
278,343,37194,1,0,1:0:0:0:
496,269,37288,1,2,1:0:0:0:
279,245,37381,6,0,L|109:223,1,157.500006008148,4|2,1:0|0:0,0:0:0:0:
31,99,37568,2,0,L|201:121,1,157.500006008148,0|2,1:0|0:0,0:0:0:0:
165,338,37755,2,0,L|-5:316,1,157.500006008148,0|2,1:0|0:0,0:0:0:0:
188,120,37942,5,0,1:0:0:0:
162,347,38036,2,0,L|5:326,1,157.500006008148,4|0,1:0|0:0,0:0:0:0:
214,28,38222,5,2,1:0:0:0:
191,219,38316,1,0,1:0:0:0:
0,196,38409,1,2,1:0:0:0:
23,5,38503,6,0,L|106:19,1,78.75,0|0,1:0|0:0,0:0:0:0:
168,117,38690,2,0,L|251:131,1,78.75
327,51,38877,6,0,B|393:97|393:97|471:72,1,157.500006008148,4|2,1:0|0:0,0:0:0:0:
512,173,39064,2,0,B|438:207|438:207|420:287,1,157.500006008148,0|2,1:0|0:0,0:0:0:0:
311,272,39251,2,0,B|317:190|317:190|257:136,1,157.500006008148,0|2,1:0|0:0,0:0:0:0:
168,117,39437,5,0,1:0:0:0:
105,318,39531,2,0,B|171:364|171:364|249:339,1,157.500006008148,2|0,1:0|0:0,0:0:0:0:
311,272,39718,5,2,1:0:0:0:
168,117,39811,2,0,B|94:151|94:151|76:231,1,157.500006008148,0|2,1:0|0:0,0:0:0:0:
224,262,39998,2,0,B|230:221|230:221|200:196|200:196|164:209|164:209|155:248|155:248|185:273|185:273|222:260,1,236.250009012223,0|0,1:0|0:0,0:0:0:0:
449,363,40185,1,0,1:0:0:0:
244,341,40279,1,2,1:0:0:0:
478,287,40372,6,0,L|500:117,1,157.500006008148,4|2,1:0|0:0,0:0:0:0:
306,7,40559,2,0,L|284:177,1,157.500006008148,0|2,1:0|0:0,0:0:0:0:
478,287,40746,2,0,L|500:117,1,157.500006008148,0|2,1:0|0:0,0:0:0:0:
285,163,40933,5,0,1:0:0:0:
96,199,41026,2,0,B|63:142|0:133|0:133|61:108|80:44,1,236.250009012223,4|0,1:0|0:0,0:0:0:0:
198,118,41213,5,2,1:0:0:0:
192,196,41307,1,0,1:0:0:0:
221,384,41400,1,2,1:0:0:0:
224,300,41493,5,0,1:0:0:0:
194,293,41555,1,0,0:0:0:0:
166,300,41617,1,0,0:0:0:0:
144,318,41679,1,0,0:0:0:0:
112,347,41742,1,0,0:0:0:0:
69,349,41804,1,0,0:0:0:0:
28,315,41867,6,0,L|15:134,1,157.500006008148,6|2,1:0|0:0,0:0:0:0:
208,193,42054,2,0,L|194:11,1,157.500006008148,8|2,1:0|0:0,0:0:0:0:
409,281,42241,2,0,L|395:99,1,157.500006008148,0|2,1:0|0:0,0:0:0:0:
221,384,42428,5,8,1:0:0:0:
120,261,42522,2,0,L|106:79,1,157.500006008148,2|0,1:0|0:0,0:0:0:0:
221,384,42708,5,2,1:0:0:0:
307,248,42802,2,0,L|294:90,1,157.500006008148,8|2,1:0|0:0,0:0:0:0:
195,0,42989,2,0,B|173:61|173:61|205:115|205:115|228:57|228:57|196:2,1,236.250009012223,0|0,1:0|0:0,0:0:0:0:
212,256,43176,1,8,1:0:0:0:
368,47,43269,1,2,1:0:0:0:
368,47,43316,1,0,1:0:0:0:
368,47,43363,6,0,B|442:18|442:18|505:67,1,157.500006008148,6|2,1:0|0:0,0:0:0:0:
476,350,43550,2,0,B|402:379|402:379|339:330,1,157.500006008148,8|2,1:0|0:0,0:0:0:0:
358,189,43736,2,0,B|416:195|416:195|422:188|422:188|425:197|425:197|420:204|420:204|416:195|416:195|482:204,1,157.500006008148,0|2,1:0|0:0,0:0:0:0:
340,331,43923,1,8,1:0:0:0:
213,239,44017,6,0,L|216:187,6,39.3750015020371,2|0|0|0|0|0|0,1:0|1:0|1:0|1:0|1:0|1:0|1:0,1:0:0:0:
218,120,44205,1,2,1:0:0:0:
218,100,44251,1,0,1:0:0:0:
219,80,44298,1,8,1:0:0:0:
219,60,44345,1,0,1:0:0:0:
220,41,44391,5,2,1:0:0:0:
100,7,44484,1,0,1:0:0:0:
25,104,44578,1,2,1:0:0:0:
102,202,44671,2,0,B|100:213|108:227|108:227|98:238|93:263|93:263|95:237|85:224,1,105,8|0,1:0|0:0,0:0:0:0:
183,366,44858,6,0,L|340:377,1,157.500006008148,6|2,1:0|0:0,0:0:0:0:
310,212,45045,2,0,L|467:223,1,157.500006008148,8|2,1:0|0:0,0:0:0:0:
220,41,45232,2,0,L|377:52,1,157.500006008148,0|2,1:0|0:0,0:0:0:0:
102,202,45419,5,8,1:0:0:0:
247,289,45512,2,0,L|404:300,1,157.500006008148,2|0,1:0|0:0,0:0:0:0:
102,202,45699,5,2,1:0:0:0:
259,126,45793,2,0,L|416:137,1,157.500006008148,8|2,1:0|0:0,0:0:0:0:
467,223,45979,2,0,L|169:204,1,236.250009012223,0|0,1:0|0:0,0:0:0:0:
0,106,46166,5,8,1:0:0:0:
96,3,46260,1,2,1:0:0:0:
96,3,46307,1,0,1:0:0:0:
96,3,46353,6,0,P|141:16|173:57,3,78.7500030040742,6|0|2|0,1:0|0:0|0:0|0:0,0:0:0:0:
255,50,46540,2,0,P|265:95|246:144,3,78.7500030040742,8|0|2|0,1:0|0:0|0:0|0:0,0:0:0:0:
293,211,46727,2,0,P|258:243|207:251,3,78.7500030040742,0|0|2|0,1:0|0:0|0:0|0:0,0:0:0:0:
172,324,46914,2,0,P|126:310|94:269,1,78.7500030040742,8|0,1:0|0:0,0:0:0:0:
13,275,47008,6,0,P|2:228|21:179,3,78.7500030040742,2|0|0|0,1:0|0:0|0:0|0:0,0:0:0:0:
177,141,47194,1,2,1:0:0:0:
127,212,47287,1,8,1:0:0:0:
89,133,47381,1,2,1:0:0:0:
255,50,47475,5,0,1:0:0:0:
288,43,47537,1,0,1:0:0:0:
319,57,47599,1,0,1:0:0:0:
335,88,47661,1,8,1:0:0:0:
362,150,47724,1,0,1:0:0:0:
427,171,47786,1,0,1:0:0:0:
486,136,47849,6,0,P|498:95|487:53,5,70,2|0|0|0|0|0,1:0|0:0|0:0|0:0|1:0|0:0,0:0:0:0:
417,93,48222,6,0,P|387:62|345:50,1,70
345,131,48347,6,0,P|303:141|272:171,1,70
341,212,48472,2,0,L|332:283,1,70
410,274,48596,2,0,L|401:345,5,70
484,311,48970,2,0,L|475:382,5,70
286,365,49344,5,0,1:0:0:0:
240,349,49406,1,0,1:0:0:0:
219,306,49468,1,0,1:0:0:0:
234,261,49530,1,0,1:0:0:0:
270,204,49593,1,0,1:0:0:0:
254,137,49655,1,0,1:0:0:0:
196,101,49717,5,0,1:0:0:0:
130,117,49780,1,0,1:0:0:0:
95,175,49842,1,0,1:0:0:0:
111,241,49905,1,0,1:0:0:0:
114,288,49967,1,0,1:0:0:0:
83,324,50029,1,0,1:0:0:0:
37,329,50091,1,0,1:0:0:0:
256,192,50138,12,0,50793,0:0:0:0:
389,145,50839,5,6,1:0:0:0:
421,356,50933,1,0,1:0:0:0:
270,204,51026,1,0,1:0:0:0:
481,238,51120,1,0,1:0:0:0:
290,335,51213,5,0,1:0:0:0:
393,123,51307,1,0,1:0:0:0:
429,374,51400,1,0,1:0:0:0:
254,200,51493,1,0,1:0:0:0:
254,200,51540,1,0,1:0:0:0:
254,200,51587,6,0,B|96:184,1,157.500006008148,0|0,1:0|1:0,0:0:0:0:
0,110,51774,1,0,1:0:0:0:
109,285,51867,1,0,1:0:0:0:
109,285,51914,1,0,1:0:0:0:
109,285,51961,5,0,1:0:0:0:
209,110,52054,1,0,1:0:0:0:
209,110,52101,1,0,1:0:0:0:
209,110,52148,2,0,B|199:69|214:31|214:31|176:44|138:32,1,157.500006008148,0|0,1:0|1:0,0:0:0:0:
97,184,52335,5,6,1:0:0:0:
324,157,52428,1,0,1:0:0:0:
85,187,52522,1,0,1:0:0:0:
337,156,52615,1,0,1:0:0:0:
237,377,52708,5,0,1:0:0:0:
234,357,52754,1,0,1:0:0:0:
232,337,52801,1,0,1:0:0:0:
230,318,52848,1,0,1:0:0:0:
228,298,52894,1,0,1:0:0:0:
350,76,52989,1,0,1:0:0:0:
430,304,53082,6,0,P|431:323|425:342,6,39.3750015020371,2|0|0|0|0|0|0,1:0|1:0|1:0|1:0|1:0|1:0|1:0,1:0:0:0:
340,284,53269,1,0,1:0:0:0:
335,296,53362,6,0,P|328:320|333:341,6,39.3750015020371,2|0|0|0|0|0|0,1:0|1:0|1:0|1:0|1:0|1:0|1:0,1:0:0:0:
404,221,53550,2,0,B|479:191|485:123|485:123|419:92|419:8,1,262.5,12|0,1:0|0:0,0:0:0:0:
324,1,53830,6,0,B|319:34|279:63|279:63|309:103|304:138|304:138|309:103|349:73|349:73|319:34|324:0|323:5,1,315.000012016297,4|0,1:0|0:0,0:0:0:0:
233,185,54204,1,8,1:0:0:0:
232,196,54297,2,0,B|225:235|225:235|174:276|102:246,1,157.5
20,171,54484,1,0,0:0:0:0:
24,158,54578,6,0,L|38:48,1,105,2|2,1:0|0:0,0:0:0:0:
154,41,54765,2,0,L|140:151,1,105,2|0,0:0|0:0,0:0:0:0:
105,371,54951,5,8,1:0:0:0:
28,359,55045,1,0,0:0:0:0:
40,280,55138,1,0,0:0:0:0:
117,292,55232,1,2,0:0:0:0:
290,359,55325,6,0,B|371:351|371:351|374:346|374:346|449:339,1,157.500006008148,4|0,1:0|0:0,0:0:0:0:
512,149,55606,1,0,0:0:0:0:
512,136,55699,2,0,P|475:71|479:30,1,105,8|0,1:0|0:0,0:0:0:0:
395,34,55886,2,0,P|357:98|319:115,1,105,2|0,0:0|0:0,0:0:0:0:
298,193,56073,5,0,1:0:0:0:
212,180,56166,1,0,0:0:0:0:
128,169,56260,2,0,L|18:157,1,105
20,54,56447,5,8,1:0:0:0:
106,41,56540,1,0,0:0:0:0:
190,30,56634,2,0,L|300:18,1,105,2|2,1:0|0:0,0:0:0:0:
420,212,56821,5,6,1:0:0:0:
219,188,56914,1,0,1:0:0:0:
304,368,57008,1,0,1:0:0:0:
331,131,57101,1,0,1:0:0:0:
203,285,57194,5,0,1:0:0:0:
418,322,57288,1,0,1:0:0:0:
334,114,57381,1,0,1:0:0:0:
193,298,57475,1,0,1:0:0:0:
193,298,57522,1,0,1:0:0:0:
193,298,57568,6,0,L|31:308,1,157.500006008148,0|0,1:0|1:0,0:0:0:0:
145,73,57755,1,0,1:0:0:0:
318,256,57849,1,0,1:0:0:0:
318,256,57895,1,0,1:0:0:0:
318,256,57942,5,0,1:0:0:0:
81,160,58036,1,0,1:0:0:0:
81,160,58082,1,0,1:0:0:0:
81,160,58129,2,0,B|27:93|27:93|56:22,1,157.500006008148,0|0,1:0|1:0,0:0:0:0:
370,43,58316,5,6,1:0:0:0:
145,73,58409,1,0,1:0:0:0:
385,41,58503,1,0,1:0:0:0:
129,74,58596,1,0,1:0:0:0:
446,112,58690,5,0,1:0:0:0:
448,131,58736,1,0,1:0:0:0:
451,150,58783,1,0,1:0:0:0:
454,170,58830,1,0,1:0:0:0:
457,189,58876,1,0,1:0:0:0:
434,384,58970,1,0,1:0:0:0:
283,272,59064,6,0,P|283:252|291:234,6,39.3750015020371,2|0|0|0|0|0|0,1:0|1:0|1:0|1:0|1:0|1:0|1:0,1:0:0:0:
368,302,59251,1,0,1:0:0:0:
374,291,59344,6,0,P|383:267|380:245,6,39.3750015020371,2|0|0|0|0|0|0,1:0|1:0|1:0|1:0|1:0|1:0|1:0,1:0:0:0:
193,309,59531,2,0,B|165:330|162:364|162:364|125:212,1,210,12|0,1:0|0:0,0:0:0:0:
82,18,59811,6,0,B|115:35|148:33|148:33|160:61|193:86|193:86|173:118|177:154|177:154|145:167|123:199|123:199|92:179|55:183|55:183|45:150|12:129|12:129|31:98|27:61|27:61|60:51|82:18,1,525,4|0,1:0|0:0,0:0:0:0:
103,108,60372,5,4,1:0:0:0:
180,114,60434,5,0,1:0:0:0:
260,121,60496,5,0,1:0:0:0:
341,128,60559,6,0,P|398:102|426:58,1,105,14|0,1:0|0:0,0:0:0:0:
503,101,60746,1,2,0:0:0:0:
496,115,60839,2,0,P|490:177|514:223,1,105
507,327,61027,1,0,1:0:0:0:
507,327,61074,1,0,1:0:0:0:
507,327,61120,1,2,1:0:0:0:
411,371,61213,1,0,0:0:0:0:
322,305,61307,6,0,B|265:309|236:357|236:357|220:303|160:290,1,210,4|2,1:0|0:0,0:0:0:0:
180,114,61587,2,0,B|236:109|265:61|265:61|281:115|341:128,1,210,4|0,1:0|0:0,0:0:0:0:
254,200,61867,5,2,1:0:0:0:
177,206,61929,5,0,1:0:0:0:
97,213,61991,5,0,1:0:0:0:
16,220,62054,6,0,L|5:81,1,105,12|0,1:0|0:0,0:0:0:0:
81,4,62241,2,0,L|92:143,1,105,0|0,1:0|0:0,0:0:0:0:
108,354,62428,6,0,P|94:332|121:351,1,94.499997116089,0|0,1:0|0:0,0:0:0:0:
303,380,62802,6,0,P|363:339|450:328,1,157.500006008148,6|2,1:0|1:0,0:0:0:0:
456,334,62942,1,0,1:0:0:0:
468,341,62989,1,0,1:0:0:0:
273,125,63082,2,0,P|277:197|243:277,1,157.500006008148,2|4,1:0|1:0,0:0:0:0:
236,281,63222,1,0,1:0:0:0:
224,287,63269,1,2,1:0:0:0:
509,227,63362,2,0,P|442:194|390:125,1,157.500006008148,0|4,1:0|1:0,0:0:0:0:
391,117,63502,1,0,1:0:0:0:
393,103,63549,5,0,1:0:0:0:
365,248,63643,1,2,1:0:0:0:
394,89,63736,1,4,1:0:0:0:
363,261,63830,1,0,1:0:0:0:
19,88,64297,6,0,L|43:250,1,157.500006008148,6|2,1:0|1:0,0:0:0:0:
44,256,64437,1,0,1:0:0:0:
45,269,64484,1,0,1:0:0:0:
118,46,64578,2,0,L|142:208,1,157.500006008148,2|4,1:0|1:0,0:0:0:0:
143,214,64718,1,0,1:0:0:0:
145,227,64765,1,2,1:0:0:0:
217,4,64858,2,0,L|242:166,1,157.500006008148,0|4,1:0|1:0,0:0:0:0:
242,172,64998,1,0,1:0:0:0:
244,185,65045,5,0,1:0:0:0:
270,363,65138,1,2,1:0:0:0:
242,172,65232,1,4,1:0:0:0:
273,378,65325,1,0,1:0:0:0:
401,317,65793,5,4,1:0:0:0:
401,317,65839,1,0,1:0:0:0:
401,317,65886,1,2,1:0:0:0:
378,191,65979,1,0,1:0:0:0:
278,273,66073,1,2,1:0:0:0:
415,327,66166,5,0,1:0:0:0:
415,327,66212,1,0,1:0:0:0:
415,327,66259,1,2,1:0:0:0:
382,169,66352,1,0,1:0:0:0:
255,277,66446,1,2,1:0:0:0:
434,244,66540,6,0,L|533:230,4,78.7500030040742,4|0|2|0|0,1:0|1:0|1:0|1:0|1:0,0:0:0:0:
229,282,66821,1,2,1:0:0:0:
421,80,66914,2,0,L|520:66,4,78.7500030040742,0|0|2|0|0,1:0|1:0|1:0|1:0|1:0,0:0:0:0:
196,109,67194,1,2,1:0:0:0:
304,180,67288,6,0,L|403:166,2,78.7500030040742,4|0|2,1:0|1:0|1:0,0:0:0:0:
229,282,67475,2,0,L|243:381,2,78.7500030040742,4|0|2,1:0|1:0|1:0,0:0:0:0:
119,215,67662,2,0,L|20:229,2,78.7500030040742,4|0|2,1:0|1:0|1:0,0:0:0:0:
196,109,67849,2,0,L|182:10,2,78.7500030040742,4|0|2,1:0|1:0|1:0,0:0:0:0:
214,197,68036,1,0,1:0:0:0:
256,192,68082,12,0,68783,0:0:0:0:
447,261,68877,6,0,B|465:247|465:247|472:225|472:225|498:286|450:335,1,157.500006008148
374,336,69064,1,0,0:0:0:0:
342,245,69157,2,0,B|320:236|320:236|298:241|298:241|338:188|404:205,1,157.500006008148
374,336,69344,2,0,B|276:348|276:348|262:377|262:377|145:389,1,236.250009012223,8|0,0:0|0:0,0:0:0:0:
38,267,69531,5,14,1:0:0:0:
4,227,69593,1,0,2:0:0:0:
0,176,69655,1,0,2:0:0:0:
23,131,69717,1,0,2:0:0:0:
70,108,69780,1,0,2:0:0:0:
121,116,69842,1,0,2:0:0:0:
158,152,69904,1,0,2:0:0:0:
160,169,69967,1,0,2:0:0:0:
162,186,70029,1,0,2:0:0:0:
165,204,70091,1,0,2:0:0:0:
167,221,70154,1,0,2:0:0:0:
169,238,70216,1,0,2:0:0:0:
174,256,70279,5,2,1:0:0:0:
211,291,70341,1,0,2:0:0:0:
262,301,70403,1,0,2:0:0:0:
310,282,70465,1,0,2:0:0:0:
340,240,70528,1,0,2:0:0:0:
343,189,70590,1,0,2:0:0:0:
317,144,70652,1,0,2:0:0:0:
313,67,70714,1,0,2:0:0:0:
370,16,70776,1,0,2:0:0:0:
445,26,70838,1,0,2:0:0:0:
485,91,70902,2,0,L|470:183,1,70,0|0,2:0|2:0,2:0:0:0:
438,379,71026,5,8,2:0:0:0:
448,328,71088,1,0,2:0:0:0:
431,279,71150,1,0,2:0:0:0:
390,246,71212,1,0,2:0:0:0:
340,240,71275,1,0,2:0:0:0:
291,260,71337,1,0,2:0:0:0:
261,302,71399,1,0,2:0:0:0:
242,303,71462,1,0,2:0:0:0:
225,305,71524,1,0,2:0:0:0:
207,306,71586,1,2,1:0:0:0:
190,307,71649,1,0,2:0:0:0:
173,309,71711,1,0,2:0:0:0:
155,311,71774,5,8,2:0:0:0:
103,316,71836,1,0,2:0:0:0:
58,290,71898,1,0,2:0:0:0:
37,243,71960,1,0,2:0:0:0:
48,193,72023,1,0,2:0:0:0:
87,158,72085,1,0,2:0:0:0:
138,153,72147,1,2,1:0:0:0:
207,122,72210,1,0,2:0:0:0:
218,47,72272,1,0,2:0:0:0:
161,0,72334,1,0,2:0:0:0:
89,18,72397,2,0,B|81:57|81:57|99:86,1,70,0|0,2:0|2:0,2:0:0:0:
356,98,72522,5,2,1:0:0:0:
405,104,72584,1,0,2:0:0:0:
452,129,72646,1,0,2:0:0:0:
483,170,72708,1,0,2:0:0:0:
497,219,72771,1,0,2:0:0:0:
492,272,72833,1,0,2:0:0:0:
467,317,72895,1,0,2:0:0:0:
452,307,72957,1,0,2:0:0:0:
438,297,73019,1,0,2:0:0:0:
421,291,73081,1,2,1:0:0:0:
403,288,73144,1,0,2:0:0:0:
386,285,73206,1,0,2:0:0:0:
367,288,73269,5,10,1:0:0:0:
359,236,73331,1,0,2:0:0:0:
324,198,73393,1,0,2:0:0:0:
274,188,73455,1,0,2:0:0:0:
227,209,73518,1,0,2:0:0:0:
201,255,73580,1,0,2:0:0:0:
207,306,73642,1,8,2:0:0:0:
167,371,73705,1,0,2:0:0:0:
92,378,73767,1,0,2:0:0:0:
41,322,73829,1,0,2:0:0:0:
57,248,73892,2,0,B|87:227|87:227|88:187,1,70,0|0,2:0|2:0,2:0:0:0:
96,0,74017,5,10,1:0:0:0:
99,51,74079,1,0,2:0:0:0:
129,93,74141,1,0,2:0:0:0:
178,111,74203,1,0,2:0:0:0:
228,100,74266,1,0,2:0:0:0:
264,63,74328,1,0,2:0:0:0:
275,12,74390,1,0,2:0:0:0:
260,21,74453,1,0,2:0:0:0:
247,33,74515,1,0,2:0:0:0:
238,48,74577,1,2,1:0:0:0:
232,64,74640,1,0,2:0:0:0:
229,81,74702,1,0,2:0:0:0:
230,99,74764,5,10,1:0:0:0:
237,151,74827,1,0,2:0:0:0:
269,192,74889,1,0,2:0:0:0:
316,214,74951,1,0,2:0:0:0:
368,213,75014,1,0,2:0:0:0:
414,189,75076,1,0,2:0:0:0:
444,147,75138,1,2,1:0:0:0:
466,74,75200,1,0,2:0:0:0:
415,20,75262,1,0,2:0:0:0:
342,37,75324,1,0,2:0:0:0:
321,109,75388,2,0,L|311:193,1,70,0|0,2:0|2:0,2:0:0:0:
294,379,75512,5,14,1:0:0:0:
255,343,75574,1,0,2:0:0:0:
209,319,75636,1,0,2:0:0:0:
157,310,75698,1,0,2:0:0:0:
105,317,75761,1,0,2:0:0:0:
58,338,75823,1,0,2:0:0:0:
18,373,75886,2,0,L|30:241,1,105,0|0,2:0|2:0,2:0:0:0:
205,32,76073,2,0,L|217:158,1,105,2|0,1:0|2:0,0:0:0:0:
392,230,76260,5,6,1:0:0:0:
438,251,76322,1,0,2:0:0:0:
485,236,76384,1,0,2:0:0:0:
509,190,76446,1,0,2:0:0:0:
493,140,76509,1,0,2:0:0:0:
452,115,76571,1,0,2:0:0:0:
402,127,76634,2,0,L|387:250,1,105,0|0,2:0|2:0,2:0:0:0:
166,384,76821,2,0,L|150:251,1,105,2|0,1:0|2:0,0:0:0:0:
0,104,77008,5,14,1:0:0:0:
47,85,77070,1,0,2:0:0:0:
98,93,77132,1,0,2:0:0:0:
137,128,77194,1,8,2:0:0:0:
180,157,77256,1,0,2:0:0:0:
231,159,77318,1,0,2:0:0:0:
277,133,77381,2,0,B|302:85|302:85|271:45,1,105,0|0,2:0|2:0,2:0:0:0:
54,176,77568,2,0,B|27:225|27:225|59:266,1,105,2|0,1:0|2:0,0:0:0:0:
332,314,77755,6,0,B|391:301|406:369|462:345|462:345|450:299|395:301,1,210,14|0,1:0|0:0,0:0:0:0:
257,367,78036,2,0,L|227:129,1,210,6|0,1:0|0:0,0:0:0:0:
485,51,78316,1,4,1:0:0:0:
361,200,78409,1,4,1:0:0:0:
284,29,78503,6,0,B|209:0|209:0|141:48,1,157.500006008148,6|0,1:0|0:0,0:0:0:0:
29,46,78690,2,0,B|41:125|41:125|111:157,1,157.500006008148,0|0,1:0|0:0,0:0:0:0:
171,259,78877,2,0,B|233:208|233:208|225:131,1,157.500006008148,0|0,1:0|0:0,0:0:0:0:
112,158,79064,1,0,1:0:0:0:
49,349,79157,1,0,1:0:0:0:
259,306,79251,6,0,P|340:333|391:391,1,157.500006008148,6|0,1:0|0:0,0:0:0:0:
495,329,79437,2,0,P|477:244|502:171,1,157.500006008148,0|0,1:0|0:0,0:0:0:0:
471,88,79624,1,0,1:0:0:0:
428,7,79717,1,0,1:0:0:0:
334,22,79811,1,0,1:0:0:0:
321,115,79905,1,0,1:0:0:0:
407,158,79998,6,0,L|416:241,1,78.7500030040742,6|0,1:0|0:0,0:0:0:0:
333,198,80092,2,0,L|342:281,1,78.7500030040742,0|0,1:0|0:0,0:0:0:0:
259,238,80185,2,0,L|268:321,1,78.7500030040742,0|0,1:0|0:0,0:0:0:0:
185,278,80279,2,0,L|194:361,1,78.7500030040742,0|0,1:0|0:0,0:0:0:0:
110,317,80372,6,0,P|71:328|27:311,1,78.7500030040742,0|0,1:0|0:0,0:0:0:0:
37,241,80465,2,0,P|7:213|0:166,1,78.7500030040742,0|0,1:0|0:0,0:0:0:0:
66,139,80559,2,0,P|75:99|111:69,1,78.7500030040742,0|0,1:0|0:0,0:0:0:0:
168,113,80652,2,0,P|206:101|250:118,1,78.7500030040742,0|0,1:0|0:0,0:0:0:0:
321,115,80746,5,6,1:0:0:0:
340,111,80792,1,0,1:0:0:0:
357,101,80839,1,0,1:0:0:0:
369,86,80886,1,0,1:0:0:0:
376,67,80932,1,0,1:0:0:0:
376,48,80979,1,0,1:0:0:0:
370,29,81026,1,0,1:0:0:0:
358,14,81073,1,0,1:0:0:0:
341,2,81120,6,0,L|262:13,7,52.5,0|0|0|0|0|0|0|0,1:0|1:0|1:0|1:0|1:0|1:0|1:0|1:0,0:0:0:0:
209,18,81493,1,4,0:0:0:0:
336,36,84484,6,0,P|380:152|302:250,1,262.5,6|0,1:0|0:0,0:0:0:0:
178,230,85045,5,0,1:0:0:0:
178,230,85107,5,0,1:0:0:0:
178,230,85170,5,0,1:0:0:0:
178,230,85232,6,0,P|133:113|211:15,1,262.5,6|0,1:0|0:0,0:0:0:0:
411,113,85793,5,0,1:0:0:0:
411,113,85855,5,0,1:0:0:0:
411,113,85917,5,0,1:0:0:0:
411,113,85979,6,0,B|436:169|487:177|487:177|436:169|389:204,1,210,6|0,1:0|0:0,0:0:0:0:
104,152,86260,6,0,B|78:95|27:88|27:88|78:95|125:60,1,210,6|0,1:0|0:0,0:0:0:0:
274,23,86540,6,0,L|239:257,1,236.250009012223,6|0,1:0|0:0,0:0:0:0:
222,373,86727,6,0,P|227:334|219:372,1,105,4|0,1:0|0:0,0:0:0:0:
449,367,87288,5,0,0:0:0:0:
449,367,87335,1,0,0:0:0:0:
449,367,87381,1,0,0:0:0:0:
449,367,87428,1,0,0:0:0:0:
449,367,87475,6,0,P|494:283|453:204,1,157.500006008148,4|2,1:0|0:0,0:0:0:0:
200,255,87662,1,8,1:0:0:0:
396,284,87755,1,2,0:0:0:0:
317,96,87849,2,0,L|294:300,1,157.500006008148,0|2,1:0|0:0,0:0:0:0:
111,355,88036,2,0,L|88:151,1,157.500006008148,8|2,1:0|0:0,0:0:0:0:
193,7,88222,6,0,B|225:82|225:82|171:152,1,157.500006008148,0|2,1:0|0:0,0:0:0:0:
0,250,88409,1,8,1:0:0:0:
93,90,88503,1,2,0:0:0:0:
200,255,88596,2,0,L|377:276,1,157.500006008148,0|2,1:0|0:0,0:0:0:0:
473,77,88783,2,0,L|296:98,1,157.500006008148,8|2,1:0|0:0,0:0:0:0:
426,373,88970,6,0,B|473:340|473:340|488:192,1,157.500006008148,0|2,1:0|0:0,0:0:0:0:
317,96,89157,1,8,1:0:0:0:
200,255,89251,1,2,0:0:0:0:
396,284,89344,1,0,1:0:0:0:
318,79,89437,1,2,0:0:0:0:
181,262,89531,5,8,1:0:0:0:
184,296,89593,5,0,0:0:0:0:
187,331,89655,5,0,0:0:0:0:
191,366,89718,6,0,P|298:360|355:378,1,157.500006008148,0|2,1:0|0:0,0:0:0:0:
97,215,89905,2,0,P|48:310|4:351,1,157.500006008148,8|2,1:0|0:0,0:0:0:0:
274,209,90092,2,0,P|215:119|202:60,1,157.500006008148,0|2,1:0|0:0,0:0:0:0:
370,20,90279,1,8,1:0:0:0:
265,11,90372,1,2,1:0:0:0:
159,1,90465,6,0,B|91:15|91:15|57:44|57:44|-24:62,1,157.500006008148,0|2,1:0|0:0,0:0:0:0:
181,262,90652,1,8,1:0:0:0:
190,77,90746,1,2,0:0:0:0:
360,289,90839,2,0,B|435:320|435:320|492:268,1,157.500006008148,0|2,1:0|0:0,0:0:0:0:
456,83,91026,2,0,B|380:51|380:51|323:103,1,157.500006008148,8|2,1:0|0:0,0:0:0:0:
252,351,91213,6,0,B|262:368|262:368|110:353,1,157.500006008148,0|2,1:0|0:0,0:0:0:0:
1,194,91400,1,8,1:0:0:0:
205,174,91493,1,2,0:0:0:0:
82,20,91587,2,0,L|103:197,1,157.500006008148,0|2,1:0|0:0,0:0:0:0:
278,262,91774,2,0,L|299:85,1,157.500006008148,8|2,1:0|0:0,0:0:0:0:
508,250,91961,6,0,P|422:295|339:258,1,157.500006008148,0|2,1:0|0:0,0:0:0:0:
403,1,92148,1,8,1:0:0:0:
422,193,92241,1,2,0:0:0:0:
315,103,92335,1,0,1:0:0:0:
506,85,92428,1,2,0:0:0:0:
296,105,92522,5,8,1:0:0:0:
262,108,92584,5,0,0:0:0:0:
227,111,92646,5,0,0:0:0:0:
192,115,92708,6,0,L|173:281,1,157.500006008148,0|2,1:0|0:0,0:0:0:0:
209,369,92895,2,0,B|237:377|237:377|262:361,3,52.5,8|0|2|0,1:0|1:0|1:0|1:0,0:0:0:0:
269,353,93083,5,0,1:0:0:0:
355,297,93176,1,2,1:0:0:0:
329,198,93269,1,8,1:0:0:0:
227,192,93363,1,2,1:0:0:0:
189,288,93456,6,0,B|121:301|100:362|100:362|82:304|11:287,1,236.250009012223,4|0,1:0|0:0,0:0:0:0:
3,284,93643,1,8,1:0:0:0:
115,42,93736,6,0,B|166:88|226:69|226:69|191:118|219:186,1,236.250009012223,6|0,1:0|0:0,0:0:0:0:
227,192,93923,1,2,1:0:0:0:
413,377,94017,1,12,1:0:0:0:
492,148,94110,1,2,1:0:0:0:
492,148,94157,1,0,1:0:0:0:
492,148,94204,6,0,P|405:151|342:293,1,236.250009012223,4|0,1:0|0:0,0:0:0:0:
247,357,94391,1,8,1:0:0:0:
247,357,94437,1,0,1:0:0:0:
247,357,94484,6,0,L|274:55,1,236.250009012223,6|0,1:0|0:0,0:0:0:0:
210,55,94671,1,2,1:0:0:0:
210,55,94718,1,0,1:0:0:0:
210,55,94765,2,0,B|278:19|278:19|345:67,1,157.500006008148,12|2,1:0|1:0,0:0:0:0:
180,156,94951,5,4,1:0:0:0:
78,174,95045,1,2,1:0:0:0:
29,84,95139,1,8,1:0:0:0:
99,9,95232,2,0,L|150:-4,8,39.3750015020371,2|0|0|0|0|0|0|0|2,1:0|0:0|1:0|0:0|1:0|0:0|1:0|0:0|1:0,0:0:0:0:
143,239,95512,1,8,1:0:0:0:
114,95,95606,1,2,1:0:0:0:
160,327,95699,6,0,B|276:378|276:378|373:288,1,236.250009012223,6|0,1:0|0:0,0:0:0:0:
367,292,95886,1,8,1:0:0:0:
494,121,95979,6,0,L|460:354,1,236.250009012223,6|0,1:0|0:0,0:0:0:0:
456,374,96166,1,2,1:0:0:0:
258,239,96260,2,0,B|246:155|246:155|249:148|249:148|238:75,1,157.500006008148,12|2,1:0|0:0,0:0:0:0:
327,3,96447,5,4,1:0:0:0:
398,76,96540,1,2,1:0:0:0:
352,167,96634,1,8,1:0:0:0:
249,148,96727,1,2,1:0:0:0:
235,46,96821,5,0,1:0:0:0:
132,27,96914,1,2,1:0:0:0:
86,118,97008,1,8,1:0:0:0:
157,191,97101,1,2,1:0:0:0:
111,282,97194,5,6,1:0:0:0:
111,282,97241,1,0,1:0:0:0:
111,282,97288,1,2,1:0:0:0:
10,266,97381,2,0,B|-8:146|-8:146|18:181,1,157.500006008148,8|2,1:0|1:0,0:0:0:0:
196,384,97568,2,0,P|254:348|363:336,1,157.500006008148,0|2,1:0|1:0,0:0:0:0:
364,248,97755,2,0,P|303:215|239:126,1,157.500006008148,8|2,1:0|1:0,0:0:0:0:
307,92,97942,6,0,L|318:6,5,52.5,6|0|2|0|8|0,1:0|1:0|1:0|1:0|1:0|0:0,0:0:0:0:
401,55,98222,2,0,L|410:-24,5,52.5,6|0|0|0|10|0,1:0|1:0|1:0|1:0|1:0|0:0,0:0:0:0:
494,10,98503,5,14,1:0:0:0:
481,114,98596,1,2,1:0:0:0:
468,218,98690,5,12,1:0:0:0:
463,252,98752,5,0,1:0:0:0:
459,287,98814,5,0,1:0:0:0:
455,322,98876,5,0,1:0:0:0:
360,384,98970,6,0,P|282:322|143:334,1,236.250009012223,12|0,1:0|0:0,0:0:0:0:
194,237,99157,6,0,P|149:244|26:348,1,196.875007510186,14|0,1:0|0:0,0:0:0:0:
30,353,99437,6,0,L|51:190,1,157.500006008148,4|2,1:0|0:0,0:0:0:0:
226,0,99624,1,8,1:0:0:0:
131,164,99718,1,2,0:0:0:0:
36,11,99811,1,0,1:0:0:0:
25,6,99905,1,2,1:0:0:0:
230,106,99998,2,0,P|311:89|399:130,1,157.500006008148,8|2,1:0|0:0,0:0:0:0:
422,225,100185,6,0,L|442:400,1,157.500006008148,0|2,1:0|0:0,0:0:0:0:
328,228,100372,1,8,1:0:0:0:
512,208,100466,1,2,0:0:0:0:
270,340,100559,2,0,P|214:278|206:181,1,157.500006008148,0|2,1:0|0:0,0:0:0:0:
220,12,100746,1,8,1:0:0:0:
226,0,100839,1,2,1:0:0:0:
48,95,100933,6,0,L|28:270,1,157.500006008148,0|2,1:0|0:0,0:0:0:0:
165,384,101120,1,8,1:0:0:0:
201,206,101213,1,2,1:0:0:0:
53,371,101307,1,0,1:0:0:0:
270,341,101400,1,2,1:0:0:0:
270,341,101447,1,0,1:0:0:0:
270,341,101493,2,2,P|360:345|437:382,1,157.500006008148,8|2,1:0|0:0,0:0:0:0:
512,286,101680,6,0,L|492:111,1,157.500006008148,0|2,1:0|0:0,0:0:0:0:
479,7,101867,1,8,1:0:0:0:
337,224,101961,2,0,P|371:264|343:201,1,236.250009012223,2|0,1:0|0:0,0:0:0:0:
326,236,102148,1,2,1:0:0:0:
224,212,102241,1,8,1:0:0:0:
121,238,102335,1,2,1:0:0:0:
53,318,102428,6,2,B|14:274|14:274|41:145,1,157.500006008148,0|2,1:0|0:0,0:0:0:0:
74,0,102615,1,8,1:0:0:0:
157,164,102708,1,2,0:0:0:0:
271,19,102802,2,0,B|351:-2|351:-2|421:35,1,157.500006008148,0|2,1:0|0:0,0:0:0:0:
499,196,102989,1,8,1:0:0:0:
512,199,103082,1,2,1:0:0:0:
326,236,103176,6,0,L|343:68,1,157.500006008148,0|2,1:0|0:0,0:0:0:0:
157,164,103363,2,0,L|174:332,1,157.500006008148,8|2,1:0|0:0,0:0:0:0:
401,384,103550,1,0,1:0:0:0:
411,279,103643,1,2,1:0:0:0:
421,174,103736,1,8,1:0:0:0:
431,70,103830,1,2,1:0:0:0:
294,12,103923,6,0,B|271:78|212:98|212:98|275:102|314:155,1,236.250009012223,0|0,1:0|0:0,0:0:0:0:
315,163,104110,1,8,1:0:0:0:
203,378,104204,2,0,B|19:350|19:350|69:342|85:325,1,236.250009012223,2|0,1:0|0:0,0:0:0:0:
78,325,104391,1,0,1:0:0:0:
137,167,104484,5,8,1:0:0:0:
112,140,104546,1,0,1:0:0:0:
80,129,104608,1,0,1:0:0:0:
46,131,104670,5,0,1:0:0:0:
37,185,104733,1,0,1:0:0:0:
62,229,104795,1,0,1:0:0:0:
107,255,104857,1,8,1:0:0:0:
160,251,104920,1,0,1:0:0:0:
201,222,104982,1,0,1:0:0:0:
222,174,105044,5,0,1:0:0:0:
210,8,105138,1,2,1:0:0:0:
315,163,105232,2,0,B|291:343|291:343|282:304|250:290,1,236.250009012223,8|0,1:0|0:0,0:0:0:0:
249,296,105419,5,4,1:0:0:0:
376,362,105512,2,0,P|480:356|486:228,1,236.250009012223,2|0,1:0|0:0,0:0:0:0:
424,179,105699,2,0,B|384:93|409:30|409:30|499:16|499:16|443:41|445:87,1,315.000012016297,6|2,1:0|1:0,0:0:0:0:
315,163,105979,5,12,1:0:0:0:
152,107,106073,1,2,1:0:0:0:
332,168,106166,5,4,1:0:0:0:
48,250,106260,2,0,B|1:293|34:368|34:368|45:300|141:259,1,236.250009012223,2|0,1:0|0:0,0:0:0:0:
220,276,106446,2,0,B|310:280|339:362|339:362|377:287|471:294,1,315.000012016297,6|2,1:0|1:0,0:0:0:0:
394,37,106727,2,0,L|389:129,1,78.7500030040742,12|0,1:0|0:0,0:0:0:0:
306,157,106821,1,2,1:0:0:0:
306,157,106867,1,0,1:0:0:0:
306,157,106914,5,4,1:0:0:0:
158,172,107008,1,2,1:0:0:0:
146,28,107101,1,8,1:0:0:0:
289,14,107195,1,2,1:0:0:0:
319,167,107288,5,0,1:0:0:0:
147,185,107382,1,2,1:0:0:0:
132,17,107475,1,8,1:0:0:0:
300,0,107569,1,2,1:0:0:0:
255,260,107662,6,0,L|205:268,8,39.3750015020371,4|0|0|0|2|0|0|0|8,1:0|0:0|1:0|0:0|1:0|0:0|0:0|0:0|1:0,0:0:0:0:
319,167,107942,2,0,L|357:173,8,39.3750015020371,6|0|0|0|0|0|0|0|2,1:0|0:0|1:0|0:0|1:0|0:0|0:0|0:0|1:0,0:0:0:0:
459,196,108222,2,0,B|534:120|462:31|462:31|477:70|471:111,1,236.250009012223,12|0,1:0|1:0,1:0:0:0:
464,102,108409,5,4,1:0:0:0:
438,289,108503,1,2,1:0:0:0:
343,67,108596,5,8,1:0:0:0:
320,273,108690,1,2,1:0:0:0:
234,41,108783,5,0,1:0:0:0:
202,257,108877,1,2,1:0:0:0:
120,10,108970,5,8,1:0:0:0:
84,241,109064,1,2,1:0:0:0:
9,67,109157,6,0,P|36:49|60:47,10,39.3750015020371,4|0|0|0|2|0|0|0|8|0|0,1:0|0:0|1:0|0:0|1:0|0:0|1:0|0:0|1:0|0:0|0:0,0:0:0:0:
117,92,109437,2,0,P|118:122|109:146,10,39.3750015020371,2|0|0|0|0|0|0|0|2|0|0,1:0|0:0|1:0|0:0|1:0|0:0|1:0|0:0|1:0|0:0|0:0,0:0:0:0:
40,171,109718,2,0,P|13:156|-2:137,4,39.3750015020371,8|0|0|0|2,1:0|0:0|1:0|0:0|1:0,0:0:0:0:
202,143,109905,5,4,1:0:0:0:
231,147,109951,1,0,1:0:0:0:
260,152,109998,1,2,1:0:0:0:
289,157,110045,1,0,1:0:0:0:
318,162,110091,1,0,1:0:0:0:
347,167,110138,1,0,1:0:0:0:
376,172,110185,1,2,1:0:0:0:
405,177,110232,1,0,1:0:0:0:
434,182,110279,2,0,L|515:195,7,52.5,0|0|2|0|0|0|2|0,1:0|1:0|1:0|1:0|1:0|1:0|1:0|1:0,0:0:0:0:
507,273,110652,6,0,B|468:288|446:323|446:323|442:283|406:253,1,157.5,0|0,1:0|0:0,0:0:0:0:
397,242,111400,5,4,1:0:0:0:
144,280,111493,1,0,1:0:0:0:
326,100,111587,1,0,1:0:0:0:
284,352,111680,1,0,1:0:0:0:
169,123,111774,5,0,1:0:0:0:
411,246,111867,1,0,1:0:0:0:
123,289,111960,1,0,1:0:0:0:
332,84,112054,1,0,1:0:0:0:
332,84,112101,1,0,1:0:0:0:
332,84,112148,6,0,L|516:60,1,157.500006008148,0|0,1:0|1:0,0:0:0:0:
325,192,112335,1,0,1:0:0:0:
284,0,112428,1,0,1:0:0:0:
284,0,112475,1,0,1:0:0:0:
284,0,112522,5,0,1:0:0:0:
192,218,112615,1,0,1:0:0:0:
192,218,112662,1,0,1:0:0:0:
192,218,112708,2,0,L|8:194,1,157.500006008148,0|0,1:0|1:0,0:0:0:0:
4,96,112895,5,6,1:0:0:0:
36,312,112989,1,0,1:0:0:0:
0,78,113082,1,0,1:0:0:0:
38,329,113176,1,0,1:0:0:0:
253,159,113269,5,0,1:0:0:0:
249,139,113315,1,0,1:0:0:0:
246,120,113362,1,0,1:0:0:0:
243,100,113409,1,0,1:0:0:0:
239,81,113455,1,0,1:0:0:0:
171,23,113550,1,0,1:0:0:0:
98,80,113643,6,0,L|93:143,8,39.3750015020371,6|0|0|0|0|0|0|0|0,1:0|1:0|1:0|1:0|1:0|1:0|1:0|0:0|1:0,1:0:0:0:
165,170,113923,2,0,L|160:233,8,39.3750015020371,6|0|0|0|0|0|0|0|0,1:0|1:0|1:0|1:0|1:0|1:0|1:0|0:0|1:0,1:0:0:0:
98,271,114204,6,0,P|145:308|152:390,1,118.125004506111,10|0,0:0|0:0,0:0:0:0:
303,372,114391,5,4,1:0:0:0:
353,383,114453,1,0,1:0:0:0:
404,372,114515,1,0,1:0:0:0:
445,340,114578,1,0,1:0:0:0:
468,293,114640,1,0,1:0:0:0:
468,241,114702,1,0,1:0:0:0:
446,194,114765,1,0,1:0:0:0:
405,162,114827,1,0,1:0:0:0:
354,150,114889,1,0,1:0:0:0:
304,161,114951,1,0,1:0:0:0:
263,194,115014,1,0,1:0:0:0:
240,240,115076,1,0,1:0:0:0:
240,292,115138,5,6,1:0:0:0:
288,236,115201,1,0,1:0:0:0:
311,166,115263,1,0,1:0:0:0:
299,93,115325,1,0,1:0:0:0:
256,34,115388,1,0,1:0:0:0:
190,1,115450,1,0,1:0:0:0:
116,2,115512,1,0,1:0:0:0:
51,36,115574,1,0,1:0:0:0:
9,96,115637,1,0,1:0:0:0:
0,169,115699,1,0,1:0:0:0:
23,239,115761,1,0,1:0:0:0:
76,289,115823,1,0,1:0:0:0:
147,310,115886,6,0,L|154:230,7,78.7500030040742,4|0|0|0|0|0|0|0,1:0|1:0|1:0|1:0|1:0|1:0|1:0|1:0,0:0:0:0:
160,157,116260,2,0,L|167:77,7,78.7500030040742,4|0|0|0|0|0|0|0,1:0|1:0|1:0|1:0|1:0|1:0|1:0|1:0,0:0:0:0:
175,2,116634,5,14,1:0:0:0:
283,200,116727,1,14,1:0:0:0:
134,383,116821,1,14,1:0:0:0:
26,185,116914,1,10,1:0:0:0:
421,85,117101,6,0,B|470:69|495:14|495:14|456:306,1,393.750015020371,14|0,1:0|0:0,0:0:0:0:
453,317,117381,1,4,1:0:0:0:
256,192,117428,12,0,120372,0:0:0:0:
