osu file format v14

[General]
AudioFilename: audio.ogg
AudioLeadIn: 0
PreviewTime: 87257
Countdown: 0
SampleSet: Drum
StackLeniency: 0.2
Mode: 0
LetterboxInBreaks: 0
WidescreenStoryboard: 1

[Editor]
Bookmarks: 1509,7491,13846,25435,35902,47865,62818,69547,81509,86837,87491,110668,120388
DistanceSpacing: 0.8
BeatDivisor: 4
GridSize: 8
TimelineZoom: 5.399997

[Metadata]
Title:AureoLe ~for Triumph~
TitleUnicode:AμreoLe ~for Triumph~
Artist:Ashrount
ArtistUnicode:Ashrount
Creator:R3m
Version:Nero's HYPER
Source:SOUND VOLTEX EXCEED GEAR
Tags:SDVX EG 10th KAC オリジナル楽曲コンテスト konami bemani arcade championship winner original song contest HEXA DIVER FLOOR Aim Cup speedcore electronic instrumental video game アウグスト=ヴェルテックス August Vertex すえ×アユタ Nymphe Altai Twiggykun Ilay SaltyLucario Cynplytholowazy LeCandy NeroXx bluirre honne Vermasium symphonic saltking salty
BeatmapID:3580340
BeatmapSetID:1712395

[Difficulty]
HPDrainRate:4
CircleSize:3.5
OverallDifficulty:8
ApproachRate:9.1
SliderMultiplier:1.2
SliderTickRate:1

[Events]
//Background and Video events
0,0,"bg1.jpg",0,0
//Break Periods
2,69731,74928
//Storyboard Layer 0 (Background)
//Storyboard Layer 1 (Fail)
//Storyboard Layer 2 (Pass)
//Storyboard Layer 3 (Foreground)
//Storyboard Layer 4 (Overlay)
//Storyboard Sound Samples

[TimingPoints]
1494,186.915887850467,4,3,27,70,1,0
2054,-133.333333333333,4,3,1,70,0,0
2989,-133.333333333333,4,3,27,70,0,0
3830,-133.333333333333,4,3,1,70,0,0
3923,-133.333333333333,4,3,27,70,0,0
7101,-133.333333333333,4,3,27,40,0,0
7475,-100,4,3,1,70,0,0
7662,-100,4,3,27,70,0,0
13456,-400,4,3,27,70,0,0
13830,-100,4,3,1,70,0,0
16447,-100,4,3,27,70,0,0
18877,-100,4,3,10,70,0,0
19064,-100,4,3,1,70,0,0
19157,-100,4,3,10,70,0,0
19344,-100,4,3,1,70,0,0
19437,-100,4,3,27,70,0,0
20185,-100,4,3,1,70,0,0
20746,-100,4,3,27,70,0,0
25045,-200,4,3,1,70,0,0
25419,-400,4,3,1,70,0,0
27662,-100,4,3,1,30,0,0
28409,-133.333333333333,4,3,1,70,0,0
28596,-133.333333333333,4,3,1,70,0,0
29905,-133.333333333333,4,3,27,70,0,0
30652,-133.333333333333,4,3,1,70,0,0
31400,-133.333333333333,4,3,27,70,0,0
32895,-66.6666666666667,4,3,27,70,0,0
33082,-133.333333333333,4,3,27,70,0,0
34391,-100,4,3,27,70,0,0
34578,-100,4,3,1,70,0,0
34671,-100,4,3,27,70,0,0
34858,-100,4,3,27,70,0,0
35886,-100,4,3,27,70,0,0
38503,-100,4,3,1,70,0,0
38877,-100,4,3,27,70,0,0
41493,-100,4,3,27,50,0,0
41680,-100,4,3,27,60,0,0
41867,-100,4,3,27,70,0,0
47942,-100,4,3,27,44,0,0
49344,-80,4,3,27,70,0,0
50839,-100,4,3,27,70,0,0
53550,-100,4,3,27,70,0,0
53830,-133.333333333333,4,3,27,70,0,0
53970,-133.333333333333,4,3,27,5,0,0
54017,-133.333333333333,4,3,27,70,0,0
54110,-133.333333333333,4,3,27,35,0,0
54204,-200,4,3,1,70,0,0
54484,-200,4,3,10,70,0,0
54578,-200,4,3,27,70,0,0
54951,-133.333333333333,4,3,1,70,0,0
55092,-133.333333333333,4,3,1,5,0,0
55138,-133.333333333333,4,3,10,70,0,0
55232,-133.333333333333,4,3,1,70,0,0
55325,-100,4,3,27,70,0,0
55606,-100,4,3,10,70,0,0
55699,-100,4,3,1,70,0,0
55886,-100,4,3,1,70,0,0
56166,-100,4,3,10,70,0,0
56400,-100,4,3,1,5,0,0
56447,-100,4,3,1,70,0,0
56821,-100,4,3,27,70,0,0
58877,-100,4,3,27,70,0,0
59531,-100,4,3,27,50,0,0
59811,-200,4,3,27,70,0,0
59998,-200,4,3,50,70,0,0
60092,-200,4,3,1,70,0,0
60372,-133.333333333333,4,3,27,70,0,0
60559,-133.333333333333,4,3,27,70,0,0
60746,-133.333333333333,4,3,50,70,0,0
60933,-133.333333333333,4,3,27,70,0,0
61307,-200,4,3,27,70,0,0
61493,-200,4,3,10,70,0,0
61587,-200,4,3,27,70,0,0
61774,-200,4,3,10,70,0,0
61867,-100,4,3,1,70,0,0
62054,-100,4,3,27,70,0,0
62381,-100,4,3,1,5,0,0
62428,-400,4,3,1,40,0,0
62802,-100,4,3,27,70,0,0
63830,-200,4,3,27,50,0,0
64204,-200,4,3,27,60,0,0
64297,-100,4,3,27,70,0,0
65325,-133.333333333333,4,3,27,50,0,0
65699,-133.333333333333,4,3,27,60,0,0
65793,-100,4,3,27,70,0,0
68036,-100,4,3,27,45,0,0
69344,-100,4,3,27,70,0,0
69531,-100,4,3,27,70,0,0
75512,-100,4,3,3,70,0,0
76073,-100,4,3,4,70,0,0
76260,-100,4,3,2,70,0,0
76821,-100,4,3,4,70,0,0
77008,-100,4,3,2,70,0,0
77568,-100,4,3,4,70,0,0
77755,-100,4,3,27,70,0,0
78503,-100,4,3,27,70,0,0
80746,-25,4,3,27,70,0,0
81493,-100,4,3,1,70,0,0
82054,-100,4,3,1,40,0,0
82989,-100,4,3,1,50,0,0
83736,-100,4,3,1,60,0,0
84484,-100,4,3,27,70,0,0
86727,-400,4,3,27,70,0,0
87241,-400,4,3,27,5,0,0
87288,-100,4,3,27,45,0,0
87381,-100,4,3,27,60,0,0
87475,-100,4,3,1,70,0,1
87662,-100,4,3,27,70,0,1
88970,-90.9090909090909,4,3,27,70,0,1
90465,-100,4,3,27,70,0,1
91961,-90.9090909090909,4,3,27,70,0,1
92849,-90.9090909090909,4,3,27,5,0,1
92895,-90.9090909090909,4,3,27,70,0,1
93456,-83.3333333333333,4,3,27,70,0,1
94157,-83.3333333333333,4,3,27,5,0,1
94204,-83.3333333333333,4,3,27,70,0,1
94718,-83.3333333333333,4,3,27,5,0,1
94765,-83.3333333333333,4,3,27,70,0,1
98129,-83.3333333333333,4,3,27,70,0,1
98643,-83.3333333333333,4,3,27,5,0,1
98690,-83.3333333333333,4,3,27,70,0,1
98877,-83.3333333333333,4,3,27,70,0,1
99437,-100,4,3,1,70,0,1
99624,-100,4,3,27,70,0,1
100933,-90.9090909090909,4,3,27,70,0,1
101493,-90.9090909090909,4,3,27,70,0,1
102428,-100,4,3,27,70,0,1
103923,-90.9090909090909,4,3,27,70,0,1
105419,-83.3333333333333,4,3,27,70,0,1
106120,-83.3333333333333,4,3,27,5,0,1
106166,-83.3333333333333,4,3,27,70,0,1
106867,-83.3333333333333,4,3,27,5,0,1
106914,-83.3333333333333,4,3,27,70,0,1
108409,-83.3333333333333,4,3,27,70,0,1
109344,-83.3333333333333,4,3,27,70,0,1
109905,-83.3333333333333,4,3,27,70,0,1
110652,-100,4,3,27,70,0,0
111400,-100,4,3,1,70,0,0
111493,-100,4,3,27,70,0,0
113456,-100,4,3,27,70,0,0
114110,-100,4,3,27,70,0,0
114391,-90.9090909090909,4,3,27,70,0,0
115886,-83.3333333333333,4,3,27,70,0,0
117054,-83.3333333333333,4,3,27,5,0,0
117101,-83.3333333333333,4,3,27,70,0,0
117381,-400,4,3,1,70,0,0
120372,-400,4,3,1,5,0,0

[Colours]
Combo1 : 253,143,91
Combo2 : 135,142,228
Combo3 : 243,143,151
Combo4 : 225,175,100
Combo5 : 238,83,83

[HitObjects]
0,152,1493,5,6,1:0:0:0:
0,152,1680,2,0,P|22:97|136:102,1,180,6|0,1:0|0:0,0:0:0:0:
171,53,2054,2,0,L|168:8,2,45.0000017166138
226,4,2335,2,0,L|229:49,2,45.0000017166138
353,173,2802,2,0,L|351:195,2,22.5000008583069,0|0|0,1:0|1:0|1:0,0:0:0:0:
394,131,2989,5,6,1:0:0:0:
394,131,3176,2,0,L|382:355,1,225.000008583069,6|0,1:0|1:0,0:0:0:0:
464,272,3830,2,0,L|465:249,2,22.5000008583069,0|0|4,1:0|1:0|1:0,0:0:0:0:
470,155,4110,1,4,1:0:0:0:
387,237,4297,2,0,L|388:214,2,22.5000008583069,2|0|0,1:0|1:0|1:0,0:0:0:0:
345,278,4484,5,6,1:0:0:0:
345,278,4671,2,0,P|323:223|209:228,1,180,6|0,1:0|0:0,0:0:0:0:
132,304,5232,1,0,0:0:0:0:
49,221,5419,6,0,L|26:220,2,22.5000008583069,4|0|0,1:0|1:0|1:0,0:0:0:0:
90,179,5606,2,0,B|110:139|110:139|90:89,1,90.0000034332277,0|0,1:0|1:0,0:0:0:0:
175,14,5979,6,0,B|208:97,1,90.0000034332277,6|0,1:0|1:0,0:0:0:0:
229,151,6260,2,0,B|188:231,1,90.0000034332277,6|0,1:0|1:0,0:0:0:0:
229,272,6540,1,6,1:0:0:0:
146,354,6727,5,0,1:0:0:0:
146,354,6821,2,0,B|183:346|201:310|201:310|225:347|269:343,1,135.000005149841,6|0,1:0|0:0,0:0:0:0:
505,88,7475,6,0,L|498:207,1,120,4|0,1:0|1:0,0:0:0:0:
410,184,7755,1,0,1:0:0:0:
410,184,7849,2,0,L|413:124,2,60,6|0|0,1:0|1:0|1:0,0:0:0:0:
433,271,8129,6,0,B|397:227|397:227|279:262,2,180,6|6|6,1:0|1:0|1:0,0:0:0:0:
304,142,8877,1,8,0:0:0:0:
304,142,8970,6,0,B|188:176,1,120,6|0,1:0|1:0,0:0:0:0:
124,111,9251,1,0,1:0:0:0:
124,111,9344,2,0,B|181:94,2,60,6|0|0,1:0|1:0|1:0,0:0:0:0:
102,199,9624,6,0,B|76:269|76:269|108:301,1,120,6|8,1:0|1:0,0:0:0:0:
173,365,9905,2,0,B|246:351|246:351|258:308,1,120,14|8,1:0|1:0,0:0:0:0:
281,220,10185,2,0,B|232:163|232:163|189:174,1,120,14|8,1:0|1:0,0:0:0:0:
38,136,10465,6,0,L|35:96,11,40,14|0|0|0|0|0|0|0|0|0|0|0,1:0|1:0|1:0|1:0|1:0|1:0|1:0|1:0|1:0|1:0|1:0|1:0,0:0:0:0:
77,53,11213,6,0,B|93:61|93:61|107:53,7,30,6|0|0|0|0|0|0|0,1:0|1:0|1:0|1:0|1:0|1:0|1:0|1:0,0:0:0:0:
135,22,11587,2,0,B|151:14|151:14|165:22,7,30,6|0|0|0|0|0|0|0,1:0|1:0|1:0|1:0|1:0|1:0|1:0|1:0,1:0:0:0:
193,52,11961,5,0,1:0:0:0:
193,52,12708,5,6,1:0:0:0:
447,306,13082,1,6,1:0:0:0:
447,306,13456,2,0,B|439:270|439:270|447:261,1,45,4|0,1:0|0:0,0:0:0:0:
478,229,13830,6,0,B|464:170,1,60,4|0,1:0|1:0,0:0:0:0:
400,106,14017,1,0,1:0:0:0:
400,106,14110,1,0,1:0:0:0:
400,106,14204,2,0,P|452:79|513:94,1,120,0|0,1:0|1:0,0:0:0:0:
381,218,14578,1,0,1:0:0:0:
206,169,14765,1,0,1:0:0:0:
206,169,14858,1,0,1:0:0:0:
206,169,14951,1,0,1:0:0:0:
336,41,15138,6,0,L|276:37,1,60,0|0,1:0|0:0,0:0:0:0:
186,31,15325,2,0,L|126:27,1,60,0|0,1:0|0:0,0:0:0:0:
36,21,15512,2,0,P|81:55|76:113,1,120,0|0,1:0|1:0,0:0:0:0:
11,178,15793,2,0,L|9:207,4,30,0|0|0|0|0,1:0|1:0|1:0|1:0|1:0,0:0:0:0:
100,200,16073,1,0,1:0:0:0:
100,200,16166,1,0,1:0:0:0:
100,200,16260,2,0,L|95:259,1,60,0|0,1:0|1:0,0:0:0:0:
30,323,16447,6,0,B|66:339|66:339|110:307|110:307|150:323,1,120,6|0,1:0|1:0,0:0:0:0:
198,252,16727,2,0,L|142:229,1,60,0|0,1:0|0:0,0:0:0:0:
167,349,16914,1,10,1:0:0:0:
261,188,17101,1,0,1:0:0:0:
261,188,17194,2,0,P|245:152|261:108,2,80,6|0|0,1:0|1:0|1:0,0:0:0:0:
374,301,17568,1,10,1:0:0:0:
501,173,17755,6,0,L|499:143,2,30,0|0|0,1:0|1:0|1:0,0:0:0:0:
436,237,17942,2,0,P|455:268|462:294,1,60,4|0,1:0|1:0,0:0:0:0:
399,354,18129,2,0,P|380:323|373:297,1,60,0|0,1:0|1:0,0:0:0:0:
311,364,18316,1,0,1:0:0:0:
311,364,18409,1,0,1:0:0:0:
311,364,18503,2,0,L|251:354,1,60,0|0,1:0|1:0,0:0:0:0:
132,334,18690,1,6,1:0:0:0:
4,206,18877,6,0,B|0:297|0:297|14:274,1,120
90,210,19157,2,0,B|94:118|94:118|79:141,1,120
3,77,19437,5,6,1:0:0:0:
3,77,19531,1,0,1:0:0:0:
3,77,19624,2,0,B|37:28|37:28|101:28,1,120,0|0,1:0|1:0,0:0:0:0:
188,185,19998,2,0,B|190:125,1,60,0|0,1:0|0:0,0:0:0:0:
125,61,20185,2,0,P|180:86|236:73,1,120,0|0,1:0|1:0,0:0:0:0:
410,25,20559,1,0,1:0:0:0:
410,25,20652,1,0,1:0:0:0:
410,25,20746,2,0,B|412:85,1,60,0|0,1:0|0:0,0:0:0:0:
497,170,20933,5,6,1:0:0:0:
497,170,21026,1,0,1:0:0:0:
497,170,21120,2,0,B|499:110,1,60,0|0,1:0|1:0,0:0:0:0:
471,195,21307,2,0,B|470:224,2,30,0|0|0,1:0|1:0|1:0,0:0:0:0:
407,131,21493,2,0,P|375:123|347:131,1,60,0|0,1:0|1:0,0:0:0:0:
285,65,21680,1,0,1:0:0:0:
111,111,21867,1,0,1:0:0:0:
238,238,22054,1,0,1:0:0:0:
64,284,22241,1,0,1:0:0:0:
64,284,22335,1,0,1:0:0:0:
64,284,22428,6,0,B|33:330|33:330|96:354,1,120,6|0,1:0|1:0,0:0:0:0:
157,288,22708,2,0,B|185:298,4,30,6|0|0|0|0,1:0|1:0|1:0|1:0|1:0,0:0:0:0:
249,363,22989,2,0,B|305:341,1,60,0|0,1:0|1:0,0:0:0:0:
368,277,23176,6,0,B|399:323|399:323|336:347,1,120,6|0,1:0|1:0,0:0:0:0:
267,234,23456,2,0,B|284:259,4,30,6|0|0|0|0,1:0|1:0|1:0|1:0|1:0,0:0:0:0:
331,169,23736,1,0,1:0:0:0:
472,237,23923,6,0,B|438:187,1,60,6|0,1:0|0:0,0:0:0:0:
438,96,24110,2,0,B|378:100,1,60,0|0,1:0|0:0,0:0:0:0:
298,55,24297,2,2,B|271:108,1,60,0|0,1:0|0:0,0:0:0:0:
192,155,24484,2,0,B|225:204,1,60,0|0,1:0|1:0,0:0:0:0:
225,296,24671,5,6,1:0:0:0:
185,322,24764,1,0,1:0:0:0:
138,328,24857,1,0,1:0:0:0:
93,313,24951,1,0,1:0:0:0:
59,280,25045,2,0,P|67:264|59:250,3,30
126,189,25419,6,0,B|64:150|13:184|13:184|82:137|57:85|33:39|33:39|100:78,1,360,4|8,1:0|0:0,0:0:0:0:
496,8,28409,6,0,L|510:96,1,90.0000034332277,4|0,1:0|1:0,0:0:0:0:
398,208,28783,1,0,1:0:0:0:
398,208,28877,2,0,L|412:120,1,90.0000034332277,0|0,1:0|1:0,0:0:0:0:
354,61,29157,2,0,B|317:74|317:74|308:124|250:147,1,135.000005149841,0|0,1:0|1:0,0:0:0:0:
240,41,29531,1,0,1:0:0:0:
240,41,29624,1,0,1:0:0:0:
240,41,29718,2,0,B|235:18,2,22.5000008583069,0|0|0,1:0|1:0|1:0,0:0:0:0:
174,103,29905,6,0,B|130:112,1,45.0000017166138,6|0,1:0|1:0,0:0:0:0:
152,15,30092,2,0,B|107:23,1,45.0000017166138,0|0,1:0|1:0,0:0:0:0:
41,87,30279,1,0,1:0:0:0:
41,87,30372,2,0,B|10:90|10:90|-4:79,2,45.0000017166138,0|0|0,1:0|1:0|1:0,0:0:0:0:
63,175,30652,5,8,0:0:0:0:
254,366,30933,1,8,0:0:0:0:
324,106,31213,1,8,0:0:0:0:
196,233,31400,6,0,L|164:264,1,45.0000017166138,6|0,1:0|0:0,0:0:0:0:
105,322,31587,2,0,L|73:353,1,45.0000017166138,0|0,1:0|0:0,0:0:0:0:
18,291,31774,2,0,L|13:201,1,90.0000034332277,0|0,1:0|1:0,0:0:0:0:
70,143,32054,1,0,1:0:0:0:
70,143,32148,2,0,B|87:144|87:144|95:157,3,30.0000011444092,0|0|0|0,1:0|1:0|1:0|1:0,0:0:0:0:
206,48,32522,1,0,1:0:0:0:
316,158,32708,1,0,1:0:0:0:
316,158,32802,1,0,1:0:0:0:
316,158,32895,6,0,B|309:118|309:118|316:109|316:109|309:65,1,90.0000034332277,6|0,1:0|0:0,0:0:0:0:
370,10,33082,2,0,P|418:15|447:55,1,90.0000034332277,0|0,1:0|1:0,0:0:0:0:
502,103,33363,2,0,P|498:151|457:180,1,90.0000034332277,0|0,1:0|1:0,0:0:0:0:
407,237,33643,1,0,0:0:0:0:
407,237,33736,2,0,B|385:233,4,22.5000008583069,0|0|0|0|0,1:0|1:0|1:0|1:0|1:0,1:0:0:0:
468,298,34017,2,0,L|465:342,1,45.0000017166138,0|0,1:0|1:0,0:0:0:0:
383,371,34204,2,0,L|380:326,1,45.0000017166138,0|0,1:0|1:0,0:0:0:0:
298,279,34391,6,0,B|268:284,4,30,6|0|0|0|0,1:0|1:0|1:0|1:0|1:0,0:0:0:0:
298,188,34671,2,0,B|268:193,4,30,6|0|0|0|0,1:0|1:0|1:0|1:0|1:0,1:0:0:0:
362,123,34951,5,6,1:0:0:0:
362,123,35045,1,0,1:0:0:0:
362,123,35138,1,2,1:0:0:0:
504,376,35886,6,0,L|444:372,1,60,4|2,1:0|0:0,0:0:0:0:
380,308,36073,2,0,L|320:311,1,60,0|2,1:0|0:0,0:0:0:0:
256,375,36260,2,0,L|136:368,1,120,0|0,1:0|1:0,0:0:0:0:
111,280,36540,2,0,L|231:287,1,120,2|2,1:0|1:0,0:0:0:0:
295,222,36821,1,0,1:0:0:0:
116,190,37008,2,0,L|56:193,3,60,0|2|0|2,1:0|0:0|1:0|1:0,0:0:0:0:
80,105,37381,6,0,L|26:77,1,60,4|2,1:0|0:0,0:0:0:0:
90,13,37568,2,0,L|150:16,1,60,0|2,1:0|0:0,0:0:0:0:
238,19,37755,2,0,P|214:77|165:103,1,120,0|0,1:0|1:0,0:0:0:0:
251,189,38036,5,4,1:0:0:0:
377,62,38222,1,2,1:0:0:0:
377,62,38316,1,0,1:0:0:0:
377,62,38409,1,2,1:0:0:0:
377,62,38503,2,0,L|257:67,1,120,0|0,1:0|0:0,0:0:0:0:
385,195,38877,6,0,P|416:204|436:225,1,60,4|2,1:0|0:0,0:0:0:0:
485,147,39064,2,0,P|494:115|515:95,1,60,0|2,1:0|0:0,0:0:0:0:
512,6,39251,2,0,L|392:11,1,120,0|0,1:0|1:0,0:0:0:0:
301,12,39531,1,2,1:0:0:0:
173,139,39718,1,2,1:0:0:0:
151,117,39811,2,0,L|32:99,1,120,0|0,1:0|1:0,0:0:0:0:
26,185,40092,1,2,0:0:0:0:
30,214,40185,1,0,1:0:0:0:
34,244,40278,1,2,1:0:0:0:
39,273,40372,6,0,L|98:264,1,60,4|2,1:0|0:0,0:0:0:0:
162,328,40559,2,0,L|221:320,1,60,0|2,1:0|0:0,0:0:0:0:
286,256,40746,2,0,P|311:310|297:370,1,120,0|0,1:0|1:0,0:0:0:0:
396,300,41026,5,4,1:0:0:0:
443,127,41213,1,2,1:0:0:0:
464,148,41307,2,0,P|456:176|464:208,1,60,0|2,1:0|1:0,0:0:0:0:
493,285,41493,2,0,P|439:264|396:301,1,120,0|0,1:0|0:0,0:0:0:0:
222,287,41867,6,0,L|213:347,1,60,6|2,1:0|0:0,0:0:0:0:
124,369,42054,2,0,L|78:332,1,60,8|2,1:0|0:0,0:0:0:0:
101,244,42241,2,0,L|158:223,1,60,0|2,1:0|0:0,0:0:0:0:
244,198,42428,1,8,1:0:0:0:
221,175,42522,6,0,P|171:143|108:158,1,120,2|2,1:0|1:0,0:0:0:0:
28,130,42802,2,0,L|7:73,1,60,8|2,1:0|0:0,0:0:0:0:
71,9,42989,2,0,L|189:27,1,120,0|8,1:0|1:0,0:0:0:0:
253,90,43269,1,2,1:0:0:0:
253,90,43363,6,0,L|244:150,1,60,6|2,1:0|0:0,0:0:0:0:
331,172,43550,2,0,L|340:112,1,60,8|2,1:0|0:0,0:0:0:0:
426,134,43736,2,0,L|417:194,1,60,0|2,1:0|0:0,0:0:0:0:
481,257,43923,1,8,1:0:0:0:
502,278,44017,6,0,L|504:292,8,15,2|0|0|0|0|0|0|0|2,1:0|1:0|1:0|1:0|1:0|1:0|1:0|0:0|1:0,1:0:0:0:
437,342,44297,1,8,1:0:0:0:
415,363,44391,1,2,1:0:0:0:
407,333,44484,2,0,P|379:301|287:333,1,120,0|8,1:0|1:0,0:0:0:0:
434,178,44858,6,0,L|374:174,1,60,6|2,1:0|0:0,0:0:0:0:
338,91,45045,2,0,L|397:87,1,60,8|2,1:0|0:0,0:0:0:0:
434,4,45232,2,0,L|374:0,1,60,0|2,1:0|0:0,0:0:0:0:
311,64,45419,1,8,1:0:0:0:
289,42,45512,6,0,B|261:10|261:10|169:42,1,120,2|2,1:0|1:0,0:0:0:0:
175,212,45793,2,0,B|118:193,1,60,8|2,1:0|0:0,0:0:0:0:
175,121,45979,2,0,B|231:141,1,60,0|2,1:0|0:0,0:0:0:0:
231,230,46166,2,0,B|174:211,1,60,8|2,1:0|1:0,0:0:0:0:
92,180,46353,5,6,1:0:0:0:
60,194,46446,1,2,0:0:0:0:
36,221,46540,2,0,P|15:241|6:272,1,60,8|2,1:0|0:0,0:0:0:0:
70,334,46727,2,0,P|90:313|100:282,1,60,0|2,1:0|0:0,0:0:0:0:
163,220,46914,1,8,1:0:0:0:
227,284,47008,6,0,B|341:322,1,120,6|2,0:0|0:0,0:0:0:0:
404,384,47288,1,8,1:0:0:0:
467,320,47381,1,2,0:0:0:0:
445,298,47475,6,0,B|429:298|429:298|437:286|437:286|445:298,6,40,0|0|0|8|0|0|2,1:0|1:0|1:0|1:0|1:0|1:0|1:0,0:0:0:0:
256,192,47942,12,0,49064,0:0:0:0:
234,258,49344,6,0,B|210:270|210:270|184:258,1,50,0|0,1:0|1:0,0:0:0:0:
188,209,49469,2,0,B|165:194|165:194|162:165,1,50,0|0,1:0|1:0,0:0:0:0:
207,144,49593,2,0,B|208:117|208:117|231:100,1,50,0|0,1:0|1:0,0:0:0:0:
272,127,49718,2,0,B|295:114|295:114|321:126,1,50,0|0,1:0|1:0,0:0:0:0:
319,174,49842,2,0,B|341:188|341:188|344:217,1,50,0|0,1:0|1:0,0:0:0:0:
301,238,49967,2,0,B|299:264|299:264|276:281,2,50,0|0|0,1:0|1:0|1:0,0:0:0:0:
504,40,50839,5,6,1:0:0:0:
469,5,50933,1,0,1:0:0:0:
421,17,51026,2,0,L|411:76,1,60,0|0,1:0|1:0,0:0:0:0:
474,140,51213,1,0,1:0:0:0:
508,174,51307,1,0,1:0:0:0:
495,220,51400,2,0,L|485:279,1,60,0|0,1:0|1:0,0:0:0:0:
468,367,51587,5,0,1:0:0:0:
422,380,51680,1,0,1:0:0:0:
375,368,51774,1,0,1:0:0:0:
340,334,51867,1,0,1:0:0:0:
326,287,51961,2,0,L|316:228,1,60,0|0,1:0|1:0,0:0:0:0:
379,163,52148,2,0,L|389:104,1,60,0|0,1:0|1:0,0:0:0:0:
303,18,52335,5,6,1:0:0:0:
300,65,52428,1,0,1:0:0:0:
270,101,52521,1,0,1:0:0:0:
224,112,52615,1,0,1:0:0:0:
180,94,52708,1,0,1:0:0:0:
177,46,52802,1,0,1:0:0:0:
147,10,52895,1,0,1:0:0:0:
101,0,52988,1,0,1:0:0:0:
57,17,53082,6,0,B|41:9|41:9|27:17,4,30,2|0|0|0|0,1:0|1:0|1:0|1:0|1:0,1:0:0:0:
57,108,53363,2,0,B|41:116|41:116|27:108,2,30,2|0|0,1:0|1:0|1:0,1:0:0:0:
131,54,53550,1,12,1:0:0:0:
131,54,53830,6,0,B|165:68|165:68|197:43,1,67.5000025749207,4|0,1:0|0:0,0:0:0:0:
217,22,54017,1,0,0:0:0:0:
344,149,54204,2,0,P|356:169|347:147,1,60,8|0,1:0|0:0,0:0:0:0:
288,79,54484,1,0,0:0:0:0:
288,79,54578,6,0,L|302:53,1,30,2|2,1:0|0:0,0:0:0:0:
401,53,54765,2,0,L|416:78,1,30
479,142,54951,1,8,1:0:0:0:
351,269,55138,1,0,0:0:0:0:
181,99,55325,6,0,B|168:127|186:161|186:161|154:160|133:181,1,120,4|0,1:0|0:0,0:0:0:0:
70,243,55606,1,0,0:0:0:0:
70,243,55699,2,0,B|42:226|42:226|40:191,2,60,8|0|2,1:0|0:0|0:0,0:0:0:0:
198,371,56073,6,0,P|210:343|198:311,1,60,0|0,1:0|0:0,0:0:0:0:
111,315,56260,2,0,P|99:343|111:375,1,60
156,237,56447,1,8,1:0:0:0:
156,237,56634,1,2,1:0:0:0:
358,220,56821,6,0,L|417:216,1,60,6|0,1:0|1:0,0:0:0:0:
453,307,57008,2,0,L|393:303,1,60,0|0,1:0|1:0,0:0:0:0:
352,214,57194,2,0,L|411:210,1,60,0|0,1:0|1:0,0:0:0:0:
459,313,57381,2,0,L|399:309,1,60,0|0,1:0|1:0,0:0:0:0:
335,373,57568,5,0,1:0:0:0:
287,376,57661,1,0,1:0:0:0:
239,379,57754,1,0,1:0:0:0:
191,382,57848,1,0,1:0:0:0:
157,348,57942,1,0,1:0:0:0:
109,344,58035,1,0,1:0:0:0:
61,341,58128,1,0,1:0:0:0:
26,306,58222,1,0,1:0:0:0:
38,258,58316,6,0,L|34:199,1,60,6|0,1:0|1:0,0:0:0:0:
125,163,58503,2,0,L|121:223,1,60,0|0,1:0|1:0,0:0:0:0:
32,264,58689,2,0,L|28:205,1,60,0|0,1:0|1:0,0:0:0:0:
131,157,58876,2,0,L|127:217,1,60,0|0,1:0|1:0,0:0:0:0:
191,281,59064,6,0,L|220:282,4,30,2|0|0|0|0,1:0|1:0|1:0|1:0|1:0,1:0:0:0:
216,194,59344,2,0,L|245:195,2,30,2|0|0,1:0|1:0|1:0,1:0:0:0:
258,85,59531,1,12,1:0:0:0:
258,85,59811,6,0,B|293:86|293:86|310:74|310:74|344:76,1,90,4|0,1:0|0:0,0:0:0:0:
329,172,60185,2,0,L|299:170,1,30,2|0,0:0|0:0,0:0:0:0:
369,212,60372,2,0,B|361:228|361:228|369:242,2,30.0000011444092,4|0|0,1:0|1:0|1:0,0:0:0:0:
384,158,60559,6,0,P|366:96|476:73,1,180.000006866455,14|0,1:0|0:0,0:0:0:0:
512,124,61026,1,0,1:0:0:0:
512,124,61120,2,0,L|504:168,1,45.0000017166138,2|0,1:0|1:0,0:0:0:0:
438,220,61307,6,0,B|430:208|430:208|410:220|410:220|430:232|430:232|438:220,1,60,4|2,1:0|0:0,0:0:0:0:
493,295,61587,2,0,B|505:303|505:303|493:323|493:323|481:303|481:303|493:295,1,60,4|0,1:0|0:0,0:0:0:0:
392,312,61867,2,0,B|366:296,2,30,2|0|0,1:0|1:0|1:0,0:0:0:0:
327,376,62054,6,0,B|291:354|291:354|289:311,1,75,12|0,1:0|0:0,0:0:0:0:
224,256,62265,2,0,B|245:221|245:221|288:219,1,75,2|0,0:0|0:0,0:0:0:0:
311,187,62428,6,0,P|325:205|352:209,1,52.5,0|6,1:0|1:0,0:0:0:0:
421,152,62802,1,0,0:0:0:0:
421,152,62895,6,0,L|450:153,4,30,2|0|0|0|2,1:0|1:0|1:0|0:0|1:0,0:0:0:0:
356,87,63176,2,0,L|372:61,4,30,4|0|2|0|0,1:0|1:0|1:0|0:0|1:0,0:0:0:0:
267,110,63456,2,0,L|253:83,4,30,4|0|0|0|2,1:0|1:0|1:0|0:0|1:0,0:0:0:0:
223,187,63736,1,4,1:0:0:0:
223,187,63830,6,0,B|193:166|167:178|167:178|137:189|104:168,1,120,0|0,1:0|0:0,0:0:0:0:
45,107,64297,6,0,L|19:90,4,30,6|0|2|0|0,1:0|0:0|1:0|1:0|1:0,0:0:0:0:
22,195,64578,2,0,L|5:221,4,30,2|0|4|0|2,1:0|0:0|1:0|1:0|1:0,0:0:0:0:
110,218,64858,2,0,L|136:235,4,30,0|0|4|0|0,1:0|0:0|1:0|1:0|1:0,0:0:0:0:
133,130,65138,5,2,1:0:0:0:
133,130,65232,1,4,1:0:0:0:
133,130,65325,2,0,B|153:74|122:33|122:33|197:74,1,180.000006866455,0|0,1:0|0:0,0:0:0:0:
255,5,65793,6,0,B|281:19,4,30,4|0|2|0|0,1:0|1:0|1:0|0:0|1:0,0:0:0:0:
229,91,66073,1,2,1:0:0:0:
229,91,66166,6,0,B|255:105,4,30,0|0|2|0|0,1:0|1:0|1:0|0:0|1:0,0:0:0:0:
203,177,66447,1,2,1:0:0:0:
203,177,66540,6,0,B|229:191,4,30,4|0|2|0|0,1:0|1:0|1:0|1:0|1:0,0:0:0:0:
177,263,66821,1,2,1:0:0:0:
177,263,66914,6,0,B|203:277,4,30,0|0|2|0|0,1:0|1:0|1:0|1:0|1:0,0:0:0:0:
115,197,67194,1,2,1:0:0:0:
115,197,67288,6,0,B|89:183,2,30,4|0|2,1:0|1:0|1:0,0:0:0:0:
89,284,67475,2,0,B|63:299,2,30,4|0|2,1:0|1:0|1:0,0:0:0:0:
151,350,67662,6,0,B|151:379,2,30,4|0|2,1:0|1:0|1:0,0:0:0:0:
239,329,67849,2,0,B|264:343,2,30,4|0|2,1:0|1:0|1:0,0:0:0:0:
264,242,68036,6,0,B|346:197|360:91|266:68|178:71|181:153|181:153|260:215|374:108|374:108|344:137|334:263|475:273,1,780,0|0,1:0|0:0,0:0:0:0:
462,160,69344,5,10,0:0:0:0:
292,329,69531,1,6,1:0:0:0:
256,192,75512,5,14,1:0:0:0:
256,192,76073,1,2,1:0:0:0:
128,319,76260,1,6,1:0:0:0:
128,319,76821,1,2,1:0:0:0:
340,106,77008,5,14,1:0:0:0:
340,106,77568,1,2,1:0:0:0:
50,29,77755,1,14,1:0:0:0:
241,220,78036,1,6,1:0:0:0:
431,29,78316,5,4,1:0:0:0:
431,29,78409,1,4,1:0:0:0:
431,29,78503,2,0,P|444:12|465:8,5,40,6|0|0|0|0|0,1:0|0:0|0:0|1:0|0:0|0:0,0:0:0:0:
461,69,78877,2,0,P|482:72|495:88,5,40,0|0|0|0|0|0,1:0|0:0|0:0|1:0|0:0|0:0,0:0:0:0:
441,114,79251,6,0,B|478:139|478:139|461:232,2,120,6|0|0,1:0|1:0|1:0,0:0:0:0:
352,137,79718,1,0,1:0:0:0:
352,137,79811,1,0,1:0:0:0:
352,137,79905,1,0,1:0:0:0:
352,137,79998,6,0,B|344:176,2,40,6|0|0,1:0|0:0|0:0,0:0:0:0:
309,94,80185,2,0,B|301:54,2,40,0|0|0,1:0|0:0|0:0,0:0:0:0:
266,136,80372,2,0,B|258:175,2,40,0|0|0,1:0|0:0|0:0,0:0:0:0:
223,93,80559,2,0,B|215:53,2,40,0|0|0,1:0|0:0|0:0,0:0:0:0:
163,93,80746,6,0,B|172:98|172:98|164:133|164:133|137:107|137:107|143:97,24,80,6|0|0|0|0|0|0|0|0|0|0|0|0|0|0|0|0|0|0|0|0|0|0|0|4,1:0|0:0|0:0|1:0|0:0|0:0|1:0|0:0|0:0|1:0|0:0|0:0|1:0|0:0|0:0|1:0|0:0|0:0|1:0|0:0|0:0|1:0|0:0|0:0|0:0,0:0:0:0:
256,192,81540,12,0,84297,0:0:0:0:
351,287,84484,5,6,1:0:0:0:
351,287,85045,2,0,B|371:279|371:279|391:287,2,40,0|0|0,1:0|1:0|1:0,0:0:0:0:
293,344,85232,5,6,1:0:0:0:
293,344,85793,2,0,B|273:352|273:352|253:344,2,40,0|0|0,1:0|1:0|1:0,0:0:0:0:
272,265,85979,5,6,1:0:0:0:
80,73,86260,1,6,1:0:0:0:
342,2,86540,1,6,1:0:0:0:
231,113,86727,6,0,B|246:128|246:128|285:105|285:105|300:120,1,82.5,4|0,1:0|0:0,0:0:0:0:
364,182,87288,1,0,0:0:0:0:
388,94,87381,1,0,0:0:0:0:
388,94,87475,6,0,P|434:118|457:193,1,120,4|8,1:0|1:0,0:0:0:0:
435,267,87755,2,0,P|389:243|366:168,1,120,2|2,0:0|0:0,0:0:0:0:
299,247,88036,2,0,L|295:306,1,60,8|2,1:0|0:0,0:0:0:0:
208,284,88222,2,0,L|199:164,1,120,0|8,1:0|1:0,0:0:0:0:
110,186,88503,2,0,L|101:305,1,120,2|2,0:0|0:0,0:0:0:0:
14,327,88783,2,0,L|10:268,1,60,8|2,1:0|0:0,0:0:0:0:
15,168,88970,6,0,L|19:102,1,66.0000020141602,0|2,1:0|0:0,0:0:0:0:
89,31,89157,1,8,1:0:0:0:
89,31,89251,2,0,P|103:83|179:85,1,132.00000402832,2|2,0:0|0:0,0:0:0:0:
238,15,89531,1,8,1:0:0:0:
206,104,89624,1,2,0:0:0:0:
206,104,89718,6,0,L|202:170,1,66.0000020141602,0|2,1:0|0:0,0:0:0:0:
296,187,89905,2,0,L|300:121,1,66.0000020141602,8|2,1:0|0:0,0:0:0:0:
234,260,90092,2,0,L|238:326,1,66.0000020141602,0|2,1:0|0:0,0:0:0:0:
328,277,90279,1,8,1:0:0:0:
390,204,90372,1,2,1:0:0:0:
390,204,90465,6,0,B|443:174|443:174|450:100,1,120,0|8,1:0|1:0,0:0:0:0:
512,51,90746,2,0,B|460:18|460:18|391:51,1,120,2|2,0:0|0:0,0:0:0:0:
342,108,91026,2,0,L|287:133,1,60,8|2,1:0|0:0,0:0:0:0:
208,87,91213,2,0,L|89:68,1,120,0|8,1:0|1:0,0:0:0:0:
90,158,91493,2,0,L|208:176,1,120,2|2,0:0|0:0,0:0:0:0:
286,223,91774,2,0,P|260:249|240:260,1,60,8|2,1:0|0:0,0:0:0:0:
310,329,91961,6,0,P|320:360|343:384,1,66.0000020141602,0|2,1:0|0:0,0:0:0:0:
413,313,92148,1,8,1:0:0:0:
413,313,92241,2,0,B|381:220|381:220|421:229,1,132.00000402832,2|2,0:0|0:0,0:0:0:0:
512,208,92522,1,8,1:0:0:0:
442,138,92615,1,2,0:0:0:0:
442,138,92708,6,0,B|420:79|420:79|448:55,1,99.0000030212403,0|0,1:0|0:0,0:0:0:0:
413,20,92895,2,0,L|438:-1,2,33.0000010070801,8|0|2,1:0|1:0|1:0,0:0:0:0:
337,83,93082,1,0,1:0:0:0:
304,50,93176,1,2,1:0:0:0:
258,37,93269,1,8,1:0:0:0:
211,48,93363,1,2,1:0:0:0:
167,87,93456,6,0,B|143:54|143:54|68:43|68:43|91:75,1,143.999995605469,4|8,1:0|1:0,0:0:0:0:
8,142,93736,2,0,B|31:174|31:174|106:185|106:185|89:162,1,143.999995605469,6|2,1:0|1:0,0:0:0:0:
191,192,94017,2,0,B|181:246|181:246|121:274,1,107.999996704102,12|0,1:0|1:0,0:0:0:0:
94,306,94204,6,0,B|124:371,1,71.9999978027344,4|2,1:0|0:0,0:0:0:0:
221,325,94391,1,8,1:0:0:0:
221,325,94484,2,0,B|301:287|301:287|317:197,1,179.999994506836,6|0,1:0|1:0,0:0:0:0:
372,196,94765,2,0,B|385:126,1,71.9999978027344,12|2,1:0|1:0,0:0:0:0:
300,58,94951,6,0,P|312:12|403:3,1,143.999995605469,4|8,1:0|1:0,0:0:0:0:
474,76,95232,2,0,B|480:112,4,35.9999989013672,2|0|0|0|2,1:0|1:0|1:0|1:0|1:0,0:0:0:0:
416,174,95512,1,8,1:0:0:0:
490,251,95606,1,2,1:0:0:0:
387,276,95699,6,0,B|370:379|370:379|352:340,1,143.999995605469,6|8,1:0|1:0,0:0:0:0:
276,267,95979,2,0,B|259:370|259:370|241:331,1,143.999995605469,6|2,1:0|1:0,0:0:0:0:
164,257,96260,1,12,1:0:0:0:
33,62,96447,6,0,B|44:134,1,71.9999978027344,4|2,1:0|1:0,0:0:0:0:
121,57,96634,1,8,1:0:0:0:
121,57,96727,2,0,B|132:129,1,71.9999978027344,2|0,1:0|1:0,0:0:0:0:
209,52,96914,1,2,1:0:0:0:
209,52,97008,6,0,B|220:124,1,71.9999978027344,8|2,1:0|1:0,0:0:0:0:
295,48,97194,2,0,B|289:13,2,35.9999989013672,6|0|2,1:0|1:0|1:0,0:0:0:0:
371,126,97381,1,8,1:0:0:0:
371,126,97475,1,2,1:0:0:0:
371,126,97568,2,0,B|360:198,1,71.9999978027344,0|2,1:0|1:0,0:0:0:0:
265,153,97755,2,0,B|254:225,1,71.9999978027344,8|2,1:0|1:0,0:0:0:0:
330,304,97942,6,0,B|335:340,4,35.9999989013672,6|0|2|0|8,1:0|1:0|1:0|1:0|1:0,0:0:0:0:
436,277,98222,2,0,B|441:313,4,35.9999989013672,6|0|0|0|10,1:0|1:0|1:0|1:0|1:0,0:0:0:0:
466,171,98503,2,0,B|482:65,1,107.999996704102,14|0,1:0|1:0,0:0:0:0:
443,26,98690,6,0,B|409:48|371:38|371:38|333:28|300:49,1,143.999995605469,12|0,1:0|1:0,0:0:0:0:
227,123,98970,1,12,1:0:0:0:
18,66,99157,1,14,1:0:0:0:
18,66,99437,6,0,L|11:186,1,120,4|8,1:0|1:0,0:0:0:0:
76,251,99718,2,0,L|82:371,1,120,2|2,0:0|1:0,0:0:0:0:
171,367,99998,2,0,L|167:308,1,60,8|2,1:0|0:0,0:0:0:0:
162,219,100185,2,0,P|219:234|253:282,1,120,0|8,1:0|1:0,0:0:0:0:
316,346,100465,2,0,P|339:293|392:266,1,120,2|2,0:0|0:0,0:0:0:0:
404,356,100746,2,0,L|463:352,1,60,8|2,1:0|1:0,0:0:0:0:
500,259,100933,6,0,L|435:264,1,66.0000020141602,0|2,1:0|0:0,0:0:0:0:
403,171,101120,1,8,1:0:0:0:
403,171,101213,2,0,L|469:167,2,66.0000020141602,2|0|2,1:0|1:0|1:0,0:0:0:0:
319,255,101493,2,2,L|253:251,1,66.0000020141602,8|2,1:0|0:0,0:0:0:0:
181,174,101680,6,0,B|217:210|217:210|181:306,1,132.00000402832,0|8,1:0|1:0,0:0:0:0:
87,286,101961,2,0,B|58:211|58:211|94:175,1,132.00000402832,2|2,1:0|1:0,0:0:0:0:
24,104,102241,1,8,1:0:0:0:
94,34,102335,1,2,1:0:0:0:
94,34,102428,6,2,P|125:79|191:80,1,120,0|8,1:0|1:0,0:0:0:0:
251,19,102708,2,0,P|276:72|263:130,1,120,2|2,0:0|0:0,0:0:0:0:
328,194,102989,2,0,P|320:223|298:246,1,60,8|2,1:0|1:0,0:0:0:0:
236,309,103176,2,0,L|354:291,1,120,0|8,1:0|1:0,0:0:0:0:
418,227,103456,2,0,L|399:109,1,120,2|2,0:0|1:0,0:0:0:0:
334,45,103736,2,0,P|358:28|388:20,1,60,8|2,1:0|1:0,0:0:0:0:
486,21,103923,6,0,L|475:87,1,66.0000020141602,0|2,1:0|0:0,0:0:0:0:
501,183,104110,1,8,1:0:0:0:
501,183,104204,2,0,P|456:210|458:293,1,132.00000402832,2|2,1:0|1:0,0:0:0:0:
357,325,104484,2,0,L|362:358,2,33.0000010070801,8|0|2,1:0|1:0|1:0,0:0:0:0:
286,255,104671,6,0,B|274:276|274:276|247:277,5,44.0000013427735,0|0|0|8|0|0,1:0|1:0|1:0|1:0|1:0|1:0,0:0:0:0:
210,321,105045,1,0,1:0:0:0:
177,354,105138,1,2,1:0:0:0:
131,342,105232,1,8,1:0:0:0:
98,309,105325,1,2,0:0:0:0:
45,325,105419,6,0,L|23:257,1,71.9999978027344,4|2,1:0|1:0,0:0:0:0:
22,165,105606,1,8,0:0:0:0:
47,139,105699,2,0,B|140:109|140:109|168:145,1,143.999995605469,6|2,1:0|1:0,0:0:0:0:
232,208,105979,2,0,P|251:180|258:144,1,71.9999978027344,12|2,1:0|1:0,0:0:0:0:
322,79,106166,6,0,P|337:109|365:134,1,71.9999978027344,4|2,1:0|1:0,0:0:0:0:
429,198,106353,1,8,0:0:0:0:
454,223,106447,2,0,B|463:282|463:282|446:305|446:305|455:360,1,143.999995605469,6|2,1:0|1:0,0:0:0:0:
367,383,106727,2,0,L|355:311,1,71.9999978027344,12|2,1:0|1:0,0:0:0:0:
341,222,106914,5,4,1:0:0:0:
290,222,107008,1,2,1:0:0:0:
245,247,107101,1,8,1:0:0:0:
218,291,107194,1,2,1:0:0:0:
216,342,107288,1,0,1:0:0:0:
165,342,107382,1,2,1:0:0:0:
120,317,107475,2,0,P|82:323|48:305,1,71.9999978027344,8|2,1:0|1:0,0:0:0:0:
21,227,107662,6,0,L|19:192,4,35.9999989013672,4|0|2|0|8,1:0|1:0|1:0|0:0|1:0,0:0:0:0:
97,151,107942,2,0,L|95:116,4,35.9999989013672,6|0|0|0|2,1:0|1:0|1:0|0:0|1:0,0:0:0:0:
173,75,108222,2,0,L|171:40,2,35.9999989013672,12|0|2,1:0|1:0|1:0,0:0:0:0:
201,178,108409,6,0,L|196:250,1,71.9999978027344,4|2,1:0|1:0,0:0:0:0:
272,327,108596,1,8,1:0:0:0:
272,327,108690,1,2,1:0:0:0:
272,327,108783,6,0,L|277:255,1,71.9999978027344,0|2,1:0|1:0,0:0:0:0:
353,179,108970,1,8,1:0:0:0:
353,179,109064,1,2,1:0:0:0:
353,179,109157,6,0,B|355:162,8,17.9999994506836,4|0|0|0|2|0|0|0|8,1:0|0:0|1:0|0:0|1:0|0:0|1:0|0:0|1:0,0:0:0:0:
437,255,109437,2,0,B|439:238,8,17.9999994506836,2|0|0|0|0|0|0|0|2,1:0|0:0|1:0|0:0|1:0|0:0|1:0|0:0|1:0,0:0:0:0:
396,368,109718,2,0,B|413:370,4,17.9999994506836,8|0|0|0|2,1:0|0:0|1:0|0:0|1:0,0:0:0:0:
288,381,109905,6,0,B|252:385,3,35.9999989013672,4|0|2|0,1:0|1:0|1:0|1:0,0:0:0:0:
229,367,110092,2,0,B|193:372,3,35.9999989013672,0|0|2|0,1:0|1:0|1:0|1:0,0:0:0:0:
170,354,110279,2,0,B|134:359,3,35.9999989013672,0|0|2|0,1:0|1:0|1:0|1:0,0:0:0:0:
113,340,110465,2,0,B|77:345,4,35.9999989013672,0|0|2|0|0,1:0|1:0|1:0|1:0|1:0,0:0:0:0:
274,377,111400,5,4,1:0:0:0:
307,343,111493,1,0,1:0:0:0:
352,330,111587,1,0,1:0:0:0:
397,341,111680,1,0,1:0:0:0:
430,373,111774,1,0,1:0:0:0:
417,327,111867,1,0,1:0:0:0:
428,281,111961,1,0,1:0:0:0:
460,248,112054,1,0,1:0:0:0:
504,235,112148,6,0,L|500:175,1,60,0|0,1:0|1:0,0:0:0:0:
495,85,112335,2,0,L|435:89,1,60,0|0,1:0|1:0,0:0:0:0:
345,94,112522,2,0,L|349:154,1,60,0|0,1:0|1:0,0:0:0:0:
354,244,112708,2,0,L|414:240,1,60,0|0,1:0|1:0,0:0:0:0:
272,203,112895,5,6,1:0:0:0:
224,199,112988,1,0,1:0:0:0:
176,196,113081,1,0,1:0:0:0:
128,193,113175,1,0,1:0:0:0:
94,227,113269,1,0,1:0:0:0:
47,214,113363,1,0,1:0:0:0:
34,166,113456,1,0,1:0:0:0:
69,130,113550,1,0,1:0:0:0:
117,142,113643,6,0,L|118:109,4,30,6|0|0|0|0,1:0|1:0|1:0|1:0|1:0,1:0:0:0:
215,147,113923,2,0,L|216:114,4,30,6|0|0|0|0,1:0|1:0|1:0|1:0|1:0,1:0:0:0:
171,26,114204,5,10,0:0:0:0:
329,127,114391,6,0,P|313:140|308:165,11,44.0000013427735,4|0|0|0|0|0|0|0|0|0|0|0,1:0|1:0|1:0|1:0|1:0|1:0|1:0|1:0|1:0|1:0|1:0|1:0,1:0:0:0:
395,69,115138,6,0,P|411:82|416:107,5,44.0000013427735,6|0|0|0|0|0,1:0|1:0|1:0|1:0|1:0|1:0,1:0:0:0:
480,166,115512,6,0,P|496:152|501:127,2,44.0000013427735,0|0|0,1:0|1:0|1:0,1:0:0:0:
393,189,115699,2,0,P|396:210|414:227,2,44.0000013427735,0|0|0,1:0|1:0|1:0,1:0:0:0:
329,127,115886,6,0,L|293:121,3,35.9999989013672,4|0|0|0,1:0|1:0|1:0|1:0,1:0:0:0:
255,82,116073,2,0,L|232:109,3,35.9999989013672,0|0|0|0,1:0|1:0|1:0|1:0,1:0:0:0:
179,123,116260,6,0,L|191:156,3,35.9999989013672,4|0|0|0,1:0|1:0|1:0|1:0,1:0:0:0:
176,209,116447,2,0,L|211:214,3,35.9999989013672,0|0|0|0,1:0|1:0|1:0|1:0,1:0:0:0:
248,254,116634,6,0,L|292:197,2,71.9999978027344,14|14|14,1:0|1:0|1:0,0:0:0:0:
183,318,116914,2,0,B|157:289|157:289|76:336,1,107.999996704102,10|0,1:0|0:0,0:0:0:0:
64,357,117101,5,14,1:0:0:0:
426,357,117381,6,0,B|454:297|510:269|510:269|454:237|426:185|426:185|398:237|346:269|346:269|398:297|426:357,1,480,4|0,1:0|0:0,0:0:0:0:
