osu file format v14

[General]
AudioFilename: audio.ogg
AudioLeadIn: 0
PreviewTime: 87257
Countdown: 0
SampleSet: Drum
StackLeniency: 0.3
Mode: 0
LetterboxInBreaks: 0
WidescreenStoryboard: 1

[Editor]
Bookmarks: 10528,35902,50855,75528,99453
DistanceSpacing: 0.2
BeatDivisor: 4
GridSize: 16
TimelineZoom: 4.199998

[Metadata]
Title:AureoLe ~for Triumph~
TitleUnicode:AμreoLe ~for Triumph~
Artist:Ashrount
ArtistUnicode:Ashrount
Creator:R3m
Version:Ilay's MAXIMUM
Source:SOUND VOLTEX EXCEED GEAR
Tags:SDVX EG 10th KAC オリジナル楽曲コンテスト konami bemani arcade championship winner original song contest HEXA DIVER FLOOR Aim Cup speedcore electronic instrumental video game アウグスト=ヴェルテックス August Vertex すえ×アユタ Nymphe Altai Twiggykun Ilay SaltyLucario Cynplytholowazy LeCandy NeroXx bluirre honne Vermasium symphonic saltking salty
BeatmapID:3629575
BeatmapSetID:1712395

[Difficulty]
HPDrainRate:4
CircleSize:4
OverallDifficulty:9.7
ApproachRate:10
SliderMultiplier:1.8
SliderTickRate:1

[Events]
//Background and Video events
0,0,"bg2.jpg",0,0
//Break Periods
2,25619,27197
2,81693,84019
//Storyboard Layer 0 (Background)
//Storyboard Layer 1 (Fail)
//Storyboard Layer 2 (Pass)
//Storyboard Layer 3 (Foreground)
//Storyboard Layer 4 (Overlay)
//Storyboard Sound Samples

[TimingPoints]
1494,186.915887850467,4,3,27,70,1,0
1494,-83.3333333333333,4,3,27,70,0,0
1634,-83.3333333333333,4,3,27,5,0,0
1680,-66.6666666666667,4,3,27,70,0,0
2989,-83.3333333333333,4,3,27,70,0,0
3129,-83.3333333333333,4,3,27,5,0,0
3176,-66.6666666666667,4,3,27,70,0,0
3666,-66.6666666666667,4,3,27,5,0,0
3830,-66.6666666666667,4,3,27,70,0,0
3923,-80,4,3,27,70,0,0
4063,-80,4,3,27,5,0,0
4110,-66.6666666666667,4,3,27,70,0,0
4250,-66.6666666666667,4,3,27,5,0,0
4297,-66.6666666666667,4,3,27,70,0,0
4484,-80,4,3,27,70,0,0
4624,-80,4,3,27,5,0,0
4671,-66.6666666666667,4,3,27,70,0,0
6961,-66.6666666666667,4,3,27,5,0,0
7008,-66.6666666666667,4,3,27,40,0,0
7101,-100,4,3,27,40,0,0
7194,-83.3333333333333,4,3,27,50,0,0
7288,-71.4285714285714,4,3,27,50,0,0
7381,-62.5,4,3,27,60,0,0
7475,-71.4285714285714,4,3,1,70,0,0
7615,-71.4285714285714,4,3,1,5,0,0
7662,-71.4285714285714,4,3,1,70,0,0
7849,-71.4285714285714,4,3,27,70,0,0
8409,-83.3333333333333,4,3,27,70,0,0
8690,-62.5,4,3,27,70,0,0
8970,-71.4285714285714,4,3,27,70,0,0
9764,-71.4285714285714,4,3,27,5,0,0
9811,-71.4285714285714,4,3,27,70,0,0
10045,-71.4285714285714,4,3,27,5,0,0
10092,-71.4285714285714,4,3,27,70,0,0
10185,-62.5,4,3,27,70,0,0
10325,-62.5,4,3,27,5,0,0
10372,-62.5,4,3,27,70,0,0
11587,-100,4,3,27,70,0,0
11961,-83.3333333333333,4,3,27,70,0,0
12054,-90.9090909090909,4,3,27,70,0,0
12148,-100,4,3,27,70,0,0
12241,-111.111111111111,4,3,27,70,0,0
12335,-125,4,3,27,70,0,0
12428,-142.857142857143,4,3,27,70,0,0
12522,-166.666666666667,4,3,27,70,0,0
12615,-200,4,3,27,70,0,0
12708,-25,4,3,27,70,0,0
13082,-57.1428571428571,4,3,27,70,0,0
13409,-57.1428571428571,4,3,27,5,0,0
13456,-153.846153846154,4,3,27,70,0,0
13643,-153.846153846154,4,3,27,50,0,0
13830,-153.846153846154,4,3,1,70,0,0
14204,-76.9230769230769,4,3,1,70,0,0
14344,-76.9230769230769,4,3,1,5,0,0
14391,-76.9230769230769,4,3,1,70,0,0
14531,-76.9230769230769,4,3,1,5,0,0
14578,-76.9230769230769,4,3,1,70,0,0
15092,-76.9230769230769,4,3,1,5,0,0
15138,-76.9230769230769,4,3,1,70,0,0
16447,-76.9230769230769,4,3,27,70,0,0
16587,-76.9230769230769,4,3,27,5,0,0
16634,-76.9230769230769,4,3,27,70,0,0
16867,-76.9230769230769,4,3,27,5,0,0
16914,-133.333333333333,4,3,27,70,0,0
17568,-76.9230769230769,4,3,27,70,0,0
18643,-76.9230769230769,4,3,27,5,0,0
18690,-76.9230769230769,4,3,27,70,0,0
18877,-76.9230769230769,4,3,10,70,0,0
18923,-76.9230769230769,4,3,1,5,0,0
19157,-76.9230769230769,4,3,10,70,0,0
19204,-76.9230769230769,4,3,1,5,0,0
19437,-76.9230769230769,4,3,27,70,0,0
19765,-76.9230769230769,4,3,27,5,0,0
19811,-76.9230769230769,4,3,27,70,0,0
19951,-76.9230769230769,4,3,27,5,0,0
19998,-76.9230769230769,4,3,27,70,0,0
22568,-76.9230769230769,4,3,27,5,0,0
22615,-76.9230769230769,4,3,27,70,0,0
23316,-76.9230769230769,4,3,27,5,0,0
23363,-76.9230769230769,4,3,27,70,0,0
24064,-76.9230769230769,4,3,27,5,0,0
24110,-76.9230769230769,4,3,27,70,0,0
25419,-76.9230769230769,4,3,1,70,0,0
27662,-76.9230769230769,4,3,1,30,0,0
27849,-76.9230769230769,4,3,1,50,0,0
28036,-100,4,3,27,70,0,0
28409,-76.9230769230769,4,3,1,70,0,0
28736,-76.9230769230769,4,3,1,5,0,0
28783,-76.9230769230769,4,3,1,70,0,0
28923,-76.9230769230769,4,3,1,5,0,0
28970,-76.9230769230769,4,3,1,70,0,0
29905,-76.9230769230769,4,3,27,70,0,0
30652,-50,4,3,27,70,0,0
30699,-50,4,3,27,5,0,0
30933,-50,4,3,27,70,0,0
30979,-50,4,3,27,5,0,0
31213,-50,4,3,27,70,0,0
31260,-50,4,3,27,5,0,0
31400,-76.9230769230769,4,3,27,70,0,0
31540,-76.9230769230769,4,3,27,5,0,0
31587,-76.9230769230769,4,3,27,70,0,0
31727,-76.9230769230769,4,3,27,5,0,0
31774,-76.9230769230769,4,3,27,70,0,0
33036,-76.9230769230769,4,3,27,5,0,0
33082,-76.9230769230769,4,3,27,70,0,0
33596,-76.9230769230769,4,3,27,5,0,0
33643,-76.9230769230769,4,3,27,70,0,0
34391,-50,4,3,27,70,0,0
35138,-133.333333333333,4,3,27,70,0,0
35279,-133.333333333333,4,3,27,5,0,0
35325,-133.333333333333,4,3,27,35,0,0
35886,-76.9230769230769,4,3,27,70,0,0
36026,-76.9230769230769,4,3,27,5,0,0
36073,-76.9230769230769,4,3,27,70,0,0
36680,-76.9230769230769,4,3,27,5,0,0
36727,-76.9230769230769,4,3,27,70,0,0
37521,-76.9230769230769,4,3,27,5,0,0
37568,-76.9230769230769,4,3,27,70,0,0
38176,-76.9230769230769,4,3,27,5,0,0
38222,-76.9230769230769,4,3,27,70,0,0
38690,-133.333333333333,4,3,27,70,0,0
38830,-133.333333333333,4,3,27,5,0,0
38877,-76.9230769230769,4,3,27,70,0,0
39017,-76.9230769230769,4,3,27,5,0,0
39064,-76.9230769230769,4,3,27,70,0,0
39671,-76.9230769230769,4,3,27,5,0,0
39718,-76.9230769230769,4,3,27,70,0,0
40512,-76.9230769230769,4,3,27,5,0,0
40559,-76.9230769230769,4,3,27,70,0,0
41166,-76.9230769230769,4,3,27,5,0,0
41213,-76.9230769230769,4,3,27,70,0,0
41493,-133.333333333333,4,3,27,50,0,0
41680,-76.9230769230769,4,3,27,60,0,0
41867,-66.6666666666667,4,3,27,70,0,0
42008,-66.6666666666667,4,3,27,5,0,0
42054,-66.6666666666667,4,3,27,70,0,0
42662,-66.6666666666667,4,3,27,5,0,0
42708,-66.6666666666667,4,3,27,70,0,0
43503,-66.6666666666667,4,3,27,5,0,0
43550,-66.6666666666667,4,3,27,70,0,0
44671,-100,4,3,27,70,0,0
44811,-100,4,3,27,5,0,0
44858,-66.6666666666667,4,3,27,70,0,0
44998,-66.6666666666667,4,3,27,5,0,0
45045,-66.6666666666667,4,3,27,70,0,0
45652,-66.6666666666667,4,3,27,5,0,0
45699,-66.6666666666667,4,3,27,70,0,0
46493,-66.6666666666667,4,3,27,5,0,0
46540,-66.6666666666667,4,3,27,70,0,0
47849,-100,4,3,27,70,0,0
48970,-133.333333333333,4,3,27,70,0,0
49157,-200,4,3,27,70,0,0
50793,-200,4,3,27,5,0,0
50839,-200,4,3,27,70,0,0
51213,-76.9230769230769,4,3,27,70,0,0
53736,-76.9230769230769,4,3,27,40,0,0
53830,-66.6666666666667,4,3,27,70,0,0
54484,-66.6666666666667,4,3,10,70,0,0
54578,-66.6666666666667,4,3,27,70,0,0
54858,-100,4,3,27,70,0,0
54951,-66.6666666666667,4,3,27,70,0,0
55091,-66.6666666666667,4,3,27,5,0,0
55138,-66.6666666666667,4,3,10,70,0,0
55232,-66.6666666666667,4,3,1,70,0,0
55325,-66.6666666666667,4,3,27,70,0,0
55606,-66.6666666666667,4,3,10,70,0,0
55699,-66.6666666666667,4,3,1,70,0,0
56166,-66.6666666666667,4,3,10,70,0,0
56400,-66.6666666666667,4,3,1,70,0,0
56447,-100,4,3,1,70,0,0
56634,-66.6666666666667,4,3,1,70,0,0
56727,-66.6666666666667,4,3,27,70,0,0
57194,-76.9230769230769,4,3,27,70,0,0
59531,-76.9230769230769,4,3,27,50,0,0
59811,-80,4,3,27,70,0,0
59998,-80,4,3,50,70,0,0
60138,-80,4,3,27,5,0,0
60185,-100,4,3,27,70,0,0
60372,-100,4,3,27,70,0,0
60559,-66.6666666666667,4,3,27,70,0,0
62428,-400,4,3,27,40,0,0
62802,-400,4,3,27,70,0,0
62895,-76.9230769230769,4,3,27,70,0,0
63690,-76.9230769230769,4,3,27,5,0,0
63736,-76.9230769230769,4,3,27,70,0,0
63923,-400,4,3,27,50,0,0
64203,-400,4,3,27,60,0,0
64297,-400,4,3,27,70,0,0
64391,-76.9230769230769,4,3,27,70,0,0
65185,-76.9230769230769,4,3,27,5,0,0
65232,-76.9230769230769,4,3,27,70,0,0
65419,-400,4,3,27,50,0,0
65699,-400,4,3,27,60,0,0
65793,-400,4,3,27,70,0,0
65886,-76.9230769230769,4,3,27,70,0,0
68036,-76.9230769230769,4,3,27,45,0,0
68877,-76.9230769230769,4,3,27,54,0,0
69344,-50,4,3,27,70,0,0
69531,-50,4,3,3,70,0,0
69593,-50,4,3,1,70,0,0
70279,-100,4,3,4,50,0,0
70341,-100,4,3,1,70,0,0
71587,-100,4,3,4,70,0,0
71649,-100,4,3,1,70,0,0
71774,-100,4,3,1,50,0,0
71836,-100,4,3,1,70,0,0
72148,-100,4,3,4,70,0,0
72210,-100,4,3,1,70,0,0
72522,-100,4,3,4,70,0,0
72584,-100,4,3,1,70,0,0
73082,-100,4,3,4,50,0,0
73145,-100,4,3,1,70,0,0
73269,-100,4,3,2,50,0,0
73331,-100,4,3,1,70,0,0
73643,-100,4,3,1,50,0,0
73705,-100,4,3,1,70,0,0
74017,-100,4,3,2,70,0,0
74079,-100,4,3,1,70,0,0
74578,-100,4,3,4,50,0,0
74640,-100,4,3,1,70,0,0
74765,-100,4,3,2,70,0,0
74827,-100,4,3,1,70,0,0
75138,-100,4,3,4,70,0,0
75200,-100,4,3,1,70,0,0
75512,-100,4,3,3,70,0,0
75885,-100,4,3,1,70,0,0
76073,-100,4,3,4,70,0,0
76260,-100,4,3,2,70,0,0
76633,-100,4,3,1,70,0,0
76821,-100,4,3,4,70,0,0
77008,-100,4,3,2,70,0,0
77194,-100,4,3,1,50,0,0
77381,-100,4,3,1,70,0,0
77568,-100,4,3,4,70,0,0
77755,-100,4,3,27,70,0,0
77989,-100,4,3,27,5,0,0
78036,-100,4,3,27,70,0,0
78269,-100,4,3,27,5,0,0
78316,-100,4,3,27,70,0,0
81120,-80,4,3,27,70,0,0
81493,-80,4,3,1,70,0,0
84484,-100,4,3,27,70,0,0
85232,-80,4,3,27,70,0,0
85465,-80,4,3,27,5,0,0
85512,-80,4,3,27,70,0,0
85746,-80,4,3,27,5,0,0
85793,-80,4,3,27,70,0,0
85979,-66.6666666666667,4,3,27,70,0,0
87288,-166.666666666667,4,3,27,45,0,0
87381,-100,4,3,27,60,0,0
87475,-76.9230769230769,4,3,1,70,0,1
87568,-76.9230769230769,4,3,27,70,0,1
87989,-76.9230769230769,4,3,27,5,0,1
88036,-76.9230769230769,4,3,27,70,0,1
88970,-80,4,3,27,70,0,1
89110,-80,4,3,27,5,0,1
89157,-80,4,3,27,70,0,1
89251,-66.6666666666667,4,3,27,70,0,1
89391,-66.6666666666667,4,3,27,5,0,1
89437,-66.6666666666667,4,3,27,70,0,1
89718,-76.9230769230769,4,3,27,70,0,1
92241,-66.6666666666667,4,3,27,70,0,1
92381,-66.6666666666667,4,3,27,5,0,1
92428,-66.6666666666667,4,3,27,70,0,1
92849,-66.6666666666667,4,3,27,5,0,1
92895,-66.6666666666667,4,3,27,70,0,1
93596,-66.6666666666667,4,3,27,5,0,1
93643,-66.6666666666667,4,3,27,70,0,1
93690,-66.6666666666667,4,3,27,5,0,1
93736,-66.6666666666667,4,3,27,70,0,1
93877,-66.6666666666667,4,3,27,5,0,1
93923,-66.6666666666667,4,3,27,70,0,1
93970,-66.6666666666667,4,3,27,5,0,1
94017,-66.6666666666667,4,3,27,70,0,1
94204,-100,4,3,27,70,0,1
94484,-66.6666666666667,4,3,27,70,0,1
94765,-50,4,3,27,70,0,1
95699,-66.6666666666667,4,3,27,70,0,1
95979,-57.1428571428571,4,3,27,70,0,1
96260,-50,4,3,27,70,0,1
96400,-50,4,3,27,5,0,1
96447,-50,4,3,27,70,0,1
97194,-66.6666666666667,4,3,27,70,0,1
98503,-100,4,3,27,70,0,1
98877,-66.6666666666667,4,3,27,70,0,1
98970,-100,4,3,27,70,0,1
99110,-100,4,3,27,5,0,1
99157,-333.333333333333,4,3,27,70,0,1
99437,-76.9230769230769,4,3,1,70,0,1
99530,-76.9230769230769,4,3,27,70,0,1
101073,-76.9230769230769,4,3,27,5,0,1
101120,-76.9230769230769,4,3,27,70,0,1
101213,-66.6666666666667,4,3,27,70,0,1
103923,-80,4,3,27,70,0,1
104204,-66.6666666666667,4,3,27,70,0,1
104344,-66.6666666666667,4,3,27,5,0,1
104391,-66.6666666666667,4,3,27,70,0,1
104484,-133.333333333333,4,3,27,70,0,1
104671,-100,4,3,27,70,0,1
105419,-66.6666666666667,4,3,27,70,0,1
105559,-66.6666666666667,4,3,27,5,0,1
105606,-66.6666666666667,4,3,27,70,0,1
105652,-66.6666666666667,4,3,27,5,0,1
105699,-66.6666666666667,4,3,27,70,0,1
105839,-66.6666666666667,4,3,27,5,0,1
105886,-66.6666666666667,4,3,27,70,0,1
105933,-66.6666666666667,4,3,27,5,0,1
105979,-66.6666666666667,4,3,27,70,0,1
106166,-100,4,3,27,70,0,1
106447,-66.6666666666667,4,3,27,70,0,1
106727,-50,4,3,27,70,0,1
107194,-100,4,3,27,70,0,1
107662,-50,4,3,27,70,0,1
107895,-50,4,3,27,5,0,1
107942,-50,4,3,27,70,0,1
108176,-50,4,3,27,5,0,1
108222,-50,4,3,27,70,0,1
109157,-100,4,3,27,70,0,1
109437,-80,4,3,27,70,0,1
109718,-66.6666666666667,4,3,27,70,0,1
109905,-66.6666666666667,4,3,27,70,0,0
110652,-133.333333333333,4,3,27,70,0,0
111400,-133.333333333333,4,3,1,70,0,0
111774,-66.6666666666667,4,3,1,70,0,0
112895,-66.6666666666667,4,3,27,70,0,0
114204,-50,4,3,27,70,0,0
115886,-100,4,3,27,70,0,0
117101,-66.6666666666667,4,3,27,70,0,0
117334,-66.6666666666667,4,3,27,5,0,0
117381,-50,4,3,1,70,0,0
120372,-50,4,3,1,5,0,0

[Colours]
Combo1 : 233,220,150
Combo2 : 255,85,85
Combo3 : 254,233,84
Combo4 : 176,2,2

[HitObjects]
308,260,1494,6,0,B|304:230|291:197|291:197|342:185|385:171,1,162,6|0,1:0|3:0,3:0:0:0:
309,94,1680,2,0,B|348:62|386:15|386:15|448:80|504:132,1,270,6|0,1:0|3:0,3:0:0:0:
13,159,2802,6,0,P|9:141|4:126,6,33.75,0|0|0|0|0|0|0,1:0|1:0|1:0|1:0|1:0|1:0|1:0,1:0:0:0:
66,53,2989,6,0,P|88:120|107:209,1,162,6|0,1:0|3:0,3:0:0:0:
0,289,3176,2,0,P|132:317|261:356,1,270,6|0,1:0|3:0,3:0:0:0:
502,366,3643,6,0,L|493:333,1,33.75,0|0,1:0|3:0,3:0:0:0:
494,152,3830,1,0,1:0:0:0:
494,152,3877,1,0,1:0:0:0:
494,152,3923,2,0,P|492:231|418:259,1,168.75,4|0,1:0|3:0,3:0:0:0:
409,247,4110,2,0,P|390:182|268:175,1,202.5,4|0,1:0|3:0,3:0:0:0:
266,259,4297,6,0,P|283:263|299:268,6,33.75,2|0|0|0|0|0|0,1:0|3:0|1:0|3:0|1:0|3:0|1:0,3:0:0:0:
345,368,4484,6,0,P|264:342|181:326,1,168.75,6|0,1:0|3:0,3:0:0:0:
115,384,4671,2,0,B|101:345|74:307|74:307|143:249|191:164,1,270,6|0,1:0|3:0,3:0:0:0:
365,71,5419,6,0,P|368:54|373:39,2,33.75,4|0|0,1:0|3:0|1:0,3:0:0:0:
349,148,5512,1,0,1:0:0:0:
349,148,5559,1,0,3:0:0:0:
349,148,5606,5,0,1:0:0:0:
289,79,5699,1,0,1:0:0:0:
448,23,5793,1,0,1:0:0:0:
275,77,5886,1,0,1:0:0:0:
445,196,5979,6,0,P|424:261|410:326,1,135,6|0,1:0|3:0,3:0:0:0:
288,362,6166,5,0,1:0:0:0:
288,362,6213,1,0,1:0:0:0:
288,362,6260,2,0,P|302:296|322:231,1,135,6|0,1:0|3:0,3:0:0:0:
230,162,6447,5,0,1:0:0:0:
230,162,6493,1,0,1:0:0:0:
230,162,6540,2,0,P|210:226|195:292,1,135,6|0,1:0|3:0,3:0:0:0:
8,249,6727,6,0,P|5:265|0:281,2,33.75,0|0|0,1:0|3:0|1:0,3:0:0:0:
59,384,6821,2,0,P|84:282|109:188,1,202.5,6|0,1:0|3:0,3:0:0:0:
98,177,7008,2,0,L|106:144,2,33.75,0|0|0,3:0|3:0|3:0,3:0:0:0:
89,43,7101,6,0,L|101:0,1,45,0|0,3:0|3:0,3:0:0:0:
97,52,7194,2,0,L|111:0,1,54,0|0,3:0|3:0,3:0:0:0:
105,60,7288,2,0,L|121:0,1,63,0|0,3:0|3:0,3:0:0:0:
113,69,7381,2,0,L|132:0,1,72,0|0,3:0|3:0,3:0:0:0:
201,58,7475,6,0,B|263:74|263:74|275:131|275:131|338:148,1,189,4|0,1:0|3:0,3:0:0:0:
400,82,7662,2,0,L|392:49,2,31.5,0|0|0,1:0|3:0|1:0,3:0:0:0:
425,162,7755,5,0,1:0:0:0:
425,162,7802,1,0,1:0:0:0:
425,162,7849,2,0,L|445:238,1,63,6|0,1:0|3:0,3:0:0:0:
363,229,7942,2,0,L|383:305,1,63,0|0,1:0|3:0,3:0:0:0:
301,296,8036,2,0,L|321:372,1,63,0|0,1:0|3:0,3:0:0:0:
447,348,8129,6,0,B|348:321|348:321|335:271|335:271|237:245,1,252,6|8,1:0|3:0,3:0:0:0:
192,162,8363,5,0,3:0:0:0:
185,165,8409,2,0,B|130:208|130:208|172:363,1,216,6|8,1:0|3:0,3:0:0:0:
75,372,8643,5,0,3:0:0:0:
73,363,8690,2,0,B|21:169|21:169|90:115,1,288,6|8,1:0|3:0,3:0:0:0:
197,25,8970,6,0,L|324:58,1,126,6|0,1:0|3:0,3:0:0:0:
482,99,9157,2,0,L|513:106,6,31.5,0|0|0|0|0|0|0,1:0|3:0|1:0|3:0|1:0|3:0|1:0,3:0:0:0:
410,49,9344,6,0,L|393:109,1,63,6|0,1:0|3:0,3:0:0:0:
307,137,9437,2,0,L|323:197,1,63,0|0,1:0|3:0,3:0:0:0:
410,225,9531,2,0,L|393:287,1,63,0|0,1:0|3:0,3:0:0:0:
410,376,9624,6,0,B|322:352|322:352|311:307|311:307|260:294,1,189,6|0,1:0|3:0,3:0:0:0:
194,209,9811,5,8,1:0:0:0:
194,209,9858,1,8,1:0:0:0:
194,209,9905,2,0,B|162:324|162:324|195:344|197:383,1,189,14|0,1:0|3:0,3:0:0:0:
62,356,10092,5,8,1:0:0:0:
62,356,10138,1,8,1:0:0:0:
62,356,10185,2,0,B|97:222|97:222|60:199|58:156,1,216,14|0,1:0|3:0,3:0:0:0:
83,82,10372,5,8,1:0:0:0:
83,82,10419,1,8,1:0:0:0:
83,82,10465,5,14,1:0:0:0:
99,65,10528,1,0,1:0:0:0:
135,53,10590,1,0,1:0:0:0:
175,63,10652,1,8,1:0:0:0:
207,103,10715,1,0,1:0:0:0:
260,110,10777,1,0,1:0:0:0:
299,74,10839,5,0,1:0:0:0:
352,52,10902,1,0,1:0:0:0:
407,66,10964,1,0,1:0:0:0:
441,110,11026,1,0,1:0:0:0:
440,165,11089,1,0,1:0:0:0:
405,207,11151,1,0,1:0:0:0:
351,218,11213,5,6,1:0:0:0:
342,215,11260,1,0,1:0:0:0:
333,212,11307,1,0,1:0:0:0:
324,209,11353,1,0,1:0:0:0:
315,206,11400,1,0,1:0:0:0:
306,203,11447,1,0,1:0:0:0:
297,201,11493,1,0,1:0:0:0:
288,199,11540,1,0,1:0:0:0:
279,196,11587,2,0,L|246:204,14,22.5,6|0|0|0|0|0|0|0|0|0|0|0|0|0|0,1:0|1:0|1:0|1:0|1:0|1:0|1:0|1:0|1:0|1:0|1:0|1:0|1:0|1:0|1:0,1:0:0:0:
204,277,11961,6,0,P|179:266|167:242,1,54,0|0,1:0|3:0,3:0:0:0:
96,261,12054,2,0,P|87:238|94:215,1,49.5,0|0,3:0|3:0,3:0:0:0:
31,174,12148,2,0,P|39:154|59:144,1,45,0|0,3:0|3:0,3:0:0:0:
48,72,12241,2,0,P|66:64|84:71,1,40.5,0|0,3:0|3:0,3:0:0:0:
132,11,12335,2,0,P|147:17|155:33,1,36,0|0,3:0|3:0,3:0:0:0:
232,23,12428,2,0,P|237:37|232:51,1,31.5,0|0,3:0|3:0,3:0:0:0:
291,101,12522,2,0,P|285:112|274:118,1,27,0|0,3:0|3:0,3:0:0:0:
279,196,12615,2,0,P|268:200|258:196,1,22.5,0|0,3:0|3:0,3:0:0:0:
169,160,12708,6,0,P|162:130|175:158,8,90,6|0|0|0|0|0|0|0|8,1:0|3:0|3:0|3:0|3:0|3:0|3:0|3:0|3:0,3:0:0:0:
443,380,13082,2,0,P|440:174|333:350,1,551.25,6|0,1:0|3:0,3:0:0:0:
334,351,13456,6,0,P|350:326|349:297,1,58.4999999999999,4|0,1:0|3:0,3:0:0:0:
276,280,13643,2,0,P|260:303|260:332,1,58.4999999999999,0|0,3:0|3:0,3:0:0:0:
164,334,13830,5,4,1:0:0:0:
71,309,13923,1,0,1:0:0:0:
96,216,14017,1,0,1:0:0:0:
188,241,14110,1,0,1:0:0:0:
45,384,14204,6,0,L|0:214,1,175.5,0|0,1:0|3:0,3:0:0:0:
103,215,14391,2,0,L|57:45,1,175.5,0|0,1:0|3:0,3:0:0:0:
151,2,14578,6,0,P|206:-1|239:44,1,117,0|0,1:0|3:0,3:0:0:0:
193,140,14765,1,0,1:0:0:0:
193,140,14858,1,0,1:0:0:0:
293,202,14951,2,0,P|373:179|462:156,1,175.5,0|0,1:0|3:0,3:0:0:0:
477,155,15138,6,0,P|514:113|502:58,1,117,0|0,1:0|3:0,3:0:0:0:
348,299,15325,2,0,P|365:352|418:369,1,117,0|0,1:0|3:0,3:0:0:0:
290,113,15512,2,0,P|235:101|193:138,1,117,0|0,1:0|3:0,3:0:0:0:
143,322,15699,5,0,1:0:0:0:
164,244,15793,1,0,1:0:0:0:
164,244,15839,1,0,1:0:0:0:
164,244,15886,2,0,L|175:206,4,29.25,0|0|0|0|0,1:0|3:0|1:0|3:0|1:0,3:0:0:0:
62,384,16073,5,0,1:0:0:0:
48,334,16166,1,0,1:0:0:0:
28,260,16260,1,0,1:0:0:0:
2,161,16353,1,0,1:0:0:0:
74,49,16447,6,0,P|157:61|192:138,1,175.5,6|0,1:0|3:0,3:0:0:0:
116,163,16634,1,0,1:0:0:0:
220,365,16727,2,0,L|266:195,1,175.5,0|0,1:0|3:0,3:0:0:0:
313,34,16914,6,0,L|294:99,1,67.5000000000002,10|0,1:0|3:0,3:0:0:0:
408,315,17101,5,0,1:0:0:0:
408,315,17148,1,0,1:0:0:0:
408,315,17194,1,6,1:0:0:0:
502,289,17319,5,0,1:0:0:0:
507,192,17444,5,0,1:0:0:0:
416,158,17568,6,0,L|359:173,2,58.5,10|0|0,1:0|3:0|3:0,3:0:0:0:
266,195,17755,5,0,1:0:0:0:
254,198,17802,1,0,1:0:0:0:
243,201,17849,1,0,1:0:0:0:
232,204,17895,1,0,1:0:0:0:
220,207,17942,5,4,1:0:0:0:
132,264,18036,1,0,1:0:0:0:
59,185,18129,1,0,1:0:0:0:
147,128,18222,1,0,1:0:0:0:
45,280,18316,5,0,1:0:0:0:
45,280,18363,1,0,1:0:0:0:
45,280,18409,1,0,1:0:0:0:
45,280,18456,1,0,1:0:0:0:
45,280,18503,2,0,L|0:110,1,175.5,0|0,1:0|3:0,3:0:0:0:
31,26,18690,1,6,1:0:0:0:
28,15,18783,1,0,3:0:0:0:
143,36,18877,6,0,B|171:29|171:29|191:49,1,58.5,0|0,3:0|3:0,3:0:0:0:
512,193,19157,6,0,B|483:186|483:186|463:206,1,58.5,0|0,3:0|3:0,3:0:0:0:
129,336,19437,5,6,1:0:0:0:
226,377,19531,1,0,1:0:0:0:
286,291,19624,2,0,L|237:110,1,175.5,0|0,1:0|3:0,3:0:0:0:
316,96,19811,2,0,L|361:265,1,175.5,0|0,1:0|3:0,3:0:0:0:
351,353,19998,5,0,1:0:0:0:
402,384,20060,5,0,1:0:0:0:
460,371,20123,5,0,1:0:0:0:
492,318,20185,6,0,L|462:206,1,117,0|0,1:0|3:0,3:0:0:0:
110,49,20372,2,0,L|140:161,1,117,0|0,1:0|3:0,3:0:0:0:
33,135,20559,1,0,1:0:0:0:
33,135,20652,1,0,1:0:0:0:
107,248,20746,2,0,P|164:253|211:220,1,117,0|0,1:0|3:0,3:0:0:0:
356,161,20933,5,6,1:0:0:0:
281,31,21026,1,0,1:0:0:0:
253,133,21120,1,0,1:0:0:0:
382,58,21213,1,0,1:0:0:0:
278,277,21307,5,0,1:0:0:0:
287,275,21353,1,0,1:0:0:0:
296,273,21400,1,0,1:0:0:0:
305,270,21447,1,0,1:0:0:0:
315,268,21493,2,0,L|428:237,1,117,0|0,1:0|1:0,3:0:0:0:
508,133,21680,5,0,1:0:0:0:
85,20,21867,1,0,1:0:0:0:
473,359,22054,1,0,1:0:0:0:
50,246,22241,1,0,1:0:0:0:
147,216,22335,1,0,1:0:0:0:
198,311,22428,6,0,P|250:376|332:361,1,175.5,6|0,1:0|3:0,3:0:0:0:
403,271,22615,1,0,1:0:0:0:
313,178,22708,5,6,1:0:0:0:
313,178,22755,1,0,1:0:0:0:
313,178,22802,2,0,P|305:144|297:121,2,58.5,0|0|0,1:0|1:0|1:0,3:0:0:0:
438,166,22989,1,0,1:0:0:0:
412,278,23082,1,0,1:0:0:0:
464,54,23176,6,0,B|412:4|412:4|295:36,1,175.5,6|0,1:0|3:0,3:0:0:0:
302,38,23363,1,0,1:0:0:0:
190,15,23456,1,6,1:0:0:0:
190,15,23503,1,0,1:0:0:0:
190,15,23550,2,0,L|125:-2,2,58.5,0|0|0,1:0|1:0|1:0,3:0:0:0:
218,121,23736,5,0,1:0:0:0:
111,190,23830,1,0,1:0:0:0:
111,190,23877,1,0,1:0:0:0:
111,190,23923,2,0,L|66:359,1,175.5,6|0,1:0|3:0,3:0:0:0:
158,351,24110,2,0,L|194:215,1,117,0|0,1:0|3:0,3:0:0:0:
30,148,24297,2,2,P|-7:105|3:50,1,117,0|0,1:0|3:0,3:0:0:0:
95,84,24484,1,0,1:0:0:0:
101,77,24578,1,0,1:0:0:0:
218,121,24671,5,6,1:0:0:0:
315,3,24765,1,0,1:0:0:0:
418,73,24858,1,0,1:0:0:0:
464,7,24951,1,0,1:0:0:0:
4,364,25419,5,4,1:0:0:0:
428,384,27662,5,8,3:0:0:0:
461,367,27755,1,8,3:0:0:0:
489,324,27849,1,8,3:0:0:0:
482,266,27942,1,8,3:0:0:0:
427,218,28036,2,0,B|373:180|314:202|265:250|284:309|344:334|379:284,1,270,10|0,3:0|3:0,3:0:0:0:
387,283,28363,5,0,3:0:0:0:
386,283,28409,2,0,P|330:267|274:252,1,117,4|0,1:0|3:0,3:0:0:0:
143,374,28596,6,0,P|89:307|103:223,1,175.5,0|0,1:0|3:0,3:0:0:0:
2,199,28783,2,0,P|48:127|132:114,1,175.5,0|0,1:0|3:0,3:0:0:0:
193,186,28970,5,0,3:0:0:0:
251,125,29064,2,0,L|242:96,4,29.25,0|0|0|0|0,1:0|3:0|1:0|3:0|1:0,3:0:0:0:
312,23,29251,2,0,P|328:79|342:135,1,117,0|0,1:0|3:0,0:0:0:0:
386,283,29437,5,0,1:0:0:0:
386,283,29531,1,0,1:0:0:0:
470,218,29624,1,0,1:0:0:0:
322,364,29718,1,0,1:0:0:0:
317,360,29765,1,0,1:0:0:0:
312,356,29811,1,0,1:0:0:0:
307,352,29858,1,0,1:0:0:0:
302,348,29905,6,0,P|245:333|188:317,1,117,6|0,1:0|1:0,3:0:0:0:
10,270,30092,1,0,1:0:0:0:
103,306,30185,1,0,1:0:0:0:
103,306,30232,1,0,3:0:0:0:
103,306,30279,2,0,L|94:277,6,29.25,0|0|0|0|0|0|0,1:0|3:0|1:0|3:0|1:0|3:0|1:0,3:0:0:0:
173,211,30465,5,0,1:0:0:0:
24,372,30559,1,0,1:0:0:0:
52,132,30652,6,0,B|42:149|33:161|33:161|50:173|70:201,1,90,8|0,3:0|3:0,3:0:0:0:
398,32,30933,6,0,B|388:14|381:0|381:0|362:10|328:13,1,90,8|0,3:0|3:0,3:0:0:0:
312,381,31213,6,0,B|331:381|347:382|347:382|348:361|362:330,1,90,8|0,3:0|3:0,3:0:0:0:
193,86,31400,6,0,P|217:162|238:255,1,175.5,6|0,1:0|3:0,3:0:0:0:
251,261,31587,2,0,P|335:243|356:162,1,175.5,0|0,1:0|3:0,3:0:0:0:
295,113,31774,1,0,1:0:0:0:
103,367,31961,1,0,1:0:0:0:
15,328,32054,1,0,1:0:0:0:
94,270,32148,5,0,1:0:0:0:
142,278,32210,5,0,1:0:0:0:
181,306,32272,5,0,1:0:0:0:
199,350,32335,6,0,L|311:380,1,117,0|0,1:0|3:0,3:0:0:0:
469,195,32522,2,0,L|356:164,1,117,0|0,1:0|3:0,3:0:0:0:
433,88,32708,1,0,1:0:0:0:
431,77,32802,1,0,1:0:0:0:
467,295,32895,6,0,P|391:275|297:249,1,175.5,6|0,1:0|3:0,3:0:0:0:
223,228,33082,2,0,P|194:179|214:126,1,117,0|0,1:0|3:0,3:0:0:0:
284,68,33269,5,0,1:0:0:0:
288,57,33363,1,0,1:0:0:0:
204,3,33456,2,0,B|148:1|124:52|144:39|117:89|62:89,1,175.5,0|0,3:0|3:0,3:0:0:0:
7,37,33643,5,0,3:0:0:0:
113,173,33736,1,0,1:0:0:0:
113,173,33783,1,0,1:0:0:0:
113,173,33830,2,0,L|104:201,4,29.25,0|0|0|0|0,1:0|1:0|1:0|1:0|1:0,1:0:0:0:
86,282,34017,5,0,1:0:0:0:
9,235,34110,1,0,1:0:0:0:
171,337,34204,1,0,1:0:0:0:
171,337,34251,1,0,3:0:0:0:
171,337,34297,1,0,1:0:0:0:
223,228,34391,6,0,L|210:184,8,45,6|0|0|0|0|0|0|0|0,1:0|3:0|1:0|3:0|1:0|3:0|1:0|3:0|1:0,3:0:0:0:
471,335,34671,2,0,L|484:291,8,45,6|0|0|0|0|0|0|0|0,1:0|3:0|1:0|3:0|1:0|3:0|1:0|3:0|1:0,1:0:0:0:
391,195,34951,5,6,1:0:0:0:
347,383,35045,1,0,1:0:0:0:
347,383,35092,1,0,1:0:0:0:
347,383,35138,2,0,P|338:335|320:285,1,101.25,2|0,1:0|3:0,3:0:0:0:
478,179,35325,5,0,3:0:0:0:
453,132,35388,5,0,3:0:0:0:
403,107,35450,5,0,3:0:0:0:
353,115,35512,5,2,3:0:0:0:
281,175,35606,1,2,3:0:0:0:
232,74,35699,1,2,3:0:0:0:
128,151,35793,1,0,3:0:0:0:
5,46,35886,6,0,L|50:215,1,175.5,6|0,1:0|3:0,3:0:0:0:
55,231,36073,2,0,L|85:344,1,117,0|2,1:0|3:0,3:0:0:0:
281,175,36260,2,0,L|311:287,1,117,0|2,1:0|3:0,3:0:0:0:
392,203,36447,1,0,1:0:0:0:
410,362,36540,6,0,P|341:343|240:316,1,175.5,2|0,1:0|3:0,3:0:0:0:
180,260,36727,1,2,1:0:0:0:
176,249,36821,1,0,1:0:0:0:
512,118,37008,1,0,1:0:0:0:
123,4,37194,1,0,1:0:0:0:
71,80,37288,1,2,1:0:0:0:
147,154,37381,6,0,L|316:108,1,175.5,6|0,1:0|3:0,3:0:0:0:
324,93,37568,2,0,L|437:62,1,117,0|2,1:0|3:0,3:0:0:0:
240,316,37755,2,0,L|352:285,1,117,0|2,1:0|3:0,3:0:0:0:
270,215,37942,1,0,1:0:0:0:
163,371,38036,6,0,P|82:367|60:287,1,175.5,4|0,1:0|3:0,3:0:0:0:
152,279,38222,1,2,1:0:0:0:
147,285,38316,1,0,1:0:0:0:
73,203,38409,1,2,1:0:0:0:
199,97,38503,1,0,1:0:0:0:
464,340,38690,2,0,P|473:307|459:339,1,101.25,0|0,3:0|3:0,3:0:0:0:
407,227,38877,6,0,L|452:58,1,175.5,6|0,1:0|3:0,3:0:0:0:
438,33,39064,2,0,L|408:146,1,117,0|2,1:0|3:0,3:0:0:0:
244,313,39251,2,0,L|274:201,1,117,0|2,1:0|3:0,3:0:0:0:
111,120,39437,1,0,1:0:0:0:
13,269,39531,6,0,L|182:223,1,175.5,2|0,1:0|3:0,3:0:0:0:
284,195,39718,1,2,1:0:0:0:
288,184,39811,1,0,1:0:0:0:
11,58,39998,1,0,1:0:0:0:
359,378,40185,1,0,1:0:0:0:
464,340,40279,1,2,1:0:0:0:
457,230,40372,6,0,L|288:184,1,175.5,6|0,1:0|3:0,3:0:0:0:
275,183,40559,2,0,P|331:169|388:152,1,117,0|2,1:0|3:0,3:0:0:0:
183,344,40746,2,0,P|127:358|70:375,1,117,0|2,1:0|3:0,3:0:0:0:
110,269,40933,1,0,1:0:0:0:
272,336,41026,6,0,B|274:280|223:256|236:276|186:249|186:194,1,175.5,4|0,1:0|3:0,3:0:0:0:
225,121,41213,1,2,1:0:0:0:
228,111,41307,1,0,1:0:0:0:
166,36,41400,1,2,1:0:0:0:
323,69,41493,6,0,L|355:60,3,33.7500000000001,0|0|0|0,1:0|3:0|3:0|3:0,3:0:0:0:
121,134,41680,2,0,L|62:150,3,58.5,0|0|0|0,3:0|3:0|3:0|3:0,3:0:0:0:
298,189,41867,6,0,L|500:135,1,202.5,6|0,1:0|3:0,3:0:0:0:
497,121,42054,2,0,L|368:156,1,135,8|2,1:0|3:0,3:0:0:0:
141,370,42241,2,0,L|271:336,1,135,0|2,1:0|3:0,3:0:0:0:
389,309,42428,1,8,1:0:0:0:
211,207,42522,6,0,P|149:138|165:35,1,202.5,2|0,1:0|3:0,3:0:0:0:
243,12,42708,1,2,1:0:0:0:
247,0,42802,1,8,1:0:0:0:
512,118,42989,1,0,1:0:0:0:
74,283,43176,1,8,1:0:0:0:
15,153,43269,1,2,1:0:0:0:
15,153,43316,1,0,1:0:0:0:
15,153,43363,6,0,L|217:208,1,202.5,6|0,1:0|3:0,3:0:0:0:
224,202,43550,2,0,L|354:166,1,135,8|2,1:0|3:0,3:0:0:0:
338,381,43736,2,0,L|468:345,1,135,0|2,1:0|3:0,3:0:0:0:
346,274,43923,1,8,1:0:0:0:
439,155,44017,6,0,L|430:123,6,33.75,2|0|0|0|0|0|0,1:0|1:0|1:0|1:0|1:0|1:0|1:0,1:0:0:0:
462,236,44204,1,2,1:0:0:0:
406,45,44297,1,8,1:0:0:0:
464,245,44391,5,2,1:0:0:0:
403,35,44484,1,0,1:0:0:0:
104,365,44671,2,0,P|94:320|113:362,1,135,8|0,1:0|3:0,3:0:0:0:
157,244,44858,6,0,L|103:41,1,202.5,6|0,1:0|3:0,3:0:0:0:
88,41,45045,2,0,L|124:176,1,135,8|2,1:0|3:0,3:0:0:0:
388,296,45232,2,0,L|353:165,1,135,0|2,1:0|3:0,3:0:0:0:
238,168,45419,1,8,1:0:0:0:
53,301,45512,6,0,L|255:356,1,202.5,2|0,1:0|3:0,3:0:0:0:
293,287,45699,1,2,1:0:0:0:
290,278,45793,1,8,1:0:0:0:
1,119,45979,1,0,1:0:0:0:
445,0,46166,1,8,1:0:0:0:
512,133,46260,1,2,1:0:0:0:
512,133,46307,1,0,1:0:0:0:
512,133,46353,6,0,L|309:77,1,202.5,6|0,1:0|3:0,3:0:0:0:
318,91,46540,2,0,L|182:53,1,135,8|2,1:0|3:0,3:0:0:0:
423,322,46727,2,0,L|287:284,1,135,0|2,1:0|3:0,3:0:0:0:
87,230,46914,1,8,1:0:0:0:
210,326,47008,6,0,L|174:195,1,135,6|0,3:0|1:0,3:0:0:0:
418,81,47194,1,2,3:0:0:0:
382,212,47288,1,8,1:0:0:0:
346,343,47381,1,2,3:0:0:0:
303,213,47475,6,0,L|291:174,6,33.75,0|0|0|0|2|0|0,1:0|3:0|3:0|3:0|3:0|3:0|3:0,3:0:0:0:
451,254,47662,2,0,L|479:225,6,33.75,8|0|0|0|2|0|0,1:0|3:0|3:0|3:0|3:0|3:0|3:0,3:0:0:0:
269,384,47849,6,0,B|256:349|221:335|191:352|191:352|146:375|84:360|54:319|58:255|87:215|129:199|172:208|172:208|165:219|260:217|312:121|288:13|177:-31|85:14|82:101|157:119,1,810,2|0,1:0|3:0,3:0:0:0:
157,283,48783,6,0,L|141:225,2,60,0|0|0,3:0|0:0|0:0,3:0:0:0:
262,219,48970,2,0,L|250:176,2,45.0000000000001,0|0|0,3:0|0:0|0:0,3:0:0:0:
367,155,49157,2,0,L|356:115,2,30,0|0|0,3:0|0:0|0:0,3:0:0:0:
340,56,49344,5,0,1:0:0:0:
344,43,49406,1,0,1:0:0:0:
359,26,49469,1,0,1:0:0:0:
382,10,49531,1,0,1:0:0:0:
426,0,49593,1,0,1:0:0:0:
475,19,49655,1,0,1:0:0:0:
511,69,49718,1,0,1:0:0:0:
502,136,49780,5,0,1:0:0:0:
461,157,49842,1,0,1:0:0:0:
467,194,49905,1,0,1:0:0:0:
444,208,49967,1,0,1:0:0:0:
443,227,50029,1,0,1:0:0:0:
436,238,50092,1,0,1:0:0:0:
256,192,50138,12,0,50793,3:0:0:0:
235,107,50839,5,6,1:0:0:0:
258,16,50933,1,0,1:0:0:0:
325,130,51026,1,0,1:0:0:0:
349,40,51120,1,0,1:0:0:0:
154,188,51213,6,0,L|123:74,1,117,0|0,1:0|1:0,3:0:0:0:
48,151,51400,1,0,1:0:0:0:
253,207,51493,1,0,1:0:0:0:
253,207,51540,1,0,1:0:0:0:
253,207,51587,6,0,L|365:237,1,117,0|0,1:0|1:0,3:0:0:0:
475,208,51774,1,0,1:0:0:0:
504,318,51867,1,0,1:0:0:0:
504,318,51914,1,0,1:0:0:0:
504,318,51961,1,0,1:0:0:0:
394,347,52054,1,0,1:0:0:0:
394,347,52101,1,0,1:0:0:0:
394,347,52148,2,0,L|281:316,1,117,0|0,1:0|1:0,3:0:0:0:
55,254,52335,5,6,1:0:0:0:
168,285,52428,1,0,1:0:0:0:
42,248,52522,2,0,P|9:295|13:352,1,117,0|0,1:0|1:0,3:0:0:0:
253,207,52708,1,0,1:0:0:0:
253,207,52755,1,0,1:0:0:0:
253,207,52802,1,0,1:0:0:0:
253,207,52849,1,0,1:0:0:0:
253,207,52895,2,0,P|285:159|281:102,1,117,0|0,1:0|1:0,3:0:0:0:
119,100,53082,6,0,L|110:69,6,29.25,2|0|0|0|0|0|0,1:0|1:0|1:0|1:0|1:0|1:0|1:0,1:0:0:0:
143,192,53269,1,0,1:0:0:0:
168,285,53363,2,0,L|176:315,6,29.25,2|0|0|0|0|0|0,1:0|1:0|1:0|1:0|1:0|1:0|1:0,1:0:0:0:
252,206,53550,6,0,B|352:149|352:149|412:252,1,234,12|0,1:0|3:0,3:0:0:0:
298,356,53830,6,0,B|264:297|264:297|322:263|322:263|356:322|356:322|298:356,1,270,4|0,1:0|3:0,3:0:0:0:
327,110,54204,6,0,B|314:87|314:87|392:12|392:12|422:116|422:116|400:130,1,270,8|0,1:0|3:0,3:0:0:0:
346,191,54484,1,0,3:0:0:0:
346,191,54578,1,2,1:0:0:0:
346,191,54671,1,2,3:0:0:0:
252,206,54765,5,2,3:0:0:0:
218,134,54858,2,0,P|196:126|175:120,1,45
75,56,54951,6,0,B|89:107|89:107|12:164|12:164|26:216,1,202.5,8|0,1:0|3:0,3:0:0:0:
109,238,55138,1,0,3:0:0:0:
111,229,55232,1,2,3:0:0:0:
42,354,55325,6,0,B|179:314|179:314|207:337|207:337|314:306,1,270,4|0,1:0|3:0,3:0:0:0:
375,362,55606,1,0,3:0:0:0:
227,239,55699,6,0,B|290:223|290:223|293:218|293:218|355:201,1,135,8|0,1:0|3:0,3:0:0:0:
454,285,55886,2,0,B|471:223|471:223|476:220|476:220|492:157,1,135,2|0,3:0|3:0,3:0:0:0:
418,0,56073,5,0,1:0:0:0:
325,24,56166,1,0,0:0:0:0:
232,49,56260,2,0,B|139:73|139:73|124:112,1,135,0|0,0:0|3:0,3:0:0:0:
204,141,56400,5,0,3:0:0:0:
209,145,56447,2,0,L|304:119,1,90,8|0,1:0|3:0,3:0:0:0:
148,338,56634,2,0,L|14:373,1,135,2|2,1:0|3:0,3:0:0:0:
352,281,56821,5,6,1:0:0:0:
328,371,56914,1,0,1:0:0:0:
238,348,57008,1,0,1:0:0:0:
261,257,57101,1,0,1:0:0:0:
424,370,57194,6,0,L|454:257,1,117,0|0,1:0|1:0,3:0:0:0:
484,144,57381,1,0,1:0:0:0:
371,113,57475,1,0,1:0:0:0:
371,113,57522,1,0,1:0:0:0:
371,113,57568,6,0,L|259:83,1,117,0|0,1:0|1:0,3:0:0:0:
29,20,57755,1,0,1:0:0:0:
143,51,57849,1,0,1:0:0:0:
143,51,57895,1,0,1:0:0:0:
143,51,57942,1,0,1:0:0:0:
112,164,58036,1,0,1:0:0:0:
112,164,58082,1,0,1:0:0:0:
112,164,58129,2,0,L|-1:195,1,117,0|0,1:0|1:0,3:0:0:0:
130,260,58316,5,6,1:0:0:0:
18,290,58409,1,0,1:0:0:0:
147,253,58503,2,0,P|179:299|175:357,1,117,0|0,1:0|1:0,3:0:0:0:
272,184,58690,1,0,1:0:0:0:
272,184,58736,1,0,1:0:0:0:
272,184,58783,1,0,1:0:0:0:
272,184,58830,1,0,1:0:0:0:
272,184,58877,2,0,P|239:137|243:79,1,117,0|0,1:0|1:0,3:0:0:0:
421,28,59064,6,0,L|430:-3,6,29.25,2|0|0|0|0|0|0,1:0|1:0|1:0|1:0|1:0|1:0|1:0,1:0:0:0:
397,120,59251,1,0,1:0:0:0:
372,213,59344,2,0,L|364:243,6,29.25,2|0|0|0|0|0|0,1:0|1:0|1:0|1:0|1:0|1:0|1:0,1:0:0:0:
422,328,59531,6,0,B|357:326|325:383|325:383|326:318|270:287,1,234,12|0,1:0|3:0,3:0:0:0:
129,174,59811,6,0,B|84:168|46:196|39:247|39:247|83:175|169:192|149:223|225:250|272:183,1,393.75,4|0,1:0|3:0,3:0:0:0:
271,167,60185,6,0,P|246:133|204:142,1,90,2|0,3:0|0:0,3:0:0:0:
120,352,60372,5,4,1:0:0:0:
154,345,60434,5,0,1:0:0:0:
142,379,60497,5,0,1:0:0:0:
139,358,60559,6,0,P|84:209|12:122,1,270,14|2,1:0|3:0,3:0:0:0:
94,83,60793,1,0,3:0:0:0:
100,81,60839,2,0,B|123:54|132:22|132:22|123:54|131:89,1,135,0|2,3:0|3:0,3:0:0:0:
41,2,61026,5,0,1:0:0:0:
41,2,61073,1,0,1:0:0:0:
41,2,61120,1,2,1:0:0:0:
218,48,61213,1,0,1:0:0:0:
25,213,61307,6,0,B|88:229|88:229|91:234|91:234|153:251,1,135,4|0,1:0|3:0,3:0:0:0:
469,22,61587,2,0,B|406:38|406:38|403:43|403:43|341:60,1,135,4|0,1:0|3:0,3:0:0:0:
369,329,61867,5,2,1:0:0:0:
402,334,61930,5,0,1:0:0:0:
377,361,61992,5,0,1:0:0:0:
383,339,62054,6,0,P|387:273|347:220,1,135,12|0,1:0|0:0,3:0:0:0:
295,370,62241,2,0,P|256:316|260:250,1,135,2|0,3:0|0:0,3:0:0:0:
239,25,62428,6,0,P|234:2|243:23,1,67.5,0|0,1:0|0:0,3:0:0:0:
90,150,62802,5,6,1:0:0:0:
203,120,62895,2,0,L|270:101,2,58.5,2|0|0,1:0|1:0|1:0,3:0:0:0:
80,153,63082,1,2,1:0:0:0:
184,263,63176,5,4,1:0:0:0:
71,293,63269,2,0,L|4:311,2,58.5,2|0|0,1:0|3:0|1:0,3:0:0:0:
210,267,63456,1,4,1:0:0:0:
210,267,63503,1,0,1:0:0:0:
210,267,63550,6,0,L|379:221,1,175.5,0|0,1:0|3:0,3:0:0:0:
455,199,63736,1,4,1:0:0:0:
459,190,63830,1,0,1:0:0:0:
445,336,63923,6,0,P|412:340|388:318,1,67.5,0|0,3:0|3:0,3:0:0:0:
293,51,64297,5,6,1:0:0:0:
163,17,64391,2,0,L|95:-1,2,58.5,2|0|0,1:0|1:0|1:0,3:0:0:0:
302,54,64578,1,2,1:0:0:0:
110,153,64671,6,0,L|42:135,2,58.5,2|0|0,1:0|1:0|1:0,3:0:0:0:
249,190,64858,1,2,1:0:0:0:
102,146,64951,1,4,1:0:0:0:
102,146,64998,1,0,1:0:0:0:
102,145,65045,2,0,P|32:194|28:279,1,175.5,0|0,1:0|3:0,3:0:0:0:
76,347,65232,1,4,1:0:0:0:
76,347,65325,1,0,1:0:0:0:
212,305,65419,6,0,B|252:320|233:333|270:346,1,67.5,0|0,3:0|3:0,3:0:0:0:
474,154,65793,5,4,1:0:0:0:
435,301,65886,2,0,B|427:328|427:328|429:331|429:331|422:358,2,58.5,2|0|0,1:0|3:0|1:0,3:0:0:0:
478,142,66073,1,2,1:0:0:0:
335,260,66166,6,0,B|328:233|328:233|330:230|330:230|323:203,2,58.5,0|0|2,1:0|1:0|1:0,3:0:0:0:
281,39,66353,1,0,1:0:0:0:
285,29,66447,1,2,1:0:0:0:
153,150,66540,6,0,B|179:158|179:158|182:155|182:155|209:162,4,58.5,4|0|2|0|0,1:0|1:0|1:0|1:0|1:0,3:0:0:0:
298,111,66821,1,2,1:0:0:0:
239,264,66914,6,0,B|212:256|212:256|209:258|209:258|183:251,4,58.5,0|0|2|0|0,1:0|1:0|1:0|1:0|1:0,3:0:0:0:
94,304,67194,1,2,1:0:0:0:
329,278,67288,5,4,1:0:0:0:
329,278,67335,1,0,1:0:0:0:
329,278,67381,1,2,1:0:0:0:
356,370,67475,1,4,1:0:0:0:
356,370,67522,1,0,1:0:0:0:
356,370,67568,1,2,1:0:0:0:
429,219,67662,5,4,1:0:0:0:
429,219,67708,1,0,1:0:0:0:
429,219,67755,1,2,1:0:0:0:
456,311,67849,1,4,1:0:0:0:
456,311,67895,1,0,1:0:0:0:
456,311,67942,1,2,1:0:0:0:
256,192,68036,12,0,68877,3:0:0:0:
69,27,69344,6,0,B|47:47|47:47|88:86|88:86|73:142|73:142|94:175,1,180,10|0,3:0|3:0,3:0:0:0:
109,339,69531,5,14,1:0:0:0:
127,352,69593,1,0,2:0:0:0:
148,363,69655,1,0,2:0:0:0:
171,369,69718,1,0,2:0:0:0:
194,371,69780,1,0,2:0:0:0:
217,368,69842,1,0,2:0:0:0:
240,362,69905,1,0,2:0:0:0:
261,351,69967,1,0,2:0:0:0:
279,337,70029,1,0,2:0:0:0:
295,319,70092,1,0,2:0:0:0:
307,299,70154,1,0,2:0:0:0:
315,278,70216,1,0,2:0:0:0:
318,255,70279,6,0,P|316:225|303:198,2,60,2|0|0,1:0|2:0|2:0,2:0:0:0:
406,168,70465,2,0,P|407:198|420:225,2,60,0|0|0,2:0|2:0|2:0,3:0:0:0:
213,138,70652,6,0,P|200:111|200:82,2,60,0|0|0,2:0|2:0|2:0,3:0:0:0:
447,27,70839,2,0,P|460:54|461:84,2,60,0|0|0,2:0|2:0|2:0,3:0:0:0:
312,17,71026,5,8,2:0:0:0:
318,41,71089,1,0,2:0:0:0:
324,66,71151,1,0,2:0:0:0:
331,91,71213,1,0,2:0:0:0:
337,116,71275,1,0,2:0:0:0:
345,140,71338,1,0,2:0:0:0:
351,166,71400,1,0,2:0:0:0:
358,191,71462,1,0,2:0:0:0:
366,224,71525,1,0,2:0:0:0:
373,249,71587,1,2,1:0:0:0:
380,274,71649,1,0,2:0:0:0:
387,299,71712,1,0,2:0:0:0:
392,322,71774,6,0,P|414:338|445:335,2,60,8|0|0,2:0|2:0|2:0,3:0:0:0:
266,187,71961,2,0,P|243:171|212:173,2,60,0|0|0,2:0|2:0|2:0,3:0:0:0:
225,362,72148,6,0,P|195:365|171:348,2,60,2|0|0,1:0|2:0|2:0,3:0:0:0:
433,147,72335,2,0,P|461:144|485:160,2,60,0|0|0,2:0|2:0|2:0,3:0:0:0:
197,82,72522,5,2,1:0:0:0:
166,74,72584,1,0,2:0:0:0:
137,82,72646,1,0,2:0:0:0:
114,100,72708,1,0,2:0:0:0:
99,126,72771,1,0,2:0:0:0:
98,155,72833,1,0,2:0:0:0:
107,183,72895,1,0,2:0:0:0:
116,211,72958,1,0,2:0:0:0:
115,240,73020,1,0,2:0:0:0:
101,266,73082,1,2,1:0:0:0:
78,285,73145,1,0,2:0:0:0:
50,292,73207,1,0,2:0:0:0:
20,284,73269,6,0,P|4:259|7:230,2,60,10|0|0,1:0|2:0|2:0,3:0:0:0:
155,344,73456,2,0,P|172:321|201:315,2,60,0|0|0,2:0|2:0|2:0,3:0:0:0:
16,124,73643,6,0,P|20:95|4:71,2,60,8|0|0,2:0|2:0|2:0,3:0:0:0:
304,301,73830,2,0,P|332:294|350:272,2,60,0|0|0,2:0|2:0|2:0,3:0:0:0:
202,3,74017,5,10,1:0:0:0:
192,39,74079,1,0,2:0:0:0:
182,74,74141,1,0,2:0:0:0:
190,88,74204,5,0,2:0:0:0:
180,124,74266,1,0,2:0:0:0:
170,160,74328,1,0,2:0:0:0:
178,174,74391,5,0,2:0:0:0:
168,209,74453,1,0,2:0:0:0:
158,245,74515,1,0,2:0:0:0:
166,259,74578,5,2,1:0:0:0:
156,294,74640,1,0,2:0:0:0:
147,331,74702,1,0,2:0:0:0:
155,344,74765,6,0,L|212:327,2,60,10|0|0,1:0|2:0|2:0,3:0:0:0:
380,279,74951,2,0,L|437:263,2,60,0|0|0,2:0|2:0|2:0,3:0:0:0:
147,263,75138,6,0,L|89:280,2,60,2|0|0,1:0|2:0|2:0,3:0:0:0:
405,189,75325,2,0,L|485:167,2,60,0|0|0,2:0|2:0|2:0,3:0:0:0:
269,83,75512,6,0,B|305:21|380:37|380:37|263:89|265:222,1,360,14|0,1:0|2:0,3:0:0:0:
181,125,76073,1,2,1:0:0:0:
303,345,76260,6,0,B|292:221|168:215|202:247|78:241|68:118,1,360,6|0,1:0|2:0,3:0:0:0:
155,4,76821,1,2,1:0:0:0:
195,340,77008,5,14,1:0:0:0:
397,297,77194,1,8,2:0:0:0:
181,371,77381,5,0,2:0:0:0:
423,319,77568,1,2,1:0:0:0:
175,95,77755,6,0,P|87:156|94:264,1,225,14|0,1:0|3:0,0:0:0:0:
95,277,78036,2,0,P|192:322|282:262,1,225,6|0,1:0|3:0,0:0:0:0:
291,257,78316,1,4,1:0:0:0:
189,211,78409,1,4,1:0:0:0:
189,211,78456,1,0,3:0:0:0:
189,211,78503,5,6,1:0:0:0:
466,99,78690,1,0,1:0:0:0:
85,11,78877,1,0,1:0:0:0:
512,268,79064,1,0,1:0:0:0:
455,347,79157,1,0,1:0:0:0:
364,301,79251,6,0,L|375:257,3,45,6|0|0|0,1:0|3:0|0:0|3:0,0:0:0:0:
332,183,79437,2,0,L|320:139,3,45,0|0|0|0,1:0|3:0|0:0|3:0,0:0:0:0:
409,0,79624,5,0,1:0:0:0:
387,78,79718,1,0,1:0:0:0:
466,99,79811,1,0,1:0:0:0:
486,22,79905,1,0,1:0:0:0:
296,53,79998,5,6,1:0:0:0:
320,139,80092,1,0,1:0:0:0:
210,77,80185,1,0,1:0:0:0:
234,163,80279,1,0,1:0:0:0:
49,110,80372,5,0,1:0:0:0:
117,231,80465,1,0,1:0:0:0:
22,204,80559,1,0,1:0:0:0:
143,136,80652,1,0,1:0:0:0:
73,307,80746,6,0,P|59:323|49:345,1,45,6|0,1:0|1:0,3:0:0:0:
80,311,80839,2,0,P|74:331|73:355,1,45,0|0,1:0|1:0,3:0:0:0:
88,312,80933,2,0,P|91:333|100:355,1,45,0|0,1:0|1:0,3:0:0:0:
95,308,81026,2,0,P|106:326|123:342,1,45,0|0,1:0|1:0,3:0:0:0:
189,280,81120,6,0,P|216:279|241:291,1,56.25,0|0,1:0|1:0,3:0:0:0:
274,225,81213,2,0,P|275:253|263:278,1,56.25,0|0,1:0|1:0,3:0:0:0:
328,312,81307,2,0,P|300:312|275:300,1,56.25,0|0,1:0|1:0,3:0:0:0:
242,366,81400,2,0,P|241:338|253:313,1,56.25,0|0,1:0|1:0,3:0:0:0:
321,147,81493,5,4,0:0:0:0:
426,136,84484,6,0,B|393:75|448:28|469:59|500:42|517:0|517:0|443:238|509:4|431:249,1,450,6|0,1:0|3:0,3:0:0:0:
323,332,85045,5,0,1:0:0:0:
345,312,85107,5,0,1:0:0:0:
351,341,85170,5,0,1:0:0:0:
340,328,85232,6,0,B|388:332|406:369|406:369|382:297|315:269|244:309,1,281.25,6|0,1:0|3:0,3:0:0:0:
181,351,85512,2,0,P|76:342|57:239,1,225,0|0,3:0|0:0,3:0:0:0:
183,23,85793,5,0,1:0:0:0:
224,28,85855,5,0,1:0:0:0:
262,58,85917,5,0,1:0:0:0:
276,113,85979,6,0,P|149:54|22:21,1,270,6|0,1:0|3:0,3:0:0:0:
422,320,86260,2,0,P|456:189|513:67,1,270,6|0,1:0|3:0,3:0:0:0:
57,239,86540,2,0,P|39:304|11:365,1,135,6|0,1:0|3:0,3:0:0:0:
252,230,86727,5,4,1:0:0:0:
79,190,87288,6,0,P|77:174|84:166,1,27,0|0,3:0|3:0,3:0:0:0:
44,101,87381,2,0,P|61:87|83:89,1,45,0|0,3:0|3:0,3:0:0:0:
119,21,87475,6,0,B|154:30|160:67|150:55|157:93|192:103,1,117,4|2,1:0|3:0,3:0:0:0:
305,40,87662,1,8,1:0:0:0:
193,113,87755,1,2,3:0:0:0:
328,141,87849,2,0,B|386:158|386:158|398:211|398:211|456:226,1,175.5,0|0,1:0|3:0,3:0:0:0:
472,229,88036,2,0,P|507:190|497:131,1,117,8|2,1:0|3:0,3:0:0:0:
315,240,88222,6,0,P|258:255|201:269,1,117,0|2,1:0|3:0,3:0:0:0:
285,352,88409,1,8,1:0:0:0:
97,188,88503,6,0,P|80:244|65:300,1,117,2|0,3:0|1:0,3:0:0:0:
201,269,88690,1,2,3:0:0:0:
116,102,88783,2,0,P|58:106|18:146,1,117,8|2,1:0|3:0,3:0:0:0:
243,174,88970,6,0,B|295:163|307:110|291:127|305:74|357:62,1,168.75,0|0,1:0|3:0,3:0:0:0:
370,64,89157,1,8,1:0:0:0:
213,86,89251,6,0,B|277:68|312:126|287:116|322:173|386:156,1,202.5,2|0,3:0|3:0,3:0:0:0:
447,101,89437,1,2,3:0:0:0:
318,239,89531,5,8,1:0:0:0:
277,0,89624,1,2,3:0:0:0:
315,247,89718,6,0,B|334:362,1,117,0|2,1:0|3:0,3:0:0:0:
447,101,89905,2,0,P|478:151|466:204,1,117,8|2,1:0|3:0,3:0:0:0:
161,257,90092,2,0,P|130:208|142:153,1,117,0|2,1:0|3:0,3:0:0:0:
370,64,90279,5,8,1:0:0:0:
237,291,90372,1,2,1:0:0:0:
277,0,90465,6,0,L|296:115,1,117,0|2,1:0|3:0,3:0:0:0:
318,239,90652,1,8,1:0:0:0:
202,69,90746,6,0,P|157:36|99:45,1,117,2|0,3:0|1:0,3:0:0:0:
7,25,90933,1,2,3:0:0:0:
26,116,91026,2,0,P|19:171|56:217,1,117,8|2,1:0|3:0,3:0:0:0:
140,311,91213,6,0,P|160:256|188:205,1,117,0|2,1:0|3:0,3:0:0:0:
123,141,91400,1,8,1:0:0:0:
237,291,91493,6,0,P|278:328|334:317,1,117,2|0,3:0|1:0,3:0:0:0:
491,205,91680,1,2,3:0:0:0:
425,158,91774,2,0,P|371:175|353:228,1,117,8|2,1:0|3:0,3:0:0:0:
509,383,91961,6,0,B|534:334|501:277|452:252|404:278|397:332|443:350,1,234,0|8,1:0|1:0,3:0:0:0:
353,228,92241,6,0,B|263:219|259:131|259:131|274:105|265:78,1,202.5,2|0,3:0|3:0,3:0:0:0:
189,92,92428,1,2,3:0:0:0:
382,87,92522,6,0,P|358:110|347:142,3,67.5,8|0|2|0,1:0|3:0|3:0|3:0,3:0:0:0:
191,191,92708,6,0,P|95:192|46:276,1,202.5,0|0,1:0|3:0,3:0:0:0:
116,334,92895,5,8,1:0:0:0:
119,324,92942,1,0,1:0:0:0:
123,316,92989,1,2,1:0:0:0:
127,307,93036,1,0,1:0:0:0:
131,298,93082,5,0,1:0:0:0:
18,155,93176,1,2,1:0:0:0:
238,265,93269,5,8,1:0:0:0:
0,351,93363,1,2,1:0:0:0:
316,239,93456,6,0,B|382:247|392:315|372:295|382:362|448:372,1,202.5,4|0,1:0|3:0,3:0:0:0:
458,370,93643,2,0,B|478:352|478:352|474:334|480:313,1,67.5,8|0,1:0|3:0,3:0:0:0:
391,171,93736,6,0,P|417:81|511:80,1,202.5,6|0,1:0|3:0,3:0:0:0:
512,90,93923,2,0,B|506:117|506:117|489:122|473:138,1,67.5,2|0,1:0|3:0,3:0:0:0:
359,79,94017,1,12,1:0:0:0:
496,235,94110,5,2,1:0:0:0:
496,235,94157,1,0,1:0:0:0:
496,235,94204,2,0,P|452:233|418:261,1,90,4|0,1:0|3:0,3:0:0:0:
359,79,94391,5,8,1:0:0:0:
359,79,94437,1,0,1:0:0:0:
359,79,94484,2,0,P|295:61|260:5,1,135,4|0,1:0|3:0,3:0:0:0:
218,250,94671,5,2,1:0:0:0:
218,250,94718,1,0,1:0:0:0:
219,250,94765,2,0,P|145:298|123:383,1,180,12|2,1:0|1:0,3:0:0:0:
102,214,94951,5,4,1:0:0:0:
248,372,95045,1,2,1:0:0:0:
310,164,95138,1,8,1:0:0:0:
219,250,95232,6,0,P|214:227|208:205,10,45,2|0|0|0|0|0|0|0|2|0|0,1:0|0:0|1:0|0:0|1:0|0:0|1:0|0:0|1:0|0:0|1:0,0:0:0:0:
180,103,95512,5,8,1:0:0:0:
180,103,95606,1,2,1:0:0:0:
106,299,95699,6,0,P|43:277|17:216,1,135,6|2,1:0|3:0,3:0:0:0:
52,143,95886,1,8,1:0:0:0:
219,250,95979,6,0,P|268:211|357:236,1,157.5,4|0,1:0|3:0,3:0:0:0:
389,312,96166,1,2,1:0:0:0:
503,149,96260,6,0,P|383:187|389:312,1,270,12|0,1:0|3:0,3:0:0:0:
463,345,96447,5,4,1:0:0:0:
294,289,96540,1,2,1:0:0:0:
480,341,96634,1,8,1:0:0:0:
276,380,96727,5,2,1:0:0:0:
484,248,96821,1,0,1:0:0:0:
257,378,96914,1,2,1:0:0:0:
385,148,97008,5,8,1:0:0:0:
358,384,97101,1,2,1:0:0:0:
257,102,97194,2,0,P|252:86|246:70,6,33.75,6|0|0|0|2|0|0,1:0|0:0|1:0|0:0|1:0|0:0|1:0,0:0:0:0:
283,196,97381,5,8,1:0:0:0:
283,196,97428,1,0,3:0:0:0:
283,196,97475,1,2,1:0:0:0:
341,28,97568,5,0,1:0:0:0:
173,176,97662,1,2,1:0:0:0:
385,148,97755,5,8,1:0:0:0:
129,56,97849,1,2,1:0:0:0:
460,190,97942,6,0,P|465:174|472:158,8,33.75,6|0|0|0|2|0|0|0|8,1:0|0:0|1:0|0:0|1:0|0:0|1:0|0:0|1:0,0:0:0:0:
372,273,98222,2,0,P|365:257|360:241,8,33.75,6|0|0|0|0|0|0|0|10,1:0|0:0|1:0|0:0|1:0|0:0|1:0|0:0|1:0,0:0:0:0:
327,384,98503,6,0,P|305:377|292:359,1,45,14|0,1:0|3:0,3:0:0:0:
216,367,98596,2,0,P|210:345|219:324,1,45,2|0,1:0|1:0,3:0:0:0:
274,233,98690,5,12,1:0:0:0:
247,239,98752,5,0,1:0:0:0:
266,259,98814,5,0,1:0:0:0:
263,243,98877,6,0,L|242:165,1,67.5,0|0,1:0|3:0,3:0:0:0:
334,21,98970,6,0,P|269:31|234:86,1,135,12|0,1:0|3:0,3:0:0:0:
129,56,99157,6,0,P|103:45|78:36,1,54.0000000000001,14|0,1:0|3:0,3:0:0:0:
321,110,99437,6,0,P|335:158|351:222,1,117,4|2,1:0|3:0,3:0:0:0:
445,170,99624,1,8,1:0:0:0:
372,306,99718,2,0,P|315:302|275:260,1,117,2|0,3:0|1:0,3:0:0:0:
76,296,99905,1,2,1:0:0:0:
86,192,99998,2,0,P|120:146|176:137,1,117,8|2,1:0|3:0,3:0:0:0:
197,337,100185,6,0,P|183:279|166:223,1,117,0|2,1:0|3:0,3:0:0:0:
270,248,100372,1,8,1:0:0:0:
86,192,100465,2,0,P|72:134|55:78,1,117,2|0,3:0|1:0,3:0:0:0:
181,117,100652,1,2,3:0:0:0:
12,243,100746,1,8,1:0:0:0:
3,242,100839,1,2,1:0:0:0:
212,42,100933,6,0,B|264:58|271:115|257:96|266:152|319:170,1,175.5,0|0,1:0|3:0,3:0:0:0:
327,172,101120,1,8,1:0:0:0:
462,69,101213,2,0,B|430:62|396:49|396:49|370:74|344:93,1,135,2|0,1:0|1:0,3:0:0:0:
419,170,101400,1,2,1:0:0:0:
419,170,101447,1,0,1:0:0:0:
419,170,101493,5,8,1:0:0:0:
512,0,101587,1,2,3:0:0:0:
428,186,101680,6,0,P|407:252|392:316,1,135,0|2,1:0|3:0,3:0:0:0:
145,246,101867,2,0,P|166:181|180:116,1,135,8|2,1:0|1:0,3:0:0:0:
296,237,102054,2,0,P|282:194|291:238,1,135,0|2,3:0|1:0,3:0:0:0:
247,355,102241,5,8,1:0:0:0:
324,75,102335,1,2,1:0:0:0:
110,318,102428,6,2,P|44:317|6:265,1,135,0|2,1:0|3:0,3:0:0:0:
105,94,102615,1,8,1:0:0:0:
42,191,102708,2,0,P|27:125|5:61,1,135,2|0,3:0|1:0,3:0:0:0:
224,13,102895,5,2,3:0:0:0:
191,127,102989,1,8,1:0:0:0:
191,127,103082,1,2,1:0:0:0:
323,75,103176,6,0,P|389:76|427:129,1,135,0|2,1:0|3:0,3:0:0:0:
322,351,103363,1,8,1:0:0:0:
242,326,103456,2,0,P|210:268|237:209,1,135,2|0,3:0|1:0,3:0:0:0:
482,189,103643,1,2,1:0:0:0:
500,271,103736,2,0,P|466:326|401:333,1,135,8|2,1:0|1:0,3:0:0:0:
341,260,103923,6,0,P|359:187|354:262,1,225,0|8,1:0|1:0,3:0:0:0:
271,132,104204,2,0,B|212:101|165:150|192:145|146:194|87:164,1,202.5,2|0,1:0|3:0,3:0:0:0:
124,92,104391,1,2,1:0:0:0:
236,208,104484,6,0,P|230:224|226:243,2,33.7500000000001,8|0|2,1:0|1:0|1:0,3:0:0:0:
198,49,104671,6,0,L|195:4,1,45,0|0,1:0|3:0,3:0:0:0:
209,46,104765,2,0,L|188:5,1,45,2|0,3:0|3:0,3:0:0:0:
328,68,104858,6,0,L|365:43,1,45,8|0,1:0|3:0,3:0:0:0:
335,76,104951,2,0,L|359:38,1,45,2|0,3:0|3:0,3:0:0:0:
221,215,105045,5,0,1:0:0:0:
276,13,105138,1,2,1:0:0:0:
218,222,105232,5,8,1:0:0:0:
278,6,105325,1,2,3:0:0:0:
166,283,105419,6,0,P|77:257|85:164,1,202.5,4|0,1:0|3:0,3:0:0:0:
98,163,105606,2,0,B|122:175|122:175|127:193|138:211,1,67.5,8|0,3:0|3:0,3:0:0:0:
161,371,105699,6,0,B|227:377|251:314|228:328|253:266|319:272,1,202.5,6|0,1:0|3:0,3:0:0:0:
342,289,105886,2,0,B|340:316|340:316|325:327|314:345,1,67.5,2|0,1:0|3:0,3:0:0:0:
166,283,105979,1,12,1:0:0:0:
418,349,106073,5,2,1:0:0:0:
418,349,106120,1,0,1:0:0:0:
418,349,106166,2,0,P|449:321|439:279,1,90,4|2,1:0|1:0,3:0:0:0:
512,211,106353,5,8,3:0:0:0:
512,211,106400,1,0,3:0:0:0:
512,211,106447,2,0,P|484:152|419:146,1,135,6|0,1:0|3:0,3:0:0:0:
405,25,106634,5,2,1:0:0:0:
405,25,106680,1,0,3:0:0:0:
405,25,106727,2,0,P|320:35|286:113,1,180,12|2,1:0|1:0,3:0:0:0:
306,208,106914,5,4,1:0:0:0:
204,48,107008,1,2,1:0:0:0:
316,220,107101,1,8,1:0:0:0:
113,137,107194,2,0,P|92:128|71:120,5,45,2|0|0|0|2|0,1:0|3:0|1:0|3:0|1:0|3:0,3:0:0:0:
212,183,107475,5,8,1:0:0:0:
218,181,107568,1,2,1:0:0:0:
78,322,107662,6,0,P|160:290|250:270,1,180,4|2,1:0|1:0,3:0:0:0:
231,357,107802,1,0,3:0:0:0:
231,357,107849,2,0,P|187:367|146:384,1,90,8|0,1:0|3:0,3:0:0:0:
387,178,107942,6,0,P|355:260|335:350,1,180,6|0,1:0|1:0,3:0:0:0:
422,331,108082,1,0,3:0:0:0:
422,331,108129,2,0,P|431:287|448:245,1,90,2|0,1:0|3:0,3:0:0:0:
410,97,108222,6,0,B|431:88|437:66|437:66|439:67|439:67|444:44|430:26|430:26|431:24|431:24|409:34|404:56|404:56|402:54|402:54|397:77|410:97,1,180,12|2,1:0|1:0,3:0:0:0:
298,162,108409,5,4,1:0:0:0:
300,151,108503,1,2,1:0:0:0:
212,183,108596,5,8,1:0:0:0:
225,100,108690,1,2,1:0:0:0:
134,235,108783,5,0,1:0:0:0:
119,89,108877,1,2,1:0:0:0:
84,312,108970,5,8,1:0:0:0:
4,102,109064,1,2,1:0:0:0:
89,333,109157,6,0,L|133:344,1,45,4|0,1:0|1:0,3:0:0:0:
207,362,109251,2,0,L|229:367,4,22.5,2|0|0|0|8,1:0|3:0|1:0|3:0|1:0,3:0:0:0:
205,285,109437,6,0,L|274:302,1,56.25,2|0,1:0|1:0,3:0:0:0:
335,315,109531,2,0,L|366:323,4,28.125,0|0|0|0|2,1:0|3:0|1:0|3:0|1:0,3:0:0:0:
334,234,109718,6,0,L|428:257,1,67.5,8|0,1:0|1:0,3:0:0:0:
476,272,109811,2,0,L|523:283,2,33.75,2|0|0,1:0|3:0|1:0,3:0:0:0:
357,143,109905,6,0,B|343:108|365:120|351:78,7,67.5,4|0|2|0|0|0|2|0,1:0|1:0|1:0|1:0|1:0|1:0|1:0|1:0,3:0:0:0:
241,185,110279,1,0,1:0:0:0:
228,181,110325,1,0,1:0:0:0:
215,177,110372,1,2,1:0:0:0:
202,173,110419,1,0,1:0:0:0:
189,170,110465,1,0,1:0:0:0:
176,166,110512,1,0,1:0:0:0:
163,162,110559,1,2,1:0:0:0:
150,159,110606,1,0,1:0:0:0:
137,155,110652,6,0,B|183:124|175:64|175:64|203:136|273:141|273:141|285:194|234:237|203:239|194:231|184:223|161:226|138:248|136:279|149:301,1,472.500000000001,0|0,1:0|3:0,3:0:0:0:
231,303,111400,5,4,1:0:0:0:
63,256,111493,1,0,1:0:0:0:
176,379,111587,1,0,1:0:0:0:
68,348,111680,1,0,1:0:0:0:
294,229,111774,6,0,P|314:293|331:358,1,135,0|0,1:0|1:0,3:0:0:0:
231,303,111961,1,0,1:0:0:0:
393,247,112054,6,0,P|387:228|383:212,4,33.75,0|0|0|0|0,1:0|3:0|1:0|3:0|1:0,3:0:0:0:
416,326,112241,1,0,1:0:0:0:
419,335,112335,1,0,1:0:0:0:
457,165,112428,6,0,P|451:146|447:130,4,33.75,0|0|0|0|0,1:0|3:0|1:0|3:0|1:0,3:0:0:0:
503,337,112615,2,0,P|509:356|513:372,4,33.75,0|0|0|0|0,1:0|3:0|1:0|3:0|1:0,3:0:0:0:
480,254,112802,1,0,1:0:0:0:
480,254,112849,1,0,3:0:0:0:
480,254,112895,5,6,1:0:0:0:
344,379,112989,1,0,1:0:0:0:
471,157,113082,5,0,1:0:0:0:
263,346,113176,1,0,1:0:0:0:
359,142,113269,5,0,1:0:0:0:
357,134,113316,1,0,1:0:0:0:
355,126,113363,1,0,1:0:0:0:
353,118,113409,1,0,1:0:0:0:
351,111,113456,2,0,P|344:79|334:45,1,67.5,0|0,1:0|3:0,3:0:0:0:
436,46,113550,5,0,1:0:0:0:
436,46,113596,1,0,3:0:0:0:
436,46,113643,2,0,L|446:5,8,33.75,6|0|0|0|0|0|0|0|0,1:0|1:0|1:0|1:0|1:0|1:0|1:0|3:0|1:0,1:0:0:0:
257,114,113923,2,0,L|247:155,8,33.75,6|0|0|0|0|0|0|0|0,1:0|1:0|1:0|1:0|1:0|1:0|1:0|3:0|1:0,1:0:0:0:
188,30,114204,6,0,L|138:215,1,180,10|0,3:0|3:0,3:0:0:0:
30,272,114391,5,4,1:0:0:0:
13,287,114453,1,0,1:0:0:0:
4,310,114515,1,0,1:0:0:0:
5,334,114578,1,0,1:0:0:0:
16,356,114640,1,0,1:0:0:0:
34,371,114702,1,0,1:0:0:0:
58,376,114765,1,0,1:0:0:0:
82,372,114827,1,0,1:0:0:0:
101,359,114889,1,0,1:0:0:0:
114,339,114951,1,0,1:0:0:0:
117,315,115014,1,0,1:0:0:0:
110,291,115076,1,0,1:0:0:0:
94,274,115138,5,6,1:0:0:0:
72,251,115201,1,0,1:0:0:0:
63,220,115263,1,0,1:0:0:0:
66,188,115325,1,0,1:0:0:0:
83,160,115388,1,0,1:0:0:0:
110,142,115450,1,0,1:0:0:0:
141,137,115512,1,0,1:0:0:0:
173,133,115574,1,0,1:0:0:0:
199,114,115637,1,0,1:0:0:0:
216,87,115699,1,0,1:0:0:0:
219,55,115761,1,0,1:0:0:0:
211,24,115824,1,0,1:0:0:0:
189,0,115886,6,0,L|145:11,3,45,4|0|0|0,1:0|1:0|1:0|1:0,3:0:0:0:
340,90,116073,2,0,L|383:78,3,45,0|0|0|0,1:0|1:0|1:0|1:0,3:0:0:0:
244,193,116260,5,4,1:0:0:0:
241,200,116307,1,0,1:0:0:0:
239,208,116353,1,0,1:0:0:0:
237,216,116400,1,0,1:0:0:0:
235,223,116447,1,0,1:0:0:0:
233,231,116493,1,0,1:0:0:0:
231,239,116540,1,0,1:0:0:0:
229,247,116587,1,0,1:0:0:0:
227,254,116634,5,14,1:0:0:0:
74,312,116727,1,14,1:0:0:0:
251,168,116821,5,14,1:0:0:0:
10,257,116914,1,10,1:0:0:0:
431,266,117101,6,0,B|439:319|377:328|375:338|375:338|326:268|386:241|378:239|378:239|419:232|449:197|433:142,1,337.500012874604,14|0,1:0|3:0,3:0:0:0:
383,77,117381,1,4,1:0:0:0:
256,192,117428,12,0,120372,3:0:0:0:
