osu file format v14

[General]
AudioFilename: audio.mp3
AudioLeadIn: 0
PreviewTime: 68605
Countdown: 0
SampleSet: Soft
StackLeniency: 0.6
Mode: 0
LetterboxInBreaks: 0
WidescreenStoryboard: 1

[Editor]
Bookmarks: 34723,57311,79899,102488,125076,147664,170252,192840
DistanceSpacing: 1
BeatDivisor: 8
GridSize: 32
TimelineZoom: 2.599999

[Metadata]
Title:Hi, It's Me
TitleUnicode:Hi, It's Me
Artist:Ashnikko
ArtistUnicode:Ashnikko
Creator:Alumetri
Version:Nuvolina's Normal
Source:
Tags:english pop hip hop rap Ashton Nicole Casey Nuvolina Gordon123 -_AzRaeL_- Pachiru
BeatmapID:2873023
BeatmapSetID:1377970

[Difficulty]
HPDrainRate:3
CircleSize:3
OverallDifficulty:4
ApproachRate:6
SliderMultiplier:2.24
SliderTickRate:1

[Events]
//Background and Video events
0,0,"bgbggb.jpg",0,0
//Break Periods
2,1746,2614
2,4569,5438
2,7393,8261
2,10216,11085
2,35628,44967
2,68804,70379
2,72334,76026
2,103393,112732
2,147863,149438
2,151217,152261
2,154040,155085
//Storyboard Layer 0 (Background)
//Storyboard Layer 1 (Fail)
//Storyboard Layer 2 (Pass)
//Storyboard Layer 3 (Foreground)
//Storyboard Layer 4 (Overlay)
//Storyboard Sound Samples

[TimingPoints]
841,705.882352941176,4,2,1,70,1,0
841,-100,4,2,1,70,0,0
1370,-100,4,2,1,70,0,0
3664,-100,4,2,1,70,0,0
4193,-100,4,2,1,70,0,0
6488,-100,4,2,1,70,0,0
7017,-100,4,2,1,70,0,0
9311,-100,4,2,1,70,0,0
9840,-100,4,2,1,70,0,0
12135,-100,4,2,1,70,0,0
34723,-100,4,2,10,50,0,0
46017,-100,4,2,2,50,0,1
46105,-100,4,2,2,50,0,0
48840,-100,4,2,2,50,0,1
48929,-100,4,2,2,50,0,0
51664,-100,4,2,2,50,0,1
51752,-100,4,2,2,50,0,0
54488,-100,4,2,2,50,0,1
54576,-100,4,2,2,50,0,0
55899,-100,4,2,2,50,0,0
56605,-100,4,2,10,50,0,0
57311,-90.9090909090909,4,2,1,70,0,1
61193,-90.9090909090909,4,2,2,70,0,1
61370,-90.9090909090909,4,2,1,70,0,1
61899,-90.9090909090909,4,2,2,70,0,1
62076,-90.9090909090909,4,2,1,70,0,1
62605,-90.9090909090909,4,2,2,70,0,1
62782,-90.9090909090909,4,2,1,70,0,1
66840,-90.9090909090909,4,2,2,70,0,1
67017,-90.9090909090909,4,2,1,70,0,1
67546,-90.9090909090909,4,2,2,70,0,1
67723,-90.9090909090909,4,2,1,70,0,1
67899,-90.9090909090909,4,2,2,70,0,1
68076,-90.9090909090909,4,2,1,70,0,1
68252,-90.9090909090909,4,2,2,70,0,1
68429,-90.9090909090909,4,2,1,70,0,1
68605,-100,4,2,3,50,0,0
71429,-100,4,2,1,50,0,0
71517,-100,4,2,3,50,0,0
71958,-100,4,2,1,50,0,0
72046,-100,4,2,3,50,0,0
72840,-100,4,2,3,50,0,0
77076,-100,4,2,1,50,0,0
77164,-100,4,2,3,50,0,0
77605,-100,4,2,1,50,0,0
77693,-100,4,2,3,50,0,0
78487,-100,4,2,3,50,0,0
79193,-100,4,2,1,70,0,0
79370,-100,4,2,10,70,0,0
79899,-100,4,2,1,70,0,0
95076,-100,4,2,2,70,0,0
95252,-100,4,2,1,70,0,0
95782,-100,4,2,2,70,0,0
95958,-100,4,2,1,70,0,0
96488,-100,4,2,2,70,0,0
96664,-100,4,2,1,70,0,0
100723,-100,4,2,2,70,0,0
100899,-100,4,2,1,70,0,0
101429,-100,4,2,2,70,0,0
101605,-100,4,2,1,70,0,0
102135,-100,4,2,2,70,0,0
102311,-100,4,2,1,70,0,0
102488,-100,4,2,2,50,0,0
113782,-100,4,2,2,50,0,1
113870,-100,4,2,2,50,0,0
116605,-100,4,2,2,50,0,1
116693,-100,4,2,2,50,0,0
119429,-100,4,2,2,50,0,1
119517,-100,4,2,2,50,0,0
122252,-100,4,2,2,50,0,1
122340,-100,4,2,2,50,0,0
124370,-100,4,2,10,70,0,0
125076,-90.9090909090909,4,2,1,70,0,1
128958,-90.9090909090909,4,2,2,70,0,1
129135,-90.9090909090909,4,2,1,70,0,1
129664,-90.9090909090909,4,2,2,70,0,1
129840,-90.9090909090909,4,2,1,70,0,1
130370,-90.9090909090909,4,2,2,70,0,1
130546,-90.9090909090909,4,2,1,70,0,1
134605,-90.9090909090909,4,2,2,70,0,1
134782,-90.9090909090909,4,2,1,70,0,1
135311,-90.9090909090909,4,2,2,70,0,1
135488,-90.9090909090909,4,2,1,70,0,1
135664,-90.9090909090909,4,2,2,70,0,1
135840,-90.9090909090909,4,2,1,70,0,1
136017,-90.9090909090909,4,2,2,70,0,1
136193,-90.9090909090909,4,2,1,70,0,1
140252,-90.9090909090909,4,2,2,70,0,1
140429,-90.9090909090909,4,2,1,70,0,1
140958,-90.9090909090909,4,2,2,70,0,1
141135,-90.9090909090909,4,2,1,70,0,1
141664,-90.9090909090909,4,2,2,70,0,1
141840,-90.9090909090909,4,2,1,70,0,1
145899,-90.9090909090909,4,2,2,70,0,1
146076,-90.9090909090909,4,2,1,70,0,1
146605,-90.9090909090909,4,2,2,70,0,1
146782,-90.9090909090909,4,2,1,70,0,1
146958,-90.9090909090909,4,2,2,70,0,1
147135,-90.9090909090909,4,2,1,70,0,1
147311,-90.9090909090909,4,2,2,70,0,1
147488,-90.9090909090909,4,2,1,70,0,1
147664,-100,4,2,1,40,0,0
150488,-100,4,2,1,50,0,0
153311,-100,4,2,1,60,0,0
156135,-100,4,2,1,70,0,0
158429,-100,4,2,10,70,0,0
158958,-100,4,2,1,70,0,0
162840,-100,4,2,2,70,0,0
163017,-100,4,2,1,70,0,0
163546,-100,4,2,2,70,0,0
163723,-100,4,2,1,70,0,0
164252,-100,4,2,2,70,0,0
164429,-100,4,2,1,70,0,0
168488,-100,4,2,2,70,0,0
168664,-100,4,2,1,70,0,0
169193,-100,4,2,2,70,0,0
169370,-100,4,2,1,70,0,0
169546,-100,4,2,10,50,0,0
170252,-90.9090909090909,4,2,1,70,0,1
174135,-90.9090909090909,4,2,2,70,0,1
174311,-90.9090909090909,4,2,1,70,0,1
174840,-90.9090909090909,4,2,2,70,0,1
175017,-90.9090909090909,4,2,1,70,0,1
175546,-90.9090909090909,4,2,2,70,0,1
175723,-90.9090909090909,4,2,1,70,0,1
179782,-90.9090909090909,4,2,2,70,0,1
179958,-90.9090909090909,4,2,1,70,0,1
180488,-90.9090909090909,4,2,2,70,0,1
180664,-90.9090909090909,4,2,1,70,0,1
180840,-90.9090909090909,4,2,2,70,0,1
181017,-90.9090909090909,4,2,1,70,0,1
181193,-90.9090909090909,4,2,2,70,0,1
181370,-90.9090909090909,4,2,1,70,0,1
185429,-90.9090909090909,4,2,2,70,0,1
185605,-90.9090909090909,4,2,1,70,0,1
186135,-90.9090909090909,4,2,2,70,0,1
186311,-90.9090909090909,4,2,1,70,0,1
186840,-90.9090909090909,4,2,2,70,0,1
187017,-90.9090909090909,4,2,1,70,0,1
191076,-90.9090909090909,4,2,2,70,0,1
191252,-90.9090909090909,4,2,1,70,0,1
191429,-90.9090909090909,4,2,2,70,0,1
191605,-90.9090909090909,4,2,1,70,0,1
191782,-90.9090909090909,4,2,2,70,0,1
191958,-90.9090909090909,4,2,1,70,0,1
192135,-100,4,2,10,50,0,0

[Colours]
Combo1 : 255,189,157
Combo2 : 128,255,255
Combo3 : 128,128,255
Combo4 : 255,128,192

[HitObjects]
43,93,841,6,0,P|87:114|157:85,1,112,0|0,3:0|0:0,0:0:0:0:
176,50,1370,1,0,3:0:0:0:
447,43,3664,6,0,P|426:87|455:157,1,112,0|0,3:0|0:0,0:0:0:0:
490,176,4193,1,0,3:0:0:0:
469,291,6488,6,0,P|425:270|355:299,1,112,0|0,3:0|0:0,0:0:0:0:
336,334,7017,1,0,3:0:0:0:
65,341,9311,6,0,P|86:297|57:227,1,112,0|0,3:0|0:0,0:0:0:0:
22,208,9840,1,0,3:0:0:0:
22,208,12135,5,0,3:0:0:0:
168,125,12664,1,0,3:0:0:0:
206,165,12840,2,0,P|253:169|321:124,2,112,8|8|8,0:3|0:1|0:1,0:0:0:0:
231,274,13899,1,0,3:0:0:0:
343,274,14252,2,0,L|397:157,1,112,8|8,0:3|0:1,0:0:0:0:
466,90,14958,5,0,3:0:0:0:
319,8,15487,1,0,3:0:0:0:
273,39,15664,2,0,P|212:52|153:21,2,112,8|8|8,0:3|0:1|0:1,0:0:0:0:
239,146,16722,1,0,3:0:0:0:
138,195,17076,2,0,L|84:78,1,112,8|8,0:3|0:1,0:0:0:0:
0,33,17782,5,0,3:0:0:0:
18,199,18311,1,0,3:0:0:0:
58,237,18487,2,0,P|74:287|31:353,2,112,8|8|8,0:3|0:1|0:1,0:0:0:0:
169,250,19546,1,0,3:0:0:0:
224,347,19899,2,0,L|278:230,1,112,8|8,0:3|0:1,0:0:0:0:
380,218,20605,5,0,3:0:0:0:
479,352,21134,1,0,3:0:0:0:
432,383,21311,1,8,0:3:0:0:
432,383,22369,1,0,3:0:0:0:
338,320,22723,1,8,0:3:0:0:
293,353,22899,1,8,0:0:0:0:
152,259,23429,5,0,3:0:0:0:
293,168,23958,1,0,3:0:0:0:
347,155,24135,2,0,P|357:108|306:47,2,112,8|8|8,0:3|0:1|0:1,0:0:0:0:
441,216,25193,1,0,3:0:0:0:
501,121,25546,2,0,L|447:4,1,112,8|8,0:3|0:1,0:0:0:0:
342,5,26252,5,0,3:0:0:0:
226,127,26781,1,0,3:0:0:0:
173,106,26958,2,0,P|160:45|191:-14,2,112,8|8|8,0:3|0:1|0:1,0:0:0:0:
61,119,28016,1,0,3:0:0:0:
82,230,28370,2,0,L|196:295,1,112,8|8,0:3|0:1,0:0:0:0:
260,364,29076,5,0,3:0:0:0:
404,278,29605,1,0,3:0:0:0:
379,228,29782,2,0,P|440:215|499:246,2,112,8|8|8,0:3|0:1|0:1,0:0:0:0:
367,116,30840,1,0,3:0:0:0:
296,28,31193,2,0,L|231:142,1,112,8|8,0:3|0:1,0:0:0:0:
128,134,31899,5,0,3:0:0:0:
191,289,32428,1,0,3:0:0:0:
161,336,32605,2,0,P|104:350|47:309,2,112,8|8|8,0:3|0:1|0:1,0:0:0:0:
268,368,33663,1,0,3:0:0:0:
363,309,34017,2,0,B|377:261|364:223|291:195|276:156|290:101,1,224,8|12,0:3|0:0,0:0:0:0:
286,110,46017,6,0,P|242:170|144:151,1,168,12|8,3:0|3:0,0:0:0:0:
117,121,46723,1,8,0:1:0:0:
92,11,47076,1,8,0:3:0:0:
203,19,47429,1,8,0:3:0:0:
278,101,47782,2,0,L|349:74,1,56,0|8,0:0|0:3,0:0:0:0:
376,48,48135,2,0,L|357:179,1,112,8|8,0:1|0:3,0:0:0:0:
443,233,48840,6,0,P|374:272|417:349,1,168,8|8,3:0|3:0,0:0:0:0:
450,368,49546,2,0,L|315:378,1,112,8|8,0:1|0:3,0:0:0:0:
243,315,50252,1,8,0:3:0:0:
146,372,50605,1,0,0:0:0:0:
36,347,50958,2,0,L|65:274,1,56,8|0,0:1|0:0,0:0:0:0:
105,268,51311,2,0,B|109:239|109:239|85:204,1,56,8|8,0:3|0:3,0:0:0:0:
51,180,51664,6,0,P|95:120|193:139,1,168,8|8,3:0|3:0,0:0:0:0:
218,169,52370,1,8,0:1:0:0:
311,107,52723,1,8,0:3:0:0:
252,11,53076,1,8,0:3:0:0:
144,42,53429,2,0,L|73:15,1,56,0|8,0:0|0:3,0:0:0:0:
37,6,53782,2,0,L|59:132,1,112,8|8,0:1|0:3,0:0:0:0:
125,204,54487,6,0,P|164:135|241:178,1,168,8|8,3:0|3:0,0:0:0:0:
266,207,55193,2,0,L|392:172,1,112,8|8,0:1|0:3,0:0:0:0:
486,172,55899,1,8,0:3:0:0:
491,283,56252,1,0,0:0:0:0:
394,339,56605,2,0,B|336:351|291:316|291:316|251:365,1,168,2|0,0:0|0:0,0:0:0:0:
194,376,57311,5,4,3:2:0:0:
83,322,57664,1,8,0:1:0:0:
126,279,57840,2,0,P|130:253|103:209,1,61.6000018798829,0|8,3:0|0:3,0:0:0:0:
64,187,58193,2,0,P|65:160|96:129,1,61.6000018798829,8|8,0:0|0:1,0:0:0:0:
208,152,58723,1,8,0:1:0:0:
278,50,59076,1,0,3:0:0:0:
371,130,59429,2,0,P|373:221|288:257,1,184.800005639649,8|2,0:3|0:0,0:0:0:0:
263,309,60135,5,0,3:0:0:0:
376,357,60488,1,8,0:1:0:0:
428,324,60664,1,0,3:0:0:0:
480,355,60840,1,8,0:3:0:0:
509,235,61193,2,0,L|475:158,1,61.6000018798829,8|8,0:3|0:0,0:0:0:0:
439,135,61546,2,0,L|481:2,2,123.200003759766,8|8|8,0:1|3:0|0:3,0:0:0:0:
344,55,62605,1,8,0:3:0:0:
260,145,62958,5,4,3:2:0:0:
170,59,63311,1,8,0:1:0:0:
116,89,63487,2,0,P|112:115|139:159,1,61.6000018798829,0|8,3:0|0:3,0:0:0:0:
153,201,63840,2,0,P|152:228|121:259,1,61.6000018798829,8|8,0:0|0:1,0:0:0:0:
14,295,64370,1,8,0:1:0:0:
102,380,64723,1,0,3:0:0:0:
213,344,65076,2,0,P|252:272|347:302,1,184.800005639649,8|2,0:3|0:0,0:0:0:0:
398,272,65782,6,0,L|400:160,2,92.4000028198243,0|0|0,3:0|0:0|3:0,0:0:0:0:
444,311,66487,1,8,0:3:0:0:
512,210,66840,2,0,L|496:124,1,61.6000018798829,8|8,0:3|0:0,0:0:0:0:
508,88,67193,1,8,0:1:0:0:
418,3,67546,1,8,3:0:0:0:
329,89,67899,2,0,B|296:93|296:93|259:73,1,61.6000018798829,8|8,0:3|0:0,0:0:0:0:
250,20,68252,2,0,B|216:22|216:22|170:54,1,61.6000018798829,8|2,0:3|0:0,0:0:0:0:
60,62,71429,6,0,L|73:188,1,112,0|0,3:0|0:0,0:0:0:0:
36,217,71958,1,0,3:0:0:0:
427,339,77076,6,0,L|402:215,1,112,0|0,3:0|0:0,0:0:0:0:
444,188,77605,1,0,3:0:0:0:
130,64,79193,5,8,0:3:0:0:
147,117,79370,1,2,0:3:0:0:
34,241,79899,5,4,3:2:0:0:
157,355,80428,1,0,3:0:0:0:
193,312,80605,2,0,P|248:304|308:353,1,112,8|8,0:3|0:1,0:0:0:0:
402,365,81311,1,8,0:1:0:0:
498,307,81663,1,0,3:0:0:0:
433,215,82017,2,0,L|487:98,1,112,8|8,0:3|0:1,0:0:0:0:
367,113,82722,5,0,3:0:0:0:
226,20,83251,1,0,3:0:0:0:
179,51,83429,2,0,P|164:101|197:171,1,112,8|8,0:3|0:1,0:0:0:0:
242,251,84135,1,8,0:1:0:0:
145,306,84488,1,0,3:0:0:0:
60,232,84840,2,0,L|77:102,1,112,8|8,0:3|0:1,0:0:0:0:
18,23,85546,5,0,3:0:0:0:
185,35,86076,1,0,3:0:0:0:
213,83,86252,2,0,P|263:99|329:56,1,112,8|8,0:3|0:1,0:0:0:0:
416,26,86958,1,8,0:1:0:0:
483,115,87311,1,0,3:0:0:0:
421,208,87664,2,0,L|441:334,1,112,8|8,0:3|0:1,0:0:0:0:
334,275,88370,5,0,3:0:0:0:
194,369,88899,1,0,3:0:0:0:
156,326,89076,1,8,0:3:0:0:
156,326,90135,1,0,3:0:0:0:
47,356,90488,1,8,0:3:0:0:
23,305,90664,1,8,0:0:0:0:
74,144,91193,5,0,3:0:0:0:
226,213,91722,1,0,3:0:0:0:
280,202,91899,2,0,P|290:155|239:96,1,112,8|8,0:3|0:1,0:0:0:0:
181,19,92605,1,8,0:1:0:0:
118,111,92957,1,0,3:0:0:0:
7,90,93311,2,0,L|61:207,1,112,8|8,0:3|0:1,0:0:0:0:
20,298,94016,5,0,3:0:0:0:
180,348,94545,1,0,3:0:0:0:
235,338,94723,1,8,0:3:0:0:
343,366,95076,1,8,0:3:0:0:
448,328,95429,1,8,0:1:0:0:
399,227,95782,1,8,3:0:0:0:
293,265,96135,2,0,L|175:239,1,112,8|8,0:3|0:3,0:0:0:0:
242,144,96840,5,0,3:0:0:0:
378,45,97369,1,0,3:0:0:0:
430,64,97546,2,0,P|451:122|417:175,1,112,8|8,0:3|0:1,0:0:0:0:
350,243,98252,1,8,0:1:0:0:
304,140,98604,1,0,3:0:0:0:
192,151,98958,2,0,L|230:28,1,112,8|8,0:3|0:1,0:0:0:0:
115,70,99664,6,0,P|62:127|101:206,1,168,0|0,3:0|3:0,0:0:0:0:
131,242,100370,1,8,0:3:0:0:
186,249,100546,1,8,0:3:0:0:
214,297,100723,1,8,0:3:0:0:
313,348,101076,1,8,0:3:0:0:
399,278,101429,1,8,3:0:0:0:
305,215,101782,2,0,B|291:167|304:129|377:101|392:62|378:7,1,224,8|12,0:3|0:0,0:0:0:0:
380,16,113782,6,0,P|336:76|238:57,1,168,12|8,3:0|3:0,0:0:0:0:
211,27,114488,1,8,0:1:0:0:
99,22,114841,1,8,0:3:0:0:
60,127,115194,1,8,0:3:0:0:
151,191,115547,2,0,L|128:260,1,56,0|8,0:0|0:3,0:0:0:0:
97,287,115900,2,0,L|228:268,1,112,8|8,0:1|0:3,0:0:0:0:
306,323,116605,6,0,P|371:303|367:193,1,168,8|8,3:0|3:0,0:0:0:0:
339,178,117311,2,0,L|474:168,1,112,8|8,0:1|0:3,0:0:0:0:
388,76,118017,1,8,0:3:0:0:
276,89,118370,1,0,0:0:0:0:
227,190,118723,2,0,L|243:264,1,56,8|0,0:1|0:0,0:0:0:0:
280,282,119076,2,0,B|284:311|284:311|260:346,1,56,8|8,0:3|0:3,0:0:0:0:
217,355,119429,6,0,P|137:365|87:302,1,168,8|8,3:0|3:0,0:0:0:0:
86,246,120135,1,8,0:1:0:0:
38,144,120488,1,8,0:3:0:0:
119,67,120841,1,8,0:3:0:0:
205,137,121194,2,0,L|275:129,1,56,0|8,0:0|0:3,0:0:0:0:
307,100,121547,2,0,L|278:228,1,112,8|8,0:1|0:3,0:0:0:0:
318,315,122252,6,0,P|389:337|427:246,1,168,8|8,3:0|3:0,0:0:0:0:
402,221,122958,2,0,P|403:167|458:128,1,112,8|8,0:1|0:3,0:0:0:0:
426,19,123664,1,8,0:3:0:0:
336,86,124017,1,0,0:0:0:0:
232,43,124370,2,0,B|176:44|124:65|124:65|65:40,1,168,8|8,0:0|0:3,0:0:0:0:
25,84,125076,5,4,3:2:0:0:
21,207,125429,1,8,0:1:0:0:
75,234,125605,2,0,P|79:260|52:304,1,61.6000018798829,0|8,3:0|0:3,0:0:0:0:
8,315,125958,2,0,P|9:342|40:373,1,61.6000018798829,8|8,0:0|0:1,0:0:0:0:
153,369,126488,1,8,0:1:0:0:
256,302,126841,1,0,3:0:0:0:
363,362,127193,2,0,B|346:325|352:288|417:280|436:246|412:187,1,184.800005639649,8|2,0:3|0:0,0:0:0:0:
468,166,127900,5,0,3:0:0:0:
391,69,128253,1,8,0:1:0:0:
339,103,128429,1,0,3:0:0:0:
289,67,128605,1,8,0:3:0:0:
174,112,128958,2,0,L|194:193,1,61.6000018798829,8|8,0:3|0:0,0:0:0:0:
223,222,129311,2,0,L|85:201,2,123.200003759766,8|8|8,0:1|3:0|0:3,0:0:0:0:
288,327,130370,1,8,0:3:0:0:
178,383,130723,5,4,3:2:0:0:
72,319,131076,1,8,0:1:0:0:
21,284,131252,2,0,P|17:258|44:214,1,61.6000018798829,0|8,3:0|0:3,0:0:0:0:
86,199,131605,2,0,P|85:172|54:141,1,61.6000018798829,8|8,0:0|0:1,0:0:0:0:
116,33,132135,1,8,0:1:0:0:
208,114,132488,1,0,3:0:0:0:
295,28,132840,2,0,B|324:70|324:70|311:150|311:150|349:213,1,184.800005639649,8|2,0:3|0:0,0:0:0:0:
339,257,133547,6,0,L|232:294,2,92.4000028198243,0|0|0,3:0|0:0|3:0,0:0:0:0:
387,295,134252,1,8,0:3:0:0:
498,348,134605,2,0,L|482:262,1,61.6000018798829,8|8,0:3|0:0,0:0:0:0:
502,227,134958,1,8,0:1:0:0:
407,147,135311,1,8,3:0:0:0:
284,155,135664,2,0,B|251:159|251:159|214:139,1,61.6000018798829,8|8,0:3|0:0,0:0:0:0:
196,91,136017,2,0,B|162:93|162:93|116:125,1,61.6000018798829,8|2,0:3|0:0,0:0:0:0:
98,155,136370,5,4,3:2:0:0:
43,265,136723,2,0,P|64:291|71:334,1,61.6000018798829,8|0,0:1|3:0,0:0:0:0:
108,367,137076,1,8,0:3:0:0:
204,290,137429,1,8,0:1:0:0:
312,348,137782,1,8,0:1:0:0:
343,228,138135,2,0,P|349:189|337:147,1,61.6000018798829,0|2,3:0|0:0,0:0:0:0:
302,123,138488,2,0,L|428:145,1,123.200003759766,8|8,0:3|0:1,0:0:0:0:
497,246,139193,5,0,3:0:0:0:
426,346,139546,2,0,P|396:361|363:352,1,61.6000018798829,8|0,0:1|3:0,0:0:0:0:
330,308,139899,2,0,P|294:314|267:342,1,61.6000018798829,8|8,0:3|0:0,0:0:0:0:
234,376,140252,1,8,0:3:0:0:
151,284,140605,1,8,0:1:0:0:
48,351,140958,1,8,3:0:0:0:
12,238,141311,1,8,0:3:0:0:
12,238,141664,1,8,0:3:0:0:
109,162,142017,5,4,3:2:0:0:
169,269,142370,2,0,P|196:278|240:255,1,61.6000018798829,8|0,0:1|3:0,0:0:0:0:
286,284,142723,1,8,0:3:0:0:
402,324,143076,1,8,0:1:0:0:
467,219,143429,1,8,0:1:0:0:
371,141,143782,2,0,P|368:105|386:65,1,61.6000018798829,0|2,3:0|0:0,0:0:0:0:
409,29,144135,2,0,L|283:51,1,123.200003759766,8|8,0:3|0:1,0:0:0:0:
171,4,144840,5,0,3:0:0:0:
64,65,145193,2,0,P|49:95|58:128,1,61.6000018798829,8|0,0:1|3:0,0:0:0:0:
102,161,145546,2,0,P|96:197|68:224,1,61.6000018798829,8|8,0:3|0:0,0:0:0:0:
34,257,145899,1,8,0:3:0:0:
97,362,146252,1,8,0:1:0:0:
206,305,146605,2,0,L|270:323,1,61.6000018798829,8|2,3:0|0:0,0:0:0:0:
313,360,146958,1,8,0:3:0:0:
423,306,147311,2,0,B|428:275|428:275|403:229,1,61.6000018798829,8|2,0:3|0:0,0:0:0:0:
418,253,150488,5,0,3:0:0:0:
418,253,151017,1,0,3:0:0:0:
211,278,153311,5,0,3:0:0:0:
279,154,153840,1,0,3:0:0:0:
368,161,156135,5,0,3:0:0:0:
300,37,156664,1,0,3:0:0:0:
300,37,158252,1,8,0:3:0:0:
245,48,158429,2,0,L|233:103,2,56,2|8|8,0:3|0:3|0:3,0:0:0:0:
194,22,158958,5,0,3:0:0:0:
50,109,159487,1,0,3:0:0:0:
87,150,159664,2,0,P|95:205|46:265,1,112,8|8,0:3|0:1,0:0:0:0:
119,351,160370,1,8,0:1:0:0:
221,307,160722,1,0,3:0:0:0:
320,358,161076,2,0,L|437:304,1,112,8|8,0:3|0:1,0:0:0:0:
503,233,161781,5,0,3:0:0:0:
351,160,162310,1,0,3:0:0:0:
298,179,162488,2,0,P|283:129|316:59,1,112,8|8,0:3|0:3,0:0:0:0:
197,30,163194,1,8,0:1:0:0:
137,124,163545,1,8,3:0:0:0:
24,137,163899,2,0,B|21:167|21:167|39:208,1,56,8|8,0:3|0:0,0:0:0:0:
79,221,164252,2,0,B|80:249|80:249|64:282,1,56,8|2,0:3|0:0,0:0:0:0:
20,304,164605,5,0,3:0:0:0:
176,365,165134,1,0,3:0:0:0:
203,316,165311,2,0,P|253:300|319:343,1,112,8|8,0:3|0:1,0:0:0:0:
411,365,166017,1,8,0:1:0:0:
486,283,166369,1,0,3:0:0:0:
419,192,166723,2,0,L|295:207,1,112,8|8,0:3|0:1,0:0:0:0:
206,255,167429,5,0,3:0:0:0:
42,292,167958,1,0,3:0:0:0:
22,239,168135,2,0,P|6:189|49:123,1,112,8|8,0:3|0:3,0:0:0:0:
114,63,168840,2,0,L|171:91,1,56,8|8,0:1|0:0,0:0:0:0:
190,137,169193,2,0,L|251:109,1,56,8|2,3:0|0:0,0:0:0:0:
289,84,169546,1,2,0:0:0:0:
332,187,169899,1,2,0:0:0:0:
455,193,170252,5,4,3:2:0:0:
489,311,170605,1,8,0:1:0:0:
472,370,170781,2,0,P|438:375|398:353,1,61.6000018798829,0|8,3:0|0:3,0:0:0:0:
384,310,171134,2,0,P|357:311|326:342,1,61.6000018798829,8|8,0:0|0:1,0:0:0:0:
218,383,171664,1,8,0:1:0:0:
118,310,172017,1,0,3:0:0:0:
4,356,172369,2,0,B|-13:319|-7:282|58:274|77:240|53:181,1,184.800005639649,8|2,0:3|0:0,0:0:0:0:
1,166,173076,5,0,3:0:0:0:
81,72,173429,1,8,0:1:0:0:
140,88,173605,1,0,3:0:0:0:
199,104,173781,1,8,0:3:0:0:
299,33,174134,2,0,L|359:48,1,61.6000018798829,8|8,0:3|0:0,0:0:0:0:
416,23,174488,1,8,0:1:0:0:
480,127,174840,1,8,3:0:0:0:
413,231,175193,1,8,0:3:0:0:
465,342,175546,2,0,B|429:338|429:338|389:351,1,61.6000018798829,8|2,0:3|0:0,0:0:0:0:
345,364,175899,5,4,3:2:0:0:
247,288,176252,1,8,0:1:0:0:
284,240,176428,2,0,P|288:214|261:170,1,61.6000018798829,0|8,3:0|0:3,0:0:0:0:
216,162,176781,2,0,P|218:131|237:108,1,61.6000018798829,8|8,0:0|0:1,0:0:0:0:
136,37,177311,1,8,0:1:0:0:
60,134,177664,1,0,3:0:0:0:
119,241,178016,2,0,P|108:324|190:343,1,184.800005639649,8|2,0:3|0:0,0:0:0:0:
244,313,178723,6,0,L|326:397,2,92.4000028198243,0|0|0,3:0|0:0|3:0,0:0:0:0:
257,253,179428,1,8,0:3:0:0:
377,278,179781,2,0,L|361:192,1,61.6000018798829,8|8,0:3|0:0,0:0:0:0:
400,166,180134,1,8,0:1:0:0:
310,80,180487,1,8,3:0:0:0:
226,170,180840,2,0,B|193:166|193:166|156:186,1,61.6000018798829,8|8,0:3|0:0,0:0:0:0:
161,240,181193,2,0,B|127:238|127:238|81:206,1,61.6000018798829,8|2,0:3|0:0,0:0:0:0:
56,183,181546,5,4,3:2:0:0:
98,67,181899,2,0,L|175:76,1,61.6000018798829,8|0,0:1|3:0,0:0:0:0:
212,42,182252,1,8,0:3:0:0:
300,127,182605,1,8,0:1:0:0:
408,68,182958,1,8,0:1:0:0:
476,170,183311,2,0,L|452:250,1,61.6000018798829,0|2,3:0|0:0,0:0:0:0:
484,285,183664,2,0,L|347:260,1,123.200003759766,8|8,0:3|0:1,0:0:0:0:
285,358,184369,5,0,3:0:0:0:
177,296,184722,2,0,L|209:227,1,61.6000018798829,8|0,0:1|3:0,0:0:0:0:
263,227,185075,2,0,L|246:157,1,61.6000018798829,8|8,0:3|0:0,0:0:0:0:
208,119,185428,1,8,0:3:0:0:
95,69,185781,1,8,0:1:0:0:
51,184,186134,1,8,3:0:0:0:
155,259,186487,1,8,0:3:0:0:
155,259,186840,2,0,B|189:248|189:248|225:257,1,61.6000018798829,8|2,0:3|0:0,0:0:0:0:
274,243,187193,5,4,3:2:0:0:
245,123,187546,2,0,P|272:114|316:137,1,61.6000018798829,8|0,0:1|3:0,0:0:0:0:
356,92,187899,1,8,0:3:0:0:
445,177,188252,1,8,0:1:0:0:
425,298,188605,1,8,0:1:0:0:
309,341,188958,2,0,L|242:328,1,61.6000018798829,0|2,3:0|0:0,0:0:0:0:
195,360,189311,2,0,L|226:227,1,123.200003759766,8|8,0:3|0:1,0:0:0:0:
304,147,190016,5,0,3:0:0:0:
219,57,190370,2,0,P|181:51|151:64,1,61.6000018798829,8|0,0:1|3:0,0:0:0:0:
134,114,190722,2,0,P|98:108|71:80,1,61.6000018798829,8|8,0:3|0:0,0:0:0:0:
26,124,191075,1,8,0:3:0:0:
71,238,191429,2,0,B|66:271|66:271|91:313,1,61.6000018798829,8|8,0:3|0:0,0:0:0:0:
125,336,191781,2,0,L|201:327,1,61.6000018798829,8|2,3:0|0:0,0:0:0:0:
227,283,192134,1,2,0:0:0:0:
324,338,192488,1,2,0:0:0:0:
