osu file format v14

[General]
AudioFilename: audio.mp3
AudioLeadIn: 0
PreviewTime: 68605
Countdown: 0
SampleSet: Soft
StackLeniency: 0.2
Mode: 0
LetterboxInBreaks: 0
WidescreenStoryboard: 0

[Editor]
Bookmarks: 34723,57311,79899,102488,125076,147664,170252,192840
DistanceSpacing: 0.2
BeatDivisor: 8
GridSize: 32
TimelineZoom: 2.599999

[Metadata]
Title:Hi, It's Me
TitleUnicode:Hi, It's Me
Artist:Ashnikko
ArtistUnicode:Ashnikko
Creator:Alumetri
Version:Nauseous Bestie
Source:
Tags:english pop hip hop rap Ashton Nicole Casey Nuvolina Gordon123 -_AzRaeL_- Pachiru
BeatmapID:2847667
BeatmapSetID:1377970

[Difficulty]
HPDrainRate:5
CircleSize:3.8
OverallDifficulty:9.2
ApproachRate:9.2
SliderMultiplier:2.12
SliderTickRate:1

[Events]
//Background and Video events
0,0,"bgbggb.jpg",0,0
//Break Periods
//Storyboard Layer 0 (Background)
//Storyboard Layer 1 (Fail)
//Storyboard Layer 2 (Pass)
//Storyboard Layer 3 (Foreground)
//Storyboard Layer 4 (Overlay)
//Storyboard Sound Samples

[TimingPoints]
841,705.882352941176,4,2,1,70,1,0
841,-33.3333333333333,4,2,1,70,0,0
1370,-100,4,2,1,70,0,0
3664,-33.3333333333333,4,2,1,70,0,0
4193,-100,4,2,1,70,0,0
6488,-33.3333333333333,4,2,1,70,0,0
7017,-100,4,2,1,70,0,0
9311,-33.3333333333333,4,2,1,70,0,0
9840,-100,4,2,1,70,0,0
12135,-43.4782608695652,4,2,1,70,0,0
34723,-142.857142857143,4,2,10,50,0,0
46017,-50,4,2,2,50,0,1
46105,-50,4,2,2,50,0,0
48840,-50,4,2,2,50,0,1
48929,-50,4,2,2,50,0,0
51664,-50,4,2,2,50,0,1
51752,-50,4,2,2,50,0,0
54488,-50,4,2,2,50,0,1
54576,-50,4,2,2,50,0,0
55899,-100,4,2,2,50,0,0
56605,-200,4,2,10,50,0,0
57311,-40,4,2,1,70,0,1
61193,-40,4,2,2,70,0,1
61370,-40,4,2,1,70,0,1
61899,-40,4,2,2,70,0,1
62076,-40,4,2,1,70,0,1
62605,-40,4,2,2,70,0,1
62782,-40,4,2,1,70,0,1
66840,-40,4,2,2,70,0,1
67017,-40,4,2,1,70,0,1
67546,-40,4,2,2,70,0,1
67723,-40,4,2,1,70,0,1
67899,-40,4,2,2,70,0,1
68076,-40,4,2,1,70,0,1
68252,-40,4,2,2,70,0,1
68429,-40,4,2,1,70,0,1
68605,-142.857142857143,4,2,3,50,0,0
71429,-33.3333333333333,4,2,1,50,0,0
71517,-33.3333333333333,4,2,3,50,0,0
71958,-100,4,2,1,50,0,0
72046,-100,4,2,3,50,0,0
72840,-142.857142857143,4,2,3,50,0,0
77076,-33.3333333333333,4,2,1,50,0,0
77164,-33.3333333333333,4,2,3,50,0,0
77605,-100,4,2,1,50,0,0
77693,-100,4,2,3,50,0,0
78487,-142.857142857143,4,2,3,50,0,0
79193,-142.857142857143,4,2,1,70,0,0
79370,-142.857142857143,4,2,10,70,0,0
79899,-43.4782608695652,4,2,1,70,0,0
95076,-43.4782608695652,4,2,2,70,0,0
95252,-43.4782608695652,4,2,1,70,0,0
95782,-43.4782608695652,4,2,2,70,0,0
95958,-43.4782608695652,4,2,1,70,0,0
96488,-43.4782608695652,4,2,2,70,0,0
96664,-43.4782608695652,4,2,1,70,0,0
100723,-43.4782608695652,4,2,2,70,0,0
100899,-43.4782608695652,4,2,1,70,0,0
101429,-43.4782608695652,4,2,2,70,0,0
101605,-43.4782608695652,4,2,1,70,0,0
102135,-43.4782608695652,4,2,2,70,0,0
102311,-43.4782608695652,4,2,1,70,0,0
102488,-142.857142857143,4,2,2,50,0,0
113782,-43.4782608695652,4,2,2,50,0,1
113870,-43.4782608695652,4,2,2,50,0,0
116605,-43.4782608695652,4,2,2,50,0,1
116693,-43.4782608695652,4,2,2,50,0,0
119429,-43.4782608695652,4,2,2,50,0,1
119517,-43.4782608695652,4,2,2,50,0,0
122252,-43.4782608695652,4,2,2,50,0,1
122340,-43.4782608695652,4,2,2,50,0,0
124370,-43.4782608695652,4,2,10,70,0,0
125076,-37.037037037037,4,2,1,70,0,1
128958,-37.037037037037,4,2,2,70,0,1
129135,-37.037037037037,4,2,1,70,0,1
129664,-37.037037037037,4,2,2,70,0,1
129840,-37.037037037037,4,2,1,70,0,1
130370,-37.037037037037,4,2,2,70,0,1
130546,-37.037037037037,4,2,1,70,0,1
134605,-37.037037037037,4,2,2,70,0,1
134782,-37.037037037037,4,2,1,70,0,1
135311,-37.037037037037,4,2,2,70,0,1
135488,-37.037037037037,4,2,1,70,0,1
135664,-37.037037037037,4,2,2,70,0,1
135840,-37.037037037037,4,2,1,70,0,1
136017,-37.037037037037,4,2,2,70,0,1
136193,-37.037037037037,4,2,1,70,0,1
140252,-37.037037037037,4,2,2,70,0,1
140429,-37.037037037037,4,2,1,70,0,1
140958,-37.037037037037,4,2,2,70,0,1
141135,-37.037037037037,4,2,1,70,0,1
141664,-37.037037037037,4,2,2,70,0,1
141840,-37.037037037037,4,2,1,70,0,1
145899,-37.037037037037,4,2,2,70,0,1
146076,-37.037037037037,4,2,1,70,0,1
146605,-37.037037037037,4,2,2,70,0,1
146782,-37.037037037037,4,2,1,70,0,1
146958,-37.037037037037,4,2,2,70,0,1
147135,-37.037037037037,4,2,1,70,0,1
147311,-37.037037037037,4,2,2,70,0,1
147488,-37.037037037037,4,2,1,70,0,1
147664,-50,4,2,1,40,0,0
150488,-166.666666666667,4,2,1,50,0,0
153311,-83.3333333333333,4,2,1,60,0,0
156135,-50,4,2,1,70,0,0
158429,-50,4,2,10,70,0,0
158958,-43.4782608695652,4,2,1,70,0,0
162840,-43.4782608695652,4,2,2,70,0,0
163017,-43.4782608695652,4,2,1,70,0,0
163546,-43.4782608695652,4,2,2,70,0,0
163723,-43.4782608695652,4,2,1,70,0,0
164252,-43.4782608695652,4,2,2,70,0,0
164429,-43.4782608695652,4,2,1,70,0,0
168488,-43.4782608695652,4,2,2,70,0,0
168664,-43.4782608695652,4,2,1,70,0,0
169193,-43.4782608695652,4,2,2,70,0,0
169370,-43.4782608695652,4,2,1,70,0,0
169546,-111.111111111111,4,2,10,50,0,0
170252,-37.037037037037,4,2,1,70,0,1
174135,-37.037037037037,4,2,2,70,0,1
174311,-37.037037037037,4,2,1,70,0,1
174840,-37.037037037037,4,2,2,70,0,1
175017,-37.037037037037,4,2,1,70,0,1
175546,-37.037037037037,4,2,2,70,0,1
175723,-37.037037037037,4,2,1,70,0,1
179782,-37.037037037037,4,2,2,70,0,1
179958,-37.037037037037,4,2,1,70,0,1
180488,-37.037037037037,4,2,2,70,0,1
180664,-37.037037037037,4,2,1,70,0,1
180840,-37.037037037037,4,2,2,70,0,1
181017,-37.037037037037,4,2,1,70,0,1
181193,-37.037037037037,4,2,2,70,0,1
181370,-37.037037037037,4,2,1,70,0,1
185429,-37.037037037037,4,2,2,70,0,1
185605,-37.037037037037,4,2,1,70,0,1
186135,-37.037037037037,4,2,2,70,0,1
186311,-37.037037037037,4,2,1,70,0,1
186840,-37.037037037037,4,2,2,70,0,1
187017,-37.037037037037,4,2,1,70,0,1
191076,-37.037037037037,4,2,2,70,0,1
191252,-37.037037037037,4,2,1,70,0,1
191429,-37.037037037037,4,2,2,70,0,1
191605,-37.037037037037,4,2,1,70,0,1
191782,-37.037037037037,4,2,2,70,0,1
191958,-37.037037037037,4,2,1,70,0,1
192135,-111.111111111111,4,2,10,50,0,0

[Colours]
Combo1 : 255,189,157
Combo2 : 128,255,255
Combo3 : 128,128,255
Combo4 : 255,128,192

[HitObjects]
69,77,841,6,0,B|165:28|165:28|130:249,1,318.000012130738,0|0,3:0|0:0,0:0:0:0:
225,315,1370,6,0,P|130:276|142:219,1,159,0|0,3:0|0:0,0:0:0:0:
315,61,3664,6,0,B|267:50|229:103|229:103|341:96|439:173,1,318.000012130738,0|0,3:0|0:0,0:0:0:0:
388,273,4193,6,0,P|456:220|426:163,1,159,0|0,3:0|0:0,0:0:0:0:
143,297,6488,6,0,B|147:328|125:354|125:354|245:321|245:321|178:192,1,318.000012130738,0|0,3:0|0:0,0:0:0:0:
184,75,7017,6,0,B|140:113|140:113|190:216,1,159,0|0,3:0|0:0,0:0:0:0:
150,87,9311,6,0,B|209:6|306:34|306:34|326:108|443:113,1,318.000012130738,0|0,3:0|0:0,0:0:0:0:
490,17,9840,6,0,P|425:28|415:112,1,159,0|0,3:0|0:0,0:0:0:0:
413,109,11605,6,0,P|362:113|299:134,1,106,0|0,3:0|0:0,0:0:0:0:
161,303,12135,6,0,B|101:249|101:249|145:66,1,243.800004650116,0|8,3:0|0:1,0:0:0:0:
259,194,12664,1,0,3:0:0:0:
140,91,12840,2,0,B|82:71|82:71|24:90,1,121.900002325058,8|8,0:3|0:0,0:0:0:0:
233,288,13193,2,0,B|290:307|290:307|348:288,1,121.900002325058,8|8,0:1|0:0,0:0:0:0:
448,134,13546,5,8,0:1:0:0:
448,134,13723,1,8,0:0:0:0:
293,221,13899,2,0,B|274:163|274:163|295:100,1,121.900002325058,0|2,3:0|0:0,0:0:0:0:
508,189,14252,1,8,0:3:0:0:
348,288,14429,1,8,0:0:0:0:
381,79,14605,1,8,0:1:0:0:
345,306,14782,1,2,0:0:0:0:
448,134,14958,6,0,B|508:188|508:188|464:371,1,243.800004650116,0|8,3:0|0:1,0:0:0:0:
233,288,15488,1,0,3:0:0:0:
354,346,15664,2,0,B|411:365|411:365|469:346,1,121.900002325058,8|8,0:3|0:0,0:0:0:0:
293,221,16017,2,0,B|235:201|235:201|177:220,1,121.900002325058,8|8,0:1|0:0,0:0:0:0:
233,288,16370,5,8,0:1:0:0:
233,288,16546,1,8,0:0:0:0:
148,114,16723,2,0,B|185:148|185:148|176:226,1,121.900002325058,0|2,3:0|0:0,0:0:0:0:
164,350,17076,1,8,0:3:0:0:
348,126,17252,2,0,B|303:149|303:149|291:226,1,121.900002325058,8|8,0:0|0:1,0:0:0:0:
286,361,17605,1,2,0:0:0:0:
176,219,17782,6,0,B|120:183|120:183|140:368,1,243.800004650116,0|8,3:0|0:1,0:0:0:0:
230,285,18311,1,0,3:0:0:0:
181,130,18488,2,0,B|127:106|127:106|66:120,1,121.900002325058,8|8,0:3|0:0,0:0:0:0:
230,285,18840,2,0,B|284:309|284:309|346:296,1,121.900002325058,8|8,0:1|0:0,0:0:0:0:
331,189,19193,5,8,0:1:0:0:
331,189,19370,1,8,0:0:0:0:
346,314,19546,2,0,B|284:327|284:327|230:303,1,121.900002325058,0|2,3:0|0:0,0:0:0:0:
172,68,19899,1,8,0:3:0:0:
331,189,20076,1,8,0:0:0:0:
122,242,20252,1,8,0:1:0:0:
275,98,20429,1,2,0:0:0:0:
259,325,20605,6,0,B|224:263|224:263|279:82,1,243.800004650116,0|8,3:0|0:1,0:0:0:0:
444,209,21135,2,0,B|383:218|383:218|325:185,1,121.900002325058,0|8,3:0|0:3,0:0:0:0:
275,98,21488,1,8,0:0:0:0:
115,211,21664,2,0,B|176:220|176:220|234:187,1,121.900002325058,8|8,0:1|0:0,0:0:0:0:
276,261,22017,5,8,0:1:0:0:
276,261,22193,1,8,0:0:0:0:
160,103,22370,2,0,B|198:82|198:82|290:101,1,121.900002325058,0|2,3:0|0:0,0:0:0:0:
346,303,22723,1,8,0:3:0:0:
228,190,22899,1,8,0:0:0:0:
388,83,23076,1,8,0:1:0:0:
276,261,23252,1,2,0:0:0:0:
333,166,23429,6,0,B|388:216|388:216|354:383,1,243.800004650116,0|8,3:0|0:1,0:0:0:0:
228,190,23958,1,0,3:0:0:0:
171,347,24135,2,0,B|228:369|228:369|300:343,1,121.900002325058,8|8,0:3|0:0,0:0:0:0:
228,190,24488,2,0,B|171:168|171:168|99:194,1,121.900002325058,8|8,0:1|0:0,0:0:0:0:
276,261,24840,5,8,0:1:0:0:
276,261,25017,1,8,0:0:0:0:
363,159,25193,2,0,B|412:125|412:125|490:135,1,121.900002325058,0|2,3:0|0:0,0:0:0:0:
285,348,25546,2,0,B|223:355|223:355|174:321,1,121.900002325058,8|8,0:3|0:0,0:0:0:0:
362,145,25899,2,0,B|411:111|411:111|489:121,1,121.900002325058,8|2,0:1|0:0,0:0:0:0:
481,346,26252,6,0,B|448:315|448:315|473:115,1,243.800004650116,0|8,3:0|0:1,0:0:0:0:
316,246,26782,2,0,B|354:221|354:221|361:145,1,121.900002325058,0|8,3:0|0:3,0:0:0:0:
472,118,27135,1,8,0:0:0:0:
280,171,27311,2,0,L|150:158,1,121.900002325058,8|8,0:1|0:0,0:0:0:0:
235,57,27664,5,8,0:1:0:0:
235,57,27840,1,8,0:0:0:0:
280,171,28017,2,0,B|273:247|273:247|235:272,1,121.900002325058,0|2,3:0|0:0,0:0:0:0:
158,158,28370,1,8,0:3:0:0:
306,95,28546,2,0,P|360:137|360:191,1,121.900002325058,8|8,0:0|0:1,0:0:0:0:
234,272,28899,1,2,0:0:0:0:
158,158,29076,6,0,B|148:74|148:74|318:97,1,243.800004650116,0|8,3:0|0:1,0:0:0:0:
203,229,29605,2,0,P|143:238|80:189,1,121.900002325058,0|8,3:0|0:3,0:0:0:0:
236,10,29958,1,8,0:0:0:0:
280,171,30135,1,8,0:1:0:0:
158,158,30311,1,8,0:0:0:0:
361,186,30488,6,0,B|384:225|384:225|354:306,1,121.900002325058,8|8,0:1|0:0,0:0:0:0:
154,269,30840,2,0,B|131:230|131:230|157:158,1,121.900002325058,0|2,3:0|0:0,0:0:0:0:
334,102,31193,1,8,0:3:0:0:
357,296,31370,1,8,0:0:0:0:
224,213,31546,1,8,0:1:0:0:
361,186,31723,1,2,0:0:0:0:
267,290,31899,6,0,B|90:314|90:314|54:259,1,243.800004650116,0|8,3:0|0:1,0:0:0:0:
175,115,32429,2,0,B|210:129|210:129|224:214,1,121.900002325058,0|8,3:0|0:3,0:0:0:0:
334,102,32782,1,8,0:0:0:0:
224,213,32958,1,8,0:1:0:0:
274,37,33135,1,8,0:0:0:0:
309,206,33311,6,0,B|346:172|346:172|332:94,1,121.900002325058,8|8,0:1|0:0,0:0:0:0:
176,46,33664,2,0,B|139:80|139:80|153:158,1,121.900002325058,0|2,3:0|0:0,0:0:0:0:
175,303,34017,1,8,0:3:0:0:
226,113,34193,2,0,B|263:147|263:147|249:225,1,121.900002325058,8|8,0:0|0:1,0:0:0:0:
174,326,34546,1,2,0:0:0:0:
250,217,34723,6,0,L|328:210,3,74.1999977355958,12|0|8|0,0:0|0:0|0:1|0:0,0:0:0:0:
332,290,36135,2,0,L|254:297,3,74.1999977355958,8|0|8|0,0:0|0:0|0:1|0:0,0:0:0:0:
488,194,37546,6,0,L|495:272,3,74.1999977355958,8|0|8|0,0:0|0:0|0:1|0:0,0:0:0:0:
415,276,38958,2,0,L|408:198,3,74.1999977355958,8|0|8|0,0:0|0:0|0:1|0:0,0:0:0:0:
322,68,40370,6,0,P|289:48|240:55,3,74.1999977355958,8|0|8|0,0:0|0:0|0:1|0:0,0:0:0:0:
232,124,41782,2,0,P|265:144|314:137,3,74.1999977355958,8|0|8|0,0:0|0:0|0:1|0:0,0:0:0:0:
89,4,43193,6,0,P|68:37|76:86,3,74.1999977355958,8|0|8|0,0:0|0:0|0:1|0:0,0:0:0:0:
145,94,44605,2,0,P|165:61|158:12,3,74.1999977355958,8|0|8|0,0:0|0:0|0:1|0:0,0:0:0:0:
79,266,46017,6,0,B|158:257|158:257|193:221|193:221|283:212,1,212,12|0,3:0|0:0,0:0:0:0:
415,199,46546,1,8,3:0:0:0:
295,384,46723,2,0,B|267:336|267:336|287:264,1,106,8|0,0:1|0:0,0:0:0:0:
400,102,47076,2,0,B|428:150|428:150|408:222,1,106,8|0,0:3|0:0,0:0:0:0:
275,213,47429,6,0,L|156:225,1,106,8|0,0:3|0:0,0:0:0:0:
296,105,47782,1,0,0:0:0:0:
382,282,47958,1,8,0:3:0:0:
169,223,48135,2,0,L|158:99,1,106,8|0,0:1|0:0,0:0:0:0:
372,176,48488,2,0,L|383:300,1,106,8|0,0:3|0:0,0:0:0:0:
187,305,48840,6,0,B|134:317|77:278|119:250|56:217|-9:228,1,212,8|0,3:0|0:0,0:0:0:0:
159,117,49370,1,8,3:0:0:0:
260,268,49546,2,0,P|266:319|233:372,1,106,8|0,0:1|0:0,0:0:0:0:
85,152,49899,2,0,P|79:101|112:48,1,106,8|0,0:3|0:0,0:0:0:0:
371,107,50252,6,0,L|253:126,1,106,8|0,0:3|0:0,0:0:0:0:
153,276,50605,1,0,0:0:0:0:
346,246,50782,1,8,0:3:0:0:
85,152,50958,2,0,L|207:135,1,106,8|0,0:1|0:0,0:0:0:0:
264,336,51311,6,0,L|268:365,2,26.5,8|8|8,0:3|0:3|0:3,0:0:0:0:
241,195,51488,1,8,0:3:0:0:
403,360,51664,6,0,B|365:316|365:316|399:154,1,212,8|0,3:0|0:0,0:0:0:0:
428,16,52193,1,8,3:0:0:0:
241,195,52370,2,0,P|190:207|140:174,1,106,8|0,0:1|0:0,0:0:0:0:
162,31,52723,2,0,P|213:19|263:52,1,106,8|0,0:3|0:0,0:0:0:0:
396,165,53076,6,0,L|375:273,1,106,8|0,0:3|0:0,0:0:0:0:
145,181,53429,1,0,0:0:0:0:
322,106,53605,1,8,0:3:0:0:
165,285,53782,2,0,L|144:177,1,106,8|0,0:1|0:0,0:0:0:0:
342,1,54135,2,0,L|321:109,1,106,8|0,0:3|0:0,0:0:0:0:
224,347,54488,6,0,P|114:355|81:273,1,212,8|0,3:0|0:0,0:0:0:0:
235,143,55017,1,8,3:0:0:0:
335,309,55193,2,0,B|366:265|366:265|356:207,1,106,8|0,0:1|0:0,0:0:0:0:
174,77,55546,2,0,B|143:121|143:121|153:179,1,106,8|0,0:3|0:0,0:0:0:0:
462,198,55899,6,0,L|339:216,1,106,8|0,0:3|0:0,0:0:0:0:
224,347,56605,6,0,L|162:338,1,53,2|2,0:0|0:0,0:0:0:0:
54,111,57311,6,0,B|156:91|156:91|104:248,1,265,4|8,3:2|0:1,0:0:0:0:
60,384,57840,1,0,3:0:0:0:
205,219,58017,2,0,P|254:185|333:208,1,132.5,8|8,0:3|0:0,0:0:0:0:
340,345,58370,2,0,P|291:379|212:356,1,132.5,8|8,0:1|0:0,0:0:0:0:
329,118,58723,6,0,P|388:155|396:230,1,132.5,8|8,0:1|0:0,0:0:0:0:
223,365,59076,1,0,3:0:0:0:
321,198,59252,1,2,0:0:0:0:
463,334,59429,2,0,B|404:363|404:363|336:343,1,132.5,8|8,0:3|0:0,0:0:0:0:
197,208,59782,2,0,B|256:179|256:179|324:199,1,132.5,8|2,0:1|0:0,0:0:0:0:
100,374,60135,6,0,B|39:316|39:316|86:127,1,265,0|8,3:0|0:1,0:0:0:0:
320,197,60664,1,0,3:0:0:0:
135,290,60840,2,0,L|172:142,1,132.5,8|8,0:3|0:0,0:0:0:0:
400,102,61193,1,8,0:3:0:0:
339,344,61370,1,8,0:0:0:0:
191,82,61546,6,0,B|256:62|256:62|319:80,1,132.5,8|8,0:1|0:0,0:0:0:0:
466,341,61899,2,0,B|401:361|401:361|338:343,1,132.5,8|2,3:0|0:0,0:0:0:0:
167,161,62252,1,8,0:3:0:0:
400,102,62429,1,8,0:0:0:0:
227,255,62605,6,0,L|190:250,2,33.125,8|8|8,0:3|0:3|0:3,0:0:0:0:
361,272,62782,1,2,0:0:0:0:
167,161,62958,6,0,B|93:117|93:117|123:305,1,265,4|8,3:2|0:1,0:0:0:0:
283,384,63488,1,0,3:0:0:0:
356,175,63664,2,0,B|407:140|407:140|504:154,1,132.5,8|8,0:3|0:0,0:0:0:0:
242,318,64017,2,0,B|172:328|172:328|121:293,1,132.5,8|8,0:1|0:0,0:0:0:0:
171,110,64370,6,0,P|267:111|314:258,2,265,8|0|8,0:1|3:0|0:3,0:0:0:0:
121,293,65252,1,8,0:0:0:0:
78,35,65429,1,8,0:1:0:0:
136,258,65605,1,2,0:0:0:0:
294,54,65782,6,0,P|273:114|264:190,1,132.5,0|2,3:0|0:0,0:0:0:0:
176,361,66135,1,8,0:1:0:0:
95,147,66311,1,0,3:0:0:0:
298,282,66488,2,0,P|353:320|426:302,1,132.5,8|8,0:3|0:0,0:0:0:0:
414,74,66840,2,0,P|350:64|298:102,1,132.5,8|8,0:3|0:0,0:0:0:0:
136,258,67193,5,8,0:1:0:0:
249,40,67370,1,8,0:0:0:0:
298,282,67546,1,8,3:0:0:0:
95,147,67723,1,2,0:0:0:0:
61,335,67899,6,0,L|56:371,2,33.125,8|8|8,0:3|0:3|0:3,0:0:0:0:
136,258,68076,1,8,0:0:0:0:
298,282,68252,6,0,L|303:318,2,33.125,8|8|8,0:3|0:3|0:3,0:0:0:0:
223,205,68429,1,2,0:0:0:0:
95,147,68605,6,0,L|12:137,6,74.1999977355958,0|0|0|0|0|0|0,0:0|0:0|0:0|0:0|0:0|0:0|0:0,0:0:0:0:
95,147,71429,6,0,B|146:154|146:154|359:88|359:88|416:97,1,318.000012130738,0|0,3:0|0:0,0:0:0:0:
261,201,71958,6,0,B|264:176|264:176|232:73|232:73|236:46,1,159,0|0,3:0|0:0,0:0:0:0:
236,47,72840,2,0,B|232:73|232:73|248:125,2,74.1999977355958,0|0|0,0:0|0:0|0:0,0:0:0:0:
447,140,74252,6,0,L|370:149,6,74.1999977355958,0|0|0|0|0|0|0,0:0|0:0|0:0|0:0|0:0|0:0|0:0,0:0:0:0:
373,148,77076,6,0,B|338:113|268:129|239:197|239:197|229:186|229:186|195:234|148:246|99:221,1,318.000012130738,0|0,3:0|0:0,0:0:0:0:
53,74,77605,6,0,P|123:76|149:159,1,159,0|0,3:0|0:0,0:0:0:0:
46,271,78488,6,0,P|30:235|40:195,1,74.1999977355958,0|0,0:0|0:0,0:0:0:0:
36,201,79017,1,0,0:0:0:0:
301,210,79193,5,8,0:3:0:0:
128,355,79370,1,2,0:3:0:0:
151,150,79546,1,8,0:3:0:0:
121,370,79723,1,8,0:3:0:0:
381,249,79899,6,0,B|340:297|340:297|151:279,1,243.800004650116,4|8,3:2|0:1,0:0:0:0:
246,136,80429,1,0,3:0:0:0:
128,355,80605,2,0,B|70:373|70:373|2:351,1,121.900002325058,8|8,0:3|0:0,0:0:0:0:
129,135,80958,2,0,B|187:117|187:117|255:139,1,121.900002325058,8|8,0:1|0:0,0:0:0:0:
305,324,81311,5,8,0:1:0:0:
305,324,81488,1,8,0:0:0:0:
109,244,81664,2,0,P|97:187|138:128,1,121.900002325058,0|2,3:0|0:0,0:0:0:0:
366,125,82017,2,0,L|233:136,1,121.900002325058,8|8,0:3|0:0,0:0:0:0:
183,313,82370,2,0,L|316:324,1,121.900002325058,8|2,0:1|0:0,0:0:0:0:
512,293,82723,6,0,B|462:340|386:320|386:320|371:250|307:243,1,243.800004650116,0|8,3:0|0:1,0:0:0:0:
244,135,83252,1,0,3:0:0:0:
183,313,83429,2,0,B|158:274|158:274|173:186,1,121.900002325058,8|8,0:3|0:0,0:0:0:0:
277,36,83782,1,8,0:1:0:0:
170,199,83958,1,8,0:0:0:0:
149,59,84135,6,0,B|90:44|90:44|25:76,1,121.900002325058,8|8,0:1|0:0,0:0:0:0:
56,211,84488,2,0,B|115:226|115:226|169:199,1,121.900002325058,0|2,3:0|0:0,0:0:0:0:
244,135,84840,1,8,0:3:0:0:
402,221,85017,2,0,B|343:236|343:236|288:209,1,121.900002325058,8|8,0:0|0:1,0:0:0:0:
149,59,85370,1,2,0:0:0:0:
370,8,85546,6,0,B|430:55|430:55|400:230,1,243.800004650116,0|8,3:0|0:1,0:0:0:0:
244,135,86076,1,0,3:0:0:0:
336,286,86252,2,0,B|391:313|391:313|450:298,1,121.900002325058,8|8,0:3|0:0,0:0:0:0:
206,203,86605,2,0,B|151:176|151:176|92:191,1,121.900002325058,8|8,0:1|0:0,0:0:0:0:
290,360,86958,5,8,0:1:0:0:
401,221,87135,1,8,0:0:0:0:
237,291,87311,1,0,3:0:0:0:
263,124,87488,1,2,0:0:0:0:
336,286,87664,1,8,0:3:0:0:
206,203,87840,1,8,0:0:0:0:
363,126,88017,1,8,0:1:0:0:
230,306,88193,1,2,0:0:0:0:
160,115,88370,6,0,B|195:64|195:64|309:29|309:29|381:55,1,243.800004650116,0|8,3:0|0:1,0:0:0:0:
336,286,88899,1,0,3:0:0:0:
246,128,89076,2,0,B|305:109|305:109|377:130,1,121.900002325058,8|8,0:3|0:0,0:0:0:0:
230,306,89429,1,8,0:1:0:0:
164,123,89605,1,8,0:0:0:0:
288,209,89782,6,0,B|347:228|347:228|419:207,1,121.900002325058,8|8,0:1|0:0,0:0:0:0:
226,55,90135,2,0,B|167:36|167:36|95:57,1,121.900002325058,0|2,3:0|0:0,0:0:0:0:
180,231,90488,1,8,0:3:0:0:
287,128,90664,2,0,B|346:109|346:109|403:125,1,121.900002325058,8|8,0:0|0:1,0:0:0:0:
347,306,91017,1,2,0:0:0:0:
180,231,91193,6,0,B|125:181|125:181|159:14,1,243.800004650116,0|8,3:0|0:1,0:0:0:0:
284,202,91722,1,0,3:0:0:0:
341,45,91899,2,0,B|284:23|284:23|212:49,1,121.900002325058,8|8,0:3|0:0,0:0:0:0:
284,202,92252,2,0,B|341:224|341:224|413:198,1,121.900002325058,8|8,0:1|0:0,0:0:0:0:
236,131,92604,5,8,0:1:0:0:
236,131,92781,1,8,0:0:0:0:
149,233,92958,2,0,B|100:267|100:267|22:257,1,121.900002325058,0|2,3:0|0:0,0:0:0:0:
227,44,93311,2,0,B|289:37|289:37|338:71,1,121.900002325058,8|8,0:3|0:0,0:0:0:0:
150,247,93664,2,0,B|101:281|101:281|23:271,1,121.900002325058,8|2,0:1|0:0,0:0:0:0:
31,46,94017,6,0,B|64:77|64:77|39:277,1,243.800004650116,0|8,3:0|0:1,0:0:0:0:
196,146,94546,2,0,B|158:171|158:171|151:247,1,121.900002325058,0|8,3:0|0:3,0:0:0:0:
40,274,94899,1,8,0:0:0:0:
232,221,95076,2,0,L|362:234,1,121.900002325058,8|8,0:1|0:0,0:0:0:0:
277,335,95428,5,8,0:1:0:0:
277,335,95604,1,8,0:0:0:0:
232,221,95782,2,0,B|239:145|239:145|277:120,1,121.900002325058,0|2,3:0|0:0,0:0:0:0:
354,234,96134,1,8,0:3:0:0:
206,297,96311,2,0,P|152:255|152:201,1,121.900002325058,8|8,0:0|0:1,0:0:0:0:
278,120,96663,1,2,0:0:0:0:
354,234,96840,6,0,B|364:318|364:318|194:295,1,243.800004650116,0|8,3:0|0:1,0:0:0:0:
309,163,97370,2,0,P|369:154|432:203,1,121.900002325058,0|8,3:0|0:3,0:0:0:0:
276,382,97722,1,8,0:0:0:0:
232,221,97899,1,8,0:1:0:0:
354,234,98075,1,8,0:0:0:0:
151,206,98252,6,0,B|128:167|128:167|158:86,1,121.900002325058,8|8,0:1|0:0,0:0:0:0:
358,123,98605,2,0,B|381:162|381:162|355:234,1,121.900002325058,0|2,3:0|0:0,0:0:0:0:
178,290,98957,1,8,0:3:0:0:
155,96,99134,1,8,0:0:0:0:
288,179,99310,1,8,0:1:0:0:
151,206,99487,1,2,0:0:0:0:
245,102,99664,6,0,B|422:78|422:78|458:133,1,243.800004650116,0|8,3:0|0:1,0:0:0:0:
337,277,100193,2,0,B|302:263|302:263|288:178,1,121.900002325058,0|8,3:0|0:3,0:0:0:0:
178,290,100546,1,8,0:0:0:0:
288,179,100722,1,8,0:1:0:0:
238,355,100899,1,8,0:0:0:0:
203,186,101076,6,0,B|166:220|166:220|180:298,1,121.900002325058,8|8,0:1|0:0,0:0:0:0:
336,346,101429,2,0,B|373:312|373:312|359:234,1,121.900002325058,0|2,3:0|0:0,0:0:0:0:
337,89,101781,1,8,0:3:0:0:
286,279,101958,2,0,B|249:245|249:245|263:167,1,121.900002325058,8|8,0:0|0:1,0:0:0:0:
338,66,102310,1,2,0:0:0:0:
261,174,102488,6,0,B|224:177|224:177|182:151,3,74.1999977355958,12|0|8|0,0:0|0:0|0:1|0:0,0:0:0:0:
215,81,103899,2,0,B|252:78|252:78|294:104,3,74.1999977355958,8|0|8|0,0:0|0:0|0:1|0:0,0:0:0:0:
340,232,105311,6,0,L|348:306,3,74.1999977355958,8|0|8|0,0:0|0:0|0:1|0:0,0:0:0:0:
427,295,106723,2,0,L|419:221,3,74.1999977355958,8|0|8|0,0:0|0:0|0:1|0:0,0:0:0:0:
215,355,108135,6,0,P|177:360|138:333,3,74.1999977355958,8|0|8|0,0:0|0:0|0:1|0:0,0:0:0:0:
162,266,109546,2,0,P|198:260|230:277,3,74.1999977355958,8|0|8|0,0:0|0:0|0:1|0:0,0:0:0:0:
103,125,110958,6,0,L|95:51,3,74.1999977355958,8|0|8|0,0:0|0:0|0:1|0:0,0:0:0:0:
16,62,112370,2,0,L|24:136,3,74.1999977355958,8|0|8|0,0:0|0:0|0:1|0:0,0:0:0:0:
139,239,113782,6,0,B|203:267|266:231|235:206|309:172|372:209,1,243.800004650116,12|0,3:0|0:0,0:0:0:0:
505,335,114311,1,8,3:0:0:0:
318,384,114488,2,0,B|295:330|295:330|321:252,1,121.900002325058,8|0,0:1|0:0,0:0:0:0:
475,93,114840,2,0,B|498:147|498:147|472:225,1,121.900002325058,8|0,0:3|0:0,0:0:0:0:
305,384,115193,6,0,B|282:330|282:330|308:252,1,121.900002325058,8|0,0:3|0:0,0:0:0:0:
387,82,115546,1,0,0:0:0:0:
454,284,115723,1,8,0:3:0:0:
300,103,115899,2,0,B|242:81|242:81|162:112,1,121.900002325058,8|0,0:1|0:0,0:0:0:0:
145,289,116252,1,8,0:3:0:0:
73,87,116429,1,0,0:0:0:0:
74,74,116517,1,0,0:0:0:0:
76,62,116605,6,0,B|163:33|163:33|134:191,1,243.800004650116,8|0,3:0|0:0,0:0:0:0:
110,369,117135,1,8,3:0:0:0:
226,194,117311,2,0,B|281:166|281:166|360:184,1,121.900002325058,8|0,0:1|0:0,0:0:0:0:
363,351,117664,2,0,B|308:379|308:379|229:361,1,121.900002325058,8|0,0:3|0:0,0:0:0:0:
388,115,118017,6,0,P|416:165|394:238,1,121.900002325058,8|0,0:3|0:0,0:0:0:0:
249,365,118370,1,0,0:0:0:0:
135,182,118546,1,8,0:3:0:0:
363,351,118723,2,0,P|417:367|479:321,1,121.900002325058,8|0,0:1|0:0,0:0:0:0:
339,179,119076,6,0,L|305:181,2,30.4750005812645,8|8|8,0:3|0:3|0:3,0:0:0:0:
491,173,119252,1,8,0:3:0:0:
254,262,119429,6,0,B|209:204|209:204|252:37,1,243.800004650116,8|0,3:0|0:0,0:0:0:0:
464,92,119958,1,8,3:0:0:0:
308,180,120135,2,0,L|339:50,1,121.900002325058,8|0,0:1|0:0,0:0:0:0:
442,217,120488,2,0,L|473:347,1,121.900002325058,8|0,0:3|0:0,0:0:0:0:
221,157,120840,6,0,L|254:28,1,121.900002325058,8|0,0:3|0:0,0:0:0:0:
464,92,121193,1,0,0:0:0:0:
254,262,121370,1,8,0:3:0:0:
336,61,121546,2,0,B|396:41|396:41|468:65,1,121.900002325058,8|0,0:1|0:0,0:0:0:0:
381,293,121899,1,8,0:3:0:0:
221,157,122076,1,0,0:0:0:0:
471,190,122252,6,0,B|320:202|320:202|298:254|245:263,1,243.800004650116,8|0,3:0|0:0,0:0:0:0:
73,169,122782,1,8,3:0:0:0:
206,332,122958,2,0,P|266:347|320:314,1,121.900002325058,8|0,0:1|0:0,0:0:0:0:
282,104,123311,2,0,P|229:75|172:91,1,121.900002325058,8|0,0:3|0:0,0:0:0:0:
63,305,123664,6,0,B|19:254|19:254|58:79,1,243.800004650116,8|0,0:3|0:0,0:0:0:0:
57,81,124370,1,8,0:0:0:0:
94,55,124546,1,2,0:3:0:0:
172,91,124723,1,8,0:3:0:0:
213,206,124899,1,8,0:3:0:0:
124,340,125076,6,0,B|236:321|236:321|272:270|272:270|387:251,1,286.200001091766,4|8,3:2|0:1,0:0:0:0:
494,88,125605,1,0,3:0:0:0:
441,363,125782,2,0,B|389:335|389:335|379:238,1,143.100000545883,8|8,0:3|0:0,0:0:0:0:
308,37,126135,2,0,B|360:65|360:65|370:162,1,143.100000545883,8|8,0:1|0:0,0:0:0:0:
251,323,126488,6,0,P|193:358|114:331,1,143.100000545883,8|8,0:1|0:0,0:0:0:0:
164,103,126840,1,0,3:0:0:0:
300,255,127017,1,2,0:0:0:0:
101,168,127193,2,0,B|72:102|72:102|102:28,1,143.100000545883,8|8,0:3|0:0,0:0:0:0:
308,37,127546,2,0,B|337:103|337:103|307:177,1,143.100000545883,8|2,0:1|0:0,0:0:0:0:
72,293,127899,6,0,B|157:245|243:297|199:346|347:347,1,286.200001091766,0|8,3:0|0:1,0:0:0:0:
412,155,128429,1,0,3:0:0:0:
472,354,128605,2,0,B|502:285|502:285|476:217,1,143.100000545883,8|8,0:3|0:0,0:0:0:0:
237,194,128958,1,8,0:3:0:0:
495,140,129135,1,8,0:0:0:0:
337,346,129311,6,0,L|191:327,1,143.100000545883,8|8,0:1|0:0,0:0:0:0:
284,113,129664,2,0,L|430:94,1,143.100000545883,8|2,3:0|0:0,0:0:0:0:
472,354,130017,1,8,0:3:0:0:
237,194,130193,1,8,0:0:0:0:
442,226,130370,6,0,L|481:221,2,35.7750001364708,8|8|8,0:3|0:3|0:3,0:0:0:0:
337,346,130546,1,2,0:0:0:0:
237,194,130723,6,0,B|207:128|104:144|88:270|190:345,1,286.200001091766,4|8,3:2|0:1,0:0:0:0:
409,301,131252,1,0,3:0:0:0:
273,119,131429,2,0,P|214:89|115:105,1,143.100000545883,8|8,0:3|0:0,0:0:0:0:
274,326,131782,2,0,P|344:331|408:300,1,143.100000545883,8|8,0:1|0:0,0:0:0:0:
418,56,132135,6,0,B|369:76|369:76|354:180,1,143.100000545883,8|8,0:1|0:0,0:0:0:0:
461,363,132488,1,0,3:0:0:0:
176,334,132664,1,2,0:0:0:0:
408,300,132840,2,0,B|457:280|457:280|472:176,1,143.100000545883,8|8,0:3|0:0,0:0:0:0:
273,119,133193,2,0,B|224:139|224:139|209:243,1,143.100000545883,8|2,0:1|0:0,0:0:0:0:
461,363,133546,6,0,L|171:333,1,286.200001091766,0|8,3:0|0:1,0:0:0:0:
24,174,134076,1,0,3:0:0:0:
211,228,134252,2,0,B|279:247|279:247|352:215,1,143.100000545883,8|8,0:3|0:0,0:0:0:0:
328,28,134605,2,0,B|260:9|260:9|187:41,1,143.100000545883,8|8,0:3|0:0,0:0:0:0:
108,261,134958,5,8,0:1:0:0:
43,56,135135,1,8,0:0:0:0:
259,133,135311,1,8,3:0:0:0:
24,174,135488,1,2,0:0:0:0:
193,38,135664,6,0,L|231:32,2,35.7750001364708,8|8|8,0:3|0:3|0:3,0:0:0:0:
43,56,135840,1,8,0:0:0:0:
259,133,136017,6,0,L|297:127,2,35.7750001364708,8|8|8,0:3|0:3|0:3,0:0:0:0:
24,174,136193,1,2,0:0:0:0:
314,235,136370,6,0,P|409:209|389:43,1,286.200001091766,4|8,3:2|0:1,0:0:0:0:
131,105,136899,1,0,3:0:0:0:
298,312,137076,2,0,P|375:314|439:285,1,143.100000545883,8|8,0:3|0:0,0:0:0:0:
267,81,137429,2,0,P|190:79|126:108,1,143.100000545883,8|8,0:1|0:0,0:0:0:0:
302,326,137782,6,0,P|379:328|443:299,1,143.100000545883,8|8,0:1|0:0,0:0:0:0:
397,48,138135,1,0,3:0:0:0:
224,203,138311,1,2,0:0:0:0:
460,146,138488,2,0,P|473:77|498:6,1,143.100000545883,8|8,0:3|0:0,0:0:0:0:
130,104,138840,2,0,P|153:171|166:241,1,143.100000545883,8|2,0:1|0:0,0:0:0:0:
415,294,139193,6,0,B|356:271|312:315|312:315|276:253|222:232|155:243,1,286.200001091766,0|8,3:0|0:1,0:0:0:0:
36,97,139723,1,0,3:0:0:0:
260,24,139899,2,0,B|298:80|298:80|279:175,1,143.100000545883,8|8,0:3|0:0,0:0:0:0:
114,311,140252,1,8,0:3:0:0:
215,102,140429,1,8,0:0:0:0:
286,312,140605,5,8,0:1:0:0:
58,232,140782,1,8,0:0:0:0:
283,153,140958,2,0,B|352:130|352:130|422:154,1,143.100000545883,8|2,3:0|0:0,0:0:0:0:
349,370,141311,1,8,0:3:0:0:
173,220,141488,1,8,0:0:0:0:
417,260,141664,6,0,L|456:255,2,35.7750001364708,8|8|8,0:3|0:3|0:3,0:0:0:0:
286,312,141840,1,2,0:0:0:0:
418,152,142017,6,0,B|372:127|372:78|372:78|316:76|280:118|280:118|237:83|171:104,1,286.200001091766,4|8,3:2|0:1,0:0:0:0:
13,24,142546,1,0,3:0:0:0:
173,220,142723,2,0,B|239:246|239:246|320:208,1,143.100000545883,8|8,0:3|0:0,0:0:0:0:
283,22,143076,2,0,B|217:-4|217:-4|136:34,1,143.100000545883,8|8,0:1|0:0,0:0:0:0:
332,320,143429,6,0,P|355:185|427:35,2,286.200001091766,8|0|8,0:1|3:0|0:3,0:0:0:0:
263,105,144311,1,8,0:0:0:0:
451,293,144488,1,8,0:1:0:0:
173,220,144664,1,2,0:0:0:0:
447,158,144840,6,0,B|473:221|473:221|448:300,1,143.100000545883,0|2,3:0|0:0,0:0:0:0:
277,384,145193,1,8,0:1:0:0:
334,174,145370,1,0,3:0:0:0:
407,375,145546,1,8,0:3:0:0:
332,152,145723,1,8,0:0:0:0:
196,310,145899,1,8,0:3:0:0:
450,292,146076,1,8,0:0:0:0:
233,169,146252,6,0,B|160:149|160:149|85:183,1,143.100000545883,8|8,0:1|0:0,0:0:0:0:
277,384,146605,1,8,3:0:0:0:
334,174,146782,1,2,0:0:0:0:
196,310,146958,6,0,L|184:361,2,35.7750001364708,8|8|8,0:3|0:3|0:3,0:0:0:0:
233,169,147135,1,8,0:0:0:0:
370,343,147311,6,0,L|382:394,2,35.7750001364708,8|8|8,0:3|0:3|0:3,0:0:0:0:
334,174,147488,1,2,0:0:0:0:
133,144,150488,6,0,P|168:127|201:126,1,63.5999980590821,0|0,3:0|0:0,0:0:0:0:
262,221,151017,2,0,P|294:242|311:270,1,63.5999980590821,0|0,3:0|0:0,0:0:0:0:
97,140,153311,6,0,P|163:107|225:105,1,127.199996118164,0|0,3:0|0:0,0:0:0:0:
282,233,153840,2,0,P|342:274|375:327,1,127.199996118164,0|0,3:0|0:0,0:0:0:0:
43,133,156135,6,0,P|148:81|248:78,1,212,0|0,3:0|0:0,0:0:0:0:
290,198,156664,2,0,P|387:263|439:348,1,212,0|0,3:0|0:0,0:0:0:0:
172,254,158252,5,8,0:3:0:0:
386,180,158429,1,2,0:3:0:0:
93,157,158605,1,8,0:3:0:0:
354,202,158782,1,8,0:3:0:0:
121,372,158958,6,0,B|63:320|63:320|94:151,1,243.800004650116,0|8,3:0|0:1,0:0:0:0:
282,237,159488,2,0,B|228:269|228:269|149:247,1,121.900002325058,0|8,3:0|0:3,0:0:0:0:
384,92,159840,1,8,0:0:0:0:
403,278,160017,1,8,0:1:0:0:
312,153,160193,1,8,0:0:0:0:
280,337,160370,5,8,0:1:0:0:
411,194,160546,1,8,0:0:0:0:
216,155,160723,2,0,B|190:210|190:210|214:276,1,121.900002325058,0|2,3:0|0:0,0:0:0:0:
366,359,161076,1,8,0:3:0:0:
312,153,161252,1,8,0:0:0:0:
251,344,161429,2,0,B|188:351|188:351|125:305,1,121.900002325058,8|2,0:1|0:0,0:0:0:0:
216,155,161782,6,0,B|284:119|356:166|319:193|383:232|445:216,1,243.800004650116,0|8,3:0|0:1,0:0:0:0:
184,234,162311,2,0,P|139:191|152:105,1,121.900002325058,0|8,3:0|0:3,0:0:0:0:
320,117,162664,1,8,0:0:0:0:
383,285,162840,2,0,L|259:263,1,121.900002325058,8|8,0:3|0:0,0:0:0:0:
320,117,163193,6,0,L|444:95,1,121.900002325058,8|8,0:1|0:0,0:0:0:0:
283,371,163546,2,0,B|246:320|246:320|273:229,1,121.900002325058,8|2,3:0|0:0,0:0:0:0:
381,186,163899,1,8,0:3:0:0:
362,370,164076,1,8,0:0:0:0:
262,263,164252,2,0,L|274:218,4,30.4750005812645,8|8|8|8|2,0:3|0:3|0:3|0:3|0:0,0:0:0:0:
381,186,164605,6,0,B|422:126|422:126|244:158,1,243.800004650116,0|8,3:0|0:1,0:0:0:0:
228,368,165135,2,0,B|286:385|286:385|348:364,1,121.900002325058,0|8,3:0|0:3,0:0:0:0:
253,156,165488,1,8,0:0:0:0:
136,297,165664,2,0,B|81:317|81:317|17:290,1,121.900002325058,8|8,0:1|0:0,0:0:0:0:
253,156,166017,5,8,0:1:0:0:
284,295,166193,1,8,0:0:0:0:
138,190,166370,2,0,B|79:165|79:165|24:185,1,121.900002325058,0|2,3:0|0:0,0:0:0:0:
136,297,166723,1,8,0:3:0:0:
311,212,166899,1,8,0:0:0:0:
228,368,167076,1,8,0:1:0:0:
138,190,167252,1,2,0:0:0:0:
284,295,167429,6,0,B|336:325|336:325|414:311,1,121.900002325058,0|2,3:0|0:0,0:0:0:0:
460,179,167782,1,8,0:1:0:0:
453,376,167958,2,0,B|483:324|483:324|469:246,1,121.900002325058,0|8,3:0|0:3,0:0:0:0:
297,166,168311,1,8,0:0:0:0:
396,314,168488,1,8,0:3:0:0:
426,86,168664,1,8,0:0:0:0:
215,221,168840,5,8,0:1:0:0:
472,263,169017,1,8,0:0:0:0:
297,166,169193,1,8,3:0:0:0:
284,295,169370,1,2,0:0:0:0:
411,207,169546,6,0,P|449:184|507:188,1,95.3999970886231,2|2,0:0|0:0,0:0:0:0:
498,184,170252,6,0,P|417:257|245:225,1,286.200001091766,4|8,3:2|0:1,0:0:0:0:
198,26,170782,1,0,3:0:0:0:
315,175,170958,2,0,P|382:191|445:143,1,143.100000545883,8|8,0:3|0:0,0:0:0:0:
415,18,171311,2,0,P|348:2|285:50,1,143.100000545883,8|8,0:1|0:0,0:0:0:0:
188,189,171664,6,0,P|130:228|62:212,1,143.100000545883,8|8,0:1|0:0,0:0:0:0:
198,26,172017,1,0,3:0:0:0:
262,266,172193,1,2,0:0:0:0:
117,154,172370,2,0,B|83:93|83:93|117:16,1,143.100000545883,8|8,0:3|0:0,0:0:0:0:
289,41,172723,2,0,B|323:102|323:102|289:179,1,143.100000545883,8|2,0:1|0:0,0:0:0:0:
0,250,173076,6,0,B|74:307|74:307|279:262,1,286.200001091766,0|8,3:0|0:1,0:0:0:0:
470,219,173605,1,0,3:0:0:0:
324,382,173782,2,0,B|277:350|277:350|258:241,1,143.100000545883,8|8,0:3|0:0,0:0:0:0:
393,110,174135,1,8,0:3:0:0:
435,312,174311,1,8,0:0:0:0:
475,62,174488,5,8,0:1:0:0:
311,204,174664,1,8,0:0:0:0:
402,17,174840,1,8,3:0:0:0:
470,219,175017,1,2,0:0:0:0:
319,52,175193,1,8,0:3:0:0:
262,265,175370,1,8,0:0:0:0:
393,110,175546,6,0,L|436:104,2,35.7750001364708,8|8|8,0:3|0:3|0:3,0:0:0:0:
225,131,175723,1,2,0:0:0:0:
380,268,175899,6,0,B|405:233|453:231|453:231|395:212|346:233|352:238|357:242|322:273|262:264,1,286.200001091766,4|8,3:2|0:1,0:0:0:0:
66,205,176429,1,0,3:0:0:0:
225,131,176605,2,0,B|291:101|291:101|372:119,1,143.100000545883,8|8,0:3|0:0,0:0:0:0:
254,344,176958,2,0,B|188:374|188:374|107:356,1,143.100000545883,8|8,0:1|0:0,0:0:0:0:
86,104,177311,5,8,0:1:0:0:
261,264,177488,1,8,0:0:0:0:
170,52,177664,1,0,3:0:0:0:
53,241,177840,1,2,0:0:0:0:
248,115,178017,2,0,P|311:86|395:111,1,143.100000545883,8|8,0:3|0:0,0:0:0:0:
331,326,178370,2,0,P|268:355|184:330,1,143.100000545883,8|2,0:1|0:0,0:0:0:0:
60,159,178723,6,0,B|13:128|38:73|38:73|117:76|156:112|169:185,1,286.200001091766,0|8,3:0|0:1,0:0:0:0:
120,375,179252,1,0,3:0:0:0:
266,182,179429,2,0,L|414:166,1,143.100000545883,8|8,0:3|0:0,0:0:0:0:
198,340,179782,2,0,L|50:324,1,143.100000545883,8|8,0:3|0:0,0:0:0:0:
225,103,180135,5,8,0:1:0:0:
296,350,180311,1,8,0:0:0:0:
60,159,180488,1,8,3:0:0:0:
346,220,180664,1,2,0:0:0:0:
55,324,180840,6,0,L|49:282,2,35.7750001364708,8|8|8,0:3|0:3|0:3,0:0:0:0:
136,188,181017,1,8,0:0:0:0:
296,350,181193,6,0,L|302:308,2,35.7750001364708,8|8|8,0:3|0:3|0:3,0:0:0:0:
225,103,181370,1,2,0:0:0:0:
494,290,181546,6,0,B|382:271|382:271|346:220|346:220|231:201,1,286.200001091766,4|8,3:2|0:1,0:0:0:0:
18,88,182075,1,0,3:0:0:0:
71,363,182252,2,0,B|123:335|123:335|133:238,1,143.100000545883,8|8,0:3|0:0,0:0:0:0:
204,37,182605,2,0,B|152:65|152:65|142:162,1,143.100000545883,8|8,0:1|0:0,0:0:0:0:
261,323,182958,6,0,P|319:358|398:331,1,143.100000545883,8|8,0:1|0:0,0:0:0:0:
348,103,183310,1,0,3:0:0:0:
212,255,183487,1,2,0:0:0:0:
411,168,183663,2,0,B|440:102|440:102|410:28,1,143.100000545883,8|8,0:3|0:0,0:0:0:0:
204,37,184016,2,0,B|175:103|175:103|205:177,1,143.100000545883,8|2,0:1|0:0,0:0:0:0:
440,293,184370,6,0,B|355:245|269:297|313:346|165:347,1,286.200001091766,0|8,3:0|0:1,0:0:0:0:
100,155,184899,1,0,3:0:0:0:
40,354,185075,2,0,B|10:285|10:285|36:217,1,143.100000545883,8|8,0:3|0:0,0:0:0:0:
275,194,185428,1,8,0:3:0:0:
17,140,185605,1,8,0:0:0:0:
174,346,185782,5,8,0:1:0:0:
248,100,185958,1,8,0:0:0:0:
365,332,186135,2,0,B|389:266|389:266|355:197,1,143.100000545883,8|2,3:0|0:0,0:0:0:0:
114,228,186488,1,8,0:3:0:0:
354,94,186664,1,8,0:0:0:0:
174,346,186840,6,0,L|128:342,2,35.7750001364708,8|8|8,0:3|0:3|0:3,0:0:0:0:
365,332,187017,1,2,0:0:0:0:
248,100,187193,6,0,B|185:22|53:128|182:249,1,286.200001091766,4|8,3:2|0:1,0:0:0:0:
444,216,187723,1,0,3:0:0:0:
223,320,187899,2,0,P|151:326|95:269,1,143.100000545883,8|8,0:3|0:0,0:0:0:0:
248,100,188252,2,0,P|301:55|370:61,1,143.100000545883,8|8,0:1|0:0,0:0:0:0:
450,306,188605,6,0,P|384:275|364:197,1,143.100000545883,8|8,0:1|0:0,0:0:0:0:
435,0,188958,1,0,3:0:0:0:
444,216,189135,1,2,0:0:0:0:
370,61,189311,2,0,P|301:55|248:100,1,143.100000545883,8|8,0:3|0:0,0:0:0:0:
223,320,189664,2,0,P|292:326|345:281,1,143.100000545883,8|2,0:1|0:0,0:0:0:0:
149,73,190017,6,0,B|75:121|75:121|117:342,1,286.200001091766,0|8,3:0|0:1,0:0:0:0:
345,281,190546,1,0,3:0:0:0:
164,157,190723,2,0,L|192:307,1,143.100000545883,8|8,0:3|0:0,0:0:0:0:
426,375,191076,2,0,L|454:225,1,143.100000545883,8|8,0:3|0:0,0:0:0:0:
269,80,191429,6,0,L|229:85,2,35.7750001364708,8|8|8,0:3|0:3|0:3,0:0:0:0:
412,68,191605,1,8,0:0:0:0:
416,229,191782,6,0,L|456:234,2,35.7750001364708,8|8|8,3:0|0:3|0:3,0:0:0:0:
273,217,191958,1,2,0:0:0:0:
273,217,192223,6,0,B|231:219|231:219|223:224|223:224|173:226,1,95.3999970886231,2|2,0:0|0:0,0:0:0:0:
