osu file format v14

[General]
AudioFilename: audio.mp3
AudioLeadIn: 0
PreviewTime: 35039
Countdown: 0
SampleSet: Soft
StackLeniency: 0.5
Mode: 0
LetterboxInBreaks: 0
WidescreenStoryboard: 0

[Editor]
Bookmarks: 817,15039,29261,36372,64816,68371,82593,89704,118148,132370,146592,153703,167925,182147
DistanceSpacing: 1.3
BeatDivisor: 4
GridSize: 4
TimelineZoom: 1

[Metadata]
Title:Voices in My Head
TitleUnicode:Voices in My Head
Artist:Ashley Tisdale
ArtistUnicode:Ashley Tisdale
Creator:ReFaller
Version:Hard
Source:
Tags:stormiverse pop english Symptoms
BeatmapID:1866745
BeatmapSetID:893159

[Difficulty]
HPDrainRate:5
CircleSize:4
OverallDifficulty:7
ApproachRate:8
SliderMultiplier:1.5
SliderTickRate:1

[Events]
//Background and Video events
0,0,"wallhaven-602588.jpg",0,0
//Break Periods
2,65016,67622
2,153705,164371
//Storyboard Layer 0 (Background)
//Storyboard Layer 1 (Fail)
//Storyboard Layer 2 (Pass)
//Storyboard Layer 3 (Foreground)
//Storyboard Layer 4 (Overlay)
//Storyboard Sound Samples

[TimingPoints]
817,444.444444444444,4,2,0,60,1,0
29039,-133.333333333333,4,2,0,60,0,0
36372,-83.3333333333333,4,2,0,60,0,1
64816,-100,4,2,0,60,0,0
68372,444.444444444444,4,2,0,60,1,0
82370,-133.333333333333,4,2,0,60,0,0
89705,-83.3333333333333,4,2,0,60,0,1
118149,-100,4,2,0,60,0,0
146370,-133.333333333333,4,2,0,60,0,0
166372,-100,4,2,0,60,0,0
167927,-83.3333333333333,4,2,0,60,0,1
182038,-100,4,2,0,60,0,0
182149,-100,4,2,0,60,0,1
182260,-100,4,2,0,60,0,0

[Colours]
Combo1 : 1,224,152
Combo2 : 194,120,128
Combo3 : 0,128,128
Combo4 : 215,96,99

[HitObjects]
31,84,1039,5,0,0:0:0:0:
90,39,1261,1,8,0:0:0:0:
162,21,1483,1,0,0:0:0:0:
235,36,1705,1,0,0:0:0:0:
287,90,1928,1,2,0:0:0:0:
302,163,2150,2,0,L|291:318,1,150,8|0,0:0|0:0,0:0:0:0:
335,373,2816,5,0,0:0:0:0:
335,373,3039,1,8,0:0:0:0:
407,350,3261,1,0,0:0:0:0:
407,275,3483,1,0,0:0:0:0:
335,252,3705,1,2,0:0:0:0:
291,312,3928,1,8,0:0:0:0:
291,312,4150,1,0,0:0:0:0:
141,316,4594,5,0,0:0:0:0:
203,274,4816,1,8,0:0:0:0:
242,210,5039,1,0,0:0:0:0:
239,135,5261,1,0,0:0:0:0:
196,72,5483,1,2,0:0:0:0:
239,135,5705,2,0,L|394:146,1,150,8|0,0:0|0:0,0:0:0:0:
462,132,6372,5,0,0:0:0:0:
462,132,6594,1,8,0:0:0:0:
388,145,6816,1,0,0:0:0:0:
401,219,7039,1,0,0:0:0:0:
475,206,7261,1,2,0:0:0:0:
451,276,7483,1,8,0:0:0:0:
427,346,7705,1,0,0:0:0:0:
376,289,7928,6,0,P|305:263|227:267,1,150,0|8,0:0|0:0,0:0:0:0:
171,311,8594,2,0,P|96:313|26:287,1,150,0|2,0:0|0:0,0:0:0:0:
0,217,9261,1,8,0:0:0:0:
0,217,10150,5,8,0:0:0:0:
26,146,10372,1,0,0:0:0:0:
74,203,10594,1,0,0:0:0:0:
146,182,10816,1,2,0:0:0:0:
194,124,11039,1,8,0:0:0:0:
177,50,11261,1,0,0:0:0:0:
249,70,11483,1,0,0:0:0:0:
256,192,11928,12,10,14594,0:0:0:0:
80,331,15039,5,8,0:3:0:0:
158,304,15261,1,2,0:0:0:0:
205,236,15483,1,8,0:0:0:0:
211,153,15705,1,0,0:0:0:0:
172,79,15928,2,0,L|90:65,1,75
172,79,16372,2,0,L|331:67,1,150,8|8,0:0|0:3,0:0:0:0:
321,67,17261,5,8,0:0:0:0:
400,43,17483,1,0,0:0:0:0:
448,110,17705,1,0,0:0:0:0:
398,176,17928,1,4,0:3:0:0:
320,149,18150,2,0,L|246:153,1,75,8|0,0:0|0:0,0:0:0:0:
448,110,18594,5,8,0:3:0:0:
480,185,18816,1,2,0:0:0:0:
398,176,19039,1,8,0:0:0:0:
398,176,19261,1,0,0:0:0:0:
320,149,19483,1,0,0:0:0:0:
256,96,19705,1,0,0:0:0:0:
191,43,19928,2,0,L|28:55,1,150,8|8,0:0|0:3,0:0:0:0:
10,130,20594,5,2,0:0:0:0:
90,148,20816,1,8,0:0:0:0:
160,191,21039,1,0,0:0:0:0:
180,270,21261,2,0,L|173:360,1,75,0|4,0:0|0:3,0:0:0:0:
251,373,21705,1,8,0:0:0:0:
312,317,21928,1,0,0:0:0:0:
418,355,22150,6,0,P|450:288|447:205,1,150,8|8,0:3|0:0,0:0:0:0:
485,139,22816,2,0,P|419:107|344:108,1,150,2|0,0:0|0:0,0:0:0:0:
262,100,23483,2,0,L|340:90,1,75,8|0,0:0|0:0,0:0:0:0:
183,74,23928,1,4,0:3:0:0:
183,74,24372,5,8,0:0:0:0:
79,116,24594,1,2,0:0:0:0:
121,220,24816,1,0,0:0:0:0:
225,178,25039,1,4,0:3:0:0:
152,147,25261,1,8,0:0:0:0:
181,223,25483,1,0,0:0:0:0:
210,299,25705,6,0,L|291:307,1,75,8|2,0:3|0:0,0:0:0:0:
427,288,26150,1,8,0:0:0:0:
351,256,26372,2,0,P|343:218|343:178,2,75
361,338,27039,1,8,0:0:0:0:
361,338,27483,6,0,L|280:346,1,75,8|2,0:3|0:0,0:0:0:0:
144,327,27928,1,8,0:0:0:0:
220,295,28150,2,0,P|228:257|228:217,2,75,0|0|6,0:0|0:0|0:3,0:0:0:0:
144,327,28816,1,8,0:0:0:0:
210,377,29039,6,0,L|323:363,1,112.500004291535,2|0,0:0|0:0,0:0:0:0:
383,324,29705,1,0,0:0:0:0:
439,372,29928,2,0,P|461:319|461:261,1,112.500004291535,2|0,0:0|0:0,0:0:0:0:
394,239,30594,1,2,0:0:0:0:
324,260,30816,2,0,P|268:259|216:237,1,112.500004291535,0|2,0:0|0:0,0:0:0:0:
161,188,31483,1,0,0:0:0:0:
145,259,31705,1,2,0:0:0:0:
145,259,32372,5,0,0:0:0:0:
216,237,32594,2,0,P|237:185|238:129,1,112.500004291535,2|0,0:0|0:0,0:0:0:0:
207,63,33261,1,0,0:0:0:0:
280,69,33483,2,0,L|410:79,1,112.500004291535,2|0,0:0|0:0,0:0:0:0:
455,40,34150,1,2,0:0:0:0:
461,113,34372,2,0,P|462:168|483:220,1,112.500004291535,0|2,0:0|0:0,0:0:0:0:
279,50,36372,5,4,1:0:0:0:
234,128,36594,2,0,P|136:128|79:75,1,179.999994506836,2|0,0:0|1:0,0:0:0:0:
14,137,37261,2,0,L|26:229,1,89.9999972534181,8|0,1:0|0:0,0:0:0:0:
112,330,37705,1,4,1:0:0:0:
193,291,37928,2,0,P|232:274|290:271,1,89.9999972534181,4|0,0:0|0:0,0:0:0:0:
389,364,38372,2,0,P|371:323|368:279,1,89.9999972534181,2|0,1:0|0:0,0:0:0:0:
475,138,38816,2,0,P|448:174|412:200,1,89.9999972534181,4|8,0:0|1:0,0:0:0:0:
239,174,39261,2,0,P|284:179|325:199,1,89.9999972534181,2|0,0:0|0:0,0:0:0:0:
455,279,39705,1,2,1:0:0:0:
412,200,39928,5,4,1:0:0:0:
325,199,40150,2,0,P|282:143|301:37,1,179.999994506836,2|0,0:0|1:0,0:0:0:0:
388,35,40816,2,0,L|298:21,1,89.9999972534181,8|0,1:0|0:0,0:0:0:0:
149,100,41261,1,0,1:0:0:0:
149,100,41483,2,0,L|238:87,1,89.9999972534181,4|0,0:0|0:0,0:0:0:0:
391,157,41928,2,0,L|302:143,1,89.9999972534181,2|0,1:0|0:0,0:0:0:0:
204,237,42372,2,0,L|292:223,1,89.9999972534181,2|8,0:0|1:0,0:0:0:0:
358,318,42816,2,0,L|269:304,1,89.9999972534181,4|0,0:0|0:0,0:0:0:0:
181,325,43261,1,2,0:0:0:0:
94,351,43483,6,0,P|57:265|58:180,1,179.999994506836,4|2,1:0|0:0,0:0:0:0:
147,179,44150,1,0,1:0:0:0:
102,100,44372,2,0,P|106:57|92:10,1,89.9999972534181,8|0,1:0|0:0,0:0:0:0:
19,65,44816,1,2,1:0:0:0:
102,100,45039,2,0,L|198:110,1,89.9999972534181,2|0,0:0|0:0,0:0:0:0:
273,28,45483,2,0,L|184:19,1,89.9999972534181,0|0,1:0|0:0,0:0:0:0:
275,108,45928,2,0,L|371:118,1,89.9999972534181,4|8,0:0|1:0,0:0:0:0:
445,79,46372,5,2,0:0:0:0:
493,155,46594,1,4,0:0:0:0:
493,244,46816,1,2,1:0:0:0:
440,317,47039,2,0,L|348:309,1,89.9999972534181,4|2,1:0|0:0,0:0:0:0:
209,230,47483,5,4,0:0:0:0:
280,271,47705,1,4,1:0:0:0:
209,311,47928,1,8,1:0:0:0:
279,351,48150,5,4,0:0:0:0:
137,269,48372,1,4,1:0:0:0:
279,189,48594,1,4,0:0:0:0:
279,189,48816,2,0,L|289:52,2,134.999995880127,2|4|4,0:0|0:0|0:0,0:0:0:0:
371,144,49705,1,8,1:0:0:0:
96,96,50150,1,0,0:0:0:0:
182,71,50372,6,0,L|192:166,1,89.9999972534181,4|4,0:0|1:0,0:0:0:0:
280,148,50816,2,0,P|348:139|461:146,1,179.999994506836,2|0,0:0|1:0,0:0:0:0:
509,70,51483,1,8,1:0:0:0:
509,70,51928,1,0,1:0:0:0:
501,184,52150,2,0,L|488:273,1,89.9999972534181,4|0,0:0|0:0,0:0:0:0:
354,255,52594,2,0,L|367:344,1,89.9999972534181,2|0,1:0|0:0,0:0:0:0:
232,218,53039,2,0,L|219:307,1,89.9999972534181,4|8,0:0|1:0,0:0:0:0:
85,289,53483,2,0,L|98:378,1,89.9999972534181,2|0,0:0|0:0,0:0:0:0:
135,215,53928,1,2,1:0:0:0:
45,215,54150,5,4,1:0:0:0:
45,215,54372,2,0,P|21:150|49:42,1,179.999994506836,2|0,0:0|1:0,0:0:0:0:
213,23,55039,2,0,L|126:2,1,89.9999972534181,8|0,1:0|0:0,0:0:0:0:
169,129,55483,1,0,1:0:0:0:
169,129,55705,2,0,L|256:107,1,89.9999972534181,4|0,0:0|0:0,0:0:0:0:
343,129,56150,2,0,L|256:107,1,89.9999972534181,2|0,1:0|0:0,0:0:0:0:
299,23,56594,2,0,L|386:2,1,89.9999972534181,2|8,0:0|1:0,0:0:0:0:
465,45,57039,2,0,P|478:87|466:130,1,89.9999972534181,4|0,0:0|0:0,0:0:0:0:
343,129,57483,1,0,0:0:0:0:
457,149,57705,5,4,1:0:0:0:
457,149,57928,2,0,L|436:335,1,179.999994506836,2|0,0:0|1:0,0:0:0:0:
348,308,58594,2,0,P|304:294|258:292,1,89.9999972534181,8|0,1:0|0:0,0:0:0:0:
152,185,59039,1,2,1:0:0:0:
175,266,59261,2,0,L|165:371,1,89.9999972534181,2|0,0:0|0:0,0:0:0:0:
240,204,59705,2,0,L|231:114,1,89.9999972534181,0|0,1:0|0:0,0:0:0:0:
124,42,60150,2,0,P|167:28|212:26,1,89.9999972534181,4|8,0:0|1:0,0:0:0:0:
297,54,60594,5,2,0:0:0:0:
380,20,60816,1,4,0:0:0:0:
445,81,61039,1,2,1:0:0:0:
365,122,61261,2,0,L|378:220,1,89.9999972534181,4|2,1:0|0:0,0:0:0:0:
376,292,61705,5,4,0:0:0:0:
305,251,61928,1,4,1:0:0:0:
376,211,62150,1,8,1:0:0:0:
306,171,62372,5,4,0:0:0:0:
448,253,62594,1,4,1:0:0:0:
306,333,62816,1,4,0:0:0:0:
306,333,63039,2,0,P|247:328|171:324,2,134.999995880127,2|4|4,0:0|0:0|0:0,0:0:0:0:
432,339,63928,2,0,P|447:297|447:251,1,89.9999972534181,8|0,1:0|0:0,0:0:0:0:
306,171,64372,2,0,P|306:215|322:258,1,89.9999972534181,2|0,0:0|0:0,0:0:0:0:
462,247,64816,5,0,1:0:0:0:
432,53,68372,5,8,0:3:0:0:
354,80,68594,1,2,0:0:0:0:
307,148,68816,1,8,0:0:0:0:
301,231,69039,1,0,0:0:0:0:
340,305,69261,2,0,L|422:319,1,75
259,307,69705,2,0,P|219:258|233:177,1,150,8|8,0:0|0:3,0:0:0:0:
232,177,70594,5,8,0:0:0:0:
311,201,70816,1,0,0:0:0:0:
335,122,71039,1,0,0:0:0:0:
256,98,71261,1,4,0:3:0:0:
335,122,71483,2,0,L|414:109,1,75,8|0,0:0|0:0,0:0:0:0:
256,98,71928,5,8,0:3:0:0:
187,145,72150,1,2,0:0:0:0:
115,103,72372,1,8,0:0:0:0:
115,103,72594,1,0,0:0:0:0:
37,131,72816,1,0,0:0:0:0:
26,212,73039,1,0,0:0:0:0:
55,289,73261,2,0,L|218:301,1,150,8|8,0:0|0:3,0:0:0:0:
355,365,74150,5,8,0:0:0:0:
285,322,74372,1,0,0:0:0:0:
265,243,74594,2,0,L|272:153,1,75,0|4,0:0|0:3,0:0:0:0:
353,173,75039,1,8,0:0:0:0:
315,99,75261,1,0,0:0:0:0:
270,168,75483,6,0,P|203:136|120:139,1,150,8|8,0:3|0:0,0:0:0:0:
1,94,76150,2,0,P|63:56|142:41,1,150,12|0,0:3|0:0,0:0:0:0:
296,75,76816,2,0,P|261:54|221:47,1,75,4|0,0:3|0:0,0:0:0:0:
227,47,77705,5,4,0:3:0:0:
247,126,77928,1,2,0:0:0:0:
321,160,78150,1,0,0:0:0:0:
397,129,78372,1,4,0:3:0:0:
321,160,78594,1,8,0:0:0:0:
350,236,78816,1,0,0:0:0:0:
379,312,79039,6,0,L|406:382,1,75,8|2,0:3|0:0,0:0:0:0:
467,326,79483,1,8,0:0:0:0:
306,350,79705,2,0,L|276:273,2,75
379,312,80372,1,8,0:0:0:0:
133,312,80816,6,0,L|106:382,1,75,8|2,0:3|0:0,0:0:0:0:
45,326,81261,1,8,0:0:0:0:
206,350,81483,2,0,L|236:273,2,75,0|0|6,0:0|0:0|0:3,0:0:0:0:
133,312,82150,1,8,0:0:0:0:
45,326,82372,6,0,P|24:272|25:217,1,112.500004291535,2|0,0:0|0:0,0:0:0:0:
108,220,83039,1,0,0:0:0:0:
190,226,83261,2,0,P|190:170|169:118,1,112.500004291535,2|0,0:0|0:0,0:0:0:0:
88,125,83928,1,2,0:0:0:0:
125,51,84150,2,0,L|238:30,1,112.500004291535,0|2,0:0|0:0,0:0:0:0:
272,105,84816,1,0,0:0:0:0:
318,37,85039,1,2,0:0:0:0:
459,252,85705,5,0,0:0:0:0:
395,306,85928,2,0,L|276:293,1,112.500004291535,2|0,0:0|0:0,0:0:0:0:
201,313,86594,1,0,0:0:0:0:
120,332,86816,2,0,P|102:283|107:213,1,112.500004291535,2|0,0:0|0:0,0:0:0:0:
23,204,87483,1,2,0:0:0:0:
80,142,87705,2,0,L|199:129,1,112.500004291535,0|2,0:0|0:0,0:0:0:0:
233,50,89705,5,4,1:0:0:0:
278,128,89928,2,0,P|376:128|433:75,1,179.999994506836,2|0,0:0|1:0,0:0:0:0:
498,137,90594,2,0,L|486:229,1,89.9999972534181,8|0,1:0|0:0,0:0:0:0:
400,330,91039,1,4,1:0:0:0:
319,291,91261,2,0,P|280:274|222:271,1,89.9999972534181,4|0,0:0|0:0,0:0:0:0:
123,364,91705,2,0,P|141:323|144:279,1,89.9999972534181,2|0,1:0|0:0,0:0:0:0:
37,138,92150,2,0,P|64:174|100:200,1,89.9999972534181,4|8,0:0|1:0,0:0:0:0:
273,174,92594,2,0,P|228:179|187:199,1,89.9999972534181,2|0,0:0|0:0,0:0:0:0:
57,279,93039,1,2,1:0:0:0:
100,200,93261,5,4,1:0:0:0:
187,199,93483,2,0,P|230:143|211:37,1,179.999994506836,2|0,0:0|1:0,0:0:0:0:
124,35,94150,2,0,L|214:21,1,89.9999972534181,8|0,1:0|0:0,0:0:0:0:
363,100,94594,1,0,1:0:0:0:
363,100,94816,2,0,L|274:87,1,89.9999972534181,4|0,0:0|0:0,0:0:0:0:
121,157,95261,2,0,L|210:143,1,89.9999972534181,2|0,1:0|0:0,0:0:0:0:
308,237,95705,2,0,L|220:223,1,89.9999972534181,2|8,0:0|1:0,0:0:0:0:
154,318,96150,2,0,L|243:304,1,89.9999972534181,4|0,0:0|0:0,0:0:0:0:
331,325,96594,1,2,0:0:0:0:
418,351,96816,6,0,P|455:265|454:180,1,179.999994506836,4|2,1:0|0:0,0:0:0:0:
365,179,97483,1,0,1:0:0:0:
410,100,97705,2,0,P|406:57|420:10,1,89.9999972534181,8|0,1:0|0:0,0:0:0:0:
493,65,98150,1,2,1:0:0:0:
410,100,98372,2,0,L|314:110,1,89.9999972534181,2|0,0:0|0:0,0:0:0:0:
239,28,98816,2,0,L|328:19,1,89.9999972534181,0|0,1:0|0:0,0:0:0:0:
237,108,99261,2,0,L|141:118,1,89.9999972534181,4|8,0:0|1:0,0:0:0:0:
67,79,99705,5,2,0:0:0:0:
19,155,99928,1,4,0:0:0:0:
19,244,100150,1,2,1:0:0:0:
72,317,100372,2,0,L|164:309,1,89.9999972534181,4|2,1:0|0:0,0:0:0:0:
303,230,100816,5,4,0:0:0:0:
232,271,101039,1,4,1:0:0:0:
303,311,101261,1,8,1:0:0:0:
233,351,101483,5,4,0:0:0:0:
375,269,101705,1,4,1:0:0:0:
233,189,101928,1,4,0:0:0:0:
233,189,102150,2,0,L|223:52,2,134.999995880127,2|4|4,0:0|0:0|0:0,0:0:0:0:
141,144,103039,1,8,1:0:0:0:
416,96,103483,1,0,0:0:0:0:
330,71,103705,6,0,L|320:166,1,89.9999972534181,4|4,0:0|1:0,0:0:0:0:
232,148,104150,2,0,P|164:139|51:146,1,179.999994506836,2|0,0:0|1:0,0:0:0:0:
3,70,104816,1,8,1:0:0:0:
3,70,105261,1,0,1:0:0:0:
11,184,105483,2,0,L|24:273,1,89.9999972534181,4|0,0:0|0:0,0:0:0:0:
158,255,105928,2,0,L|145:344,1,89.9999972534181,2|0,1:0|0:0,0:0:0:0:
280,218,106372,2,0,L|293:307,1,89.9999972534181,4|8,0:0|1:0,0:0:0:0:
427,289,106816,2,0,L|414:378,1,89.9999972534181,2|0,0:0|0:0,0:0:0:0:
377,215,107261,1,2,1:0:0:0:
467,215,107483,5,4,1:0:0:0:
467,215,107705,2,0,P|491:150|463:42,1,179.999994506836,2|0,0:0|1:0,0:0:0:0:
299,23,108372,2,0,L|386:2,1,89.9999972534181,8|0,1:0|0:0,0:0:0:0:
343,129,108816,1,0,1:0:0:0:
343,129,109039,2,0,L|256:107,1,89.9999972534181,4|0,0:0|0:0,0:0:0:0:
169,129,109483,2,0,L|256:107,1,89.9999972534181,2|0,1:0|0:0,0:0:0:0:
213,23,109928,2,0,L|126:2,1,89.9999972534181,2|8,0:0|1:0,0:0:0:0:
47,45,110372,2,0,P|34:87|46:130,1,89.9999972534181,4|0,0:0|0:0,0:0:0:0:
169,129,110816,1,0,0:0:0:0:
55,149,111039,5,4,1:0:0:0:
55,149,111261,2,0,L|76:335,1,179.999994506836,2|0,0:0|1:0,0:0:0:0:
164,308,111928,2,0,P|208:294|254:292,1,89.9999972534181,8|0,1:0|0:0,0:0:0:0:
360,185,112372,1,2,1:0:0:0:
337,266,112594,2,0,L|347:371,1,89.9999972534181,2|0,0:0|0:0,0:0:0:0:
272,204,113039,2,0,L|281:114,1,89.9999972534181,0|0,1:0|0:0,0:0:0:0:
388,42,113483,2,0,P|345:28|300:26,1,89.9999972534181,4|8,0:0|1:0,0:0:0:0:
215,54,113928,5,2,0:0:0:0:
132,20,114150,1,4,0:0:0:0:
67,81,114372,1,2,1:0:0:0:
147,122,114594,2,0,L|134:220,1,89.9999972534181,4|2,1:0|0:0,0:0:0:0:
136,292,115039,5,4,0:0:0:0:
207,251,115261,1,4,1:0:0:0:
136,211,115483,1,8,1:0:0:0:
206,171,115705,5,4,0:0:0:0:
64,253,115928,1,4,1:0:0:0:
206,333,116150,1,4,0:0:0:0:
206,333,116372,2,0,P|265:328|341:324,2,134.999995880127,2|4|4,0:0|0:0|0:0,0:0:0:0:
80,339,117261,2,0,P|65:297|65:251,1,89.9999972534181,8|0,1:0|0:0,0:0:0:0:
206,171,117705,2,0,P|206:215|190:258,1,89.9999972534181,2|0,0:0|0:0,0:0:0:0:
50,247,118150,5,0,1:0:0:0:
50,247,118816,1,2,0:0:0:0:
50,247,119039,2,0,P|36:195|32:122,2,112.5,8|0|0,0:0|0:0|0:0,0:0:0:0:
125,247,119928,2,0,P|139:299|143:372,2,112.5,2|0|0,0:0|0:0|0:0,0:0:0:0:
83,183,120816,1,8,0:0:0:0:
168,109,121150,1,0,0:0:0:0:
272,153,121483,1,0,0:0:0:0:
311,89,121705,1,2,0:0:0:0:
473,253,122372,5,0,0:0:0:0:
473,253,122594,1,8,0:0:0:0:
368,179,122928,1,0,0:0:0:0:
357,307,123261,1,0,0:0:0:0:
357,307,123483,2,0,L|236:318,2,112.5,2|0|0,0:0|0:0|0:0,0:0:0:0:
384,237,124372,2,0,L|505:226,2,112.5,8|2|2,0:0|0:0|0:0,0:0:0:0:
336,178,125261,1,4,0:0:0:0:
197,163,126372,5,0,0:0:0:0:
142,213,126594,1,2,0:0:0:0:
213,237,126816,2,0,L|196:312,1,75
256,354,127261,1,2,0:0:0:0:
315,221,128150,5,0,0:0:0:0:
370,171,128372,1,2,0:0:0:0:
299,147,128594,2,0,L|316:72,1,75
256,30,129039,1,2,0:0:0:0:
223,281,130372,5,2,0:0:0:0:
154,253,130594,1,0,0:0:0:0:
162,328,130816,1,0,0:0:0:0:
284,234,131261,5,2,0:0:0:0:
353,262,131483,1,0,0:0:0:0:
345,187,131705,1,2,0:0:0:0:
120,191,132372,6,0,P|77:133|97:43,1,150,0|0,3:0|0:0,0:0:0:0:
149,6,133039,1,0,0:0:0:0:
227,30,133261,2,0,P|285:24|341:24,1,112.5,8|0,0:0|0:0,0:0:0:0:
379,32,133705,1,2,0:0:0:0:
454,65,133928,1,0,0:0:0:0:
486,140,134150,2,0,L|473:258,1,112.5,0|2,0:0|0:3,0:0:0:0:
467,261,134594,2,0,L|390:289,1,75
331,234,135039,2,0,L|224:271,1,112.5,8|2,0:0|0:3,0:0:0:0:
222,283,135483,2,0,L|211:380,1,75,2|0,0:0|0:0,0:0:0:0:
132,350,135928,6,0,P|89:292|109:202,1,150,0|0,3:0|0:0,0:0:0:0:
160,164,136594,1,0,0:0:0:0:
240,182,136816,2,0,P|270:154|272:81,1,112.5,8|0,0:0|0:0,0:0:0:0:
261,47,137261,1,2,0:0:0:0:
182,22,137483,1,0,0:0:0:0:
261,47,137705,2,0,L|377:33,1,112.5,0|2,0:0|0:3,0:0:0:0:
379,46,138150,2,0,L|454:65,1,75
507,124,138594,1,8,0:0:0:0:
414,206,138928,1,2,0:3:0:0:
414,206,139039,1,0,0:0:0:0:
333,189,139261,1,2,0:0:0:0:
251,180,139483,6,0,P|235:263|269:341,1,150,0|0,3:0|0:0,0:0:0:0:
147,198,140372,2,0,P|158:231|153:280,1,75,8|0,0:0|0:0,0:0:0:0:
77,241,140816,1,2,0:0:0:0:
11,191,141039,2,0,P|0:158|5:109,1,75
46,48,141483,2,0,P|129:32|207:66,1,150,0|0,3:0|0:0,0:0:0:0:
246,112,142150,1,8,0:0:0:0:
318,72,142372,5,0,3:0:0:0:
318,72,142594,1,2,0:0:0:0:
390,112,142816,2,0,L|470:105,1,75,0|0,0:0|3:0,0:0:0:0:
317,154,143261,2,0,P|310:234|346:310,1,150,2|0,0:0|0:0,0:0:0:0:
410,332,143928,2,0,P|329:313|254:361,1,150,8|0,0:0|0:0,0:0:0:0:
192,364,144594,5,0,0:0:0:0:
213,283,144816,1,2,0:0:0:0:
271,340,145039,1,0,3:0:0:0:
315,181,145483,5,0,0:0:0:0:
294,262,145705,1,8,0:0:0:0:
236,205,145928,2,0,L|219:130,1,75,0|0,3:0|0:0,0:0:0:0:
253,60,146372,6,0,P|201:44|140:54,1,112.500004291535,2|0,0:0|0:0,0:0:0:0:
76,78,147039,1,0,0:0:0:0:
132,124,147261,1,2,0:0:0:0:
220,240,147705,1,0,0:0:0:0:
256,176,147928,1,2,0:0:0:0:
294,240,148150,2,0,P|346:256|407:246,1,112.500004291535,0|2,0:0|0:0,0:0:0:0:
453,196,148816,1,0,0:0:0:0:
475,265,149039,1,2,0:0:0:0:
492,46,149705,5,0,0:0:0:0:
467,115,149928,2,0,L|349:130,1,112.500004291535,2|0,0:0|0:0,0:0:0:0:
285,108,150594,1,0,0:0:0:0:
214,87,150816,1,2,0:0:0:0:
85,156,151261,1,0,0:0:0:0:
139,107,151483,1,2,0:0:0:0:
154,178,151705,2,0,L|164:298,1,112.500004291535,0|2,0:0|0:0,0:0:0:0:
429,60,166372,5,0,1:0:0:0:
207,50,167039,2,0,L|197:134,1,75,8|0,0:0|0:0,0:0:0:0:
292,36,167483,1,2,0:0:0:0:
345,104,167705,6,0,L|335:199,1,75,4|4,0:0|1:0,0:0:0:0:
434,78,168150,2,0,P|425:146|412:260,1,179.999994506836,2|0,0:0|1:0,0:0:0:0:
501,252,168816,1,8,1:0:0:0:
274,227,169261,1,0,1:0:0:0:
192,266,169483,2,0,L|205:355,1,89.9999972534181,4|0,0:0|0:0,0:0:0:0:
80,277,169928,2,0,L|93:188,1,89.9999972534181,2|0,1:0|0:0,0:0:0:0:
226,159,170372,2,0,P|275:159|317:135,1,89.9999972534181,4|8,0:0|1:0,0:0:0:0:
213,47,170816,2,0,P|161:41|124:60,1,89.9999972534181,2|0,0:0|0:0,0:0:0:0:
55,110,171261,1,2,1:0:0:0:
93,187,171483,5,4,1:0:0:0:
168,138,171705,2,0,P|198:202|234:314,1,179.999994506836,2|0,0:0|1:0,0:0:0:0:
170,371,172372,2,0,P|149:324|138:280,1,89.9999972534181,8|0,1:0|0:0,0:0:0:0:
50,303,172816,1,0,1:0:0:0:
95,225,173039,2,0,L|57:133,1,89.9999972534181,4|0,0:0|0:0,0:0:0:0:
184,140,173483,2,0,L|175:50,1,89.9999972534181,2|0,1:0|0:0,0:0:0:0:
328,140,173928,2,0,L|338:48,1,89.9999972534181,2|8,0:0|1:0,0:0:0:0:
417,225,174372,2,0,L|458:127,1,89.9999972534181,4|0,0:0|0:0,0:0:0:0:
462,303,174816,1,0,0:0:0:0:
400,368,175039,5,4,1:0:0:0:
350,292,175261,2,0,P|261:287|164:313,1,179.999994506836,2|0,0:0|1:0,0:0:0:0:
87,334,175928,2,0,P|73:290|71:244,1,89.9999972534181,8|0,1:0|0:0,0:0:0:0:
158,225,176372,1,2,1:0:0:0:
245,202,176594,2,0,P|248:152|237:107,1,89.9999972534181,4|0,0:0|0:0,0:0:0:0:
134,51,177039,2,0,P|131:97|143:141,1,89.9999972534181,0|0,1:0|0:0,0:0:0:0:
141,312,177483,2,0,P|155:269|157:224,1,89.9999972534181,4|8,0:0|1:0,0:0:0:0:
71,195,177928,5,2,0:0:0:0:
142,139,178150,1,4,0:0:0:0:
231,133,178372,1,2,1:0:0:0:
317,155,178594,2,0,L|301:253,1,89.9999972534181,4|2,1:0|0:0,0:0:0:0:
210,243,179039,5,4,0:0:0:0:
302,243,179261,1,4,1:0:0:0:
256,320,179483,1,8,1:0:0:0:
343,323,179705,5,4,0:0:0:0:
169,323,179928,1,4,1:0:0:0:
256,165,180150,1,4,0:0:0:0:
256,165,180372,2,0,B|271:114|235:80|256:27,2,134.999995880127,2|4|4,0:0|0:0|0:0,0:0:0:0:
174,204,181261,2,0,L|90:240,1,89.9999972534181,8|0,1:0|0:0,0:0:0:0:
338,204,181705,2,0,L|422:240,1,89.9999972534181,2|4,0:0|0:0,0:0:0:0:
256,264,182150,5,4,1:0:0:0:
